#VERSION:0.83;
#TITLE:Electronic Fill;
#SUBTITLE:;
#ARTIST:Windslope;
#TITLETRANSLIT:;
#SUBTITLETRANSLIT:;
#ARTISTTRANSLIT:;
#GENRE:TECHNO POP;
#ORIGIN:;
#TAGS:;
#CREDIT:YonabearCWY;
#BANNER:Electronic Fill.png;
#BACKGROUND:Electronic Fill-bg.png;
#PREVIEWVID:;
#JACKET:Electronic Fill-jacket.png;
#CDIMAGE:;
#DISCIMAGE:;
#LYRICSPATH:;
#CDTITLE:pop'n music.png;
#MUSIC:Electronic Fill.ogg;
#OFFSET:-4.040000;
#SAMPLESTART:11.922541;
#SAMPLELENGTH:15.000000;
#SELECTABLE:YES;
#BPMS:0.000000=120.989998
;
#STOPS:;
#DELAYS:;
#WARPS:;
#TIMESIGNATURES:0.000000=4=4
;
#TICKCOUNTS:0.000000=4
;
#COMBOS:0.000000=1
;
#SPEEDS:0.000000=1.000000=0.000000=0
;
#SCROLLS:0.000000=1.000000
;
#FAKES:;
#LABELS:0.000000=Song Start
;
#BGCHANGES:0.000=amoeba3.mp4=1.000=1=0=1===CrossFade==,
8.000=tv1.mp4=1.000=0=0=1=====,
12.000=tv1r.mp4=1.000=0=0=1=====,
16.000=aliens2.mp4=1.000=0=0=1=====,
24.000=blizzard4.mp4=1.000=0=0=1=====,
28.000=bluey2.mp4=1.000=0=0=1=====,
32.000=tv1.mp4=1.000=0=1=1=StretchRewind====,
40.000=rocket1.mp4=1.000=0=0=1=====,
48.000=tv1r.mp4=1.000=0=1=1=StretchRewind====,
56.000=rocket1.mp4=1.000=0=1=1=StretchRewind====,
64.000=laser1.mp4=1.000=0=0=1=====,
68.000=blackhole1.mp4=1.000=0=0=1=====,
72.000=blackhole2.mp4=1.000=0=0=1=====,
76.000=blackhole1.mp4=1.000=0=1=1=StretchRewind====,
80.000=blackhole2.mp4=1.000=0=1=1=StretchRewind====,
84.000=tv1.mp4=0.800=0=1=1=StretchRewind====,
96.000=tv1r.mp4=1.400=0=1=1=StretchRewind====,
100.000=aliens2.mp4=1.000=0=1=1=StretchRewind====,
108.000=jump1.mp4=1.000=0=0=1=====,
116.000=wheel1.mp4=1.000=0=0=1=====,
124.000=rocket1.mp4=1.000=0=1=1=StretchRewind====,
132.000=aliens2.mp4=1.000=0=1=1=StretchRewind====,
140.000=jump1.mp4=1.000=0=1=1=StretchRewind====,
148.000=wheel4.mp4=1.000=0=0=1=====,
156.000=kaliedoscope10.mp4=1.000=0=0=1=====,
164.000=amoeba3.mp4=1.000=0=1=1=StretchRewind====,
172.000=Electronic Fill-bg.png=1.000=0=0=1=====,
99999=-nosongbg-=1.000=0=0=0 // don't automatically add -songbackground-
;
#KEYSOUNDS:;
#ATTACKS:
;

//---------------dance-single - ----------------
#NOTEDATA:;
#CHARTNAME:BASIC;
#CHARTHASH:2693830146;
#STEPSTYPE:dance-single;
#BANNER:;
#DESCRIPTION:;
#CHARTSTYLE:;
#DIFFICULTY:Easy;
#METER:6;
#METERF:6.000000;
#LASTSECONDHINT:89.336304;
#RADARVALUES:0.244047,0.284354,0.308601,0.088172,0.000000,155.000000,127.000000,28.000000,8.000000,0.000000,0.000000,0.000000,0.000000,0.000000,0.244047,0.284354,0.308601,0.088172,0.000000,155.000000,127.000000,28.000000,8.000000,0.000000,0.000000,0.000000,0.000000,0.000000;
#CREDIT:YonabearCWY;
#NOTES:
0000
1000
1000
1000
,
0000
0001
0001
0001
,
0000
0100
0100
0100
,
0000
0010
0010
0010
,
1001
0000
0000
1001
0000
0000
0000
0000
,
0100
0100
0100
0000
,
0110
0000
0000
0110
0000
0000
0000
0000
,
0010
0010
0010
0000
,
1000
0100
0010
0100
,
0001
0100
1000
0100
,
0001
0000
0000
0100
0000
0000
1000
0000
,
0001
0000
0000
0010
0000
0000
1000
0000
,
0010
0001
0010
0100
,
1000
0100
0010
0100
,
1100
0000
0000
1010
0000
0000
0000
0000
,
0101
0000
0000
1001
0000
0000
0000
0000
,
0000
0010
0000
0010
0000
0010
0000
0000
,
1000
1100
0001
0101
,
1001
0000
0010
0010
,
0010
0110
1000
1001
,
0110
0000
0100
0100
,
2002
0000
0000
3003
,
0000
0100
0000
0100
,
0220
0000
0000
0330
,
0000
0010
0000
0010
,
0100
0001
0010
0001
,
1000
0010
1000
0100
,
1000
0001
0010
0010
,
0110
0000
0100
0100
,
1001
0000
0010
0010
,
0011
0000
0100
0100
,
1010
0000
0100
0000
,
0001
0000
0010
0000
,
0100
0010
0100
1000
,
0100
0010
0001
0100
,
0001
1000
0010
1000
,
0100
0100
1001
0000
,
0010
0010
0110
0000
,
0100
0100
0011
0000
,
2100
0000
0000
3010
0000
0000
0000
0000
,
0102
0000
0000
0013
0000
0000
0000
0000
,
2010
0000
0000
3001
0000
0000
0000
0000
,
0102
0000
0000
1003
0000
0000
0010
0000
,
1001
0000
0000
0000
;

//---------------dance-single - ----------------
#NOTEDATA:;
#CHARTNAME:DIFFICULT;
#CHARTHASH:2997922162;
#STEPSTYPE:dance-single;
#BANNER:;
#DESCRIPTION:;
#CHARTSTYLE:;
#DIFFICULTY:Medium;
#METER:9;
#METERF:9.000000;
#LASTSECONDHINT:89.336304;
#RADARVALUES:0.374730,0.355442,0.396773,0.231451,0.000000,238.000000,202.000000,36.000000,21.000000,0.000000,0.000000,0.000000,0.000000,0.000000,0.374730,0.355442,0.396773,0.231451,0.000000,238.000000,202.000000,36.000000,21.000000,0.000000,0.000000,0.000000,0.000000,0.000000;
#CREDIT:YonabearCWY;
#NOTES:
0000
1000
0000
0010
0000
1000
0000
0001
,
0000
0100
0000
0001
0000
0010
0000
0100
,
0000
1000
0000
0010
0000
0100
0000
0001
,
0000
0100
0000
0010
0000
1000
0001
0000
,
0120
0000
0000
0130
0000
0010
1000
0000
,
2001
0000
0000
3100
0000
0010
0001
0000
,
0102
0000
0000
1003
0000
0010
0100
0000
,
0010
0000
1000
0000
0100
0010
0100
0000
,
0011
0000
1100
0000
0001
1000
0001
0000
,
0100
0100
0100
0100
0000
0010
1000
0000
,
0101
0000
0000
0202
0000
0000
0303
0000
,
1010
0000
0000
2020
0000
0000
3030
0000
,
1010
0000
0101
0000
0010
0100
0010
0000
,
1000
1000
1000
1000
0000
0100
0010
0000
,
0011
0000
0000
0022
0000
0000
0033
0000
,
1100
0000
0000
2200
0000
0000
3300
0000
,
0000
1000
0000
0001
0000
1000
0000
0010
,
0100
0100
0100
0000
0010
0010
0010
0000
,
1000
0000
0010
0100
0001
0100
0010
0000
,
1000
1000
1000
0000
0001
0001
0001
0000
,
0100
0000
0001
0010
0100
1000
0100
0000
,
0000
1000
0000
1000
0000
1000
0010
1000
,
0000
0001
0000
0001
0000
0001
0100
0001
,
0000
0010
0000
0010
0000
0010
0100
0010
,
0000
0100
0000
0100
0000
0100
0010
0100
,
1100
0100
0101
0001
,
0011
0010
1010
1000
,
1001
0000
0110
0000
2001
0000
0010
3010
,
1000
0000
0001
0100
0001
0000
0010
0000
,
0102
0000
1000
1003
0010
0000
0100
0001
,
0021
0000
0100
0130
0001
0000
0100
1000
,
0010
0000
0100
0010
0001
0000
0010
0100
,
1000
0000
0100
0010
0100
0000
1001
0000
,
0100
0101
0001
0011
,
0010
1010
1000
1100
,
0100
0110
1001
0120
,
1030
0100
0010
0002
0000
0100
0103
0000
,
0001
1000
0010
0200
0000
0001
0301
0000
,
0010
0001
2000
0000
0010
0010
3010
0000
,
1002
0000
0000
0103
0000
0010
0000
1000
,
2100
0000
0000
3001
0000
0100
0001
0000
,
0012
0000
0000
1003
0000
0010
0100
0010
,
0100
0000
0001
0000
1000
0100
0010
0001
,
1001
0000
0000
0000
;

//---------------dance-single - ----------------
#NOTEDATA:;
#CHARTNAME:EXPERT;
#CHARTHASH:811284584;
#STEPSTYPE:dance-single;
#BANNER:;
#DESCRIPTION:;
#CHARTSTYLE:;
#DIFFICULTY:Hard;
#METER:11;
#METERF:11.000000;
#LASTSECONDHINT:89.336304;
#RADARVALUES:0.489668,0.497619,0.143279,0.209408,0.165322,311.000000,298.000000,13.000000,19.000000,0.000000,0.000000,0.000000,0.000000,0.000000,0.489668,0.497619,0.143279,0.209408,0.165322,311.000000,298.000000,13.000000,19.000000,0.000000,0.000000,0.000000,0.000000,0.000000;
#CREDIT:YonabearCWY;
#NOTES:
// measure 0
1000
0010
1000
0001
0100
0001
1000
0010
,  // measure 1
1000
0001
0010
0100
0010
0001
1000
0100
,  // measure 2
0010
0100
1000
0010
0100
0010
0001
0010
,  // measure 3
0100
0000
1000
0000
0100
0000
0010
0000
0100
0000
0001
1000
0001
1000
0001
0000
,  // measure 4
0210
0000
0000
0010
0000
0010
0310
0000
,  // measure 5
1002
0000
0100
0100
0000
0010
0013
0000
,  // measure 6
2100
0000
0000
0001
0000
0001
3001
0000
,  // measure 7
0100
0001
0100
0000
0010
1000
0010
0000
,  // measure 8
0100
0000
0001
0010
0001
0000
1000
0000
0010
0000
0010
0000
0010
0000
0100
0000
,  // measure 9
0001
0010
0100
1000
0000
0010
1000
0000
,  // measure 10
2100
0000
0001
0001
0000
0001
3001
0000
,  // measure 11
0021
0000
0100
0100
0000
0100
0130
0000
,  // measure 12
0010
0000
0001
1000
0001
0000
1000
0000
0100
0000
0100
0000
0100
0000
0010
0000
,  // measure 13
0001
0100
0010
1000
0001
0010
0000
0001
,  // measure 14
0201
0000
0010
0010
0000
0001
0301
0000
,  // measure 15
1002
0000
0100
0100
0000
1000
1003
0000
,  // measure 16
0001
0100
0010
1000
0100
0010
0001
0000
,  // measure 17
1000
0010
0000
0200
0000
0000
0000
0000
0301
1000
0000
0020
0000
0000
0000
0000
,  // measure 18
0130
0000
0000
0001
0000
0010
0001
0000
1000
0000
0010
0000
0100
0000
0001
0000
,  // measure 19
0010
0100
0000
2000
0000
0000
0000
0000
3100
0010
0000
0002
0000
0000
0000
0000
,  // measure 20
0103
0000
0000
0001
0000
1000
0010
0000
0100
0000
0001
0000
0010
0000
0100
0000
,  // measure 21
2000
0000
0010
0000
0000
0000
3010
0100
,  // measure 22
0002
0000
1000
0000
0103
0001
0010
0100
,  // measure 23
0020
0000
0001
0000
1030
0010
0100
0000
,  // measure 24
1000
0100
0001
0000
0100
1000
1001
0000
,  // measure 25
0010
0010
0001
0001
0100
0100
1000
1000
,  // measure 26
0100
0100
0010
0010
0100
0100
0001
0001
,  // measure 27
1000
1000
0010
0010
0001
0001
0010
0000
,  // measure 28
0100
0001
0100
0020
0000
1000
1030
0000
,  // measure 29
0100
0010
0001
2000
0000
0010
3010
0000
,  // measure 30
1000
0000
0010
0000
0100
0000
0000
0000
0001
0000
0010
0100
0010
0000
0000
0000
,  // measure 31
0001
0000
0010
0000
0100
0000
0000
0000
1000
0000
0010
1000
0010
1000
0010
0000
,  // measure 32
0100
0001
0010
0000
0100
0010
0110
0000
,  // measure 33
0001
0001
1000
1000
0001
0001
0100
0100
,  // measure 34
0010
0010
0001
0001
0010
0010
1000
1000
,  // measure 35
0010
0010
0100
0100
0001
0001
0100
0000
,  // measure 36
0010
0000
1000
0000
0100
0000
0010
0001
0010
0000
0100
0000
0010
0000
0000
0000
,  // measure 37
0100
0000
1000
0000
0001
0000
0100
0001
0100
0001
0100
0000
0010
0000
0000
0000
,  // measure 38
1000
0000
0100
0000
0010
0000
0001
1000
0001
0000
0100
0000
0100
0000
0000
0000
,  // measure 39
2001
0000
0000
0000
0010
0000
0010
0000
0000
0000
3100
0000
1000
0001
1000
0000
,  // measure 40
0012
0000
0000
0000
0103
0000
0001
0000
0010
0100
0010
0000
0100
0000
0000
0000
,  // measure 41
1020
0000
0000
0000
0001
0000
0000
0000
0130
0010
0100
0010
0100
0000
0001
0000
,  // measure 42
0010
0000
0100
0000
0100
0000
0000
1000
0001
1000
0001
0000
0100
0010
0100
0000
,  // measure 43
1001
0000
0000
0000
;

//---------------dance-single - ----------------
#NOTEDATA:;
#CHARTNAME:BEGINNER;
#CHARTHASH:2744710414;
#STEPSTYPE:dance-single;
#BANNER:;
#DESCRIPTION:;
#CHARTSTYLE:;
#DIFFICULTY:Beginner;
#METER:2;
#METERF:2.000000;
#LASTSECONDHINT:89.336304;
#RADARVALUES:0.140130,0.189569,0.121236,0.022043,0.000000,89.000000,78.000000,11.000000,2.000000,0.000000,0.000000,0.000000,0.000000,0.000000,0.140130,0.189569,0.121236,0.022043,0.000000,89.000000,78.000000,11.000000,2.000000,0.000000,0.000000,0.000000,0.000000,0.000000;
#CREDIT:YonabearCWY;
#NOTES:
0000
1000
0000
1000
,
1000
0000
0000
0001
,
0001
0000
0000
0010
,
0010
0000
0000
0100
,
1001
0000
0000
0000
,
0010
0010
0010
0000
,
0110
0000
0000
0000
,
0100
0100
0100
0000
,
0010
0000
0000
0000
,
0010
0000
0000
0000
,
0100
0000
0000
0000
,
0100
0000
0000
0000
,
0001
0000
0000
0000
,
0001
0000
0000
0000
,
1000
0000
0000
0000
,
1000
0000
0000
0000
,
0010
0010
0010
0010
,
0010
0000
0010
0000
,
0010
0000
0000
0000
,
0100
0000
0100
0000
,
0100
0000
0000
0000
,
0000
0001
0000
0001
,
0001
1000
0000
1000
,
1000
0001
0000
0010
,
0220
0000
0000
0330
,
0000
1000
0000
1000
,
0000
1000
0000
1000
,
0000
1000
0000
1000
,
1001
0000
0000
0000
,
1001
0000
0000
0000
,
0110
0000
0000
0000
,
0110
0000
0000
0000
,
0001
0001
0001
0000
,
0000
0001
0000
0001
,
0000
0001
0000
0001
,
0000
0001
0000
0001
,
1001
0000
0000
0000
,
1001
0000
0000
0000
,
0110
0000
0000
0000
,
0100
0100
0100
0000
,
0100
0100
0100
0000
,
0010
0010
0010
0000
,
0010
0010
0010
0000
,
1001
0000
0000
0000
;

//---------------dance-double - ----------------
#NOTEDATA:;
#CHARTNAME:BASIC;
#CHARTHASH:1380747234;
#STEPSTYPE:dance-double;
#BANNER:;
#DESCRIPTION:;
#CHARTSTYLE:;
#DIFFICULTY:Easy;
#METER:5;
#METERF:5.000000;
#LASTSECONDHINT:89.336304;
#RADARVALUES:0.223578,0.260658,0.209408,0.308601,0.000000,142.000000,123.000000,19.000000,28.000000,0.000000,0.000000,0.000000,0.000000,0.000000,0.223578,0.260658,0.209408,0.308601,0.000000,142.000000,123.000000,19.000000,28.000000,0.000000,0.000000,0.000000,0.000000,0.000000;
#CREDIT:YonabearCWY;
#NOTES:
00000000
10000000
10000000
10000000
,
00000000
00100000
00010000
00001000
,
00000000
00000010
00000010
00000010
,
00000000
00000001
00000010
00001000
,
00000110
00000000
00000000
00000110
00000000
00000000
00000000
00000000
,
00010000
00010000
00010000
00000000
,
01100000
00000000
00000000
01100000
00000000
00000000
00000000
00000000
,
10000000
10000000
10000000
00000000
,
00100000
01000000
00010000
00001000
,
00010000
00000010
00001000
00000010
,
00000200
00000000
00000000
00000310
00000000
00000000
00000000
00000000
,
00000002
00000000
00000000
00001003
00000000
00000000
00000000
00000000
,
00000100
00000010
00001000
00010000
,
00100000
01000000
00100000
00010000
,
20000000
00000000
00000000
30010000
00000000
00000000
00000000
00000000
,
00200000
00000000
00000000
01300000
00000000
00000000
00000000
00000000
,
00000000
10000000
00000000
10000000
00000000
10000000
00000000
00000000
,
02200000
03300000
00022000
00033000
,
00000010
00000010
00000100
00000100
,
00000022
00000033
00020020
00030030
,
00001000
00001000
00010000
00010000
,
00022000
00000000
00000000
00033000
,
00000000
01000000
00000000
01000000
,
02200000
00000000
00000000
03300000
,
00022000
00000000
00000000
00033000
,
00000100
00001000
00000010
00001000
,
00000010
00000001
00000010
00000100
,
00001000
00010000
00001000
00010000
,
01000000
10000000
00010000
01100000
,
20020000
00000000
30030000
00001000
,
00022000
00000000
00033000
00000100
,
00000220
00000000
00000330
00000000
,
00000001
00000001
00001000
00001000
,
00000010
00010000
00001000
00000100
,
00001000
00100000
00010000
01000000
,
00100000
01000000
10000000
01000000
,
00100000
00010000
00100000
10010000
,
02200000
00000000
03300000
00000000
,
00202000
00000000
00303000
00000000
,
00010000
00010000
00010000
00000000
,
00000100
00000100
00000100
00000000
,
00001000
00001000
00001000
00000000
,
00000001
00000010
00000100
00001000
,
00001001
00000000
00000000
00000000
;

//---------------dance-double - ----------------
#NOTEDATA:;
#CHARTNAME:DIFFICULT;
#CHARTHASH:117268822;
#STEPSTYPE:dance-double;
#BANNER:;
#DESCRIPTION:;
#CHARTSTYLE:;
#DIFFICULTY:Medium;
#METER:9;
#METERF:9.000000;
#LASTSECONDHINT:89.336304;
#RADARVALUES:0.387326,0.379139,0.396773,0.154301,0.000000,246.000000,210.000000,36.000000,14.000000,0.000000,0.000000,0.000000,0.000000,0.000000,0.387326,0.379139,0.396773,0.154301,0.000000,246.000000,210.000000,36.000000,14.000000,0.000000,0.000000,0.000000,0.000000,0.000000;
#CREDIT:YonabearCWY;
#NOTES:
00000000
10000000
00000000
00100000
00000000
00010000
00000000
00100000
,
00000000
01000000
00000000
00001000
00000000
00100000
00001000
00100000
,
00000000
00001000
00000000
00010000
00000000
00000100
00000000
00000010
,
00000000
00000001
00000000
00001000
00000000
00000010
00000100
00000010
,
00000110
00000000
00000000
00002002
00000000
00000000
00003003
00000000
,
00011000
00000000
00001000
00100000
01000000
00000000
10000000
00000000
,
10010000
00000000
00000000
02200000
00000000
00000000
03300000
00000000
,
01000000
00000000
01000000
00000000
00010000
00100000
00001000
00000000
,
00011000
00000000
00010000
00000100
00000010
00000100
00001000
00000000
,
00000010
00000000
00000100
00000000
00000001
00000001
00000001
00000000
,
00001020
00000000
00010000
00010000
00000000
00010000
00010030
00000000
,
00021000
00000000
00000100
00000100
00000000
00000100
00030100
00000000
,
00011000
00000000
00001000
01000000
00100000
00000000
10000000
00000000
,
01000000
00000000
00100000
00010000
10000000
00010000
01000000
00000000
,
02001000
00000000
00010000
00010000
00000000
00010000
03010000
00000000
,
00012000
00000000
00100000
00100000
00000000
00100000
00103000
00000000
,
00000000
00001000
00000000
00010000
00000000
00000100
00000000
00000010
,
00000001
00001000
00000100
00000000
00001000
00000001
00000100
00000000
,
00000110
00000000
00020010
00000000
00001000
00001000
00031000
00000000
,
00100000
00010000
10000000
00000000
00010000
10000000
00100000
00000000
,
01001000
00000000
00102000
00000000
00010000
00010000
00013000
00000000
,
00000000
00010000
00000000
00010000
00000000
00001000
00000000
00001000
,
00010000
00000100
00000000
00000010
00000000
00000001
00000000
00000100
,
00000010
00010000
00000000
00010000
00000000
00001000
00000000
00001000
,
00010000
00100000
01000000
00100000
01000000
00000000
10010000
00000000
,
01100000
01000000
11000000
10000000
,
10100000
00100000
00101000
00001000
,
00011000
01010000
00022000
00033000
,
00000100
00010000
00001000
00000100
00000010
00000000
00000100
00000000
,
00000010
00000001
00000010
00000100
00001000
00000000
00000100
00001000
,
00010000
00000000
00001000
00100000
00001000
00000000
00010000
00001000
,
00010000
00000000
00001000
01000000
00100000
00000000
00010000
00100000
,
01000000
10000000
01100000
00000000
11000000
00000000
01010000
00000000
,
00001000
00011000
00010000
00010100
,
00000100
00000110
00000010
00000011
,
00001010
00011000
00002020
00003030
,
00001000
00010000
00100000
01000000
00100000
00000000
10000000
00000000
,
01000000
00100000
00001000
00100000
00010000
00000000
01000000
00000000
,
00010000
00100000
00001000
00000000
00010000
00010000
00010000
00000000
,
00001100
00000000
00000010
00001000
00000000
00000010
00000100
00000000
,
00000001
00000000
00000010
00000100
00000010
00000000
00000100
00000000
,
00011000
00000000
00100000
00001000
00000000
01000000
00010000
00000000
,
00100000
01000000
10000000
00100000
,
10010000
00000000
00000000
00000000
;

//---------------dance-double - ----------------
#NOTEDATA:;
#CHARTNAME:EXPERT;
#CHARTHASH:2902899502;
#STEPSTYPE:dance-double;
#BANNER:;
#DESCRIPTION:;
#CHARTSTYLE:;
#DIFFICULTY:Hard;
#METER:12;
#METERF:12.000000;
#LASTSECONDHINT:89.336304;
#RADARVALUES:0.505413,0.473923,0.209408,0.099193,0.126747,321.000000,302.000000,19.000000,9.000000,0.000000,0.000000,0.000000,0.000000,0.000000,0.505413,0.473923,0.209408,0.099193,0.126747,321.000000,302.000000,19.000000,9.000000,0.000000,0.000000,0.000000,0.000000,0.000000;
#CREDIT:YonabearCWY;
#NOTES:
10000000
00100000
01000000
00001000
00010000
00100000
01000000
00010000
,
00001000
00000100
00000010
00001000
00000001
00000100
00001000
00000100
,
00000010
00000100
00010000
00001000
00010000
00000100
00001000
00010000
,
00100000
00000000
00001000
00000000
01000000
00000000
00100000
00000000
00010000
00000000
00001000
00010000
00001000
00010000
00001000
00000000
,
00020100
00000000
00001000
00001000
00000000
00000010
00030010
00000000
,
00001000
00000000
00000010
00000100
00000001
00000000
00000110
00000000
,
00012000
00000000
00100000
00100000
00000000
01000000
01003000
00000000
,
00100000
00000000
01000000
00000000
00010000
00000000
00000000
10000000
00100000
00000000
10000000
00000000
00010000
01000000
00010000
00000000
,
00100000
01000000
10000000
01000000
00010000
01000000
10000000
00100000
,
00010000
00001000
00010000
00010000
00001000
00010000
00001000
00000100
,
00000120
00000000
00001000
00001000
00000000
00001000
00001030
00000000
,
00000210
00000000
00000001
00000001
00000000
00000001
00000301
00000000
,
00000100
00000010
00000100
00001000
00000100
00000001
00000100
00001000
,
00010000
00001000
00010000
00001000
00001000
00010000
00001000
00010000
,
01200000
00000000
00010000
00010000
00000000
00010000
00310000
00000000
,
02100000
00000000
10000000
10000000
00000000
10000000
13000000
01000000
,
00000000
00110000
00000000
10000000
00010000
01000000
01001000
00000000
,
00010000
00001000
00000000
00010000
00000000
00000000
00000000
00000000
00000100
00000010
00000000
00000001
00000000
00000000
00000000
00000000
,
00000010
00000000
00000100
00001000
00000000
00001000
00010000
00000000
00100000
00000000
00010000
00000000
00100000
00000000
01000000
00000000
,
10000000
00010000
00000000
00100000
00000000
00000000
00000000
00000000
00001000
00010000
00000000
00001000
00000000
00000000
00000000
00000000
,
00010000
00000000
00000100
00001000
00000100
00000000
00001000
00000000
00000010
00000000
00000001
00001000
00000001
00000000
00000010
00000000
,
00000100
00000002
00001000
00001000
00000000
00000103
00000000
00020000
,
00001000
00000000
00000100
00000000
00001000
00000000
00030010
00001000
,
00010000
00000000
00100000
01000000
20000000
00000000
01000000
31000000
,
10000000
00010000
00110000
00000000
11000000
00000000
01010000
00000000
,
00100000
00100000
01000000
01000000
00010000
00010000
00001000
00001000
,
00100000
00100000
01000000
01000000
00010000
00010000
00001000
00001000
,
00000100
00000000
00000100
00000000
00010000
00000000
00010000
00000000
00000100
00000000
00000100
00000000
00000010
00000001
00000010
00000000
,
00000100
00000000
00000001
00000000
00001000
00000000
00000100
00001000
00000100
00000000
00010000
00000000
00010000
00000000
00000000
00000000
,
00001000
00000000
00010000
00000000
00100000
00000000
01000000
10000000
01000000
00000000
00100000
00000000
00000000
00000000
01000000
00000000
,
00010000
00000000
00100000
00000000
00001000
00000000
00010000
00001000
00010000
00000000
00000010
00000000
00000100
00000000
00001000
00000000
,
00000100
00000001
00000100
00001000
00000001
00000010
00001000
00000010
,
00000100
00000001
00000101
00000000
00001100
00000000
00010100
00000000
,
00010000
00010000
00000010
00000010
00000100
00000100
00001000
00001000
,
00010000
00010000
01000000
01000000
00100000
00100000
00010000
00010000
,
00000100
00000000
00000100
00000000
00010000
00000000
00010000
00000000
00000010
00000000
00000010
00000000
00001000
00000100
00001000
00000000
,
00000100
00000000
00010000
00000000
00001000
00000000
00100000
00010000
00100000
00000000
00001000
00000000
00001000
00000000
00000000
00000000
,
01000000
00000000
00100000
00000000
00010000
00000000
00100000
01000000
00100000
00000000
10000000
00000000
00000000
00000000
01000000
00000000
,
00100000
00010000
00001000
00000000
00000100
00000100
00000110
00000000
,
00001010
00000000
00000010
00010000
00001000
00000000
00010000
00001000
,
00100000
01000000
10000000
01000000
00100000
00000000
01000000
00000000
,
00110000
00000000
00100000
00001000
00010000
00000000
00000100
00010000
,
00000010
00001000
00000100
00000010
,
00001001
00000000
00000000
00000000
;
