#VERSION:0.83;
#TITLE:Eeja Eeja naika;
#SUBTITLE:;
#ARTIST:こっちのけんと;
#TITLETRANSLIT:;
#SUBTITLETRANSLIT:;
#ARTISTTRANSLIT:KOCCHI NO KENTO;
#GENRE:SHIBUYA J-POP;
#ORIGIN:;
#TAGS:;
#CREDIT:YonabearCWY;
#BANNER:Eeja Eeja naika.png;
#BACKGROUND:Eeja Eeja naika-bg.png;
#PREVIEWVID:;
#JACKET:Eeja Eeja naika-jacket.png;
#CDIMAGE:;
#DISCIMAGE:;
#LYRICSPATH:;
#CDTITLE:Once Upon a KATAMARI.png;
#MUSIC:Eeja Eeja naika.ogg;
#OFFSET:-3.780000;
#SAMPLESTART:60.339428;
#SAMPLELENGTH:13.750000;
#SELECTABLE:YES;
#BPMS:0.000000=140.000000
;
#STOPS:;
#DELAYS:;
#WARPS:;
#TIMESIGNATURES:0.000000=4=4
;
#TICKCOUNTS:0.000000=4
;
#COMBOS:0.000000=1
;
#SPEEDS:0.000000=1.000000=0.000000=0
;
#SCROLLS:0.000000=1.000000
;
#FAKES:;
#LABELS:0.000000=Song Start
;
#BGCHANGES:-10.000=Eeja Eeja naika.mp4=1.000=1=0=0=StretchNoLoop==CrossFade==,
210.000=Eeja Eeja naika-bg.png=1.000=0=0=1=====,
99999=-nosongbg-=1.000=0=0=0 // don't automatically add -songbackground-
;
#KEYSOUNDS:;
#ATTACKS:
;

//---------------dance-single - ----------------
#NOTEDATA:;
#CHARTNAME:BASIC;
#CHARTHASH:1196836989;
#STEPSTYPE:dance-single;
#BANNER:;
#DESCRIPTION:;
#CHARTSTYLE:;
#DIFFICULTY:Easy;
#METER:6;
#METERF:6.000000;
#LASTSECONDHINT:92.922859;
#RADARVALUES:0.000000,0.000000,0.000000,0.000000,0.000000,0.000000,0.000000,0.000000,0.000000,0.000000,0.000000,0.000000,0.000000,0.000000,0.000000,0.000000,0.000000,0.000000,0.000000,0.000000,0.000000,0.000000,0.000000,0.000000,0.000000,0.000000,0.000000,0.000000;
#CREDIT:YonabearCWY;
#NOTES:
1000
1000
1000
1000
,
1001
0000
0110
0000
,
0001
0001
0001
0001
,
1001
1001
0110
0000
,
0100
0100
0100
0100
,
0110
0000
1001
0000
,
0010
0010
0010
0010
,
0110
0110
2002
3003
,
0010
0000
0010
0000
,
0100
0001
0100
0001
,
1000
0000
1000
0000
,
0001
1000
0001
1000
,
0010
0000
0100
0001
,
0010
0000
0100
1000
,
0001
0000
0001
0000
,
1000
0010
0100
0001
,
0220
0000
0330
1000
,
0202
0000
0303
0010
,
2200
0000
3300
0000
,
1000
1000
0001
0001
,
0100
0100
0100
0110
,
0010
0010
0010
0110
,
1000
0001
1000
0001
,
0010
0100
1000
0001
,
2002
0000
0000
3003
,
0010
0010
0100
0100
,
0220
0000
0000
0330
,
0001
0001
0010
0010
,
2020
0000
0000
3030
,
1000
1000
0100
0100
,
0202
0000
0000
0303
,
0001
0000
0001
0000
,
1000
0000
1000
0000
,
0010
0010
0010
0010
,
0110
0000
1010
0000
,
0100
0100
0100
0100
,
0110
0110
0101
0000
,
0001
0001
0001
0001
,
0011
0000
0110
0000
,
1000
1000
1000
1000
,
1100
1100
0110
0000
,
0001
0010
0100
1000
,
0101
0000
1010
0000
,
1000
0100
0010
0001
,
1010
1010
0101
0000
,
0010
0100
0001
1000
,
0011
0000
1100
0000
,
0100
0010
1000
0001
,
1100
1100
0011
0000
,
2000
3000
0002
0003
,
1000
1000
0001
2002
,
0000
0000
0000
0000
,
3003
0000
0000
0000
;

//---------------dance-single - ----------------
#NOTEDATA:;
#CHARTNAME:DIFFICULT;
#CHARTHASH:471934364;
#STEPSTYPE:dance-single;
#BANNER:;
#DESCRIPTION:;
#CHARTSTYLE:;
#DIFFICULTY:Medium;
#METER:9;
#METERF:9.000000;
#LASTSECONDHINT:92.922859;
#RADARVALUES:0.000000,0.000000,0.000000,0.000000,0.000000,0.000000,0.000000,0.000000,0.000000,0.000000,0.000000,0.000000,0.000000,0.000000,0.000000,0.000000,0.000000,0.000000,0.000000,0.000000,0.000000,0.000000,0.000000,0.000000,0.000000,0.000000,0.000000,0.000000;
#CREDIT:YonabearCWY;
#NOTES:
1000
0010
1000
0010
1000
0010
1000
0000
,
0110
0000
0001
0100
0010
0000
1100
0000
,
0001
0100
0001
0100
0001
0100
0001
0000
,
0100
0000
0010
0000
0100
0100
0100
0000
,
0001
1000
0001
1000
0001
1000
0001
0000
,
0110
0000
1000
0010
0100
0000
0011
0000
,
0100
0010
0100
0010
0100
0010
0100
0000
,
1000
0000
0100
0000
0010
0010
0010
0000
,
1001
0000
0010
0000
0100
1000
0001
0000
,
0100
0000
0010
0000
0100
0001
0010
0000
,
0110
1000
0001
0010
,
0100
1000
0100
0010
0001
0001
0001
0000
,
1001
0000
0100
0000
0010
1000
0100
0000
,
0010
0000
0001
0000
0100
0001
0010
0000
,
1100
0010
0100
0001
,
0010
0100
1000
0001
0100
0100
0100
0000
,
0022
0000
0033
0000
1000
0010
1000
0000
,
0100
0000
0100
0000
1000
0001
1000
0000
,
2200
3300
0100
0010
,
0001
0010
1000
0010
0001
0100
0010
0000
,
0202
0000
0303
0000
0001
0010
0001
0000
,
0010
0000
0010
0000
0001
1000
0001
0000
,
0220
0330
0010
1000
,
0100
1000
0100
0001
0100
1000
0010
0000
,
2002
0000
0000
3003
,
0100
0010
0001
0100
,
2020
0000
0000
3030
,
0100
0010
0100
0010
,
0202
0000
0000
0303
,
0010
1000
0001
0010
,
0220
0000
0000
0330
,
0100
0100
0010
0010
,
0100
1000
0100
0000
0010
0001
0010
0000
,
0100
0001
0100
0001
0100
0001
0010
0000
,
1001
0000
0100
1000
0010
0000
0101
0000
,
0010
1000
0010
1000
0010
1000
0001
0000
,
1000
0000
0010
0000
0100
0100
0100
0000
,
0001
0010
0001
0010
0001
0010
0100
0000
,
1010
0000
0100
0010
0001
0000
0110
0000
,
0001
1000
0001
1000
0001
1000
0010
0000
,
0100
0000
0001
0000
0010
0010
0010
0000
,
1100
0000
0110
0000
0011
0000
0001
1000
,
0001
0100
0100
0010
,
1010
0000
0110
0000
0101
0000
0001
0010
,
0001
0000
0010
0000
0100
0100
0100
0000
,
0011
0000
0110
0000
1100
0000
1000
0001
,
1000
0010
0010
0100
,
0101
0000
0110
0000
1010
0000
1000
0100
,
1000
0000
0010
0000
0100
0100
0100
0000
,
0022
0033
2200
3300
,
0010
0100
0010
2002
,
0000
0000
0000
0000
,
3003
0000
0000
0000
;

//---------------dance-single - ----------------
#NOTEDATA:;
#CHARTNAME:EXPERT;
#CHARTHASH:3778818661;
#STEPSTYPE:dance-single;
#BANNER:;
#DESCRIPTION:;
#CHARTSTYLE:;
#DIFFICULTY:Hard;
#METER:11;
#METERF:11.000000;
#LASTSECONDHINT:92.922859;
#RADARVALUES:0.000000,0.000000,0.000000,0.000000,0.000000,0.000000,0.000000,0.000000,0.000000,0.000000,0.000000,0.000000,0.000000,0.000000,0.000000,0.000000,0.000000,0.000000,0.000000,0.000000,0.000000,0.000000,0.000000,0.000000,0.000000,0.000000,0.000000,0.000000;
#CREDIT:YonabearCWY;
#NOTES:
1000
0010
0000
0000
1000
0010
0000
0000
1000
0010
0000
0010
0100
0000
0001
0000
,
1000
0000
0010
1000
0100
0100
0100
0000
,
0010
0001
0000
0000
0010
0001
0000
0000
0010
0001
0000
0001
1000
0000
1000
0000
,
0001
0001
0100
0100
0010
1000
0001
0000
,
1000
0100
0000
0000
1000
0100
0000
0000
1000
0100
0000
0100
0010
0000
0001
0000
,
0100
0000
0010
1000
0001
0001
0001
0000
,
0100
0001
0000
0000
0100
0001
0000
0000
0100
0001
0000
0001
0010
0000
0010
0000
,
0100
0100
1000
1000
0100
0010
1001
0000
,
0010
0001
0100
0001
0010
0001
1000
0000
,
0010
0000
0100
1000
0100
0000
0010
0000
0100
0000
0001
0000
0100
0000
0000
0000
,
0001
0010
0100
1000
0001
0001
0001
1000
,
0010
0000
0000
1000
0100
0000
0000
0010
0001
0000
0100
0000
0010
0000
0000
0000
,
1000
0100
1000
0010
1000
0001
0010
0000
,
0100
0000
1000
0010
1000
0010
1000
0000
0010
0000
0100
0000
0001
0000
0000
0000
,
0010
0001
1000
0001
0100
0100
0100
0010
,
1000
0100
0001
0100
1000
0001
0100
0000
,
0120
0000
1030
0000
0010
0100
0001
0000
,
0210
0000
0000
0000
0301
1000
0001
0000
1000
0000
0100
0000
0010
0000
0000
0000
,
0021
0000
1000
0000
0001
0000
0130
0010
,
0001
1000
1000
1000
0010
0100
0001
0000
,
1200
0000
0301
0000
0100
1000
0010
0000
,
0201
0000
0000
0000
0310
0100
0000
0100
0001
0000
1000
0000
0010
0000
0000
0000
,
1020
0000
0031
0000
0010
0100
1000
0100
,
0010
0100
0001
1000
0001
0100
0100
0000
,
1001
0000
0100
0010
0000
0010
0001
0000
0001
2000
0000
0000
,
3010
0100
1000
0100
0010
1000
0001
0100
,
0001
0000
0001
1000
0000
1000
0010
0000
0010
0200
0000
0000
,
0301
0000
0000
0000
1000
0000
0010
0000
0000
0000
0010
0000
1000
0000
0000
0001
0000
0000
0001
0000
0000
0000
0000
0000
,
0110
0000
1000
0100
0000
0100
0010
0000
0010
0002
0000
0000
,
0103
0000
0000
0000
0001
0000
1000
0000
0000
0000
1000
0000
0001
0000
0000
0010
0000
0000
0020
0000
0000
0000
0000
0000
,
0130
0000
0000
0000
1000
0000
0010
0000
0000
0000
0010
0000
0100
0000
0000
0000
0100
0000
0001
0000
0000
0010
0000
0000
,
0100
1000
0002
0000
0103
0010
1000
0100
,
0010
0010
0010
0000
0100
0100
0100
0000
,
1000
0001
0000
0000
1000
0001
0000
0000
1000
0001
0000
0001
0010
0000
0100
0000
,
1000
0000
0001
0010
0100
0100
0100
0000
,
0010
0100
0000
0000
0010
0100
0000
0000
0010
0100
0000
0100
1000
0000
1000
0000
,
0001
0001
0100
0100
0010
1000
0100
0000
,
0010
0001
0000
0000
0010
0001
0000
0000
0010
0001
0000
0001
1000
0000
0010
0000
,
0100
0000
0010
0100
1000
1000
1000
0000
,
0100
0001
0000
0000
0100
0001
0000
0000
0100
0001
0000
0001
0010
0000
0010
0000
,
0001
0001
1000
1000
0001
1000
0110
0000
,
0001
0010
1100
0100
0010
0001
1000
0100
,
0101
0000
0001
1000
0010
0010
0010
0000
,
0100
0010
1010
1000
0001
0010
0110
0100
,
1000
1000
0001
0001
0100
0100
0100
0000
,
0010
1000
0100
0001
0100
1000
0001
0010
,
1000
0000
0000
0010
0001
0000
0100
0000
0010
0000
0010
0000
0010
0000
0000
0000
,
0100
0001
0010
1000
0010
0001
0100
0010
,
1000
1000
0100
0100
0010
0001
1001
0000
,
0010
1000
2100
0000
3001
0100
0102
0000
,
1003
0010
0100
0001
0010
0010
2002
0000
,
0000
0000
0000
0000
,
3003
0000
0000
0000
;

//---------------dance-single - ----------------
#NOTEDATA:;
#CHARTNAME:BEGINNER;
#CHARTHASH:3563600537;
#STEPSTYPE:dance-single;
#BANNER:;
#DESCRIPTION:;
#CHARTSTYLE:;
#DIFFICULTY:Beginner;
#METER:3;
#METERF:3.000000;
#LASTSECONDHINT:92.922859;
#RADARVALUES:0.000000,0.000000,0.000000,0.000000,0.000000,0.000000,0.000000,0.000000,0.000000,0.000000,0.000000,0.000000,0.000000,0.000000,0.000000,0.000000,0.000000,0.000000,0.000000,0.000000,0.000000,0.000000,0.000000,0.000000,0.000000,0.000000,0.000000,0.000000;
#CREDIT:YonabearCWY;
#NOTES:
1000
1000
1000
0000
,
1000
0000
1000
0000
,
0001
0001
0001
0000
,
0001
0000
0001
0000
,
1000
1000
1000
0000
,
1000
0000
1000
0000
,
0001
0001
0001
0000
,
0001
0000
0001
0000
,
1000
0000
0000
0000
,
1000
0000
0000
0000
,
1000
0000
0000
0000
,
1000
0000
0000
0000
,
0001
0000
0000
0000
,
0001
0000
0000
0000
,
0001
0000
0000
0000
,
0001
0000
0000
0000
,
0100
0000
0000
0000
,
0100
0000
0000
0000
,
0100
0000
0100
0000
,
0100
0000
0100
0000
,
0010
0000
0000
0000
,
0010
0000
0000
0000
,
0010
0000
0010
0000
,
0010
0000
0010
0000
,
2002
0000
0000
3003
,
0000
0000
0100
0100
,
0220
0000
0000
0330
,
0000
0000
0010
0010
,
2002
0000
0000
3003
,
0000
0000
1000
1000
,
0220
0000
0000
0330
,
0001
0010
0100
1000
,
0001
0000
0000
0000
,
1000
1000
1000
0000
,
1000
0000
0000
0000
,
0001
0001
0001
0000
,
0001
0000
0000
0000
,
0010
0010
0010
0000
,
0010
0000
0000
0000
,
0100
0100
0100
0000
,
0100
0000
0000
0000
,
0000
1000
1000
0000
,
0000
0001
0001
0000
,
0000
0100
0100
0000
,
0000
0010
0010
0000
,
0000
0010
0010
0000
,
0000
0100
0100
0000
,
0000
0001
0001
0000
,
0000
1000
1000
0000
,
0001
0000
1000
0000
,
0001
1000
0001
2002
,
0000
0000
0000
0000
,
3003
0000
0000
0000
;

//---------------dance-double - ----------------
#NOTEDATA:;
#CHARTNAME:DIFFICULT;
#CHARTHASH:74657242;
#STEPSTYPE:dance-double;
#BANNER:;
#DESCRIPTION:;
#CHARTSTYLE:;
#DIFFICULTY:Medium;
#METER:8;
#METERF:8.000000;
#LASTSECONDHINT:92.922859;
#RADARVALUES:0.000000,0.000000,0.000000,0.000000,0.000000,0.000000,0.000000,0.000000,0.000000,0.000000,0.000000,0.000000,0.000000,0.000000,0.000000,0.000000,0.000000,0.000000,0.000000,0.000000,0.000000,0.000000,0.000000,0.000000,0.000000,0.000000,0.000000,0.000000;
#CREDIT:YonabearCWY;
#NOTES:
10000000
00000000
10000000
00000000
10000000
00100000
10000000
00000000
,
01010000
00000000
00011000
00000000
,
00000100
00000000
00000100
00000000
00000100
00001000
00000100
00000000
,
00001001
00000000
00001001
00000000
00000010
00000010
00000010
00000000
,
00000100
00000000
00000100
00000000
00000100
00010000
00000100
00000000
,
00011000
00000000
01100000
00000000
,
00010000
00000000
00010000
00000000
00010000
10000000
00010000
00000000
,
01100000
00000000
01100000
00000000
10000000
00010000
00100000
00000000
,
00101000
00010000
00001000
00010000
,
00000100
00000000
00001000
00000000
00000010
00001000
00000010
00000000
,
00000100
00000001
00000010
00000100
,
00010000
00001000
00010000
00000000
00001000
00001000
00001000
00000000
,
01001000
00010000
00100000
00010000
,
10000000
00000000
01000000
00000000
00100000
00001000
00100000
00000000
,
00001000
00010000
00000100
00000010
,
00000001
00001000
00000010
00000000
00000100
00000100
00000100
00000000
,
00000000
00000100
00010000
00000100
00010000
00001000
00100000
00000000
,
00000000
00100000
00010000
10000000
00010000
10000000
01000000
00000000
,
00100000
00001000
00010000
00000100
,
00000010
00000001
00000010
00000000
00000100
00000100
00000100
00000000
,
00000000
00001000
00000010
00001000
00000010
00010000
00000100
00000000
,
00000000
00010000
00001000
00010000
00100000
01000000
00100000
00000000
,
10000000
00100000
01000000
00010000
,
00100000
00000000
00001000
00000000
00010000
00000100
00000010
00000000
,
00000220
00000000
00000000
00000330
,
00000010
00010000
00001000
00010000
,
02200000
00000000
00000000
03300000
,
10000000
01000000
00100000
00001000
,
00022000
00000000
00000000
00033000
,
00000100
00010000
00000010
00000000
00001000
00000000
00000010
00000000
,
00002002
00000000
00000000
00003003
,
00000010
00000100
00001000
00010000
,
00022000
00000000
00000000
00033000
,
00100000
00000000
00100000
00000000
00100000
00010000
10000000
00010000
,
10000000
00000000
01000000
00000000
00100000
00001000
00010000
00000000
,
00001000
00000000
00001000
00000000
00001000
00010000
00001000
00010000
,
00000100
00000000
00001000
00000000
00000010
00000010
00000010
00000000
,
00000100
00000000
00000100
00000000
00000100
00000001
00000010
00000001
,
00001000
00000000
00000010
00000000
00010000
00000100
00001000
00000000
,
00000100
00000000
00000100
00000000
00000100
00010000
00001000
00010000
,
00001000
00000000
00100000
00000000
00010000
00010000
00010000
00000000
,
00000000
00000000
10100000
00000000
10100000
00000000
00100000
01000000
,
00001000
00000000
00100000
00000000
00001000
00010000
00001000
00000000
,
00010000
00000000
00010010
00000000
00010010
00000000
00000010
00001000
,
00000100
00000000
00000010
00000000
00000001
00000001
00000001
00000000
,
00000010
00000000
00010100
00000000
00010100
00000000
00001000
00000100
,
00010000
00000000
00001000
00000000
00100000
00100000
00100000
00000000
,
00010000
00000000
01010000
00000000
01010000
00000000
00010000
10000000
,
00100000
00000000
01000000
00000000
00100000
00100000
00100000
00000000
,
22000000
33000000
00220000
00330000
,
00011000
00000100
00000010
00002002
,
00000000
00000000
00000000
00000000
,
00003003
00000000
00000000
00000000
;

//---------------dance-double - ----------------
#NOTEDATA:;
#CHARTNAME:EXPERT;
#CHARTHASH:4113160868;
#STEPSTYPE:dance-double;
#BANNER:;
#DESCRIPTION:;
#CHARTSTYLE:;
#DIFFICULTY:Hard;
#METER:10;
#METERF:10.000000;
#LASTSECONDHINT:92.922859;
#RADARVALUES:0.000000,0.000000,0.000000,0.000000,0.000000,0.000000,0.000000,0.000000,0.000000,0.000000,0.000000,0.000000,0.000000,0.000000,0.000000,0.000000,0.000000,0.000000,0.000000,0.000000,0.000000,0.000000,0.000000,0.000000,0.000000,0.000000,0.000000,0.000000;
#CREDIT:YonabearCWY;
#NOTES:
00100000
00010000
00100000
00010000
00100000
00010000
01000000
00100000
,
10000000
00000000
00000000
01000000
00100000
00000000
00001000
00000000
00010000
00000000
00000100
00000000
00000010
00000000
00000000
00000000
,
00000001
00000000
00000100
00000000
00000001
00000000
00000100
00000000
00000001
00000000
00000100
00000000
00000010
00000000
00001000
00000100
,
00001000
00000010
00000010
00010000
00010000
00001000
00100000
00000000
,
01000000
00100000
01000000
00100000
01000000
00100000
01000000
10000000
,
00010000
00000000
00000000
00100000
00001000
00000000
00010000
00000000
00000100
00000000
00000010
00000000
00000100
00000000
00000000
00000000
,
00001000
00000000
00000001
00000000
00001000
00000000
00000001
00000000
00001000
00000000
00000001
00000000
00001000
00000000
00000010
00000100
,
00000010
00001000
00001000
00000100
00000100
00001000
00010000
00000000
,
01100000
00000000
10000000
00000000
01000000
00100000
00010000
00000000
,
00100000
00000000
00001000
00000000
00010000
00000100
00000010
00000000
,
00000101
00000000
00000010
00000000
00001000
00000000
00000010
00000100
,
00000010
00000100
00001000
00010000
01000000
00100000
00100000
00000000
,
10010000
00000000
00100000
00000000
01000000
10000000
00010000
00000000
,
01000000
00000000
00001000
00000000
00010000
00000100
00001000
00000000
,
00000010
00000100
00000001
00001000
00000100
00000010
00000100
00001000
,
00000010
00001000
00000100
00010000
00001000
00010000
00010000
00000000
,
00000000
00000000
01000000
00000000
10000000
00000000
00010000
00000000
10000000
01000000
10000000
00000000
00100000
00000000
00000000
00000000
,
00000000
00000000
01000000
00010000
01000000
00000000
00010000
00000000
00100000
00000000
00001000
00000000
00010000
00000000
00010000
00000000
,
00000000
00000100
00001000
00000100
00000010
00000001
00001000
00000010
,
00000100
00001000
00010000
00100000
00010000
00001000
01000000
00010000
,
00000000
00100000
00010000
10000000
00100000
10000000
01000000
01000000
,
00000000
00000000
00100000
00000000
00001000
00010000
00000000
00010000
00001000
00000000
00010000
00000000
00000010
00000000
00000100
00000000
,
00000000
00001000
00000100
00000010
00001000
00000010
00000100
00000010
,
00010000
00001000
00000100
00001000
00010000
00001000
00001000
00000000
,
01200000
10000000
00010000
10300000
,
00100000
00000000
01000000
00010000
00000000
00010000
00100000
00000000
00100000
00001000
00000000
00000000
,
00021000
00000100
00001000
00100000
,
00031000
00010000
00001000
00010000
00000000
00010000
00001000
00000000
00000000
00010000
00000000
00000000
,
00000210
00001000
00000001
00001300
,
00000100
00001000
00000001
00001000
00000000
00001000
00000010
00000000
00000010
00000100
00000000
00000000
,
00012000
00100000
00010000
00000100
,
00013000
00001000
00010000
00001000
00100000
00001000
00010000
00100000
,
01000000
01000000
01000000
00000000
00100000
00100000
00100000
00000000
,
10000000
00100000
10000000
00010000
01000000
00010000
00100000
00001000
,
00011000
00000000
00010100
00000000
00000010
00000010
00000010
00000000
,
00000100
00000001
00000100
00000010
00001000
00000010
00000100
00001000
,
00010000
00001000
00000000
00000000
00010000
00001000
00000000
00000000
00101000
00000000
00101000
00000000
00101000
00000000
00000000
00000000
,
01000000
00010000
00100000
01000000
10000000
01000000
00100000
00001000
,
00011000
00000000
00010010
00000000
00000100
00000100
00000100
00000000
,
00000010
00001000
00000100
00000010
00000001
00000100
00000010
00000100
,
00001000
00010000
00000000
00000000
00001000
00010000
00000000
00000000
01010000
00000000
01010000
00000000
01010000
00000000
00000000
00000000
,
00000000
00000000
10010000
00010000
00110000
00000000
01000000
00010000
,
01000000
00000000
00001000
00100000
00001000
00000000
00011000
00000000
,
00010000
00000010
00001010
00000010
00000110
00000000
00000100
00000001
,
00001000
00000010
00000000
00000000
00010000
00001000
00000000
00000000
00100000
00000000
00001000
00000000
00010000
00000000
00000000
00000000
,
00001000
00100000
00110000
00100000
01100000
00000000
10000000
00010000
,
01000000
00000000
00100000
01000000
00001000
00000000
00011000
00000000
,
00010000
00000100
00001100
00001000
00001010
00000000
00000100
00000001
,
00000010
00000100
00000000
00000000
00001000
00010000
00000000
00000000
00100000
00000000
01000000
00000000
10010000
00000000
00000000
00000000
,
00100000
00100000
00100000
00000000
01000000
01000000
01000000
00000000
,
10000000
00100000
00010000
00001000
00000100
00000010
00020200
00000000
,
00000000
00000000
00000000
00000000
,
00030300
00000000
00000000
00000000
;

//---------------dance-double - ----------------
#NOTEDATA:;
#CHARTNAME:BASIC;
#CHARTHASH:3329198355;
#STEPSTYPE:dance-double;
#BANNER:;
#DESCRIPTION:;
#CHARTSTYLE:;
#DIFFICULTY:Easy;
#METER:6;
#METERF:6.000000;
#LASTSECONDHINT:3.780000;
#RADARVALUES:0.284107,0.333597,0.427689,0.171075,0.000000,186.000000,146.000000,40.000000,16.000000,0.000000,0.000000,0.000000,0.000000,0.000000,0.284107,0.333597,0.427689,0.171075,0.000000,186.000000,146.000000,40.000000,16.000000,0.000000,0.000000,0.000000,0.000000,0.000000;
#CREDIT:YonabearCWY;
#NOTES:
// measure 0
00100000
00100000
00100000
00000000
,  // measure 1
01100000
00000000
10010000
00000000
,  // measure 2
00010000
00010000
00010000
00000000
,  // measure 3
00011000
00011000
00010100
00000000
,  // measure 4
00000100
00000100
00000100
00000000
,  // measure 5
00001001
00000000
00000110
00000000
,  // measure 6
00001000
00001000
00001000
00000000
,  // measure 7
00011000
00011000
02002000
03003000
,  // measure 8
00100000
00100000
00100000
00000000
,  // measure 9
01000000
01000000
01000000
00000000
,  // measure 10
00010000
00100000
00001000
00010000
,  // measure 11
00000100
00000010
00000100
00001000
,  // measure 12
00000001
00000001
00000001
00000000
,  // measure 13
00001000
00001000
00001000
00000000
,  // measure 14
00000010
00000100
00001000
00010000
,  // measure 15
00001000
00100000
00010000
10000000
,  // measure 16
00100000
00100000
01100000
00000000
,  // measure 17
01000000
01000000
01100000
00000000
,  // measure 18
00010000
01000000
00001000
00100000
,  // measure 19
00001000
00010000
00000100
00001000
,  // measure 20
00000010
00000010
00000110
00000000
,  // measure 21
00000100
00000100
00000110
00000000
,  // measure 22
00000001
00001000
00000010
00000100
,  // measure 23
00000010
00001000
00000100
00010000
,  // measure 24
00022000
00000000
00000000
00033000
,  // measure 25
00100000
00000000
00100000
00000000
,  // measure 26
02200000
00000000
00000000
03300000
,  // measure 27
00010000
00000000
00010000
00000000
,  // measure 28
00022000
00000000
00000000
00033000
,  // measure 29
00000100
00000000
00000100
00000000
,  // measure 30
00000220
00000000
00000000
00000330
,  // measure 31
00000001
00001000
00000010
00000100
,  // measure 32
00022000
00000000
00000000
00033000
,  // measure 33
00100000
00100000
00100000
00100000
,  // measure 34
01100000
00000000
10010000
00000000
,  // measure 35
00010000
00010000
00010000
00010000
,  // measure 36
00011000
00011000
00010010
00000000
,  // measure 37
00000100
00000100
00000100
00000100
,  // measure 38
00000110
00000000
00001001
00000000
,  // measure 39
00001000
00001000
00001000
00001000
,  // measure 40
00011000
00011000
01001000
00000000
,  // measure 41
00000000
01000000
01000000
00000000
,  // measure 42
10100000
00000000
01010000
00000000
,  // measure 43
00001000
00001000
00001000
00000000
,  // measure 44
00011000
00011000
00001100
00000000
,  // measure 45
00000010
00000010
00000010
00000000
,  // measure 46
00000011
00000000
00001100
00000000
,  // measure 47
00010000
00010000
00010000
00000000
,  // measure 48
00011000
00011000
01010000
00000000
,  // measure 49
00200000
00300000
02000000
03000000
,  // measure 50
00010000
10000000
01000000
00202000
,  // measure 51
00000000
00000000
00000000
00000000
,  // measure 52
00303000
00000000
00000000
00000000
;
