#TITLE:DECK THE HALLS;
#SUBTITLE:;
#ARTIST:SPEED ALL STARS;
#TITLETRANSLIT:;
#SUBTITLETRANSLIT:;
#ARTISTTRANSLIT:;
#GENRE:CHRISTMAS SPEED;
#CREDIT:YonabearCWY;
#BANNER:DECK THE HALLS.png;
#BACKGROUND:DECK THE HALLS-bg.png;
#LYRICSPATH:;
#CDTITLE:Christmas Speed.png;
#MUSIC:DECK THE HALLS.ogg;
#OFFSET:-4.300000;
#SAMPLESTART:15.647602;
#SAMPLELENGTH:15.000000;
#SELECTABLE:YES;
#DISPLAYBPM:169.000000;
#BPMS:0.000000=169.020004
,159.000000=84.510002
,161.000000=169.020004
,177.000000=84.510002
,180.000000=169.020004
,237.000000=84.510002
,240.000000=169.020004
;
#STOPS:126.500000=0.360000,
161.000000=1.065000,
168.000000=0.350000,
180.000000=0.350000,
240.000000=0.350000
;
#BGCHANGES:0.000=heart4.mp4=1.000=1=0=1===CrossFade==,
16.000=star6.mp4=0.800=0=0=1=====,
32.000=heart14.mp4=1.000=0=0=1=====,
40.000=ants1.mp4=1.200=0=0=1=====,
48.000=basket1.mp4=1.400=0=0=1=====,
56.000=heart7.mp4=1.000=0=0=1=====,
64.000=snow6.mp4=1.000=0=0=1=====,
70.000=ddr1br-fast.mp4=2.000=0=0=1=====,
72.000=bricks1.mp4=1.000=0=0=1=====,
74.000=cards1.mp4=1.000=0=0=1=====,
76.000=bricks1.mp4=1.000=0=0=1=====,
77.000=cards1.mp4=1.000=0=0=1=====,
78.000=ddr2r-fast.mp4=2.000=0=0=1=====,
80.000=star8.mp4=1.000=0=0=1=====,
86.000=ddr1br-fast.mp4=2.000=0=1=1=StretchRewind====,
88.000=smoke1.mp4=1.000=0=0=1=====,
92.000=heart8.mp4=1.000=0=1=1=StretchRewind====,
96.000=heart6.mp4=1.600=0=0=1=====,
104.000=heart2.mp4=1.600=0=0=1=====,
106.000=heart6.mp4=1.600=0=0=1=====,
108.000=heart2.mp4=1.600=0=0=1=====,
109.000=heart6.mp4=1.600=0=0=1=====,
110.000=heart2.mp4=1.600=0=0=1=====,
112.000=cards1.mp4=1.000=0=1=1=StretchRewind====,
120.000=bricks1.mp4=1.000=0=0=1=====,
126.500=bricks1.mp4=0.100=0=0=1=====,
127.000=snow1.mp4=1.000=0=0=1=====,
143.000=heart12.mp4=1.400=0=0=1=====,
151.000=snow6.mp4=1.000=0=1=1=StretchRewind====,
153.000=heart12.mp4=1.400=0=0=1=====,
155.000=snow6.mp4=1.000=0=0=1=====,
156.000=heart12.mp4=1.400=0=0=1=====,
157.000=snow6.mp4=1.000=0=0=1=====,
158.000=heart12.mp4=1.400=0=0=1=====,
159.000=smoke1.mp4=1.000=0=1=1=StretchRewind====,
162.000=snow1.mp4=1.000=0=1=1=StretchRewind====,
168.000=snow1.mp4=0.100=0=0=1=====,
169.000=ants1.mp4=1.200=0=1=1=StretchRewind====,
177.000=heart14.mp4=1.000=0=1=1=StretchRewind====,
180.000=heart14.mp4=0.100=0=0=1=====,
181.000=basket1.mp4=1.400=0=1=1=StretchRewind====,
189.000=snow6.mp4=1.000=0=1=1=StretchRewind====,
197.000=star6.mp4=0.800=0=1=1=StretchRewind====,
205.000=star8.mp4=0.900=0=1=1=StretchRewind====,
213.000=snow1.mp4=1.000=0=1=1=StretchRewind====,
221.000=kaliedoscope9.mp4=1.000=0=1=1=StretchRewind====,
223.000=snow1.mp4=1.000=0=0=1=====,
225.000=kaliedoscope9.mp4=1.000=0=0=1=====,
226.000=snow1.mp4=1.000=0=0=1=====,
227.000=kaliedoscope9.mp4=1.000=0=0=1=====,
229.000=bricks1.mp4=1.000=0=1=1=StretchRewind====,
237.000=ants1.mp4=0.700=0=1=1=StretchRewind====,
238.000=ants1a.mp4=0.700=0=0=1=====,
239.000=ddr2r-fast.mp4=0.900=0=1=1=StretchRewind====,
240.000=ddr2r-fast.mp4=0.100=0=0=1=====,
241.000=heart2.mp4=1.400=0=1=1=StretchRewind====,
257.000=heart4.mp4=1.000=0=1=1=StretchRewind====,
272.500=DECK THE HALLS-bg.png=1.000=0=0=1=====,
99999=-nosongbg-=1.000=0=0=0 // don't automatically add -songbackground-
;
#KEYSOUNDS:;
#ATTACKS:;

//---------------dance-single - ----------------
#NOTES:
     dance-single:
     FA LA:
     Beginner:
     5:
     0.000000,0.000000,0.000000,0.000000,0.000000,0.000000,0.000000,0.000000,0.000000,0.000000,0.000000,0.000000,0.000000,0.000000,0.000000,0.000000,0.000000,0.000000,0.000000,0.000000,0.000000,0.000000:
1000
0000
1000
0000
,
0001
0000
0001
0000
,
0010
0000
0010
0000
,
0100
0100
0100
0100
,
0100
0000
0100
0000
,
1000
0000
1000
0000
,
0001
0000
0001
0000
,
0010
0010
0010
0010
,
0010
0000
0100
0010
,
0100
0000
0010
0100
,
0010
0000
0010
0000
,
1000
1000
1001
0000
,
0001
0000
0100
0001
,
0100
0000
0001
0010
,
0001
0000
0001
0000
,
0100
0100
0110
0000
,
0002
0000
0000
0003
,
2000
0000
0000
3000
,
0010
0000
0010
0000
,
0010
0010
0010
0000
,
0200
0000
0000
0300
,
0020
0000
0000
0030
,
1000
0000
1000
0000
,
1000
1000
1000
0000
,
0001
0000
0001
0010
,
0100
0000
0010
0100
,
0001
0000
1000
0000
,
1001
1001
1001
0000
,
0010
0000
1000
0010
,
0100
0000
0001
0010
,
1000
0000
0010
0000
,
0220
0000
0000
0000
0000
0330
0000
0000
,
0001
0001
0000
0000
,
0001
0001
0000
0000
,
0001
0001
0000
1000
,
1000
1000
1000
0000
,
1000
1000
0000
0000
,
1000
1000
0000
0000
,
1000
1000
0000
0000
,
0001
0001
0002
0000
,
0000
0000
0000
0000
0000
0000
0000
0000
0000
0000
0000
0000
0000
0000
0000
0000
0000
0000
0000
0000
0000
0000
0000
0000
0000
0000
0000
0000
0000
0000
0000
0000
0000
0000
0000
0000
0000
0000
0000
0000
0000
0000
0000
0000
0000
0000
0000
0000
0000
0003
0000
0000
0000
0000
0000
0000
0000
0000
0000
0000
0000
0000
0000
0000
0000
0000
0000
0000
0000
0000
0000
0000
0000
0000
0000
0000
0000
0000
0000
0000
0000
0000
0000
0000
0000
0000
0000
0000
0000
0000
0000
0000
0000
0000
0000
0000
0100
0000
0000
0000
0000
0000
0000
0000
0000
0000
0000
0000
0000
0000
0000
0000
0000
0000
0000
0000
0000
0000
0000
0000
0000
0000
0000
0000
0000
0000
0000
0000
0000
0000
0000
0000
0000
0000
0000
0000
0000
0000
0000
0000
0000
0000
0000
0000
0010
0000
0000
0000
0000
0000
0000
0000
0000
0000
0000
0000
0000
0000
0000
0000
0000
0000
0000
0000
0000
0000
0000
0000
0000
0000
0000
0000
0000
0000
0000
0000
0000
0000
0000
0000
0000
0000
0000
0000
0000
0000
0000
0000
0000
0000
0000
0000
,
0100
0010
0100
0110
,
1001
0010
0000
0001
,
0000
0010
0000
1000
,
0000
0220
0000
0000
,
0330
0001
0000
0010
,
0000
1000
0000
0100
,
0000
0001
0000
1000
,
0000
0001
0000
0100
,
0000
0010
0010
0010
,
0000
0010
0000
1000
,
0000
0100
0100
0100
,
0000
0100
0000
0010
,
0000
0001
0001
0001
,
0000
1000
1000
1000
,
0000
0010
0000
0010
,
0000
0100
0100
0100
,
0000
0010
0010
0010
,
0000
0010
0000
0010
,
0000
2002
0000
0000
,
3003
1000
0000
1000
,
0000
0001
0000
0001
,
0000
0010
0000
0010
,
0000
0100
0100
0100
,
0100
0100
0000
0100
,
0000
1000
0000
1000
,
0000
0010
0000
0010
,
0000
0100
0100
0100
,
1002
0000
0000
0000
,
0003
0000
0000
0000
;

//---------------dance-single - ----------------
#NOTES:
     dance-single:
     LA LA:
     Easy:
     6:
     0.000000,0.000000,0.000000,0.000000,0.000000,0.000000,0.000000,0.000000,0.000000,0.000000,0.000000,0.000000,0.000000,0.000000,0.000000,0.000000,0.000000,0.000000,0.000000,0.000000,0.000000,0.000000:
1000
0001
1000
0000
,
0010
0100
0010
0000
,
1000
0100
0001
0000
,
0100
0100
0010
0010
,
0100
1000
0100
0000
,
0010
0001
0010
0000
,
0100
0001
0100
1000
,
0100
0010
1000
0001
,
0010
0010
0010
0010
,
0010
0000
0010
0000
,
0100
0100
0100
0100
,
0110
0110
1001
0000
,
0001
0001
0001
0001
,
0001
0000
0001
0000
,
1000
1000
1000
1000
,
1001
1001
0110
0000
,
2020
0000
0000
3030
,
0202
0000
0000
0303
,
0020
0100
0000
0100
,
0000
0100
0000
0130
,
0022
0000
0000
0033
,
2200
0000
0000
3300
,
2000
0001
0000
0001
,
0000
3002
1000
1000
,
1003
0010
0100
0001
,
0100
0010
1000
0100
,
0011
0100
1010
0100
,
1001
1001
0110
0000
,
0001
0010
0001
0100
,
0010
0100
0010
1000
,
0010
0100
0001
0100
,
0010
1000
0000
2002
0000
3003
0010
0000
,
0100
0010
0000
0010
,
0001
0010
0000
0100
,
0001
0100
1000
0100
,
0100
0100
0100
0010
,
0001
0100
0000
0010
,
1000
0100
0000
0010
,
0001
1000
0000
0001
,
0001
0001
2001
0000
,
0000
0000
0000
0000
0000
0000
0000
0000
0000
0000
0000
0000
0000
0000
0000
0000
0000
0000
0000
0000
0000
0000
0000
0000
0000
0000
0000
0000
0000
0000
0000
0000
0000
0000
0000
0000
0000
0000
0000
0000
0000
0000
0000
0000
0000
0000
0000
0000
0000
3000
0000
0000
0000
0000
0000
0000
0000
0000
0000
0000
0000
0000
0000
0000
0000
0000
0000
0000
0000
0000
0000
0000
0000
0000
0000
0000
0000
0000
0000
0000
0000
0000
0000
0000
0000
0000
0000
0000
0000
0000
0000
0000
0000
0000
0000
0000
0010
0000
0000
0000
0000
0000
0000
0000
0000
0000
0000
0000
0000
0000
0000
0000
0000
0000
0000
0000
0000
0000
0000
0000
0000
0000
0000
0000
0000
0000
0000
0000
0000
0000
0000
0000
0000
0000
0000
0000
0000
0000
0000
0000
0000
0000
0000
0000
0010
0000
0000
0000
0000
0000
0000
0000
0000
0000
0000
0000
0000
0000
0000
0000
0000
0000
0000
0000
0000
0000
0000
0000
0000
0000
0000
0000
0000
0000
0000
0000
0000
0000
0000
0000
0000
0000
0000
0000
0000
0000
0000
0000
0000
0000
0000
0000
,
0010
0000
0010
0100
0010
0000
0101
0000
,
1010
0100
0100
0100
,
0000
0010
0010
0010
,
0000
0000
0000
0000
0110
0000
0000
0000
0000
0000
0000
0001
1000
0000
0010
0000
,
0100
0010
0010
0010
,
0100
0010
0010
0010
,
0100
0001
0001
0001
,
1000
0001
0001
0001
,
0100
0010
1000
0010
,
0100
0001
0010
0001
,
0100
0010
0110
0000
,
0110
0100
0110
2002
,
3003
1000
0010
0001
,
1000
0001
0010
1000
,
0100
1000
0010
0001
,
0010
0100
0100
0010
,
0010
1000
0001
0100
,
0010
1000
0100
0010
,
0001
0000
0000
0000
1001
0000
0000
0100
0010
0000
0000
0001
1000
0000
0010
0000
,
0110
0001
0001
0001
,
0100
0001
0001
0001
,
0010
0100
0100
0100
,
1000
1100
1000
0101
,
0001
1000
1000
1000
,
0010
1000
1000
1000
,
0100
0010
0010
0010
,
0001
0110
1010
1001
,
0001
2000
0000
0000
0000
0000
0000
0000
,
3000
0000
0000
0000
;

//---------------dance-single - ----------------
#NOTES:
     dance-single:
     LALALA:
     Medium:
     9:
     0.000000,0.000000,0.000000,0.000000,0.000000,0.000000,0.000000,0.000000,0.000000,0.000000,0.000000,0.000000,0.000000,0.000000,0.000000,0.000000,0.000000,0.000000,0.000000,0.000000,0.000000,0.000000:
1000
0000
0010
0000
0001
0010
0001
0000
,
0010
0000
1000
0000
0100
1000
0100
0000
,
0001
0000
0100
0000
1000
0001
1000
0000
,
0011
0101
1010
1001
,
0010
0000
0100
0000
1000
0100
1000
0000
,
0100
0000
0010
0000
0001
0010
0001
0000
,
0010
1000
0100
0000
0001
0100
0010
0000
,
1100
0011
0110
1001
,
0201
0010
1000
0310
,
0100
0001
0010
0100
,
1000
0001
1000
0001
0001
0000
1000
0001
,
1000
0101
2002
3003
,
1020
0001
1000
0100
,
0031
0100
0010
0001
,
0010
0100
0010
0100
0100
0000
0010
0100
,
0010
1100
0220
0330
,
2020
0000
0000
0000
0000
3030
0000
0002
,
0200
0000
0000
0303
0100
0010
0100
0010
,
0200
0000
0000
0001
0001
0000
0000
0001
,
0001
0000
0001
0000
0301
1000
0001
1000
,
0002
0000
0000
1000
1000
0000
0000
0010
,
0010
0000
0000
0100
0103
0010
1000
0100
,
0020
0000
0000
0100
0100
0000
0000
0001
,
0031
0110
2002
3003
,
0100
0000
0100
0000
0010
1000
0100
0000
,
0010
0000
0010
0000
0001
0100
0010
0000
,
1000
1000
1000
0000
0001
0001
0001
0000
,
0011
0000
1010
0000
0101
0000
0010
1000
,
0002
0100
0010
0100
,
0013
2000
0010
0100
,
3010
1000
0100
1000
0100
0000
0010
0001
,
0010
0001
0000
2002
0000
3003
0100
0000
,
0010
0000
1000
0001
1000
0000
0010
0000
,
0100
0000
0001
1000
0001
0000
1000
0000
,
0100
0000
0010
0100
0010
0000
0110
0000
,
0011
1100
0101
0010
,
0010
0000
0100
0001
0100
0001
0010
0000
,
0010
0000
0100
1000
0100
1000
0001
0000
,
0001
0000
0100
0001
0100
0001
1100
0000
,
0110
1001
0201
0000
,
0000
0000
0000
0000
0000
0000
0000
0000
0000
0000
0000
0000
0000
0000
0000
0000
0000
0000
0000
0000
0000
0000
0000
0000
0000
0000
0000
0000
0000
0000
0000
0000
0000
0000
0000
0000
0000
0000
0000
0000
0000
0000
0000
0000
0000
0000
0000
0000
0000
0300
0000
0000
0000
0000
0000
0000
0000
0000
0000
0000
0000
0000
0000
0000
0000
0000
0000
0000
0000
0000
0000
0000
0000
0000
0000
0000
0000
0000
0000
0000
0000
0000
0000
0000
0000
0000
0000
0000
0000
0000
0000
0000
0000
0000
0000
0000
0010
0000
0000
0000
0000
0000
0000
0000
0000
0000
0000
0000
0000
0000
0000
0000
0000
0000
0000
0000
0000
0000
0000
0000
0000
0000
0000
0000
0000
0000
0000
0000
0000
0000
0000
0000
0000
0000
0000
0000
0000
0000
0000
0000
0000
0000
0000
0000
0100
0000
0000
0000
0000
0000
0000
0000
0000
0000
0000
0000
0000
0000
0000
0000
0000
0000
0000
0000
0000
0000
0000
0000
0000
0000
0000
0000
0000
0000
0000
0000
0000
0000
0000
0000
0000
0000
0000
0000
0000
0000
0000
0000
0000
0000
0000
0000
,
0010
0000
1000
0001
1000
0000
0101
0000
,
0011
0100
0001
1000
,
0100
0000
0001
0000
0100
0000
1000
0001
,
1000
0000
0000
0000
0110
0000
0000
0000
0000
0000
0000
0100
0100
0000
0110
0000
,
1001
0000
0010
0000
1000
0000
0010
1000
,
0010
0000
1000
0000
0001
0000
0100
0001
,
0100
0000
0010
0100
0010
0100
0100
0000
,
1000
0001
1000
0000
0110
0000
0011
0000
,
1010
0000
0001
0000
0100
0000
0001
0010
,
0100
0000
1000
0000
0100
0000
0001
0100
,
1000
0000
0100
0010
0100
0010
0010
0000
,
0001
1000
0001
0000
1100
0000
1010
0000
,
0110
0200
0001
1000
,
0301
0100
0020
0000
0001
0000
1000
0000
,
0130
0010
0100
0100
0100
0000
0010
0010
,
0010
1100
0011
1010
,
0101
0010
0100
0010
,
0001
0010
0100
1000
,
0001
0000
0000
0000
1001
0000
0000
0100
0100
0000
0000
0010
0010
0000
1100
0000
,
0101
0000
0010
0000
0100
0010
0100
0000
,
0010
0000
1000
0000
0001
0100
0001
0000
,
1000
0000
0010
1000
0010
0000
0100
0001
,
0100
0011
0101
1001
,
1010
0000
1000
0100
0010
0100
0010
0000
,
0100
0000
0010
0001
0010
0001
1000
0000
,
0010
0100
0010
0100
1000
0100
0001
0100
,
0010
1100
0101
0011
,
1000
1002
0000
0000
0000
0000
0000
0000
,
0003
0000
0000
0000
;

//---------------dance-single - ----------------
#NOTES:
     dance-single:
     LALA LA LA:
     Hard:
     12:
     0.668330,0.697610,0.450368,0.229779,0.243566,509.000000,460.000000,49.000000,25.000000,0.000000,0.000000,0.668330,0.697610,0.450368,0.229779,0.243566,509.000000,460.000000,49.000000,25.000000,0.000000,0.000000:
// measure 0
1000
0010
0100
0010
1000
0010
0100
0000
,  // measure 1
0001
0100
0010
0100
0001
1000
0001
0000
,  // measure 2
0010
0100
1000
0001
1000
0100
0010
0001
,  // measure 3
0010
0001
0000
0000
0010
0001
0000
0000
1000
0010
0000
0000
1000
0010
0000
0000
,  // measure 4
0100
0001
0010
0100
1000
0001
0010
0000
,  // measure 5
0100
0010
0001
0010
0100
1000
0001
0000
,  // measure 6
0100
0010
0100
1000
0100
0010
1000
0001
,  // measure 7
0010
0100
0000
0000
1000
0100
0000
0000
0001
0100
0000
0000
1000
0001
1000
0001
,  // measure 8
2000
0100
0010
3001
,  // measure 9
0101
1001
1010
0110
,  // measure 10
0001
1000
0001
1000
1000
0000
0100
0001
,  // measure 11
1000
0010
0010
0000
1001
0000
0001
0100
,  // measure 12
0020
0100
0001
1030
,  // measure 13
0011
1100
0110
1001
,  // measure 14
0100
0010
0100
0010
0010
0000
0001
0010
,  // measure 15
0100
0000
1000
0000
1000
0000
0000
0000
0110
0000
0000
0001
0010
0000
0100
0000
,  // measure 16
2010
0000
0000
0010
3010
0100
2000
0000
,  // measure 17
3200
0000
0302
0000
1003
1000
0001
0001
,  // measure 18
0120
0000
0000
1030
1200
0000
0000
0301
,  // measure 19
0101
0000
1010
0000
0010
0010
0100
0100
,  // measure 20
0021
0000
0000
0100
0100
0000
0000
0001
,  // measure 21
0032
0000
2003
0000
3010
0010
0100
1000
,  // measure 22
1002
0000
0000
0010
0010
0000
0000
1003
,  // measure 23
1001
0000
0000
0000
0110
0000
0000
0000
1000
0001
1000
0001
1000
0000
0001
0000
,  // measure 24
0010
0100
1000
0100
0001
0100
1000
0000
,  // measure 25
0010
0100
0010
0001
0010
0100
1000
0000
,  // measure 26
0100
0001
0010
0000
0100
1000
0001
0000
,  // measure 27
0100
0010
0000
0000
1000
0100
0000
0000
0010
0001
0000
0001
1000
0000
0010
0000
,  // measure 28
0100
0001
0010
0001
1000
0010
1000
0100
,  // measure 29
0011
1100
0101
1010
,  // measure 30
0100
0100
0100
0100
0100
0000
0001
1000
,  // measure 31
0001
1001
0000
0220
0000
0330
1000
0100
,  // measure 32
0010
0001
0100
1000
0100
0001
1000
0010
,  // measure 33
0100
0001
0010
1000
0010
0001
0100
0010
,  // measure 34
0100
0000
0000
0000
0100
0000
1000
0000
0100
0000
0000
0000
0100
0001
0000
0000
,  // measure 35
0010
0001
0000
0000
1000
0010
0000
0000
0100
0010
0000
0000
0001
0000
0010
0000
,  // measure 36
0100
1000
0001
1000
0010
0001
1000
0001
,  // measure 37
0010
1000
0001
1000
0010
0001
0010
0100
,  // measure 38
0010
0000
0000
0000
0100
0000
0001
0000
0100
0000
0000
0000
0001
0010
0000
0000
,  // measure 39
0100
1000
0000
0000
0010
0100
0000
0000
0001
1000
0001
1000
0002
0000
0000
0000
,  // measure 40
0000
0000
0000
0000
0000
0000
0000
0000
0000
0000
0000
0000
0000
0000
0000
0000
0000
0000
0000
0000
0000
0000
0000
0000
0000
0000
0000
0000
0000
0000
0000
0000
0000
0000
0000
0000
0000
0000
0000
0000
0000
0000
0000
0000
0000
0000
0000
0000
0000
0003
0000
0000
0000
0000
0000
0000
0000
0000
0000
0000
0000
0000
0000
0000
0000
0000
0000
0000
0000
0000
0000
0000
0000
0000
0000
0000
0000
0000
0000
0000
0000
0000
0000
0000
0000
0000
0000
0000
0000
0000
0000
0000
0000
0000
0000
0000
1000
0000
0000
0000
0000
0000
0000
0000
0000
0000
0000
0000
0000
0000
0000
0000
0000
0000
0000
0000
0000
0000
0000
0000
0010
0000
0000
0000
0000
0000
0000
0000
0000
0000
0000
0000
0000
0000
0000
0000
0000
0000
0000
0000
0000
0000
0000
0000
1000
0000
0000
0000
0000
0000
0000
0000
0000
0000
0000
0000
0000
0000
0000
0000
0000
0000
0000
0000
0000
0000
0000
0000
0010
0000
0000
0000
0000
0000
0000
0000
0000
0000
0000
0000
0000
0000
0000
0000
0000
0000
0000
0000
0000
0000
0000
0000
,  // measure 41
0010
0000
0001
0100
0100
0000
0011
0000
,  // measure 42
1100
0000
0010
0100
0010
0001
0010
0100
,  // measure 43
0001
0000
0100
1000
0100
0010
0100
0001
,  // measure 44
0100
0000
0000
0000
2002
0000
0000
0000
3003
0000
0000
1000
1100
0000
0011
0000
,  // measure 45
1001
0000
0000
0000
0010
0000
1000
0000
0010
0000
0100
0000
0001
0000
0000
0010
,  // measure 46
0000
0000
0001
0000
1000
0000
0100
0000
0010
0000
0000
0000
1100
0000
0000
0001
,  // measure 47
0000
0101
0010
0100
0010
0100
0100
0000
,  // measure 48
1000
0000
0001
0000
0001
0000
1000
0000
1010
0000
0000
0000
0101
0000
0000
0100
,  // measure 49
0010
0000
0100
0000
1000
0000
0001
0000
0010
0000
0001
0000
0100
0000
0000
0010
,  // measure 50
0000
0000
1000
0000
0001
0000
0010
0000
0100
0000
0000
0000
0011
0000
0000
1000
,  // measure 51
0000
1010
0100
0001
0100
0001
0001
0000
,  // measure 52
0010
0000
0100
0000
0100
0000
0010
0000
1100
0000
0000
0000
0110
0000
0001
1000
,  // measure 53
0001
0100
0020
0000
1030
0100
0010
0001
,  // measure 54
0100
0001
0000
0000
2000
0000
0000
0000
3001
0000
0100
0000
0010
0000
0100
0001
,  // measure 55
0200
0000
0310
1000
0001
0000
0100
0001
,  // measure 56
0010
0101
0110
2002
,  // measure 57
3003
0000
0001
0010
1000
0010
0100
0010
,  // measure 58
0001
0100
0010
0100
0001
1000
0100
0010
,  // measure 59
0100
0000
0001
0000
2100
0000
0000
3001
0102
0000
0000
1003
1010
0000
0011
0000
,  // measure 60
0110
0000
0000
0000
0001
0000
0010
0000
0001
0000
1000
0000
0010
1000
0000
0000
,  // measure 61
0100
0000
0010
0000
0001
0000
0010
0000
1000
0000
0010
0000
0001
0000
0100
1000
,  // measure 62
0100
0000
0010
0000
0100
0000
0001
0000
0010
0000
0100
0000
1000
0100
0000
0100
,  // measure 63
0010
0000
0001
0000
0100
0001
0000
0000
1000
0010
0000
0000
0100
0010
0000
0000
,  // measure 64
0001
0100
0000
0000
0010
0000
1000
0000
0010
0000
0100
0000
0010
0001
0000
0000
,  // measure 65
0010
0000
0100
0000
1000
0000
0100
0000
0010
0000
0100
0000
0001
0100
0001
0100
,  // measure 66
0001
0010
1001
1000
0100
0000
0110
0010
,  // measure 67
1000
0000
0000
0000
0001
0100
0000
0000
0010
1000
0000
0000
0100
0010
0000
0000
,  // measure 68
0001
1000
0001
2000
0000
0000
0000
0000
0000
0000
0000
0000
0000
0000
0000
0000
,  // measure 69
3000
0000
0000
0000
;

//---------------dance-double - ----------------
#NOTES:
     dance-double:
     BASIC:
     Easy:
     6:
     0.000000,0.000000,0.000000,0.000000,0.000000,0.000000,0.000000,0.000000,0.000000,0.000000,0.000000,0.000000,0.000000,0.000000,0.000000,0.000000,0.000000,0.000000,0.000000,0.000000,0.000000,0.000000:
10000000
10000000
10000000
00000000
,
00010000
00010000
00010000
00000000
,
01000000
01000000
01000000
00000000
,
00100000
00010000
00100000
01000000
,
00001000
00001000
00001000
00000000
,
00000100
00000100
00000100
00000000
,
00000010
00000010
00000010
00000000
,
00001000
00000001
00000010
00000100
,
00002001
00000100
00000100
00000000
,
00000010
00000010
00003010
00000000
,
00000010
00000100
00000010
00000000
,
00010000
00000010
00010000
00000000
,
00012000
00010000
00010000
00000000
,
00010000
00010000
00013000
00000000
,
00001000
00100000
00001000
00000000
,
01000000
00010000
01000000
00000000
,
02200000
00000000
00000000
03300000
,
02000000
00010000
00020000
03030000
,
00021000
00000000
00000000
00000000
00001000
00000000
00000000
00001000
,
00001000
00001000
00002000
00033000
,
00000220
00000000
00000000
00000330
,
00000002
00001000
00002000
00003003
,
00012000
00000000
00000000
00000000
00010000
00000000
00000000
00010000
,
00010000
00010000
00020000
00033000
,
00001000
01000000
00100000
00000000
,
00010000
00100000
01000000
00000000
,
10000000
00000000
00010000
00000000
,
10010000
10010000
01100000
00000000
,
00010000
00100000
00001000
00000000
,
00010000
00001000
00000100
00000000
,
00000010
00000010
00000010
00000000
,
00000010
00000100
00000000
00002002
00000000
00003003
00010000
00000000
,
00000000
00010000
00000000
00001000
,
00000000
00001000
00000000
00100000
,
00100000
00010000
00010000
10000000
,
01000000
00100000
01000000
00100000
,
00000000
00100000
00000000
00001000
,
00000000
00001000
00000000
00010000
,
00010000
00000100
00000100
00000010
,
00000001
00001000
00000120
00000000
,
00000000
00000030
00001000
00010000
,
00001000
00000000
00010000
00001000
00100000
00000000
01100000
00000000
,
10100000
00010000
00001000
00010000
,
00001000
00000100
00000010
00000200
,
00000300
00000000
00000000
00000000
00001001
00000000
00000000
00000000
00000000
00000000
00000000
00000010
00001000
00000000
00000100
00000000
,
00010000
00100000
00100000
00100000
,
00000000
01000000
01000000
01000000
,
00000000
10000000
00100000
02000000
,
03000000
00010000
00100000
00202000
,
00303000
00010000
00010000
00010000
,
00000000
00000100
00000100
00000100
,
00000000
00001000
00000010
00020000
,
00030000
00000100
00010000
00022000
,
00033000
00200000
00010000
01300000
,
00000000
20000000
01000000
30010000
,
00000000
01010000
00000000
00101000
,
00000000
00011000
00011000
00010010
,
00000000
00000100
00000001
00000100
,
00000010
00001000
00000010
00010000
,
00001000
00000000
00000000
00000000
00011000
00000000
00000000
00001000
00100000
00000000
00000000
00100000
01000000
00000000
10000000
00000000
,
00010000
01000000
01000000
01000000
,
00010000
00100000
00100000
00100000
,
00001000
00010000
00010000
00010000
,
00001000
00000100
00000010
00001000
,
00000001
00000010
00000010
00000010
,
00000100
00010000
00010000
00010000
,
00001000
00100000
00100000
00100000
,
00010000
10000000
01000000
00100000
,
00010000
20000000
00000000
00000000
00000000
00000000
00000000
00000000
,
30000000
00000000
00000000
00000000
;

//---------------dance-double - ----------------
#NOTES:
     dance-double:
     DIFFICULT:
     Medium:
     9:
     0.000000,0.000000,0.000000,0.000000,0.000000,0.000000,0.000000,0.000000,0.000000,0.000000,0.000000,0.000000,0.000000,0.000000,0.000000,0.000000,0.000000,0.000000,0.000000,0.000000,0.000000,0.000000:
10000000
00000000
00010000
01000000
00010000
00000000
00100000
00000000
,
00001000
00000000
00010000
00001000
00010000
00000000
00000100
00000000
,
00010000
00000000
00001000
00000010
00001000
00000000
00000100
00000000
,
00000010
00000010
00000100
00000100
,
00001000
00000000
00000010
00001000
00000010
00000000
00010000
00000000
,
00000100
00000000
00010000
00001000
00010000
00000000
00001000
00000000
,
00100000
00000000
00010000
01000000
00010000
00000000
10000000
00100000
,
10000000
10000000
00010000
00010000
,
02000000
00010000
10000000
00010000
,
13000000
01000000
00100000
00001000
,
00010000
00001000
00010000
00001000
00010000
00000000
00001000
00010000
,
00001000
00010100
00020020
00030030
,
00000020
00000100
00000001
00000100
,
00000031
00000010
00001000
00000100
,
00010000
00001000
00010000
00001000
00010000
00000000
00001000
00010000
,
00001000
00011000
00202000
00303000
,
10020000
00000000
00000000
10030000
00200000
00000000
00000000
01300000
,
00020000
00000000
00130000
00000000
00001000
00010000
00001000
00000100
,
00000020
00000000
00000000
00000100
00000100
00000000
00000000
00000100
,
00000130
00000000
00000010
00000000
00001000
00000010
00000100
00001000
,
00020000
00000000
00000000
00030100
00002000
00000000
00000000
00003100
,
00020000
00000000
00001000
00000000
00031000
00100000
00010000
01000000
,
00200000
00000000
00000000
01000000
01000000
00000000
00000000
00010000
,
00310000
01100000
20020000
30030000
,
01000000
00000000
00010000
00100000
00010000
00000000
10000000
00000000
,
00010000
00000000
00100000
00001000
00100000
00000000
00001000
00000000
,
00010000
00010000
00010000
00000000
00001000
00001000
00001000
00000000
,
00011000
00000000
00010100
00000000
00010010
00000000
00000010
00000100
,
00000001
00000000
00000010
00000100
00001000
00000000
00000100
00000000
,
00010000
00000000
00000100
00010000
00001000
00000000
00010000
00000000
,
00001000
00100000
00010000
01000000
00100000
00000000
00000000
01000000
,
00100000
01000000
00000000
20020000
00000000
30030000
00001000
00000000
,
00010000
00000100
00010000
00000000
00001000
00000000
00000100
00000000
,
00000010
00000001
00000010
00000000
00000100
00000000
00000010
00000000
,
00000100
00000001
00001000
00000000
00000100
00000000
00000010
00000000
,
00000010
00001000
00001000
00000100
,
00010000
00001000
00100000
00000000
00010000
00000000
01000000
00000000
,
00100000
10000000
00010000
00000000
01000000
00000000
00100000
10000000
,
01000000
00000000
00100000
00010000
01000000
00000000
00001000
00000000
,
00001000
00010000
00021000
00000000
,
00000000
00000000
00030000
00000000
00000100
00000010
00000001
00000010
,
00000100
00000000
00001000
00000001
00001000
00000000
00000110
00000000
,
00001001
00000000
00010000
00000000
00100000
01000000
00100000
00000000
,
01000000
00000000
10000000
00000000
01000000
00010000
01000000
00000000
,
00100000
00000000
00000000
00000000
00202000
00000000
00000000
00000000
00303000
00000000
00000000
00010000
00010000
00000000
00001000
00000000
,
00011000
00000000
00000000
00000000
00000010
00000000
00001000
00000000
00000010
00000000
00000000
00000000
00000100
00000000
00000000
00000100
,
00000000
00000000
00000100
00000000
00000001
00000000
00000010
00000000
00000001
00000000
00000000
00000000
00001000
00000000
00000000
00001000
,
00000000
00000010
00010000
00001000
00010000
00001000
00010000
00000000
,
00001000
00100000
00010000
00000000
10010000
00000000
02200000
00000000
,
03300000
00000000
00000000
00000000
10000000
00000000
01000000
00000000
00100000
00000000
00000000
00000000
01000000
00000000
00000000
00100000
,
00000000
00000000
00010000
00000000
00100000
00000000
00010000
00000000
00001000
00000000
00000000
00000000
00000100
00000000
00000000
00010000
,
00000000
00001000
00010000
00001000
00010000
00001000
00010000
00000000
,
00000100
00001000
00000010
00000000
00000110
00000000
00002002
00000000
,
00003003
00000000
00000020
00000000
00000130
00001000
00000010
00000000
,
00000100
00000000
00020000
00000000
00130000
00010000
00001000
00000000
,
00110000
00000000
00010000
00010000
00010000
00000000
10000000
10000000
,
10000000
01100000
01010000
02002000
,
03003000
00010000
00001000
00010000
,
00000100
00000010
00000001
00000000
00000010
00000000
00001000
00000010
,
00000100
00000000
00001000
00000000
00001100
00000000
00000000
00000100
00010000
00000000
00000000
00010000
00001000
00000000
00011000
00000000
,
00101000
00000000
10000000
00100000
10000000
00100000
01000000
00000000
,
00010000
00000000
00100000
00010000
00100000
00010000
00001000
00000000
,
00000010
00000000
00001000
00000100
00001000
00000100
00000010
00000001
,
00000100
00000010
00001010
00000100
,
00010100
00000000
00001000
00010000
00001000
00010000
00100000
01000000
,
10000000
00000000
01000000
00100000
01000000
00100000
00001000
00100000
,
00001000
00000000
00010000
00001000
00010000
00000000
00000100
00010000
,
00000100
00001000
00000010
00000001
,
00000010
00000200
00000000
00000000
00000000
00000000
00000000
00000000
,
00000300
00000000
00000000
00000000
;

//---------------dance-double - ----------------
#NOTES:
     dance-double:
     EXPERT:
     Hard:
     13:
     0.000000,0.000000,0.000000,0.000000,0.000000,0.000000,0.000000,0.000000,0.000000,0.000000,0.000000,0.000000,0.000000,0.000000,0.000000,0.000000,0.000000,0.000000,0.000000,0.000000,0.000000,0.000000:
10000000
01000000
00100000
00001000
00010000
00000100
00000010
00000001
,
00001000
00000010
00000100
00010000
00100000
01000000
00010000
00001000
,
00010000
00000100
00001000
00000010
00000001
00000010
00001000
00000100
,
00010000
00000000
00000000
00001000
00100000
00000000
00000000
00010000
10000000
00000000
00000000
01000000
00100000
00000000
00010000
00000000
,
01000000
00100000
10000000
01000000
00010000
00001000
00010000
00000100
,
00000010
00000100
00001000
00000100
00000010
00000001
00000100
00000010
,
00000100
00001000
00010000
00001000
00100000
00001000
01000000
00100000
,
00010000
00000000
00000000
00100000
01000000
00000000
00000000
01000000
00001000
00000000
00000000
00001000
00010000
00000000
00000100
00000000
,
00000020
00000100
00000001
00001030
,
00000011
00001001
00001010
00010010
,
00010000
00001000
00010000
00001000
00001000
00000000
00010000
00100000
,
00100000
00000000
01100000
00000000
20010000
00000000
30100000
01000000
,
00020000
00100000
10000000
01030000
,
01010000
01100000
01001000
00011000
,
00010000
00001000
00010000
00001000
00001000
00000000
00000100
00001000
,
00001000
00000000
00000000
00000000
00000110
00000000
00000000
00000000
00000101
00000000
00000000
00001000
00000010
00000000
00000100
00000000
,
00002000
00000000
00000000
00000100
00000100
00000000
00023000
00000000
,
02030000
00000000
03200000
00000000
10300000
00010000
01000000
00010000
,
00002000
00000000
00000000
00010000
00010000
00000000
00000000
00013000
,
00011000
00000000
00001100
00000000
00000100
00000010
00000001
00001000
,
00000200
00000000
00000000
00000010
00000010
00000000
00000000
00001000
,
00001300
00000000
00010100
00000000
00001000
00100000
01000000
00100000
,
00002000
00000000
00000000
00010000
00010000
00000000
00000000
00013000
,
00011000
00000000
00000000
00000000
00101000
00000000
00000000
00000000
00100000
01000000
00100000
01000000
00100000
00000000
01000000
00000000
,
10000000
00100000
00010000
00100000
10000000
01000000
00100000
00000000
,
01000000
00010000
00001000
00010000
00100000
00010000
00001000
00000000
,
00010000
00000100
00000010
00000000
00001000
00000100
00000001
00000000
,
00001100
00000000
00000000
00000000
00000101
00000000
00000000
00000000
00000110
00000000
00000000
00001000
00000100
00000000
00010000
00000000
,
00001000
00010000
00100000
01000000
00010000
10000000
00010000
00000000
,
01000000
00010000
00100000
01000000
00100000
00001000
00010000
00001000
,
00010000
00010000
00010000
00010000
00010000
00000000
00001000
00010000
,
00000100
00000100
00000000
00000220
00000000
00000330
00100000
00001000
,
00010000
01000000
00100000
01000000
10000000
00100000
01000000
00100000
,
00010000
00100000
00001000
00100000
01000000
00100000
00010000
00001000
,
00010000
00000000
01000000
00000000
00010000
00000000
00001000
00000000
00000100
00000000
00000001
00000000
00000100
00000010
00000000
00000000
,
00000010
00001000
00000000
00000000
00001000
00000100
00000000
00000000
00000100
00010000
00000000
00010000
00001000
00000000
00000010
00000000
,
00000100
00001000
00000010
00010000
00000100
00010000
00000100
00001000
,
00010000
00001000
00000100
00010000
00001000
00100000
00010000
00001000
,
00010000
00000000
00100000
00000000
00010000
00000000
01000000
00000000
00100000
00000000
10000000
00000000
01000000
00100000
00000000
00000000
,
00100000
00010000
00000000
00000000
00010000
10000000
00000000
00000000
10000000
00010000
00000000
00010000
00200000
00000000
00000000
00000000
,
00000000
00000000
00300000
00000000
00001000
00000010
00000100
00000001
,
00000010
00000100
00001000
00000001
00000001
00000000
00000110
00000000
,
00001100
00000000
00100000
00010000
00100000
01000000
10000000
00100000
,
01000000
00000000
00010000
01000000
00100000
00010000
00100000
00010000
,
00001000
00000000
00000000
00000000
00022000
00000000
00000000
00000000
00033000
00000000
00000000
00001000
00001100
00000000
00000110
00000000
,
00000011
00000000
00000000
00000000
00001000
00000000
00000010
00000000
00000100
00000000
00001000
00000000
00010000
00000000
00000000
00001000
,
00000000
00100000
00010000
01000000
00100000
00000000
10000000
01000000
,
00100000
00000000
00001000
00010000
00001000
00010000
00010000
00000000
,
00001000
00000010
00000010
00000000
00000110
00000000
00001001
00000010
,
00000001
00000100
00000001
00000000
00000010
00000000
00001000
00000000
00010000
00000000
00001000
00000000
00010000
00000000
00000100
00000000
,
00001000
00000000
00000100
00010000
00001000
00000000
00010000
01000000
,
00100000
00000000
00010000
00001000
00010000
00001000
00001000
00000000
,
00010000
00000000
01000000
00000000
01000000
00000000
00000000
00000000
11000000
00000000
00000000
00000000
00110000
00000000
00000000
01000000
,
00100000
01000000
00010000
00100000
01000000
00100000
00010000
00100000
,
00001000
00000000
00010000
00001000
00000100
00010000
00000100
00000010
,
00001000
00000000
00000100
00000010
00000001
00000000
00001000
00000010
,
00010000
00000000
00000000
00000000
00011000
00000000
00000000
00000000
01010000
00000000
00000000
00000000
00110000
00000000
10000000
00010000
,
10000000
00100000
01000000
10000000
01000000
00010000
01000000
00100000
,
00010000
00100000
01000000
00010000
00001000
00000100
00000010
00001000
,
00000010
00000000
00000000
00000000
00001002
00000000
00000000
00000100
00000100
00000000
00000000
00000013
00000110
00000000
00001100
00000000
,
00011000
00000000
00000000
00000000
00100000
00000000
00010000
00000000
10000000
00000000
00100000
00000000
01000000
00100000
00000000
00000000
,
00100000
10000000
00000000
00000000
01000000
00000000
00100000
00000000
00010000
00000000
00100000
00000000
00001000
00010000
00001000
00000000
,
00010000
00000000
00000100
00000000
00000010
00000000
00000100
00000000
00000010
00000000
00000001
00000000
00001000
00000010
00000000
00000000
,
00000010
00000100
00000000
00000000
00000100
00000000
00001000
00000000
00010000
00000000
01000000
00000000
00100000
00000000
00010000
00000000
,
00010000
00000000
00100000
00010000
10000000
00010000
01000000
00010000
,
00100000
00010000
00000000
00000000
00001000
00000000
00010000
00000000
00000100
00000000
00010000
00000000
00001000
00000000
00000100
00000000
,
00000010
00000100
00000000
00000100
00000001
00000000
00000010
00000000
00000100
00000000
00001000
00000000
00000010
00000000
00001000
00000000
,
00000100
00000000
00010000
00000000
00000100
00010000
00000000
00000000
00010000
00001000
00000000
00000000
00001000
00100000
00000000
00000000
,
00100000
01000000
00100000
02000000
00000000
00000000
00000000
00000000
00000000
00000000
00000000
00000000
00000000
00000000
00000000
00000000
,
03000000
00000000
00000000
00000000
;
