#VERSION:0.83;
#TITLE:Chaos Age;
#SUBTITLE:;
#ARTIST:Waldeus von Dövjak;
#TITLETRANSLIT:;
#SUBTITLETRANSLIT:;
#ARTISTTRANSLIT:;
#GENRE:CLASSIC;
#ORIGIN:;
#TAGS:;
#CREDIT:YonabearCWY;
#BANNER:Chaos Age.png;
#BACKGROUND:Chaos Age-bg.png;
#PREVIEWVID:;
#JACKET:Chaos Age-jacket.png;
#CDIMAGE:;
#DISCIMAGE:;
#LYRICSPATH:;
#CDTITLE:pop'n music.png;
#MUSIC:Chaos Age.ogg;
#OFFSET:-3.800000;
#SAMPLESTART:49.136887;
#SAMPLELENGTH:15.000000;
#SELECTABLE:YES;
#BPMS:0.000000=135.000000
,56.000000=67.500000
,59.000000=135.000000
,68.000000=67.500000
,83.000000=135.000000
,132.000000=67.500000
,150.000000=135.000000
,197.500000=67.500000
,198.500000=135.000000
;
#STOPS:83.000000=0.878000
,132.000000=1.370000
,150.000000=0.400000
,198.500000=0.450000
;
#DELAYS:;
#WARPS:;
#TIMESIGNATURES:0.000000=4=4
;
#TICKCOUNTS:0.000000=4
;
#COMBOS:0.000000=1
;
#SPEEDS:0.000000=1.000000=0.000000=0
;
#SCROLLS:0.000000=1.000000
;
#FAKES:;
#LABELS:0.000000=Song Start
;
#BGCHANGES:0.000=bird1.mp4=1.000=1=0=1===CrossFade==,
8.000=ring10.mp4=1.000=0=0=1=====,
16.000=text12.mp4=1.000=0=0=1=====,
24.000=piston1.mp4=1.800=0=0=1=====,
31.000=piston1.mp4=0.001=0=0=1=====,
32.000=conductor1.mp4=1.000=0=0=1=====,
36.000=conductor1r.mp4=1.000=0=0=1=====,
40.000=circle7.mp4=1.400=0=0=1=====,
48.000=circle7r.mp4=1.400=0=0=1=====,
56.000=piano3.mp4=0.600=0=0=1=====,
60.000=piano4.mp4=1.400=0=0=1=====,
68.000=piano3.mp4=0.600=0=1=1=StretchRewind====,
76.500=piano4.mp4=0.600=0=1=1=StretchRewind====,
82.250=piano4.mp4=0.001=0=0=1=====,
84.000=bird1.mp4=1.000=0=1=1=StretchRewind====,
92.000=ring6.mp4=1.000=0=0=1=====,
100.000=ring9.mp4=1.000=0=0=1=====,
104.000=text12.mp4=1.000=0=1=1=StretchRewind====,
108.000=ring10.mp4=1.000=0=1=1=StretchRewind====,
112.000=text14.mp4=1.000=0=0=1=====,
116.000=text14a.mp4=1.000=0=0=1=====,
120.000=circle7.mp4=1.200=0=1=1=StretchRewind====,
125.000=circle7r.mp4=0.800=0=1=1=StretchRewind====,
132.000=circle7r.mp4=0.001=0=0=1=====,
132.500=piano3.mp4=0.600=0=1=1=StretchRewind====,
142.500=piano4.mp4=0.600=0=1=1=StretchRewind====,
150.000=piano4.mp4=1.400=0=0=1=====,
151.000=bird1.mp4=1.000=0=1=1=StretchRewind====,
158.000=piston1.mp4=1.800=0=1=1=StretchRewind====,
166.000=conductor1.mp4=1.000=0=1=1=StretchRewind====,
170.000=conductor1r.mp4=1.000=0=1=1=StretchRewind====,
174.000=text14a.mp4=0.800=0=1=1=StretchRewind====,
182.000=text14a.mp4=1.400=0=0=1=====,
186.000=text14a.mp4=2.000=0=0=1=====,
190.000=conductor1.mp4=1.000=0=1=1=StretchRewind====,
192.000=circle7.mp4=1.400=0=1=1=StretchRewind====,
194.000=conductor1r.mp4=1.000=0=1=1=StretchRewind====,
196.000=circle7r.mp4=1.650=0=1=1=StretchRewind====,
198.500=circle7r.mp4=0.001=0=0=1=====,
199.250=Chaos Age-bg.png=1.000=0=0=1=====,
99999=-nosongbg-=1.000=0=0=0 // don't automatically add -songbackground-
;
#KEYSOUNDS:;
#ATTACKS:
;

//---------------dance-single - ----------------
#NOTEDATA:;
#CHARTNAME:BASIC;
#CHARTHASH:2639608014;
#STEPSTYPE:dance-single;
#BANNER:;
#DESCRIPTION:;
#CHARTSTYLE:;
#DIFFICULTY:Easy;
#METER:5;
#METERF:5.000000;
#LASTSECONDHINT:112.231331;
#RADARVALUES:0.214111,0.306767,0.289238,0.131472,0.000000,171.000000,138.000000,33.000000,15.000000,0.000000,0.000000,0.000000,0.000000,0.000000,0.214111,0.306767,0.289238,0.131472,0.000000,171.000000,138.000000,33.000000,15.000000,0.000000,0.000000,0.000000,0.000000,0.000000;
#CREDIT:YonabearCWY;
#NOTES:
1000
1000
1000
0000
,
1001
1001
1001
0000
,
1000
1000
1000
0000
,
0010
0000
0100
0000
,
0001
0001
0001
0000
,
1001
1001
1001
0000
,
0001
0001
0001
0000
,
0000
0000
0000
1001
,
0010
0010
0010
0000
,
0010
0010
0010
0000
,
0100
0010
0100
0010
,
0100
0000
0100
0000
,
0001
1000
0001
1000
,
0001
0000
0001
0000
,
2001
3010
0100
0002
,
0023
0100
0100
0000
,
2030
0001
3001
0000
,
0220
0000
0000
0330
0000
1000
0000
0001
,
0000
1000
0000
0000
0000
0010
0000
0100
,
0000
0010
0000
0000
0000
1000
0000
0001
,
0000
2000
0000
0000
0000
0000
3000
0000
,
0110
0100
0100
0000
,
0100
0100
0100
0000
,
0110
0010
0010
0000
,
0010
0010
0010
0000
,
1000
1000
1000
1000
,
1001
0000
0110
0000
,
0001
0001
0001
0001
,
1001
0000
0110
0000
,
1100
0000
0011
0000
,
2002
0000
0000
0000
,
3003
0010
0010
0010
,
0220
0000
0000
0000
,
0330
1000
0000
0001
0000
0100
0000
0000
,
0000
0010
0000
1000
0000
0100
0000
0000
,
0000
0010
0000
0001
0000
1000
0000
0000
,
0000
0010
0000
0100
0000
0202
0000
0000
,
0000
0000
0303
1000
,
0000
1000
0000
1000
,
0000
0000
0001
0001
,
0001
0001
0010
0010
,
0010
0010
0100
0100
,
0100
0100
1000
1000
,
1000
1000
0110
0000
,
0110
0000
0110
0000
,
0110
0000
1001
1001
,
0100
0100
1001
1001
,
0010
0010
1001
0000
,
0110
0000
1001
0000
,
0220
0000
0000
0000
0000
0330
0000
0000
,
1001
0000
0000
0000
;

//---------------dance-single - ----------------
#NOTEDATA:;
#CHARTNAME:DIFFICULT;
#CHARTHASH:2619522397;
#STEPSTYPE:dance-single;
#BANNER:;
#DESCRIPTION:;
#CHARTSTYLE:;
#DIFFICULTY:Medium;
#METER:8;
#METERF:8.000000;
#LASTSECONDHINT:112.231331;
#RADARVALUES:0.334314,0.482063,0.219119,0.175296,0.105177,267.000000,242.000000,25.000000,20.000000,0.000000,0.000000,0.000000,0.000000,0.000000,0.334314,0.482063,0.219119,0.175296,0.105177,267.000000,242.000000,25.000000,20.000000,0.000000,0.000000,0.000000,0.000000,0.000000;
#CREDIT:YonabearCWY;
#NOTES:
1000
1000
0000
1000
,
0001
0000
0100
0000
0001
0010
0000
0001
,
0100
0100
0000
0100
,
1001
0000
0100
0010
0100
0000
0010
0000
,
0001
1000
0000
1000
,
0001
0000
0100
0010
0100
0000
0001
0000
,
0010
0001
0000
0001
,
2002
0000
0000
3003
,
0100
0000
0100
0000
0100
0010
1000
0000
,
0001
0000
0001
0000
0001
0010
0100
0000
,
1100
0000
1000
0010
0001
0010
0100
1000
,
0100
0010
0100
0001
0100
0000
0011
0000
,
0001
1000
0100
0001
0100
0010
0001
0010
,
0100
1000
0001
1000
0010
0000
1100
0000
,
0101
0000
0000
1000
0100
0000
0000
0001
0100
0000
0000
1000
0020
0000
0000
0000
,
0230
0001
1000
0001
,
0320
1000
0001
1030
,
0110
0000
1001
0000
0000
0000
1000
0000
0010
0000
0100
0000
0000
0001
0001
0000
,
0000
1000
1000
0000
0000
0010
0010
0000
0100
0000
0001
0000
0000
0000
0010
0000
,
0100
0000
1000
0000
0000
0100
0100
0000
0010
0000
0001
0000
0000
1000
1000
0000
,
0000
0010
0010
0000
0000
0100
0100
0001
0010
0200
0000
0000
0300
0000
0000
0000
,
1001
1000
0000
1000
,
0100
0000
0010
0000
0001
0010
0000
0001
,
0100
0100
0000
0100
,
1010
0000
0101
0000
1000
0001
1000
0000
,
0002
0100
1000
0013
,
1001
0000
0100
0010
0100
0000
0001
0000
,
2000
0001
0100
3010
,
0110
0000
1000
0001
1000
0000
0010
0000
,
0202
0303
2020
3030
,
0220
0000
0000
0000
,
0330
0100
0100
0100
,
0220
0000
0000
0000
,
0330
0000
0001
0000
0100
0000
0010
0000
1000
0100
1000
0000
0000
0001
0010
0000
,
0100
0010
0100
0000
0000
1000
0010
0000
0100
0001
0100
0000
0000
0001
1000
0100
,
0010
0001
0100
0000
0001
0000
0010
0000
0001
0000
1000
0000
0000
0100
0010
0000
,
0001
1000
0001
0000
0000
0010
0100
0000
1000
0100
2000
0000
0000
0000
0000
0000
,
0000
0002
0000
0000
3003
0000
0010
0000
,
0000
0100
0000
0010
,
0000
0000
0100
0000
0010
1000
0010
0000
,
1000
0100
1000
0000
0001
0000
0100
0000
,
0001
0000
0010
0000
0001
0100
0001
0000
,
0010
0001
0010
0000
0001
0000
1000
0000
,
0100
0000
0010
0000
0100
0001
0100
0000
,
0010
1000
0010
0000
0001
0000
0100
0000
,
1000
0000
0100
0000
0001
1000
0001
1000
,
0100
0010
0100
0010
0001
0000
0101
0000
,
1000
0000
1010
0000
0110
0000
0000
0001
,
1001
0000
0000
1000
1010
0000
0000
0100
,
0110
0000
2002
0000
0000
3003
0000
0000
,
1001
0000
0000
0000
;

//---------------dance-single - ----------------
#NOTEDATA:;
#CHARTNAME:EXPERT;
#CHARTHASH:1618057086;
#STEPSTYPE:dance-single;
#BANNER:;
#DESCRIPTION:;
#CHARTSTYLE:;
#DIFFICULTY:Hard;
#METER:13;
#METERF:13.000000;
#LASTSECONDHINT:112.231331;
#RADARVALUES:0.504601,0.635446,0.149001,0.341826,0.482063,403.000000,386.000000,17.000000,39.000000,0.000000,0.000000,0.000000,0.000000,0.000000,0.504601,0.635446,0.149001,0.341826,0.482063,403.000000,386.000000,17.000000,39.000000,0.000000,0.000000,0.000000,0.000000,0.000000;
#CREDIT:YonabearCWY;
#NOTES:
1001
0000
0000
0000
0100
0000
0001
0000
0010
0000
0000
0000
0001
0000
0000
1000
,
0010
0000
0000
0100
0010
0000
0000
0100
0001
0000
0010
0000
0000
0100
1000
0001
,
1001
0000
0100
0010
1000
0000
0010
0100
,
0001
0000
0000
1000
0100
0010
0002
0000
0000
0003
0000
0000
,
0100
0000
0000
0000
0010
0000
1000
0000
0100
0000
0000
1000
0001
0000
0000
0000
,
0011
0000
0100
0001
0010
0100
1000
0000
,
0010
0000
0100
0001
0010
0100
0020
0000
,
0000
0000
0000
0031
1000
0010
1000
0000
0000
0010
0000
0000
0200
0000
0000
0000
0000
0000
0300
0000
0000
0000
0000
0000
,
0010
1000
0000
0000
0100
1000
0000
0000
0001
0000
0100
0000
0001
0000
0000
0000
,
1000
0010
0000
0000
0100
0001
0000
0000
1000
0000
0100
0000
1000
0000
0000
0000
,
0210
0000
0301
0010
1000
1000
1000
0010
,
0001
0000
0001
0000
0010
0000
1000
0000
0010
0000
0000
0010
0001
0000
0000
1000
,
0100
0100
0010
0010
0100
1000
0001
0100
,
0100
0000
0010
0000
0010
0000
0010
0000
0100
0000
0000
0001
1000
0000
0000
0000
,
0210
0000
0000
1000
2300
0000
0000
0001
3002
0000
0000
0010
0023
0000
0000
0000
,
0130
1000
0100
1000
0100
0000
0010
0001
0010
0001
0010
0000
0100
0010
0100
0010
,
0001
1000
0001
1000
0001
0000
1000
0010
1000
0010
1000
0000
0010
0100
0010
0100
,
0001
0000
2000
0000
0000
0000
3100
0010
0001
1000
0020
0000
0000
0100
0230
0000
,
0000
0001
0302
0000
0000
1000
1003
0010
0100
0001
0100
0000
0010
0000
1000
0100
,
0010
0001
1002
0000
0000
0000
0013
0001
0100
0010
2000
0000
0000
0100
3200
0000
,
0000
0010
0320
0000
0000
0001
0031
0010
0100
2000
0000
0000
3000
0000
0000
0000
,
0110
0000
0000
0000
1000
0000
0100
0000
0010
0000
0000
0000
0100
0000
0000
1000
,
0001
0000
0000
0100
0010
0000
0000
0010
0001
0000
1000
0000
0000
0001
0100
0010
,
0110
0000
0000
0000
0001
0000
0010
0000
0100
0000
0000
0000
0010
0000
0000
0001
,
1000
0000
0000
0100
0010
0000
0000
0001
0100
0000
0010
0000
1000
0000
0100
0000
,
0010
0000
0001
0100
0001
0100
0001
0000
1000
0000
0100
0010
0000
0000
0100
0010
,
0002
0000
0000
0000
1003
0000
0010
0000
0200
0000
0000
0301
1000
0000
0000
0000
,
0010
0000
1000
0100
1000
0100
1000
0000
0001
0000
0010
0100
0000
0000
0010
0100
,
2000
0000
0000
0000
3010
0000
0100
0000
0002
0000
0000
1003
0010
1000
0010
1000
,
0020
0000
0100
0000
0000
0130
0001
0100
0002
0000
1000
0000
0000
1003
0100
0010
,
0220
0000
0000
0000
,
0330
0010
0010
0010
,
0220
0000
0000
0000
,
0330
0000
1000
0000
0010
0000
0100
0000
0001
0010
0200
0000
0000
1000
2300
0000
,
3010
0100
0002
0000
0000
0010
0023
0000
0031
0100
2000
0000
0000
0100
3100
0010
,
0100
0000
0000
0001
0000
0000
1000
0000
0000
0000
0000
0000
0001
0000
0000
0000
0000
0000
0010
0000
0000
0000
0000
0000
0100
0000
0000
0000
0000
0000
1100
0000
0000
0000
0000
0000
1000
0000
0000
0000
0010
0000
0100
0000
0000
0000
0000
0000
,
0001
0000
0000
0011
0000
0100
0000
0000
0001
1000
0000
0000
0010
1000
0100
2000
0000
0000
0000
0000
0000
0000
0000
0000
,
0000
0002
0000
0000
3003
0000
1000
0100
,
0001
0000
0000
0100
1000
0000
0000
0000
0010
0000
0000
0000
0100
0000
0001
0000
,
0010
0000
0100
0000
0000
1000
0001
0010
0011
0000
0010
0000
0010
0000
0001
0000
,
0100
0000
0100
0000
0100
0000
0001
1000
0010
0000
0010
0000
0010
0000
0100
0000
,
0001
0000
0001
0000
0001
0000
0010
0100
1000
0000
1000
0000
1000
0000
0010
0000
,
0100
0000
0100
0000
0100
0000
0001
1000
0010
0000
0010
0000
0010
0000
0100
0000
,
0001
0000
0001
0000
0001
0000
1000
0010
0100
0010
0000
0000
0101
0000
0000
0000
,
0100
1000
0000
0000
1001
0000
0000
0000
0100
0001
0000
0000
0011
0000
0000
0000
,
0100
0010
0000
0000
1000
0010
0000
0000
0100
0001
0010
0000
0010
0000
0010
0000
,
0100
0000
0100
0000
0001
0000
0001
0000
0100
1000
0000
1000
0000
0100
0000
0100
,
0000
0010
0000
0010
0001
0000
0010
0100
2000
0000
0000
0000
3001
0000
1000
0010
,
0200
0000
0000
0000
0301
0000
0010
0100
0002
0000
0000
0000
0103
0000
0010
0100
,
2000
0000
0000
0000
0001
0000
0002
0000
0000
0000
3003
0000
0000
1000
0001
0010
,
0110
0000
0000
0000
;

//---------------dance-single - ----------------
#NOTEDATA:;
#CHARTNAME:BEGINNER;
#CHARTHASH:823346609;
#STEPSTYPE:dance-single;
#BANNER:;
#DESCRIPTION:;
#CHARTSTYLE:;
#DIFFICULTY:Beginner;
#METER:3;
#METERF:3.000000;
#LASTSECONDHINT:112.231331;
#RADARVALUES:0.157766,0.197208,0.122707,0.078883,0.000000,126.000000,112.000000,14.000000,9.000000,0.000000,0.000000,0.000000,0.000000,0.000000,0.157766,0.197208,0.122707,0.078883,0.000000,126.000000,112.000000,14.000000,9.000000,0.000000,0.000000,0.000000,0.000000,0.000000;
#CREDIT:YonabearCWY;
#NOTES:
1000
0000
1000
0000
,
1001
0000
0000
0000
,
0001
0000
0001
0000
,
1001
0000
0000
0000
,
0100
0000
0100
0000
,
0100
0000
0000
0000
,
0010
0000
0010
0000
,
0010
0000
0000
0000
,
1000
1000
1000
0000
,
1000
1000
1000
0000
,
0001
0001
0001
0000
,
0001
0001
0001
0000
,
1000
1000
1000
0000
,
0001
0001
0001
0000
,
1001
0100
0100
0100
,
0010
0010
0010
0000
,
0010
0010
0010
0000
,
0000
0000
0000
0000
0000
1000
0000
1000
,
0000
1000
0000
0000
0000
0001
0000
0001
,
0000
0001
0000
0000
0000
1000
0000
1000
,
0000
2000
0000
0000
0000
0000
3000
0000
,
0010
0010
0010
0000
,
0010
0000
0000
0000
,
0010
0010
0010
0000
,
0010
0000
0000
0000
,
0100
0100
0100
0000
,
0110
0000
0000
0000
,
0100
0100
0100
0000
,
0110
0000
0000
0000
,
1001
0000
0110
0000
,
2002
0000
0000
0000
,
3003
0100
0100
0100
,
0220
0000
0000
0000
,
0330
0010
0000
0010
0000
0010
0000
0000
,
0000
0100
0000
0100
0000
0100
0000
0000
,
0000
0010
0000
0010
0000
0010
0000
0000
,
0000
0100
0000
0100
0000
0220
0000
0000
,
0000
0000
0330
1000
,
0000
1000
0000
1000
,
0000
1000
0001
0000
,
0001
0100
0010
0000
,
0010
0000
0010
0100
,
1000
0000
0100
0010
,
0001
0000
0100
0000
,
0100
0000
0100
0000
,
0010
0000
0010
0000
,
0010
0000
0100
0000
,
0100
0000
0100
0000
,
0110
0000
0110
0000
,
2002
0000
0000
0000
0000
3003
0000
0000
,
1001
0000
0000
0000
;

//---------------dance-double - ----------------
#NOTEDATA:;
#CHARTNAME:DIFFICULT;
#CHARTHASH:2204947357;
#STEPSTYPE:dance-double;
#BANNER:;
#DESCRIPTION:;
#CHARTSTYLE:;
#DIFFICULTY:Medium;
#METER:9;
#METERF:9.000000;
#LASTSECONDHINT:112.231331;
#RADARVALUES:0.351843,0.416327,0.175296,0.113942,0.052589,281.000000,261.000000,20.000000,13.000000,0.000000,0.000000,0.000000,0.000000,0.000000,0.351843,0.416327,0.175296,0.113942,0.052589,281.000000,261.000000,20.000000,13.000000,0.000000,0.000000,0.000000,0.000000,0.000000;
#CREDIT:YonabearCWY;
#NOTES:
10000000
10000000
10010000
00000000
,
00001000
00010000
00001000
00010000
00001000
00010000
00000000
00000000
,
00000010
00000010
00000110
00000000
,
00001000
00000100
00010000
00001000
,
01000000
01000000
02000000
00000000
,
03100000
01000000
00100000
00000000
10000000
00010000
10000000
00000000
,
01000000
01000000
02000000
00000000
,
03000000
00100000
00001000
00010000
00000100
00000000
00001001
00000000
,
00000010
00000100
00000010
00000100
00000010
00000100
00000000
00000000
,
00010000
00001000
00010000
00001000
00010000
00001000
00000000
00000000
,
00110000
10000000
00010000
10000000
,
11000000
00010000
01000000
00010000
,
00011000
00010000
00000100
00010000
,
00010010
00000010
00001000
00000100
,
00000110
00000000
00000000
00000100
00010000
00000000
00000000
00001000
00100000
00000000
00000000
01000000
20000000
00000000
00000000
00000000
,
30010000
01000000
00001000
00100000
00001000
00010000
00002000
00000000
,
00013000
00000100
00010000
00000010
00001000
00000010
00000100
00000001
,
00000100
00001001
00000000
00001000
00000100
00010000
00000000
00010000
,
00000000
00000000
00010000
00000000
00000000
00001000
00001000
00000000
00100000
00000000
00010000
00000000
01000000
00000000
10000000
00000000
,
01000000
00100000
00000000
01000000
00010000
00100000
00000000
00100000
,
00000000
00000000
00100000
00000000
00000000
00010000
01000000
00001000
00010000
00002000
00000000
00000000
00003000
00000000
00000000
00000000
,
00011000
00010000
00011000
00000000
,
00000001
00000100
00000001
00000100
00000001
00000100
00000000
00000000
,
00011000
00001000
00011000
00000000
,
10000000
00100000
10000000
00100000
10000000
00100000
00000000
00000000
,
01000000
00100000
00010000
00000000
00001000
00100000
00010000
00000000
,
00001000
00000000
00000000
00000000
00000100
00000000
00000010
00000000
00000001
00000000
00000000
00000100
00000010
00000000
00000000
00000000
,
00000100
00001000
00010000
00000000
00100000
01000000
10000000
00000000
,
00100000
00000000
00000000
00000000
01000000
00000000
00010000
00000000
10000000
00000000
00000000
01000000
00100000
00000000
00000000
00000000
,
00011000
00000000
00011000
00000000
,
00002002
00000000
00000000
00000000
,
00003003
00000010
00000010
00000010
,
00000220
00000000
00000000
00000000
,
00000330
00001000
00000100
00010000
00100000
01000000
00000000
10000000
,
01000000
00100000
00000000
01000000
00010000
00100000
00000000
00001000
,
00010000
00000000
00000000
00001000
00000000
00000000
00000100
00000000
00000000
00000010
00000000
00000000
00001000
00000000
00000000
00000001
00000000
00000000
00000010
00000000
00000001
00000100
00000000
00000000
,
00000010
00000000
00000000
00001000
00000000
00001000
00000000
00000000
00000100
00010000
00000000
00000000
00001000
00000000
00000000
20010000
00000000
00000000
00000000
00000000
00000000
00000000
00000000
00000000
,
00000000
00020000
00000000
00000000
30030000
00000000
00001000
00000000
,
00000000
00001000
00000000
00010000
,
00000000
00000000
00010000
00000000
00000100
00000010
00000100
00000010
,
00000001
00001000
00000010
00000000
00001000
00000100
00010000
00000100
,
00010000
00001000
00100000
00000000
01000000
10000000
01000000
00010000
,
01000000
10000000
01000000
00000000
00100000
00010000
00100000
10000000
,
00100000
00010000
00100000
00000000
00001000
00010000
00001000
00000000
,
00010000
00000100
00010000
00000000
00000010
00001000
00000010
00000000
,
00010000
00001000
00010000
00000000
00000100
00000100
00001000
00000010
,
00001000
00000010
00000010
00000100
00000001
00000010
00000100
00001000
,
00010000
00001000
00010000
00100000
00010000
01000000
10000000
01000000
,
00010000
00000000
10000000
00100000
00010000
00100000
10000000
00000000
,
01000000
00100000
00001000
00022000
00000000
00000000
00033000
00000000
,
00011000
00000000
00000000
00000000
;

//---------------dance-double - ----------------
#NOTEDATA:;
#CHARTNAME:EXPERT;
#CHARTHASH:4125050373;
#STEPSTYPE:dance-double;
#BANNER:;
#DESCRIPTION:;
#CHARTSTYLE:;
#DIFFICULTY:Hard;
#METER:13;
#METERF:13.000000;
#LASTSECONDHINT:112.231331;
#RADARVALUES:0.519626,0.657358,0.166531,0.298003,0.503975,415.000000,396.000000,19.000000,34.000000,0.000000,0.000000,0.000000,0.000000,0.000000,0.519626,0.657358,0.166531,0.298003,0.503975,415.000000,396.000000,19.000000,34.000000,0.000000,0.000000,0.000000,0.000000,0.000000;
#CREDIT:YonabearCWY;
#NOTES:
00011000
00000000
00000000
00000000
00100000
00000000
00000000
00000000
01000000
00000000
10000000
00000000
00100000
00000000
00000000
01000000
,
00010000
00000000
00000000
00100000
00001000
00000000
00000000
00010000
00000100
00000000
00000100
00000000
00000000
00000010
00000001
00001000
,
00001001
00000000
00000100
00000010
00001000
00000000
00000100
00001000
,
00010000
00000000
00000000
00100000
00010000
10000000
20020000
00000000
00000000
30030000
00000000
00000000
,
00100000
00000000
00000000
10000000
01000000
00000000
00100000
00000000
00010000
00000000
00000000
00100000
01000000
00000000
00000000
00000000
,
00100000
00000000
00001000
00010000
00001000
00000000
00010000
00000000
00000100
00000000
00000000
00000000
00000010
00000000
00000001
00000000
,
00001000
00000000
00000000
00000100
00000010
00000000
00000100
00000000
00010000
00000000
00000000
00001000
00200000
00000000
00000000
00000000
,
00000000
00000000
00000000
01300000
00100000
01000000
10000000
00000000
00000000
00100000
00000000
00000000
02000000
00000000
00000000
00000000
00000000
00000000
03000000
00000000
00000000
00000000
00000000
00000000
,
00001000
00000000
00100000
00000000
00001000
00000000
00100000
00000000
00010000
00000000
01000000
00010000
00000000
00000000
01000000
00010000
,
00100000
00000000
00001000
00000000
00100000
00000000
00001000
00000000
00010000
00000000
00000100
00010000
00000000
00000000
00000100
00010000
,
00002000
00000000
00013000
00001000
00000100
00000010
00001000
00000010
,
00000100
00000000
00001000
00000000
00010000
00000000
00001000
00000000
00100000
00000000
00000000
01000000
00200000
00000000
00000000
00000000
,
00301000
00100000
00001000
00100000
00010000
10000000
01000000
00100000
,
00010000
00000000
01000000
00000000
00100000
00000000
00010000
00000000
00001000
00000000
00000000
00010000
00000200
00000000
00000000
00000000
,
00001300
00000000
00000000
00000000
00000000
00000000
00000010
00000000
00001000
00000000
00000100
00000000
00010000
00000000
00000000
00000000
00001000
00000000
00100000
00000000
00010000
00000000
01000000
00000000
00010000
00000000
00000000
00000000
00000000
10000000
00010000
00000000
00000000
00000000
00100000
00000000
01000000
00000000
00000000
10000000
00000000
00000000
01000000
00000000
00000000
10000000
00000000
00000000
,
01000000
10000000
00010000
00000000
01000000
00010000
01000000
00000000
00001000
00000000
00100000
00000000
00001000
00000000
00010000
00000100
,
00010000
00000100
00010000
00000000
00000100
00001000
00000100
00001000
00000100
00000010
00000001
00000000
00001000
00000000
00000010
00000000
,
00000110
00000000
00001001
00000000
00000000
00000000
00000100
00001000
00010000
00100000
02000000
00000000
00000000
10000000
10000000
00000000
,
00000000
00010000
00010000
00000000
00000000
10000000
13000000
00100000
01000000
00010000
00100000
00000000
00001000
00000000
00010000
00001000
,
00000100
00000010
00000002
00000000
00000000
00000000
00000013
00000100
00001000
00010000
02000000
00000000
00000000
00010000
00010000
00000000
,
00000000
00100000
00100000
00000000
00000000
10000000
13000000
01000000
00100000
00020000
00000000
00000000
00030000
00000000
00000000
00000000
,
00000110
00000000
00000000
00000000
00001000
00000000
00000010
00000000
00010000
00000000
00000000
00000000
00001000
00000000
00000000
00100000
,
00010000
00000000
00000000
10000000
01000000
00000000
00000000
00100000
00010000
00000000
00010000
00000000
00000000
00100000
01000000
10000000
,
10010000
00000000
00000000
00000000
01000000
00000000
00001000
00000000
00010000
00000000
00000000
00000000
00001000
00000000
00000000
00000100
,
00000010
00000000
00000000
00000010
00000001
00000000
00000000
00001000
00000010
00000000
00000010
00000000
00000000
00001000
00000100
00010000
,
00001000
00000000
00010000
00000000
00001000
00000000
00100000
00000000
00001000
00000000
00100000
00010000
00000000
00000000
00100000
00010000
,
20000000
00000000
00000000
00000000
30100000
00000000
01000000
00000000
00010000
00000000
00000000
00100000
00002000
00000000
00000000
00000000
,
00013000
00000000
00000100
00000000
00001000
00000000
00000100
00000000
00001000
00000000
00000010
00010000
00000000
00000000
00000010
00010000
,
00002000
00000000
00000000
00000000
00013000
00000000
00000100
00000000
00000010
00000000
00000000
00000010
00000002
00000000
00000000
00000000
,
00001003
00002010
00000000
00003100
00010000
00012000
00000000
00103000
,
20020000
00000000
00000000
00000000
,
30030000
01000000
01000000
01000000
,
02200000
00000000
00000000
00000000
,
03300000
00000000
00020000
00000000
00230000
00000000
02300000
00000000
03100000
00001000
00020000
00000000
00000000
00000100
00000100
00000000
,
00031000
00010000
00000020
00000000
00000000
00000100
00000130
00000000
00001000
00000010
00000200
00000000
00000000
00010000
00010300
00100000
,
01000000
00000000
00000000
10000000
00000000
00000000
00020000
00000000
00000000
00000000
00000000
00000000
02030000
00000000
00000000
00000000
00000000
00000000
03002000
00000000
00000000
00000000
00000000
00000000
00203000
00000000
00000000
00000000
00000000
00000000
00301000
00000000
00000000
00000000
00000000
00000000
00011000
00000000
00000000
00000000
00010000
00000000
00000100
00000000
00000000
00000000
00000000
00000000
,
00001000
00000100
00000010
00000001
00000000
00000011
00000000
00000000
00000001
00001000
00000000
00001000
00000010
00000000
00000010
00000100
00000000
00010100
00000000
00000000
00010000
00001000
00000000
00001000
,
00100000
00000000
00100000
02000000
00000000
00000000
00000000
00000000
00000000
00000000
00000000
00000000
03000000
00000000
00000000
00000000
00000000
00000000
10000000
00000000
00000000
00100000
00000000
00000000
,
10000000
00000000
00010000
00000000
01000000
00000000
00001000
00010000
,
00001000
00000000
00100000
00000000
00000000
00001000
00010000
00000100
00010000
00000000
00010000
00000000
00000100
00000000
00010000
00000000
,
00010000
00000000
00000100
00000000
00001000
00000000
00000010
00001000
00000001
00000000
00000001
00000000
00000100
00000000
00000001
00000000
,
00000001
00000000
00000010
00000000
00000100
00000000
00001000
00000100
00010000
00000000
00010000
00000000
00001000
00000000
00100000
00000000
,
00100000
00000000
00001000
00000000
00010000
00000000
00100000
01000000
00010000
00000000
00010000
00000000
10000000
00000000
01000000
00000000
,
01000000
00000000
00100000
00000000
00010000
00000000
01000000
00001000
01000000
00000000
00000000
00000000
00101000
00000000
00000000
00000000
,
00000100
00011000
00000010
00010100
,
00100000
00000000
00011000
00000000
00100000
00100000
00010000
00010000
,
10000000
00000000
10000000
00000000
01000000
00000000
01000000
00000000
00100000
00010000
00000000
00010000
00000000
01000000
00000000
01000000
,
00000000
00001000
00000000
00001000
00000000
00010000
00000000
00010000
00000010
00000000
00000000
00000100
00000001
00000100
00000001
00000100
,
00000001
00000000
00000000
00000010
00000100
00000010
00000100
00000010
00000100
00000000
00000000
00001000
00010000
00001000
00010000
00001000
,
00010000
00000000
00000000
00000000
00000000
00000000
00000000
00000000
00000000
00000000
00000000
00000000
00000000
00000000
00000000
00000000
00000000
00000000
00000000
00000000
00000000
00000000
00000000
00000000
00000000
00000000
00000000
00000000
00000000
00000000
00000000
00000000
00000000
00000000
00000000
00000000
00010000
00000000
00000000
00000000
00000000
00000000
00000000
00000000
00000000
00000000
00000000
00000000
10000000
00000000
00000000
00000000
00000000
00000000
00000000
00000000
00000000
00000000
00000000
00000000
00020000
00000000
00000000
00000000
00000000
00000000
00000000
00000000
00000000
00000000
00000000
00000000
20000000
00000000
00000000
00000000
00000000
00000000
00000000
00000000
00000000
00000000
00000000
00000000
00000000
00000000
00000000
00000000
00000000
00000000
00000000
00000000
00000000
00000000
00000000
00000000
00000000
00000000
00000000
00000000
00000000
00000000
00000000
00000000
00000000
00000000
00000000
00000000
00000000
00000000
00000000
00000000
00000000
00000000
00000000
00000000
00000000
00000000
00000000
00000000
00000000
30030000
00000000
00000000
00000000
00000000
00000000
00000000
00000000
00000000
00000000
00000000
00000000
00000000
00000000
00000000
00000000
00000000
00000000
00000000
00000000
00000000
00000000
00000000
00000000
00000000
00000000
00000000
00000000
00000000
00000000
00000000
00000000
00000000
00000000
00000000
10000000
00000000
00000000
00000000
00000000
00000000
00000000
00000000
00000000
00000000
00000000
00000000
01000000
00000000
00000000
00000000
00000000
00000000
00000000
00000000
00000000
00000000
00000000
00000000
00100000
00000000
00000000
00000000
00000000
00000000
00000000
00000000
00000000
00000000
00000000
00000000
,
10010000
00000000
00000000
00000000
;

//---------------dance-double - ----------------
#NOTEDATA:;
#CHARTNAME:BASIC;
#CHARTHASH:855044431;
#STEPSTYPE:dance-double;
#BANNER:;
#DESCRIPTION:;
#CHARTSTYLE:;
#DIFFICULTY:Easy;
#METER:5;
#METERF:5.000000;
#LASTSECONDHINT:3.800000;
#RADARVALUES:0.206598,0.306767,0.210355,0.105177,0.000000,165.000000,141.000000,24.000000,12.000000,0.000000,0.000000,0.000000,0.000000,0.000000,0.206598,0.306767,0.210355,0.105177,0.000000,165.000000,141.000000,24.000000,12.000000,0.000000,0.000000,0.000000,0.000000,0.000000;
#CREDIT:YonabearCWY;
#NOTES:
// measure 0
10000000
10000000
10000000
00000000
,  // measure 1
10010000
00000000
00000000
00000000
,  // measure 2
00000010
00000010
00000010
00000000
,  // measure 3
00000110
00000000
00000000
00000000
,  // measure 4
00010000
00000000
00010000
00000000
,  // measure 5
00001000
00000000
00001000
00000000
,  // measure 6
00010000
00000000
00022000
00000000
,  // measure 7
00033000
00000000
00000000
10010000
,  // measure 8
01000000
01000000
01000000
00000000
,  // measure 9
01000000
01000000
01000000
00000000
,  // measure 10
00101000
00000000
00010000
00000100
,  // measure 11
00001000
00000010
00000001
00000010
,  // measure 12
00001100
00000000
00010000
00001000
,  // measure 13
00100000
00010000
01000000
10000000
,  // measure 14
01100000
10000000
00010000
01001000
,  // measure 15
00010000
00010000
00010000
00010000
,  // measure 16
00001000
00001000
00001000
00001000
,  // measure 17
00010000
00001000
00000000
00000000
00000000
00010000
00000000
00000010
,  // measure 18
00000000
00000100
00000000
00000000
00000000
00000001
00000000
00000010
,  // measure 19
00000000
00000100
00000000
00000000
00000000
00001000
00000000
00010000
,  // measure 20
00000000
00200000
00000000
00000000
00000000
00000000
00300000
00000000
,  // measure 21
01000000
01000000
10010000
00000000
,  // measure 22
10010000
00000000
01000000
00000000
,  // measure 23
00001000
00001000
00011000
00000000
,  // measure 24
00011000
00000000
00000100
00000000
,  // measure 25
00001000
00000100
00000010
00000001
,  // measure 26
00000200
00000000
00000310
00010000
,  // measure 27
00001000
00010000
00100000
01000000
,  // measure 28
00020000
00000000
10030000
00100000
,  // measure 29
10010000
00000000
00011000
00000000
,  // measure 30
00002002
00000000
00000000
00000000
,  // measure 31
00003003
00000010
00000010
00000010
,  // measure 32
00000220
00000000
00000000
00000000
,  // measure 33
00000330
00001000
00000000
00000100
00000000
00010000
00000000
00000000
,  // measure 34
00000000
01000000
00000000
00100000
00000000
00010000
00000000
00000000
,  // measure 35
00000000
10000000
00000000
00010000
00000000
00100000
00000000
00000000
,  // measure 36
00000000
00001000
00000000
00010000
00000000
00000200
00000000
00000000
,  // measure 37
00000000
00000000
00000300
00010000
,  // measure 38
00000000
00010000
00000000
00010000
,  // measure 39
00000000
00000000
00001000
00001000
,  // measure 40
00001000
00000000
00100000
00100000
,  // measure 41
00100000
00000000
00010000
00010000
,  // measure 42
00110000
00000000
10000000
10000000
,  // measure 43
10100000
00000000
00001000
00001000
,  // measure 44
00010000
00010000
00001000
00001000
,  // measure 45
00010000
00010000
00000100
00000010
,  // measure 46
00000001
00000010
00001000
00000010
,  // measure 47
00000100
00001000
00110000
00100000
,  // measure 48
11000000
00100000
01010000
00100000
,  // measure 49
00101000
00000000
00022000
00000000
00000000
00033000
00000000
00000000
,  // measure 50
00011000
00000000
00000000
00000000
;
