#VERSION:0.83;
#TITLE:CHILL PRINCE;
#SUBTITLE:;
#ARTIST:新沼謙治;
#TITLETRANSLIT:;
#SUBTITLETRANSLIT:;
#ARTISTTRANSLIT:KENJI NIINUMA;
#GENRE:SHIBUYA UPBEAT;
#ORIGIN:;
#TAGS:;
#CREDIT:YonabearCWY;
#BANNER:CHILL PRINCE.png;
#BACKGROUND:CHILL PRINCE-bg.png;
#PREVIEWVID:;
#JACKET:CHILL PRINCE-jacket.png;
#CDIMAGE:;
#DISCIMAGE:;
#LYRICSPATH:;
#CDTITLE:Once Upon a KATAMARI.png;
#MUSIC:CHILL PRINCE.ogg;
#OFFSET:-7.601000;
#SAMPLESTART:63.588997;
#SAMPLELENGTH:15.000000;
#SELECTABLE:YES;
#BPMS:0.000000=150.000000
,8.000000=75.000000
,40.000000=37.500000
,48.000000=75.000000
,66.000000=150.000000
;
#STOPS:;
#DELAYS:;
#WARPS:;
#TIMESIGNATURES:0.000000=4=4
;
#TICKCOUNTS:0.000000=4
;
#COMBOS:0.000000=1
;
#SPEEDS:0.000000=1.000000=0.000000=0
;
#SCROLLS:0.000000=1.000000
;
#FAKES:;
#LABELS:0.000000=Song Start
;
#BGCHANGES:-20.950=CHILL PRINCE.mp4=1.000=1=0=0=StretchNoLoop==CrossFade==,
140.000=CHILL PRINCE-bg.png=1.000=0=0=1=====,
99999=-nosongbg-=1.000=0=0=0 // don't automatically add -songbackground-
;
#KEYSOUNDS:;
#ATTACKS:
;

//---------------dance-single - ----------------
#NOTEDATA:;
#CHARTNAME:BASIC;
#CHARTHASH:2669919300;
#STEPSTYPE:dance-single;
#BANNER:;
#DESCRIPTION:;
#CHARTSTYLE:;
#DIFFICULTY:Easy;
#METER:7;
#METERF:7.000000;
#LASTSECONDHINT:92.200996;
#RADARVALUES:0.247856,0.285702,0.103892,0.384400,0.031168,167.000000,157.000000,10.000000,37.000000,0.000000,0.000000,0.000000,0.000000,0.000000,0.247856,0.285702,0.103892,0.384400,0.031168,167.000000,157.000000,10.000000,37.000000,0.000000,0.000000,0.000000,0.000000,0.000000;
#CREDIT:YonabearCWY;
#NOTES:
2002
0000
0000
0000
,
3003
0000
0000
0000
,
1000
1000
0020
0030
0100
0100
0002
0003
,
0010
0000
0010
0000
0100
1000
0002
1003
,
0010
0000
0020
0030
0100
0001
0200
0300
,
0001
0000
0001
0000
1000
0100
2000
3000
,
0100
0000
0010
0000
0001
0000
0000
1000
0100
0000
0010
0000
0200
0000
0300
0000
,
1000
0000
0100
0000
0010
0000
0000
0001
0010
0000
0100
0000
0020
0000
0030
0000
,
0001
0000
0001
0000
1000
0010
0200
0300
,
0010
0000
0010
0000
0100
0001
2000
3100
,
0220
0000
0000
0330
2002
0000
0000
3003
,
2200
0000
0000
3300
0022
0000
0000
0033
,
0001
0000
0000
0000
0001
0000
0001
0100
0000
0001
0100
0000
0020
0000
0030
0000
,
1000
1000
0100
0100
0010
0010
0001
0001
,
1000
0000
0000
0000
1000
0000
1000
0010
0000
1000
0010
0000
0200
0000
0300
0000
,
0001
0001
1000
1000
0010
0010
0100
0200
,
0000
0000
0000
0000
0302
0000
0000
1003
,
0100
0001
0100
1000
,
0010
0000
0100
0000
0012
0000
0000
1003
,
0020
0000
0000
0130
0002
0000
0013
0100
,
2000
3000
0011
1000
,
1010
0000
0001
0000
0101
0000
1000
0001
,
2000
3000
0010
0010
,
0100
0000
0100
0001
0000
0010
0001
1000
,
0020
0000
0130
0010
,
1000
0000
0001
0010
0001
0000
0100
0000
,
0010
0000
1000
0100
1000
0000
0001
0000
,
0010
0000
0100
1000
0001
0000
0100
0000
,
0220
0330
1000
0100
,
0010
0000
0001
0010
1000
0000
0010
0000
,
0001
0000
1000
0100
0020
0000
0001
0000
,
0130
0000
1000
0001
0000
0010
0100
1000
,
0001
0000
0200
0020
0000
0000
0000
0000
,
0000
0000
0330
0000
0002
0000
0000
1003
,
0020
0000
0000
0030
0000
0000
0000
0000
;

//---------------dance-single - ----------------
#NOTEDATA:;
#CHARTNAME:DIFFICULT;
#CHARTHASH:1416796889;
#STEPSTYPE:dance-single;
#BANNER:;
#DESCRIPTION:;
#CHARTSTYLE:;
#DIFFICULTY:Medium;
#METER:9;
#METERF:9.000000;
#LASTSECONDHINT:92.200996;
#RADARVALUES:0.359169,0.428554,0.135059,0.197394,0.176616,242.000000,229.000000,13.000000,19.000000,0.000000,0.000000,0.000000,0.000000,0.000000,0.359169,0.428554,0.135059,0.197394,0.176616,242.000000,229.000000,13.000000,19.000000,0.000000,0.000000,0.000000,0.000000,0.000000;
#CREDIT:YonabearCWY;
#NOTES:
2002
0000
0000
0000
,
3003
0000
0000
0000
,
1000
0010
0200
0310
0010
0100
0001
1001
,
0020
0100
1030
0010
0100
0001
0010
0110
,
2000
0000
3100
1010
0001
0100
0001
0011
,
1000
0010
0001
0010
1000
0100
0001
0110
,
1000
0100
0000
0100
0010
0000
0001
0000
0100
0001
0100
0000
0001
0000
0010
0000
,
0100
1000
0100
0000
1000
0001
0000
0010
0100
0000
0010
0000
0001
0000
1000
0000
,
0010
0100
0001
0000
0100
0000
0010
0000
1000
0100
0010
0001
0020
0000
0100
0000
,
0031
0000
1000
0000
0010
0100
0010
0000
1000
0001
0000
0010
0200
0000
0000
0000
,
2300
0000
0010
0000
0001
0000
3010
0100
,
0002
0000
0100
0100
0010
0010
1003
0010
,
0100
0000
0001
0000
0010
0000
0100
1000
0000
0001
0100
0000
0010
0000
1001
0000
,
0100
0000
0010
0000
1000
0000
0100
0000
0010
0001
0010
0000
0001
0000
1001
0000
,
0100
0000
0010
0000
1000
0010
1000
0010
0000
0100
0001
0000
0010
1000
0010
0000
,
0001
0000
1000
0100
1000
0000
0100
0000
0001
0000
0100
1000
0100
0010
0001
0200
,
0000
0000
0000
0000
0000
0000
0000
0000
0310
0000
0000
1000
0000
0000
0010
0000
,
0100
0000
0011
0000
1000
0010
0100
0010
,
0001
0000
0010
0000
1000
0000
0100
0000
0010
0000
0000
0100
0000
0000
0010
0000
,
0001
0000
0000
0000
1000
0000
0001
0000
0100
0000
0000
0010
0000
0000
1000
0000
,
0100
1000
0010
0100
1000
0100
0001
0000
,
0110
0000
0000
0001
0000
0000
1000
0000
0010
0000
0001
0000
0100
0000
1000
0000
,
0200
0000
0001
0000
0310
0000
0100
0001
,
0010
0000
0100
1000
0000
0001
0010
0100
,
2002
0000
0000
0000
3003
0000
0000
0000
0100
0000
0000
0010
0000
0000
1000
0000
,
0010
0000
0000
0001
0000
0000
0010
0000
0100
0000
1000
0000
0100
0000
0001
0000
,
0010
0000
0100
0000
1000
0000
0100
0000
0010
0000
0000
0100
0000
0000
1000
0000
,
0001
0000
0000
0010
0000
0000
0001
0000
0100
0000
1000
0000
0100
0000
0010
0000
,
0100
0000
0001
0000
0010
0000
0100
0000
0010
0000
0000
1000
0000
0000
0010
0000
,
0001
0000
0000
0010
0000
0000
0100
0000
0010
0000
0000
0000
1001
0000
0000
0000
,
0100
0010
0100
2000
0000
3000
0210
0000
,
0301
0010
0100
0020
0000
1030
0010
0001
,
0010
0100
2000
0002
0000
0000
0000
0000
,
0000
0000
0000
0000
3003
0000
0000
0000
0010
0000
0000
0100
0000
0000
1000
0000
,
0002
0000
0000
0003
0000
0000
0000
0000
;

//---------------dance-single - ----------------
#NOTEDATA:;
#CHARTNAME:EXPERT;
#CHARTHASH:233665916;
#STEPSTYPE:dance-single;
#BANNER:;
#DESCRIPTION:;
#CHARTSTYLE:;
#DIFFICULTY:Hard;
#METER:13;
#METERF:13.000000;
#LASTSECONDHINT:92.200996;
#RADARVALUES:0.503133,0.678543,0.249340,0.207784,0.467513,339.000000,315.000000,24.000000,20.000000,0.000000,0.000000,0.000000,0.000000,0.000000,0.503133,0.678543,0.249340,0.207784,0.467513,339.000000,315.000000,24.000000,20.000000,0.000000,0.000000,0.000000,0.000000,0.000000;
#CREDIT:YonabearCWY;
#NOTES:
2002
0000
0000
3003
,
0000
0011
0000
1000
0100
0000
0101
0000
,
1010
0000
0100
0001
0100
0000
0011
0000
0100
0000
0010
1000
0010
0000
1000
0000
,
0001
0010
0100
0000
0010
0000
0100
0000
1000
0000
0010
1000
0001
0000
0110
0000
,
0100
0010
0001
0010
0100
0000
1010
0000
1000
0100
0001
0100
1000
0000
0101
0000
,
0001
0000
0010
0001
1000
0000
0100
1000
0010
0100
0001
0010
0100
1000
1001
0000
,
0010
0000
0001
0100
0000
0001
1000
0000
0010
1000
0100
1000
0001
0000
0110
0000
,
1000
0100
0010
0000
0001
1000
0010
0001
0010
1000
0001
0100
0001
0010
0010
0000
,
0100
1000
0100
0000
1010
0000
0100
0001
0001
0010
0001
1000
1000
0000
0110
0000
,
0001
0010
0100
1000
0010
0010
0010
0000
0100
1100
0000
0100
0101
0001
0010
0001
,
2001
0000
3020
0230
0302
0000
2003
3200
,
0320
0000
0000
0000
0000
0000
0000
0000
0230
0000
0000
0000
0302
0000
0000
0000
1003
0000
0010
0000
0100
0000
1000
0000
0010
1000
0000
0001
0100
0000
0010
1000
,
0001
0000
0100
0001
0010
0001
1000
0001
0000
0010
0100
1000
0100
0010
0100
0000
,
1000
0000
0001
0000
0010
0000
0001
0000
0010
0000
0100
0000
1000
0000
0100
0000
1000
0000
0001
0000
0100
0000
0001
0000
0010
0100
0010
0000
0100
0000
1000
0000
,
0001
1000
0100
1000
0100
0010
0001
0100
0001
0010
0001
0010
0100
1000
0001
0100
,
0010
0100
0010
0000
1000
0000
0001
0000
0010
0001
0010
0000
0001
0000
0100
0000
0010
1000
0010
1000
0010
0000
0100
0000
0010
0000
0001
0000
0010
0000
0200
0000
,
0000
0000
0000
0000
0000
0000
0300
0000
1001
0000
0001
0020
0000
0000
0130
0000
,
1000
0200
0000
0310
0100
1000
0100
0001
,
0010
0100
0010
1000
0001
0100
0010
0001
,
1000
0100
0000
0010
0001
0000
0010
0000
0010
0000
1000
0000
0100
0000
0010
0000
,
0001
1000
0001
1000
0002
0000
0000
0000
0013
0001
0000
0000
1001
0000
0000
0000
,
1100
0000
0010
0100
1000
0001
0100
1000
,
0010
0001
0100
0010
0110
0000
0011
0000
,
1001
0000
1000
1010
0000
0001
0010
0010
,
0100
0010
0100
0010
0100
0000
1000
0000
0001
0010
0000
0100
0010
0000
0100
0000
,
0100
1000
0001
0100
0010
0001
1000
0010
,
0100
0000
1000
0001
2000
0000
0000
0000
3001
0000
0000
0100
0010
0000
0000
0000
,
1000
0010
0001
0100
1000
0001
0010
0001
,
0100
0000
0010
1000
0010
1000
0010
0000
0100
0000
0001
0000
0010
0000
0100
0000
,
1000
0001
0100
0010
0001
1000
0010
0001
,
0100
0010
1000
0001
0210
0000
0001
0000
,
1300
0100
0001
0100
0000
0010
0100
0001
,
1000
0100
0010
2002
0000
0000
0000
0000
,
0000
0000
0000
0000
3003
0000
0000
0000
1000
0000
0000
0100
0010
0000
0001
0000
,
2000
0000
0000
3000
0000
0000
0000
0000
;

//---------------dance-single - ----------------
#NOTEDATA:;
#CHARTNAME:BEGINNER;
#CHARTHASH:559357723;
#STEPSTYPE:dance-single;
#BANNER:;
#DESCRIPTION:;
#CHARTSTYLE:;
#DIFFICULTY:Beginner;
#METER:3;
#METERF:3.000000;
#LASTSECONDHINT:92.200996;
#RADARVALUES:0.140996,0.178564,0.062335,0.155838,0.000000,95.000000,89.000000,6.000000,15.000000,0.000000,0.000000,0.000000,0.000000,0.000000,0.140996,0.178564,0.062335,0.155838,0.000000,95.000000,89.000000,6.000000,15.000000,0.000000,0.000000,0.000000,0.000000,0.000000;
#CREDIT:YonabearCWY;
#NOTES:
0000
0000
0000
0000
,
0000
0000
0000
0000
,
1000
0000
1000
0000
,
0001
0000
0001
0000
,
0100
0000
0100
0000
,
0010
0000
0010
0000
,
1000
1000
0001
0001
,
1000
1000
0001
0001
,
0100
0100
0010
0010
,
0100
0100
0010
0010
,
2002
3003
0220
0330
,
2020
3030
0202
0303
,
0001
0001
0001
0000
,
1000
1000
1000
0000
,
0010
0010
0010
0000
,
0100
0100
0200
0000
,
0300
0000
0010
0000
,
0010
0000
0010
0000
,
0010
0000
1000
1000
,
0001
0001
1000
0001
,
1000
0010
0100
0000
,
0100
0000
0100
0000
,
0100
0000
0010
0010
,
1000
1000
0100
0100
,
0010
0010
0001
0000
,
0001
0100
0010
0000
,
0010
1000
0100
0000
,
0100
0000
0010
0000
,
0010
0000
0001
0010
,
0100
0000
0100
1000
,
0001
0100
0220
0000
,
0330
0000
0001
1000
,
0001
1000
2002
0000
,
0000
3003
2000
0000
,
3002
0000
0000
0003
0000
0000
0000
0000
;

//---------------dance-double - ----------------
#NOTEDATA:;
#CHARTNAME:BASIC;
#CHARTHASH:2826410549;
#STEPSTYPE:dance-double;
#BANNER:;
#DESCRIPTION:;
#CHARTSTYLE:;
#DIFFICULTY:Easy;
#METER:7;
#METERF:7.000000;
#LASTSECONDHINT:92.200996;
#RADARVALUES:0.240435,0.339272,0.093503,0.176616,0.020778,162.000000,153.000000,9.000000,17.000000,0.000000,0.000000,0.000000,0.000000,0.000000,0.240435,0.339272,0.093503,0.176616,0.020778,162.000000,153.000000,9.000000,17.000000,0.000000,0.000000,0.000000,0.000000,0.000000;
#CREDIT:YonabearCWY;
#NOTES:
00022000
00000000
00000000
00000000
,
00033000
00000000
00000000
00000000
,
00100000
00000000
01100000
00000000
01000000
10000000
00010000
00000000
,
00010000
00000000
00001000
00000000
00000100
00000010
00000001
00000000
,
00000100
00000000
00000100
00000000
00000010
00001000
00000100
00000000
,
00010000
00010000
00001000
00001000
00100000
00010000
01000000
00000000
,
10010000
00000000
00100000
00100000
01000000
00000000
00100000
00001000
,
00001000
00000000
00010000
00010000
00000100
00000000
00000010
00001000
,
00001000
00000000
00000010
00000100
00001000
00000001
00000100
00000000
,
00000010
00010000
00001000
00100000
00001000
00010000
00100000
10000000
,
22000000
00000000
00000000
33000000
00202000
00000000
00000000
00303000
,
00002200
00000000
00000000
00003300
00000202
00000000
00000000
00000303
,
00001000
00000000
00000100
00000000
00010000
00000000
00001000
00010000
00000000
00001000
00010000
00000000
00100000
00000000
10000000
00000000
,
01000000
00000000
10000000
00000000
00100000
01000000
00001000
00100000
,
00010000
00000000
00100000
00000000
00001000
00000000
00010000
00001000
00000000
00010000
00001000
00000000
00000100
00000000
00000010
00000000
,
00001000
00000001
00000010
00000100
00001000
00000100
00010000
00022000
,
00000000
00000000
00000000
00033000
00100000
00000000
00000000
01000000
,
00100000
01000000
10000000
00010000
,
00100000
00011000
00000100
00000010
,
00000001
00001000
00000010
00000100
,
00001000
00000000
00000100
00000000
00010000
00000000
00000000
00001000
,
00100000
00010000
01000000
10000000
,
01000000
00010000
00100000
00001000
,
00000100
00000000
00000010
00000001
00000000
00000100
00000001
00000000
,
00002000
00000000
00003000
00000000
00000010
00000000
00000000
00000100
,
00010000
00001000
00010000
00100000
,
01000000
00010000
10000000
00000000
,
00010000
00000000
10000000
01000000
,
00100000
00001000
00000100
00000010
,
00001000
00000000
00000001
00000000
00000010
00000100
00000010
00000000
,
00000100
00000000
00010000
00002000
00000000
00000000
00103000
00000000
,
00010000
00000000
10000000
01000000
00000000
00100000
00010000
00000000
,
01000000
00000000
00002000
00020000
00000000
00000000
00000000
00000000
,
00000000
00000000
00033000
00000000
00000100
00000000
00000000
00001000
,
00000002
00000000
00000000
00000003
00000000
00000000
00000000
00000000
;

//---------------dance-double - ----------------
#NOTEDATA:;
#CHARTNAME:DIFFICULT;
#CHARTHASH:1234039130;
#STEPSTYPE:dance-double;
#BANNER:;
#DESCRIPTION:;
#CHARTSTYLE:;
#DIFFICULTY:Medium;
#METER:9;
#METERF:9.000000;
#LASTSECONDHINT:92.200996;
#RADARVALUES:0.316128,0.392841,0.124670,0.207784,0.124670,213.000000,201.000000,12.000000,20.000000,0.000000,0.000000,0.000000,0.000000,0.000000,0.316128,0.392841,0.124670,0.207784,0.124670,213.000000,201.000000,12.000000,20.000000,0.000000,0.000000,0.000000,0.000000,0.000000;
#CREDIT:YonabearCWY;
#NOTES:
00022000
00000000
00000000
00000000
,
00033000
00000000
00000000
00000000
,
00000010
00000000
00001000
00000100
00001000
00000000
00000000
00000000
00000001
00000000
00000010
00000000
00000001
00000000
00000000
00000000
,
00000100
00000000
00000000
00000000
00000010
00000000
00001000
00000000
00010000
00000000
00100000
00010000
00100000
00000000
01000000
00000000
,
00100000
00000000
00010000
20000000
30010000
00000000
00100000
00002000
,
00103000
00000000
00001000
00010000
00001000
00000000
00010000
00000000
00000100
00000000
00000010
00000000
00000100
00000000
00002000
00000000
,
00003001
00000000
00001000
00000010
00000100
00010000
00000100
00001000
,
00010000
00100000
00001000
00100000
01000000
00010000
00001000
00010000
,
00100000
00000000
01000000
00100000
01000000
10000000
00020000
00000000
,
00130000
00000000
00001000
00000000
00010000
00000000
00000100
00000000
00000010
00000100
00000000
00001000
00000002
00000000
00000003
00000000
,
00000220
00000000
00000000
00000330
00022000
00000000
00000000
00033000
,
00220000
00000000
00000000
00330000
20200000
00000000
00000000
30300000
,
00100000
00000000
00010000
00000000
01000000
00000000
00001000
00100000
00000000
00001000
00100000
00000000
00001000
00000000
00010000
00000000
,
00000100
00000010
00000001
00001000
00000010
00000100
00000001
00000010
,
00000100
00000000
00010000
00000000
00001000
00000000
00010000
00000100
00000000
00010000
00000100
00000000
00010000
00000000
00001000
00000000
,
00100000
00010000
00100000
00000000
00010000
10000000
00010000
00000000
10000000
00000000
01000000
00100000
00010000
00001000
00010000
00000200
,
00000000
00000000
00000000
00000000
00000000
00000000
00000300
00000000
00001000
00000000
00000000
00000010
00000000
00000000
00000100
00000000
,
00000001
00000000
00000010
00000000
00000100
00000010
00001000
00000010
,
00000100
00000000
00010000
00000000
00001000
00000000
00100000
00000000
01000000
00000000
00000000
10000000
00000000
00000000
00010000
00000000
,
10000000
00000000
00000000
00000000
00100000
00000000
00000000
00000000
00010000
00000000
00000000
00001000
00000000
00000000
00100000
00000000
,
00010000
00001100
00000010
00000011
,
00000100
00000000
00010100
00000000
00001000
00010000
00001000
00100000
,
01000000
10000000
00010000
00000000
00100000
00000000
00001000
00000000
,
00010000
00000000
00000100
00000010
00000000
00000001
00000010
00000100
,
00001000
00000000
00000100
00000000
00000010
00000000
00000100
00000000
00010000
00000000
00000000
00001000
00000000
00000000
00100000
00000000
,
00001000
00000000
00000000
00010000
00000000
00000000
00001000
00000000
01000000
00000000
00000000
00010000
00000000
00000000
00100000
00000000
,
01000000
10000000
00010000
00100000
00001000
00000000
00110000
00000000
,
00001000
00000000
00011000
00000000
00000100
00010000
00001000
00000100
,
00000010
00000000
00001000
00000000
00000100
00000000
00000010
00000000
00000100
00000000
00000000
00000001
00000000
00000000
00000010
00000000
,
00000001
00000000
00000000
00001000
00000000
00000000
00000010
00000000
00010000
00000000
00000000
00000100
00000000
00000000
00010000
00000000
,
00001000
00100000
01000000
10020000
00000000
00000000
00130000
00000000
,
00010000
01000000
00010000
00000000
00101000
00000000
00000100
00010000
,
00000100
00000000
00020000
00002000
00000000
00000000
00000000
00000000
,
00000000
00000000
00000000
00000000
00033000
00000000
00000000
00000000
00100000
00000000
00000000
01000000
00000000
00000000
10000000
00000000
,
00020000
00000000
00000000
00030000
00000000
00000000
00000000
00000000
;

//---------------dance-double - ----------------
#NOTEDATA:;
#CHARTNAME:EXPERT;
#CHARTHASH:2890391449;
#STEPSTYPE:dance-double;
#BANNER:;
#DESCRIPTION:;
#CHARTSTYLE:;
#DIFFICULTY:Hard;
#METER:13;
#METERF:13.000000;
#LASTSECONDHINT:7.601000;
#RADARVALUES:0.528364,0.660687,0.187005,0.155838,0.540237,356.000000,338.000000,18.000000,15.000000,0.000000,0.000000,0.000000,0.000000,0.000000,0.528364,0.660687,0.187005,0.155838,0.540237,356.000000,338.000000,18.000000,15.000000,0.000000,0.000000,0.000000,0.000000,0.000000;
#CREDIT:YonabearCWY;
#NOTES:
// measure 0
00022000
00000000
00000000
00000000
00000000
00000000
00000000
00033000
,  // measure 1
00000000
00000000
00100000
00010000
00000000
00000000
10000000
00000000
01000000
00000000
00100000
00000000
00001000
00000000
00010000
00000000
,  // measure 2
00000110
00000000
00000001
00000010
00001000
00000010
00000001
00000000
00000100
00000000
00000010
00001000
00000100
00010000
00000100
00000000
,  // measure 3
00010000
00001000
00001000
00000000
00100000
00000000
00010000
00100000
01000000
00100000
00001000
00010000
00001000
01000000
01000000
00000000
,  // measure 4
10100000
00000000
00100000
01000000
10000000
01000000
00010000
00000000
00100000
00000000
00001000
00010000
00001000
00000100
00000010
00000000
,  // measure 5
00000100
00000000
00000001
00001000
00000010
00000000
00001000
00000100
00010000
00001000
00001000
00100000
00010000
00001000
00010000
00000000
,  // measure 6
00100000
00010000
00000000
10000000
00100000
00000000
01000000
00010000
01000000
00010000
00100000
01000000
00100000
00001000
00020000
00000000
,  // measure 7
00030100
00001000
00010000
00001000
00000010
00000100
00001000
00000100
00000001
00000010
00000100
00000100
00010000
00001000
00020000
00000000
,  // measure 8
00031000
00100000
00010000
00100000
01000000
10000000
01000000
00100000
00010000
01000000
00100000
00010000
00001000
00010000
00021000
00000000
,  // measure 9
00030100
00001000
00000100
00000010
00000001
00001000
00000100
00000010
00010100
00010100
00000000
00011000
00011000
00000000
00100000
00010000
,  // measure 10
20010000
00000000
00000000
00000000
00000000
00000000
00000000
00000000
00100000
00000000
00000000
00000000
01000000
00000000
00000000
00000000
30001000
00000000
00100000
00000000
01000000
00000000
00100000
00000000
00001000
00000000
00010000
00001000
00010000
00000000
00000000
00000000
,  // measure 11
00000120
00000000
00000000
00000000
00000000
00000000
00000000
00000000
00001000
00000000
00000000
00000000
00000100
00000000
00000000
00000000
00010030
00000000
00000010
00000000
00001000
00000000
00000100
00000000
00010000
00001000
00000000
00010000
00001000
00010000
00100000
01000000
,  // measure 12
00100000
00000000
10000000
01000000
10000000
00010000
00100000
01000000
00000000
00100000
01000000
00100000
00001000
00010000
00001000
00000000
,  // measure 13
00010100
00000000
00000010
00000001
00000010
00001000
00000010
00000000
00001100
00000000
00000100
00010000
00001000
00010000
00000100
00000000
,  // measure 14
00010000
00001000
00010000
00001000
00100000
00010000
00100000
00010000
01000000
10000000
01000000
00010000
00100000
00001000
00010000
00001000
,  // measure 15
00000010
00000000
00001000
00000000
00010000
00001000
00010000
00000000
00000100
00000000
00001000
00000000
00000010
00000100
00000010
00000100
00000010
00000000
00001000
00000000
00000001
00000000
00000010
00000000
00000100
00000000
00000010
00000100
00000010
00000000
00000100
00020000
,  // measure 16
00000000
00000000
00031000
00010000
00001000
00100000
00110000
00000000
10000000
00000000
00010000
00100000
00000000
00000000
01000000
00000000
,  // measure 17
10000000
01000000
00001000
00010000
00100000
00010000
00000100
00000010
,  // measure 18
00001000
00000000
00000001
00000000
00000011
00000000
00000000
00000000
00000100
00000000
00000010
00001000
00000000
00000000
00000100
00000000
,  // measure 19
00010000
00001000
00010000
00100000
01000000
10000000
00010000
00100000
,  // measure 20
01000000
00100000
01000000
00100000
01000000
00000000
00000000
00000000
10000000
00010000
00000000
00000000
01100000
00000000
00000000
00000000
,  // measure 21
00101000
00000000
00001000
00010000
00000100
00000010
00000001
00001000
,  // measure 22
00000010
00000000
00000100
00000000
00000010
00001000
00000010
00001000
00000010
00000000
00000100
00000000
00010000
00000000
00001000
00000000
,  // measure 23
00010000
00100000
01000000
00010000
01000000
10000000
00010000
00100000
,  // measure 24
02200000
00000000
00000000
00000000
03300000
00000000
00000000
00000000
00010000
00000000
00000000
00001000
00100000
00000000
00010000
00000000
,  // measure 25
00001000
00000100
00001000
00000010
00000100
00001000
00000001
00000010
,  // measure 26
00000100
00000010
00000100
00000010
00000100
00000000
00000010
00000000
00000001
00000000
00000100
00000000
00001000
00000000
00000100
00000000
,  // measure 27
00010000
00001000
00100000
01000000
10000000
00010000
01000000
00100000
,  // measure 28
10000000
00000000
00010000
00100000
00010000
00100000
00010000
00000000
01000000
00000000
00100000
00000000
00001000
00000000
00010000
00000000
,  // measure 29
00100000
01000000
10000000
00100000
00010000
00001000
00000100
00000010
,  // measure 30
00001000
00000000
00000001
00000000
00000010
00000000
00000100
00000020
00000000
00000000
00000000
00000000
00000031
00000000
00000000
00000000
,  // measure 31
00000010
00001000
00000010
00000100
00020000
00000000
00031000
00100000
,  // measure 32
00010000
01000000
00010000
20020000
00000000
00000000
00000000
00000000
,  // measure 33
00000000
00000000
00000000
00000000
30030000
00000000
00000000
00000000
00100000
00000000
00000000
01000000
00010000
00000000
00100000
00000000
,  // measure 34
00002000
00000000
00000000
00003000
00000000
00000000
00000000
00000000
;
