#TITLE:CARRY ON NIGHT;
#SUBTITLE:(English version);
#ARTIST:platoniX (EURO style);
#TITLETRANSLIT:;
#SUBTITLETRANSLIT:;
#ARTISTTRANSLIT:;
#GENRE:EUROBEAT;
#CREDIT:YonabearCWY;
#BANNER:CARRY ON NIGHT (English version).png;
#BACKGROUND:CARRY ON NIGHT (English version)-bg.png;
#LYRICSPATH:;
#CDTITLE:Beatmania IIDX.png;
#MUSIC:CARRY ON NIGHT (English version).ogg;
#OFFSET:-6.160000;
#SAMPLESTART:50.908253;
#SAMPLELENGTH:15.000000;
#SELECTABLE:YES;
#BPMS:0.000000=158.000000
;
#STOPS:
;
#BGCHANGES:0.000=lines4.mp4=1.400=1=0=1===CrossFade==,
4.000=ring11.mp4=1.000=0=0=1=====,
6.000=ring1.mp4=2.000=0=0=1=====,
8.000=lines4.mp4=1.400=0=0=1=====,
12.000=lines4.mp4=0.100=0=0=1=====,
12.750=ring11.mp4=0.100=0=0=1=====,
13.500=ring1.mp4=0.100=0=0=1=====,
16.000=circle1.mp4=1.000=0=0=1=====,
27.500=moon1.mp4=1.000=0=0=1=====,
32.000=ring12a.mp4=1.000=0=0=1=====,
40.000=ring4.mp4=1.000=0=0=1=====,
44.000=ring1.mp4=2.000=0=1=1=StretchRewind====,
48.000=lines4.mp4=1.400=0=1=1=StretchRewind====,
56.000=max3.mp4=1.000=0=0=1=====,
61.500=max3.mp4=0.100=0=0=1=====,
62.500=lines4.mp4=0.100=0=0=1=====,
64.000=text17.mp4=1.400=0=0=1=====,
72.000=city3.mp4=1.000=0=0=1=====,
77.500=city3.mp4=0.100=0=0=1=====,
78.500=text17.mp4=0.100=0=0=1=====,
80.000=colors2.mp4=1.400=0=0=1=====,
88.000=light6.mp4=2.000=0=0=1=====,
90.000=arrows2.mp4=2.000=0=0=1=====,
92.000=light1.mp4=2.000=0=0=1=====,
94.000=ring5.mp4=2.000=0=0=1=====,
96.000=ring12a.mp4=1.000=0=1=1=StretchRewind====,
104.000=ring10.mp4=1.400=0=0=1=====,
112.000=light8.mp4=1.400=0=0=1=====,
116.000=light8.mp4=0.100=0=0=1=====,
117.000=ring10.mp4=0.100=0=0=1=====,
118.000=colors2.mp4=1.400=0=1=1=StretchRewind====,
121.000=city3.mp4=1.000=0=1=1=StretchRewind====,
128.000=night1.mp4=1.000=0=0=1=====,
136.000=text16.mp4=1.400=0=0=1=====,
144.000=text17.mp4=1.400=0=1=1=StretchRewind====,
152.000=lines4.mp4=1.400=0=1=1=StretchRewind====,
160.000=light6.mp4=1.000=0=1=1=StretchRewind====,
168.000=light1.mp4=1.000=0=1=1=StretchRewind====,
176.000=city3.mp4=1.000=0=1=1=StretchRewind====,
184.000=night1.mp4=1.000=0=1=1=StretchRewind====,
192.000=ring11.mp4=1.000=0=1=1=StretchRewind====,
200.000=light10.mp4=0.300=0=0=1=====,
214.000=colors2.mp4=1.400=0=1=1=StretchRewind====,
224.000=ring10.mp4=1.400=0=1=1=StretchRewind====,
232.000=text17.mp4=1.400=0=1=1=StretchRewind====,
240.000=text16.mp4=1.600=0=1=1=StretchRewind====,
248.000=max3.mp4=1.000=0=1=1=StretchRewind====,
256.000=light8.mp4=1.400=0=1=1=StretchRewind====,
264.000=arrows2.mp4=1.400=0=1=1=StretchRewind====,
272.000=circle1.mp4=1.000=0=1=1=StretchRewind====,
280.000=CARRY ON NIGHT (English version)-bg.png=1.000=0=0=1=====,
99999=-nosongbg-=1.000=0=0=0 // don't automatically add -songbackground-
;
#KEYSOUNDS:;
#ATTACKS:;

//---------------dance-single - ----------------
#NOTES:
     dance-single:
     BEGINNER:
     Beginner:
     4:
     0.000000,0.000000,0.000000,0.000000,0.000000,0.000000,0.000000,0.000000,0.000000,0.000000,0.000000,0.000000,0.000000,0.000000,0.000000,0.000000,0.000000,0.000000,0.000000,0.000000,0.000000,0.000000:
0000
1000
0000
1000
,
1000
0000
0001
0000
,
0000
0001
0000
0001
,
1001
0000
0000
0000
,
0000
0100
0000
0100
,
0000
0100
0000
0000
,
0000
0010
0000
0010
,
0010
0000
0000
0000
,
1000
1000
1000
0000
,
1000
0000
0000
0000
,
0001
0001
0001
0000
,
1001
0000
0000
0000
,
0010
0000
0010
0000
,
0010
0000
0000
0000
,
0000
0010
0010
0000
,
0110
0000
0000
0000
,
0100
0000
0100
0000
,
0100
0000
0000
0000
,
0000
0100
0100
0000
,
0110
0000
0000
0000
,
0000
0001
0000
0001
,
0000
0001
0000
0001
,
0000
1001
0000
0110
,
0000
1001
0000
0100
,
0100
0000
0100
0000
,
0100
0000
0100
0000
,
0220
0000
0000
0000
,
0000
0000
0000
0330
,
2002
0000
0000
0000
,
0000
3003
0000
0000
,
0000
0100
0000
0000
,
0000
0000
0000
0000
,
0100
0100
0100
0000
,
0100
0100
0100
0000
,
0010
0000
0000
0000
,
0010
0000
0000
0000
,
0100
0000
0000
0000
,
0100
0000
0000
0000
,
0001
0000
0000
0000
,
0001
0000
0000
0000
,
1000
0000
0000
0000
,
1000
0000
0000
0000
,
0010
0000
0000
0000
,
0010
0000
0000
0000
,
0100
0000
0000
0000
,
0100
0000
0000
0000
,
0000
1001
0000
0000
,
0000
0000
0000
0000
,
0010
0000
0010
0000
,
0010
0000
0000
0000
,
0100
0000
0100
0000
,
0100
0000
0000
0000
,
0001
0000
1000
0000
,
0001
0000
0000
0000
,
0000
1000
1000
0000
,
1000
0000
0000
0000
,
0000
0100
0100
0000
,
0100
0000
0000
0000
,
0000
0010
0010
0000
,
0010
0000
0000
0000
,
0000
0001
0001
0000
,
0001
0000
0000
0000
,
2002
0000
0000
3003
,
0000
0000
0000
0000
,
0100
0100
0100
0000
,
0100
0100
0100
0000
,
0220
0000
0000
0330
,
0000
0000
0000
0000
,
0010
0010
0010
0000
,
0010
0010
0010
0000
,
1001
0000
0000
0000
;

//---------------dance-single - ----------------
#NOTES:
     dance-single:
     BASIC:
     Easy:
     6:
     0.000000,0.000000,0.000000,0.000000,0.000000,0.000000,0.000000,0.000000,0.000000,0.000000,0.000000,0.000000,0.000000,0.000000,0.000000,0.000000,0.000000,0.000000,0.000000,0.000000,0.000000,0.000000:
1000
0000
1000
0000
,
1001
0000
0110
0000
,
0001
0000
0001
0000
,
0220
0000
0330
0000
,
1000
1000
1000
0000
,
1000
0000
0000
0000
,
0001
0000
0001
0000
,
2002
0000
0000
3003
,
0010
0010
0010
0000
,
0010
0000
0000
0000
,
0100
0100
0100
0000
,
0220
0000
0000
0330
,
0000
0001
0000
0001
,
0001
0001
0001
0001
,
0000
1000
0000
1000
,
2002
0000
3003
0000
,
0000
0100
0000
0100
,
0100
0100
0100
0100
,
0000
0010
0000
0010
,
0220
0000
0330
0000
,
0000
1000
1000
0000
,
1000
1000
1000
0000
,
0000
1001
0000
1001
,
0000
0110
0000
0110
,
0000
0001
0001
0000
,
0001
0001
0001
0000
,
1000
0000
0010
0000
,
1000
0000
0001
0000
,
0100
0000
0001
0000
,
0110
0220
0330
0000
,
0000
1001
0000
0000
,
0000
0000
0100
0100
0000
0000
0000
0000
,
0010
0010
0010
0000
,
0010
0010
0010
0000
,
0100
0100
0100
0000
,
0100
0100
0100
0000
,
0001
0001
0001
0000
,
1000
1000
1000
0000
,
2002
0000
0000
3003
,
0200
0300
0010
0000
,
0002
0003
1000
0000
,
0020
0030
0100
0000
,
0001
0001
0100
0000
,
1000
1000
0100
0000
,
0010
0010
0001
0000
,
0010
0010
1000
0000
,
0000
0110
0000
0000
,
0000
0000
0010
0010
0000
0000
0000
0000
,
0000
1000
0000
0000
,
0000
1000
0000
0000
,
0000
0001
0000
0000
,
0000
0001
0000
0000
,
0100
0100
0100
0000
,
0100
0100
0100
0000
,
0000
1000
1000
0000
,
0000
1000
1000
0000
,
0000
0001
0001
0000
,
0000
0001
0001
0000
,
0000
0010
0010
0000
,
0000
0010
0010
0000
,
0000
0100
0100
0000
,
0000
0100
0100
0100
,
2002
0000
0000
3003
,
0000
0000
0000
0000
,
0000
0010
0010
0000
,
0000
0010
0010
0010
,
0220
0000
0000
0330
,
0000
0000
0000
0000
,
0000
0100
0100
0000
,
0000
0100
0100
0100
,
1001
0000
0000
0000
;

//---------------dance-single - ----------------
#NOTES:
     dance-single:
     DIFFICULT:
     Medium:
     9:
     0.000000,0.000000,0.000000,0.000000,0.000000,0.000000,0.000000,0.000000,0.000000,0.000000,0.000000,0.000000,0.000000,0.000000,0.000000,0.000000,0.000000,0.000000,0.000000,0.000000,0.000000,0.000000:
0000
1000
0000
1000
0000
1000
0000
1000
,
0011
0000
1000
0000
1010
0000
0001
0100
,
0000
0001
0000
0001
0000
0001
0000
0001
,
0100
0000
0000
0100
0000
0000
0110
0000
0000
0000
0000
0000
0000
0000
0000
0000
,
1000
0010
1000
0000
0001
0000
0100
0000
,
0001
0000
0010
0100
1000
0000
0010
0000
,
0100
0000
0010
1000
0010
0000
0100
0001
,
0000
0010
0000
0001
0000
1000
0010
1000
,
0010
0000
0100
0001
0100
0000
0001
0000
,
0010
0000
0001
1000
0110
0000
0000
0000
,
0001
0100
0010
1000
,
0010
0000
0000
0010
0000
0000
0100
0000
0000
0100
0000
0000
0001
0000
0010
0000
,
0200
0000
0000
1300
0020
0000
0000
0130
,
0002
1000
0010
1003
,
0120
0000
0000
0001
0001
0000
0000
1000
,
1030
0000
0010
0010
0000
1001
0000
0000
,
2000
0000
0000
3001
0200
0000
0000
0310
,
2000
0000
0000
3100
0010
0001
1000
0000
,
0210
0001
1000
0310
,
0110
0000
1000
0001
0000
0110
0000
0000
,
0001
0100
0001
0100
,
0010
1000
0010
1000
0100
0000
0010
0000
,
0001
0100
0001
0002
0000
1003
0010
0020
,
0000
0130
0001
0001
0010
0000
1100
0000
,
0001
1000
0001
1000
,
0100
0010
0001
0010
0001
0000
0100
0000
,
0010
0000
0000
1000
0000
0000
0010
0000
0100
0000
0000
0001
0000
0000
1000
0000
,
0010
0000
0000
0100
0000
0000
0001
0000
0000
0010
0000
0000
0001
0000
1000
0000
,
0010
0000
1000
0100
0000
0100
0010
0001
,
0101
2002
0000
3003
,
0000
0220
0000
0000
,
0330
0000
1001
2002
0000
0000
3003
0000
,
0020
1000
0100
1030
,
0200
0001
0010
0301
,
1000
0000
0001
0100
0010
0000
0100
0010
,
0001
0000
0010
0100
0001
0000
0100
0000
,
0010
0000
1000
0100
0010
0000
0100
1000
,
0001
0000
0010
0100
1000
0100
0010
0000
,
2001
0000
0000
0000
0010
0000
0000
0010
0000
0000
0000
0000
3000
0000
0000
0000
,
1002
0000
0000
0000
0100
0000
0000
0100
0000
0000
0000
0000
0003
0000
0000
0000
,
0120
0000
0000
1000
2000
0000
3030
0000
,
0210
0000
0000
0001
0001
0000
0301
0000
,
0100
0100
0100
0100
,
0010
0010
0010
0010
,
1000
0001
1000
0000
0001
1000
0001
0000
,
0100
0000
0010
0000
1000
0000
0100
0010
,
0000
2002
0000
0000
,
3003
0000
0110
0220
0000
0000
0330
0000
,
0002
1000
0000
1000
,
2003
0010
0000
3010
,
0100
0000
0001
0000
0010
0000
0100
1000
,
0010
0000
0100
0000
0001
0000
0100
0001
,
0010
0000
0001
0000
1000
0000
0100
0010
,
0001
0000
1001
0000
0100
0010
1000
0010
,
0100
0000
0001
0000
0100
0001
0010
0001
,
1000
0010
1000
0001
,
2010
0100
0001
3100
,
0012
1000
0010
1003
,
0010
0000
0100
0001
0100
0001
0010
0000
,
0100
0000
1000
0010
1000
0010
0100
0000
,
0001
0000
0010
0100
1000
0010
0100
0010
,
0001
0000
0010
0000
0100
0001
1000
0001
,
0200
0001
0000
0301
,
0200
0010
1000
0310
,
0100
0001
0010
0001
0100
0001
1000
0001
,
0010
0000
0000
0001
0000
0000
1000
0000
0000
0010
0000
0000
1000
0000
0100
0000
,
2000
0010
0100
0010
,
3002
1000
0010
0100
,
0013
0001
0100
0010
1000
0100
0010
0000
,
1001
0000
0000
0100
0000
0000
0010
0000
0000
0100
0000
0000
0001
0000
1000
0000
,
1001
0000
0000
0000
;

//---------------dance-single - ----------------
#NOTES:
     dance-single:
     EXPERT:
     Hard:
     11:
     0.536159,0.576401,0.329372,0.320704,0.147351,433.000000,395.000000,38.000000,37.000000,0.000000,0.000000,0.536159,0.576401,0.329372,0.320704,0.147351,433.000000,395.000000,38.000000,37.000000,0.000000,0.000000:
// measure 0
0010
0000
0100
0001
0100
0000
0001
0000
,  // measure 1
2010
0000
0000
3001
0012
0000
0000
1003
,  // measure 2
1100
0000
0001
0000
0010
0100
1000
0001
,  // measure 3
0011
0000
0000
1000
0000
0000
2002
0000
0000
0000
0000
0000
3003
0000
0000
0000
,  // measure 4
0100
0000
1000
0000
0010
0000
0100
0001
,  // measure 5
0100
0001
0010
0100
1000
0000
0010
0000
,  // measure 6
0001
0000
0010
0000
0100
0000
0001
1000
,  // measure 7
0000
1100
0000
0110
0000
1000
0100
0010
,  // measure 8
1000
0000
0010
0000
0001
0000
1000
0010
,  // measure 9
1000
0001
0100
0001
0010
0000
0100
0000
,  // measure 10
0010
0000
0001
0000
1000
0010
1000
0001
,  // measure 11
0101
0000
0000
0010
0000
0000
0001
0000
0000
1000
0000
0000
0010
0000
1000
0000
,  // measure 12
1200
0000
0000
1300
0020
0000
0000
0130
,  // measure 13
0002
0000
0000
0013
0100
1000
0002
0000
,  // measure 14
0203
0010
1000
0301
,  // measure 15
0110
0000
1100
1100
0000
1001
0000
0000
,  // measure 16
0201
0000
0000
1300
0002
0000
0000
0013
,  // measure 17
0200
0000
0000
0301
0010
0100
0020
0000
,  // measure 18
0032
1000
0010
0103
,  // measure 19
0011
0000
1010
1010
0000
0220
0000
0330
,  // measure 20
1000
0000
0010
0000
1000
0000
0000
0000
0010
0000
0000
0100
0000
0000
0001
0000
,  // measure 21
0010
0000
0100
0000
0010
0000
0000
0000
0100
0000
0000
1000
0000
0000
0010
0000
,  // measure 22
1000
0000
0100
0000
1000
0000
0001
0100
0002
0000
0000
0000
0013
0000
0100
1000
,  // measure 23
0200
0000
0000
0000
0310
0000
1000
0001
1000
0000
0010
0000
0001
0000
0100
0000
,  // measure 24
0010
0000
1000
0000
0010
0000
0000
0000
1000
0000
0000
0001
0000
0000
0100
0000
,  // measure 25
0001
0000
0010
0000
0001
0000
1000
0000
0010
0000
0000
1000
0000
0000
0100
0000
,  // measure 26
1100
0000
0000
0010
0000
0000
0100
0000
0101
0000
0000
1000
0000
0000
0010
0000
,  // measure 27
1010
0000
0000
1001
0000
0000
0101
0000
0000
0011
0000
0000
0001
0000
1000
0000
,  // measure 28
0001
0000
0000
0100
0000
0000
0010
0000
0000
1000
0000
0100
0010
0000
0001
0000
,  // measure 29
0101
2002
0000
3003
,  // measure 30
0000
0000
1100
0000
0010
0100
0002
0020
,  // measure 31
0000
0033
0101
0202
0000
0000
0303
0000
,  // measure 32
1000
0000
0010
0100
0001
0000
0100
0010
,  // measure 33
0001
0000
0010
0100
0001
0100
0010
0000
,  // measure 34
1000
0000
0100
1000
0001
0000
0100
0010
,  // measure 35
0001
0000
0100
0001
1000
0001
0100
0000
,  // measure 36
0010
0000
0100
0001
0010
0000
0100
0010
,  // measure 37
0001
0000
0010
0100
1000
0001
0100
0010
,  // measure 38
2000
0000
0000
0000
0100
0000
0000
0100
0000
0000
0000
0000
0010
0000
0000
0000
,  // measure 39
3002
0000
0000
0000
1000
0000
0000
1000
0000
0000
0010
0000
0000
0000
0010
0000
,  // measure 40
0023
0000
0000
0000
0001
0000
0000
0100
0000
0000
0001
0000
0000
0100
0000
0000
,  // measure 41
0230
0001
0010
1000
,  // measure 42
0310
0000
0001
0000
0000
1000
0000
0000
0001
0000
0000
0100
0000
0000
0001
0000
,  // measure 43
0000
1000
0000
0110
0000
0001
0000
0010
,  // measure 44
0100
0000
1000
0000
0000
0010
0000
0000
0100
0000
0000
0001
0000
0000
0010
0000
,  // measure 45
0001
1000
0010
0000
0100
0001
0010
0100
,  // measure 46
0000
0000
0102
0000
0000
1003
0010
0100
,  // measure 47
0001
0000
1001
2002
0000
0000
3003
0000
,  // measure 48
0020
0000
1000
0000
0100
0000
1000
2030
,  // measure 49
0000
0001
0000
0100
0000
3001
0000
0000
,  // measure 50
0100
0001
0010
0001
1000
0001
0100
0000
,  // measure 51
0010
0000
1000
0000
0100
0000
1000
0000
0001
0000
1000
0000
0010
0000
0100
0010
,  // measure 52
0001
0010
0100
0001
1000
0100
0010
0000
,  // measure 53
0100
1000
0001
1000
0010
0100
0001
0010
,  // measure 54
0001
0000
1000
0100
1000
0000
0000
0000
0010
0000
0100
0000
0001
0000
0010
0000
,  // measure 55
0100
0000
0010
0001
0010
0000
0000
0000
0100
0000
1000
0000
0100
0000
0010
0000
,  // measure 56
0100
0000
1000
0001
0010
0000
0100
0010
,  // measure 57
1000
0000
0010
0000
0001
0000
0010
0000
0100
0000
0000
0000
1000
0000
0001
1000
,  // measure 58
0010
1000
0100
0010
0001
1000
0010
0000
,  // measure 59
0100
0001
0010
0100
0010
1000
0010
0100
,  // measure 60
1000
0000
0101
0000
0010
1000
0001
1000
,  // measure 61
0100
0000
1010
0000
0100
0010
0001
1000
,  // measure 62
0002
1000
0010
1000
,  // measure 63
0103
0001
0010
0100
2000
0000
0010
0000
,  // measure 64
3100
1000
0001
1000
0100
0010
0001
0100
,  // measure 65
0010
0000
0000
0100
0000
0000
0001
0000
0000
0010
0000
0001
0100
0000
0010
0000
,  // measure 66
2000
0000
0010
0010
0000
0100
0100
0000
,  // measure 67
3002
1000
0010
0100
,  // measure 68
0013
0001
1000
0000
0010
1000
0100
0010
,  // measure 69
0001
0000
0000
1001
0000
0000
1000
0000
0000
0110
0000
0000
0001
0000
1000
0000
,  // measure 70
1001
0000
0000
0000
;

//---------------dance-single - ----------------
#NOTES:
     dance-single:
     CHALLENGE:
     Challenge:
     15:
     0.000000,0.000000,0.000000,0.000000,0.000000,0.000000,0.000000,0.000000,0.000000,0.000000,0.000000,0.000000,0.000000,0.000000,0.000000,0.000000,0.000000,0.000000,0.000000,0.000000,0.000000,0.000000:
1000
0001
0010
0100
0001
0100
1000
0010
,
0101
0000
0001
0100
1010
0000
0001
1000
,
0110
0000
1000
0000
0100
0000
0010
0000
0001
0000
1000
0000
0001
0100
0001
0100
,
0001
0000
0000
1010
0000
0000
0220
0000
0000
0000
0000
0000
0330
0000
0000
0000
,
1000
0000
0010
0100
0010
0000
0100
0001
0100
0000
0001
0000
0010
0000
0100
0000
,
1000
0000
0010
1000
0000
0100
0000
1000
0001
0000
0200
0000
0000
0000
0310
0001
,
0010
0000
0100
0000
0010
0000
1000
0100
0000
1000
0000
0001
0100
0000
0001
0010
,
0001
0000
0000
1100
0000
0000
0010
0000
0000
0011
0000
0001
1000
0000
0010
0000
,
1000
0010
1000
0010
1000
0000
0001
0100
0000
0100
0010
0000
0001
0000
0010
0000
,
0100
0000
0000
1100
0000
0000
0100
0000
0020
0000
0000
0000
1030
0000
0100
0000
,
0010
0000
0001
0000
0100
0000
0001
1000
0000
0010
0000
0100
0010
0000
1000
0000
,
1100
0000
0000
0110
0000
0000
0011
0000
0000
1001
0000
0010
0100
0010
0100
1000
,
0001
0010
0200
0000
1300
0100
0002
0000
,
0103
1000
0100
0010
0001
0100
0010
1000
,
0001
0010
0200
0000
1300
0001
0020
0000
,
0130
1000
0001
0011
0000
1100
0000
0010
,
0100
0010
0001
1000
0100
0001
0200
0000
,
1300
0010
0001
0010
0100
0010
2000
0000
,
3001
0100
0010
1000
0100
0010
0001
0100
,
0101
0000
1010
1010
0000
2001
0000
0000
,
3001
0000
1000
0000
0010
1000
0000
1000
0001
0000
0000
0010
0000
0001
0100
0000
,
0010
0000
1000
0000
0100
0010
0000
0010
0001
0000
0000
0010
0100
0000
1000
0000
,
0001
0000
0100
0000
0110
0000
1000
0100
0010
0000
0001
0000
0101
0000
1000
0001
,
0100
0000
0001
0000
0011
0000
0001
0010
0100
0000
1000
0100
0000
0100
0010
0000
,
0001
0000
1000
0000
0010
1000
0000
1000
0100
0000
0100
0010
0000
0010
0001
0000
,
0100
0000
0010
0000
1000
0001
0000
0001
0010
0000
0010
0100
0000
0100
1000
0000
,
0010
0000
1000
0100
1000
0000
0001
0000
0101
0000
0010
0001
0010
0000
0100
0000
,
1100
0000
1000
0001
0000
0001
1000
0000
0010
0100
0000
0100
0010
1000
0010
0000
,
0100
0001
0100
0000
0001
0000
0010
0001
0010
0000
0100
0000
1000
0001
1000
0000
,
0110
2002
3003
0000
,
0000
0000
2100
0000
3001
0010
0100
0010
,
0010
0000
0101
0101
0000
1010
1010
0000
,
0100
0001
0000
0000
0010
0001
0000
0000
1000
0000
0010
0000
0100
0000
0001
0100
,
0000
0000
0010
1000
0000
0000
0010
0000
1000
0000
0100
1000
0002
0000
0000
0000
,
0013
0001
1000
0100
0001
0100
0010
0001
,
1000
0000
0100
0000
0010
0000
1000
0000
0010
0000
0001
0000
0010
0000
0100
0010
,
0100
1000
0001
0010
0100
0001
1000
0010
,
0001
0000
0001
0000
1000
0000
1000
0000
0010
0100
0010
0000
1000
0000
0100
0010
,
0001
1000
0001
1000
0001
0000
0100
0002
0000
0000
0013
0000
0100
0000
1000
0000
,
0100
1000
0100
1000
0100
0000
1000
0020
0000
0000
0130
0000
0001
0000
1000
0000
,
0010
0100
0010
0100
0010
0000
1000
0010
0000
0010
0100
0000
0100
0001
0000
0001
,
0010
0001
0010
0000
0001
1000
0001
0000
1000
0100
1000
0100
0010
0001
0010
0001
,
1000
0100
1000
0000
0001
0010
0000
0010
0100
0000
0000
1000
0000
0010
0100
0000
,
0001
0100
0001
0000
1000
0010
1000
0000
0001
0000
0010
0000
0001
0010
0100
1000
,
0100
0010
0100
0000
1000
0001
0000
0100
0010
0001
0010
0000
0100
0000
0001
0000
,
1000
0100
0010
0000
0100
0010
0001
0000
0010
0100
1000
0001
1000
0100
0010
0000
,
0000
0000
0201
0000
0310
1000
0100
1000
,
1000
0000
0110
0220
0000
0000
0330
0000
,
0002
0000
1000
1000
0000
0013
0000
1010
,
0000
1001
0000
0101
0000
0210
0000
0000
,
1300
0100
1000
0001
0010
0100
0001
0100
,
0010
0001
1000
0100
0001
1000
0020
0000
,
0130
1000
0100
0001
0100
0010
0001
0010
,
0100
0000
0100
0000
1000
0000
1000
0000
0001
0100
0001
0000
1000
0010
1000
0000
,
0001
0000
0100
0000
0100
0000
0000
0010
1000
0010
1000
0000
0100
0000
0010
0000
,
0001
0000
1000
0000
1000
0000
0000
0000
0100
0000
0010
0001
0000
0001
1000
0000
,
0010
0000
0100
0000
0001
0000
0010
0000
0001
0000
1000
0000
0100
0000
0010
0100
,
1000
0000
0001
0000
0100
0000
1000
0000
0100
0000
0001
0000
1000
0000
0010
0100
,
0001
1000
0010
0001
0010
1000
0001
0100
,
0010
0000
0000
1000
0100
0000
0010
0000
0001
0000
0100
0000
0100
0000
0000
0001
,
0010
0100
1000
0001
0100
0010
0010
0100
,
0001
2000
0000
3100
0010
0001
1000
0100
,
0010
0000
0001
0100
0001
0000
1000
0010
0100
0000
0001
0000
0001
0000
1000
0000
,
0010
0000
1000
0100
0000
1000
0000
0001
0100
0000
0020
0000
0000
0000
1030
0100
,
0010
0000
0100
0000
1000
0000
0001
0100
0000
0010
0000
1000
0010
0000
0100
0001
,
0100
0000
0001
0100
0000
0000
1000
0000
0100
0010
0000
0010
0001
0000
0010
0100
,
0010
0100
1000
0100
1000
0000
0100
0010
0001
0000
0010
0000
1000
0010
1000
0000
,
1100
0000
0000
0011
0000
0000
1000
0000
1002
0000
0000
0000
0013
0000
0100
0000
,
1000
0000
0010
0000
0010
0000
1000
0010
0000
0100
0000
0001
0010
0000
0100
1000
,
1100
0000
0000
0101
0000
0000
0011
0000
0000
1010
0000
1000
0001
0000
0100
0000
,
1001
0000
0000
0000
;
