#TITLE:Bluffing Damacy;
#SUBTITLE:;
#ARTIST:KIRINJI;
#TITLETRANSLIT:;
#SUBTITLETRANSLIT:;
#ARTISTTRANSLIT:;
#GENRE:SHIBUYA J-INDIE;
#CREDIT:YonabearCWY;
#BANNER:Bluffing Damacy.png;
#BACKGROUND:Bluffing Damacy-bg.png;
#LYRICSPATH:;
#CDTITLE:We Love Katamari.png;
#MUSIC:Bluffing Damacy.ogg;
#OFFSET:-6.870000;
#SAMPLESTART:61.865585;
#SAMPLELENGTH:15.000000;
#SELECTABLE:YES;
#BPMS:0.000000=145.000000
;
#STOPS:
;
#BGCHANGES:16.000=fire4.mp4=1.000=1=0=1===CrossFade==,
24.000=fireworks4.mp4=0.900=0=0=1=====,
32.000=fireworks2.mp4=1.000=0=0=1=====,
40.000=fireworks4.mp4=0.900=0=0=1=====,
48.000=amoeba1.mp4=1.000=0=0=1=====,
56.000=star1.mp4=1.000=0=0=1=====,
64.000=amoeba4.mp4=1.000=0=0=1=====,
72.000=star3.mp4=1.000=0=0=1=====,
80.000=text7.mp4=1.000=0=0=1=====,
88.000=text1.mp4=1.000=0=0=1=====,
96.000=balloon1.mp4=1.000=0=0=1=====,
104.000=flower1.mp4=0.800=0=0=1=====,
112.000=fireworks4.mp4=1.000=0=1=1=StretchRewind====,
128.000=blackhole1.mp4=1.000=0=0=1=====,
136.000=flower2.mp4=1.000=0=0=1=====,
144.000=ants1a.mp4=1.000=0=0=1=====,
146.500=fireworks3a.mp4=2.000=0=0=1=====,
147.000=fireworks3b.mp4=2.000=0=0=1=====,
147.500=fire6.mp4=1.600=0=0=1=====,
150.500=fireworks3b.mp4=2.000=0=0=1=====,
151.000=fireworks3-edit.mp4=2.000=0=0=1=====,
152.000=flower2.mp4=1.000=0=1=1=StretchRewind====,
168.000=blackhole1.mp4=1.000=0=1=1=StretchRewind====,
176.000=ants1a.mp4=1.000=0=1=1=StretchRewind====,
178.500=fireworks3-edit.mp4=2.000=0=0=1=====,
179.000=fireworks3a.mp4=2.000=0=0=1=====,
179.500=fire4.mp4=1.600=0=1=1=StretchRewind====,
182.500=fireworks3a.mp4=2.000=0=0=1=====,
183.000=fireworks3b.mp4=2.000=0=0=1=====,
184.000=fireworks2.mp4=1.000=0=1=1=StretchRewind====,
192.000=moon1.mp4=1.000=0=0=1=====,
200.000=star1.mp4=1.000=0=1=1=StretchRewind====,
216.000=star3.mp4=1.000=0=1=1=StretchRewind====,
232.000=Bluffing Damacy-bg.png=1.000=0=0=1=====,
99999=-nosongbg-=1.000=0=0=0 // don't automatically add -songbackground-
;
#KEYSOUNDS:;
#ATTACKS:;

//---------------dance-single - ----------------
#NOTES:
     dance-single:
     BEGINNER:
     Beginner:
     2:
     0.000000,0.000000,0.000000,0.000000,0.000000,0.000000,0.000000,0.000000,0.000000,0.000000,0.000000,0.000000,0.000000,0.000000,0.000000,0.000000,0.000000,0.000000,0.000000,0.000000,0.000000,0.000000:
1000
0000
0000
0000
,
1000
0000
0000
0000
,
0001
0000
0000
0000
,
0001
0000
0000
0000
,
0100
0000
0100
0000
,
0100
0000
0000
0000
,
0100
0000
0100
0000
,
0100
0000
0000
0000
,
0010
0000
0010
0000
,
0010
0000
0000
0000
,
0010
0000
0010
0000
,
0010
0000
0000
0000
,
0000
1000
0000
1000
,
0000
1000
0000
0000
,
0001
0000
0001
0000
,
0001
0000
0001
0000
,
0000
0010
0000
0010
,
0000
0010
0000
0000
,
0100
0000
0100
0000
,
0100
0000
0100
0000
,
1001
0000
0000
0000
,
0010
0010
0010
0000
,
0100
0000
0000
0000
,
0100
0000
0000
0000
,
0110
0000
0000
0000
,
1000
1000
1000
0000
,
0001
0000
0001
1000
,
0001
0000
0000
1000
,
1000
0000
0000
0000
,
0001
0000
0000
0001
,
0001
0000
1000
0000
,
0000
0000
0000
0000
,
0000
0000
0000
0000
,
0000
0110
0000
0000
,
1000
1000
1000
0000
,
1000
0000
0000
0000
,
0001
0000
0001
0000
,
1000
0000
1000
0000
,
0001
0001
0001
0000
,
0001
0000
0000
0000
,
0100
0000
0100
0000
,
0010
0000
0010
0000
,
0100
0100
0100
0000
,
0100
0000
0000
0000
,
0001
0000
0001
0000
,
0010
0000
0010
0000
,
0100
0100
0100
0000
,
0100
0000
0000
0000
,
0010
0000
0010
0000
,
1001
0000
0000
0000
,
0000
1000
0000
0000
,
0000
1000
0000
0000
,
0000
0001
0000
0000
,
0000
0001
0000
0000
,
0000
0100
0000
0000
,
0000
0100
0000
0000
,
0000
0010
0000
0000
,
0000
0010
0000
0000
,
2002
0000
0000
0000
,
3003
0000
0000
0000
;

//---------------dance-single - ----------------
#NOTES:
     dance-single:
     BASIC:
     Easy:
     5:
     0.000000,0.000000,0.000000,0.000000,0.000000,0.000000,0.000000,0.000000,0.000000,0.000000,0.000000,0.000000,0.000000,0.000000,0.000000,0.000000,0.000000,0.000000,0.000000,0.000000,0.000000,0.000000:
1000
0000
1000
0000
,
1000
0000
1000
0000
,
0001
0000
0001
0000
,
0001
0000
0001
0000
,
0100
0100
0100
0000
,
1001
0000
0000
0000
,
0010
0010
0010
0000
,
1001
0000
0000
0000
,
1000
1000
1000
0000
,
0110
0000
0100
0000
,
0001
0001
0001
0000
,
0110
0000
0010
0000
,
2002
0000
0000
3003
,
1000
0000
1000
0000
,
0220
0000
0000
0330
,
0001
0001
1000
1000
,
0202
0000
0000
0303
,
0010
0000
0010
0000
,
2200
0000
0000
3300
,
0100
0100
0010
0010
,
1001
0000
0001
0000
,
0100
0001
0100
0010
,
1010
0000
0000
0100
0000
0000
2002
0000
,
0000
3003
0100
0100
,
1001
0000
0100
0000
,
1000
0010
1000
0001
,
0101
0000
0000
0010
0000
0000
2002
0000
,
0000
3003
0000
0000
,
2000
0000
0000
0010
0000
0000
0002
0000
,
0000
3003
0000
0000
,
0002
0000
0000
0100
0000
0000
2000
0000
,
0000
0000
0000
3003
,
0000
0000
0000
0000
,
0000
1001
0000
0000
,
0010
0010
0010
0000
,
0010
0010
0010
0000
,
0100
0100
0110
0000
,
0100
0100
0110
0000
,
1000
1000
1000
0000
,
1000
1000
1000
0000
,
0001
0000
0001
0000
,
0010
0001
0100
0010
,
0100
0100
0100
0000
,
0100
0100
0100
0000
,
0010
0010
1001
0000
,
0010
0010
1001
0000
,
0001
0001
0001
0000
,
0001
0001
0001
0000
,
1000
0000
1000
0000
,
2002
0000
0000
3003
,
0010
0100
0010
0100
,
0010
0000
0010
0000
,
0100
0001
1000
0001
,
1000
0000
0001
0100
,
0001
0010
0001
1000
,
0010
0000
0100
0000
,
0001
0010
0100
1000
,
0100
0000
1000
0000
,
2002
0000
0000
0000
,
3003
0000
0000
0000
;

//---------------dance-single - ----------------
#NOTES:
     dance-single:
     DIFFICULT:
     Medium:
     8:
     0.000000,0.000000,0.000000,0.000000,0.000000,0.000000,0.000000,0.000000,0.000000,0.000000,0.000000,0.000000,0.000000,0.000000,0.000000,0.000000,0.000000,0.000000,0.000000,0.000000,0.000000,0.000000:
1000
0010
0000
0000
0010
1000
0000
0001
,
0000
0100
0000
0001
0010
0002
0000
0000
,
0103
0001
0000
0000
0001
0100
0000
0010
,
0000
1000
0100
0010
0001
2000
0000
0000
,
3010
0000
1000
0010
0001
0000
0010
0100
,
0000
0010
0200
0000
0001
0000
1300
0000
,
0001
0000
1000
0100
0001
0000
0100
0010
,
0000
0100
0020
0000
0001
0000
1030
0000
,
0001
0000
0100
0001
0010
0001
0010
0000
,
1100
0000
0010
0100
0010
0000
1000
0000
,
0100
0000
0010
0100
0010
0100
1000
0000
,
0101
0000
0010
0001
0000
1000
0010
0000
,
0220
0000
0000
0330
,
0100
0001
0100
0001
0000
0000
0010
0000
,
0100
0100
0000
0000
1000
1000
0000
0000
,
0010
0010
0000
0000
0100
0100
0000
0000
,
2002
0000
0000
3003
,
0100
0010
0100
0010
0000
1000
0100
0000
,
0010
0010
0000
0000
0001
0001
0000
0000
,
0100
0100
0000
0000
0010
0010
0000
0000
,
2010
0100
0001
0100
,
3002
0000
0000
1000
1000
0000
0013
0000
,
0210
0000
1000
0000
0000
0001
0301
0000
,
1000
0010
0100
0001
,
0102
0010
1000
0010
,
2003
0000
0000
0100
0100
0000
0010
0000
,
3002
0000
0100
0100
0000
0010
0020
0000
,
0000
0033
0000
0000
,
2010
0000
0000
0100
0000
0000
0002
0000
,
0000
3003
0000
0000
,
0010
0001
0100
0002
0000
2003
0002
0000
,
0000
0000
0000
3003
,
0000
0000
0000
0000
,
0000
0000
0000
0001
0010
0000
0100
0000
,
1010
0000
0101
0000
1100
0000
0001
1000
,
0001
0010
0220
0330
,
1000
0000
0001
0000
1000
0001
0001
0000
,
0010
0000
0100
0000
0010
0100
0100
0000
,
1100
0000
0011
0000
0110
0000
1000
0100
,
1000
0001
2002
3003
,
0100
0010
0001
0010
,
0100
0000
0010
0000
1000
0010
0100
0000
,
0011
0000
1100
0000
0101
0000
0010
0100
,
1000
0000
0010
0000
0100
0001
0000
0001
,
1000
0000
0010
0000
0100
0001
0001
0000
,
0010
0000
0100
0000
1000
0010
0010
0000
,
0101
0000
0011
0000
1100
0000
0010
0100
,
0001
0000
0100
0000
0010
1000
0000
1000
,
0100
0000
0010
0000
0001
1000
0001
2002
,
0000
0000
0000
3003
,
1000
0010
1000
0000
0010
0000
1000
0100
,
0000
0100
0010
0000
0001
0000
0110
0000
,
0001
0100
0001
0000
0010
0000
0100
1000
,
0000
1000
0001
0000
0100
0010
0100
0000
,
0001
0010
0100
1000
0100
0000
1000
0010
,
0000
0010
0100
0000
0001
0000
0010
0000
,
0001
1000
0100
0010
0100
0000
0010
0001
,
0000
0010
0200
0000
0000
1300
0100
0010
,
2002
0000
0000
0000
,
3003
0000
0000
0000
;

//---------------dance-single - ----------------
#NOTES:
     dance-single:
     EXPERT:
     Hard:
     11:
     0.568063,0.558596,0.321903,0.236693,0.071008,420.000000,386.000000,34.000000,25.000000,0.000000,0.000000,0.568063,0.558596,0.321903,0.236693,0.071008,420.000000,386.000000,34.000000,25.000000,0.000000,0.000000:
// measure 0
0010
0100
1000
0100
0010
0001
0000
0100
,  // measure 1
0000
0010
0000
1000
0100
1000
0001
0010
,  // measure 2
0000
0100
1000
0100
0000
0001
0100
0001
,  // measure 3
0000
0100
1000
0100
0010
0001
1001
0000
,  // measure 4
0010
0100
0100
0010
0100
0010
0010
0200
,  // measure 5
0000
0000
0301
0000
1000
0000
0100
0000
0100
0000
0100
0000
0100
0000
0010
0100
,  // measure 6
1000
0001
0001
1000
0001
1000
1000
0002
,  // measure 7
0000
0013
0100
0010
0001
0110
0000
1001
,  // measure 8
0100
0001
0001
0100
1000
1000
0100
0020
,  // measure 9
0000
0000
0130
0000
0001
0000
0010
0000
0010
0000
0010
0000
0010
0000
0100
1000
,  // measure 10
0001
0010
0010
0100
0010
0100
0100
2000
,  // measure 11
0000
0000
3001
0000
1000
0000
0110
0000
0000
0000
1000
0001
0010
0000
0100
0000
,  // measure 12
0010
0010
0010
0010
0000
0001
1000
0000
,  // measure 13
0100
0100
0100
0100
0000
1000
0100
0010
,  // measure 14
0001
0100
0101
0000
1000
0010
1010
0000
,  // measure 15
0001
0100
0110
0000
1000
0010
0110
0000
,  // measure 16
0001
0001
0001
0001
0000
0100
0010
0100
,  // measure 17
1000
1000
1000
1000
0000
0010
0100
0001
,  // measure 18
0100
0000
0010
0000
1000
0000
0100
1000
0001
0000
0010
0000
0010
0000
0000
0000
,  // measure 19
0001
0000
0100
0000
0010
0000
1000
0100
0010
0000
1100
0000
0000
0000
1001
0000
,  // measure 20
0021
0000
1000
0000
0001
0000
0130
0010
,  // measure 21
0001
0010
0010
0100
1000
0001
0000
1000
,  // measure 22
1200
0010
0001
1300
,  // measure 23
0001
0100
1000
0100
0001
1000
0000
0010
,  // measure 24
0120
0000
1000
0000
0001
0000
1030
0010
,  // measure 25
0100
0001
0010
0001
0001
1000
0010
0000
,  // measure 26
0100
0100
0100
0100
0000
0001
2001
0000
,  // measure 27
0000
0010
0010
0000
0000
0010
3010
0000
,  // measure 28
1002
0000
0203
0001
0000
0302
0020
0000
,  // measure 29
0030
0000
1000
1000
0000
1000
1003
0000
,  // measure 30
1000
0100
0010
0001
0000
0010
0220
0000
,  // measure 31
0000
0000
0000
0330
,  // measure 32
2000
0000
0000
0001
0000
0000
0020
0000
,  // measure 33
0000
0000
3030
1000
0100
0010
0001
0010
,  // measure 34
1100
0000
0101
0000
0011
0000
0010
1000
,  // measure 35
0100
0100
0100
0100
0010
0001
1001
0000
,  // measure 36
0010
0000
1000
0000
0001
0000
0100
0001
0100
0000
0010
0000
0010
0000
0100
0000
,  // measure 37
0001
0000
0010
0100
0010
0000
0100
0000
1000
0000
0010
0000
0010
0000
0000
0000
,  // measure 38
0101
0000
1010
0000
0011
0000
0100
0010
,  // measure 39
0001
0001
0001
0001
1000
0010
0110
0000
,  // measure 40
0001
0010
0100
1000
0000
0100
0010
0001
,  // measure 41
0000
0000
1000
0000
0010
0000
0001
0000
0010
0000
1000
0000
0001
0000
1000
0001
,  // measure 42
0010
0001
0100
0001
1000
1000
1000
1000
,  // measure 43
0010
1000
0100
0010
0010
0010
0110
0000
,  // measure 44
0001
0000
1000
0000
0010
0000
0100
0001
0100
0000
0001
0000
0001
0000
0100
0000
,  // measure 45
0010
0000
1000
0000
0001
0000
0100
0010
0100
0000
1000
0000
1000
0000
0000
0000
,  // measure 46
0110
0000
0011
0000
1100
0000
0001
0100
,  // measure 47
0010
0010
0010
0010
1000
0100
0010
0000
,  // measure 48
0001
0010
0100
0010
1000
0001
0100
0010
,  // measure 49
0001
0000
0001
0000
0000
0000
0110
0000
0000
0000
1000
0000
0010
0000
0100
0010
,  // measure 50
0001
0010
0010
1000
0001
0020
0001
0002
,  // measure 51
0030
0000
0013
0000
0010
0000
0010
0000
0010
0000
1001
0000
0000
0000
0001
0100
,  // measure 52
0010
1000
1000
0100
0001
0200
0010
0020
,  // measure 53
0300
0000
0130
0000
0100
0000
0100
0000
0100
0000
1001
0000
0000
0000
0010
1000
,  // measure 54
0100
0001
0001
0100
1000
0020
1000
2000
,  // measure 55
0030
0000
3001
0000
0001
0000
0001
0000
0001
0000
0110
0000
1000
0000
0001
0100
,  // measure 56
0010
0100
0100
0001
0010
0001
1000
1000
,  // measure 57
0001
0000
0100
0000
0120
0000
0000
0000
0000
0000
1030
0100
0010
0000
0001
0000
,  // measure 58
2002
0000
0000
0000
,  // measure 59
3003
0000
0000
0000
;
