#TITLE:Bluffing Damacy;
#SUBTITLE:(GUIRO Refreshed ver);
#ARTIST:GUIRO;
#TITLETRANSLIT:;
#SUBTITLETRANSLIT:;
#ARTISTTRANSLIT:;
#GENRE:SHIBUYA J-INDIE;
#CREDIT:YonabearCWY;
#BANNER:Bluffing Damacy (GUIRO Refreshed ver).png;
#BACKGROUND:Bluffing Damacy (GUIRO Refreshed ver)-bg.png;
#LYRICSPATH:;
#CDTITLE:Katamari Forever.png;
#MUSIC:Bluffing Damacy (GUIRO Refreshed ver).ogg;
#OFFSET:-9.280000;
#SAMPLESTART:52.339619;
#SAMPLELENGTH:15.000000;
#SELECTABLE:YES;
#DISPLAYBPM:124.000000;
#BPMS:0.000000=124.199997
,16.000000=124.700005
,18.000000=124.999992
,24.000000=124.199997
,28.000000=123.000000
,32.000000=124.000000
,40.000000=123.000000
,45.000000=125.100006
,47.000000=124.000000
,64.000000=123.500000
,72.000000=123.900002
,82.000000=125.999992
,84.000000=124.999992
,85.000000=124.500000
,86.000000=124.000000
,87.000000=123.500000
,88.000000=123.000000
,92.000000=122.000000
,94.000000=124.000000
,96.000000=124.500000
,100.000000=126.999992
,102.000000=125.250008
,106.000000=124.999992
,108.000000=123.000000
,113.000000=124.550003
,116.000000=124.199997
,119.000000=123.799995
,122.000000=123.000000
,125.000000=123.900002
,128.000000=125.999992
,132.000000=123.500000
,148.000000=124.000000
,150.500000=125.999992
,159.000000=122.000000
,165.000000=123.000000
,175.000000=124.199997
,184.000000=124.500000
;
#STOPS:
;
#BGCHANGES:0.000=kaliedoscope5.mp4=1.000=1=0=1===CrossFade==,
8.000=blackhole1.mp4=1.000=0=0=1=====,
16.000=blinds1.mp4=1.000=0=0=1=====,
24.000=kaliedoscope6.mp4=1.000=0=0=1=====,
32.000=kaliedoscope4.mp4=1.000=0=0=1=====,
40.000=flower2.mp4=1.000=0=0=1=====,
48.000=fireworks1.mp4=1.000=0=0=1=====,
56.000=moon1.mp4=1.000=0=0=1=====,
64.000=fireworks2.mp4=1.000=0=0=1=====,
72.000=text1.mp4=1.000=0=0=1=====,
80.000=ants1.mp4=1.000=0=0=1=====,
84.000=balloon1.mp4=1.000=0=0=1=====,
89.000=blinds1.mp4=1.000=0=1=1=StretchRewind====,
92.000=blackhole1.mp4=1.000=0=1=1=StretchRewind====,
100.000=colors1.mp4=1.000=0=0=1=====,
106.000=colors3.mp4=1.000=0=0=1=====,
108.000=kaliedoscope6.mp4=1.000=0=1=1=StretchRewind====,
116.000=colors1.mp4=1.000=0=1=1=StretchRewind====,
124.000=kaliedoscope5.mp4=1.000=0=1=1=StretchRewind====,
132.000=blinds1.mp4=1.000=0=1=1=StretchRewind====,
138.000=colors3.mp4=1.000=0=0=1=====,
140.000=fireworks2.mp4=1.000=0=1=1=StretchRewind====,
148.000=fireworks1.mp4=1.000=0=1=1=StretchRewind====,
160.000=kaliedoscope4.mp4=1.000=0=1=1=StretchRewind====,
165.000=ants1.mp4=1.000=0=1=1=StretchRewind====,
168.000=kaliedoscope4.mp4=1.000=0=0=1=====,
173.000=ants1.mp4=1.000=0=0=1=====,
176.000=colors3.mp4=1.000=0=1=1=StretchRewind====,
181.000=moon1.mp4=1.000=0=1=1=StretchRewind====,
184.000=colors3.mp4=1.000=0=0=1=====,
189.000=moon1.mp4=1.000=0=0=1=====,
192.000=Bluffing Damacy (GUIRO Refreshed ver)-bg.png=1.000=0=0=1=====,
99999=-nosongbg-=1.000=0=0=0 // don't automatically add -songbackground-
;
#KEYSOUNDS:;
#ATTACKS:;

//---------------dance-single - ----------------
#NOTES:
     dance-single:
     CHALLENGE:
     Challenge:
     13:
     0.544884,0.561154,0.204854,0.136569,0.263384,391.000000,370.000000,21.000000,14.000000,0.000000,0.000000,0.544884,0.561154,0.204854,0.136569,0.263384,391.000000,370.000000,21.000000,14.000000,0.000000,0.000000:
// measure 0
1000
0000
0010
0000
0100
0000
0001
0100
0001
0000
0010
0000
0001
0000
0100
0010
,  // measure 1
0100
0000
0001
0000
1000
0000
0010
0100
0010
0000
1000
0000
0100
0000
0010
0001
,  // measure 2
1000
0100
0010
0100
1000
0001
0010
0100
,  // measure 3
0010
0000
0010
0000
0000
0000
1001
0000
0000
0000
0100
0000
0010
0000
0100
1000
,  // measure 4
0100
0010
0001
0010
0100
0010
0000
1000
,  // measure 5
0010
0000
1000
0000
0000
0000
0001
0000
0100
0000
0001
0000
0000
0010
0100
0000
,  // measure 6
1000
0100
0010
0001
0100
1000
0100
0001
,  // measure 7
1000
0010
0010
0000
0100
0001
0010
0100
,  // measure 8
1000
0000
0010
0000
0100
0000
0001
0010
0001
0000
1000
0000
0100
0000
1000
0010
,  // measure 9
1000
0000
0000
0000
0000
0000
0001
0000
0000
0000
0000
0000
0100
0000
0000
0000
0000
0000
0010
0000
0000
1000
0000
0000
0010
0000
0000
0000
0000
0000
0100
0000
0000
0000
0000
0000
0100
0000
0000
0000
0000
0000
0001
0000
1000
0000
0001
0000
,  // measure 10
2000
0000
0100
0000
0010
0000
3001
0100
,  // measure 11
1000
0000
0100
0000
0020
0000
0000
0000
0130
0000
0010
0000
1000
0010
0100
0000
,  // measure 12
0010
0000
0001
0000
0010
0000
1000
0000
0010
0000
0001
0000
0010
0100
1000
0000
,  // measure 13
0100
0000
0001
0000
0010
0000
0001
0000
1000
0000
0010
0000
0100
0001
1000
0000
,  // measure 14
0102
0000
0010
0000
0100
0000
1003
0010
,  // measure 15
0001
0000
0010
0000
0200
0000
0000
0000
0310
0000
0100
0000
1000
0000
0100
0010
,  // measure 16
0001
0010
0100
0010
0100
0001
2001
0000
,  // measure 17
0100
0000
0100
0000
0000
0000
0010
0000
3010
0000
1000
0000
0001
0000
0100
0010
,  // measure 18
0200
0000
0010
0010
0000
0001
0302
0000
,  // measure 19
0010
0000
0010
0000
0000
0000
1000
0000
1003
0000
0000
0000
0100
0010
0000
0010
,  // measure 20
0001
0100
1000
0100
0001
1000
0010
0001
,  // measure 21
2002
0000
3003
0000
,  // measure 22
0000
0000
0000
0000
0000
0000
0000
0000
0000
0000
0000
0000
1000
0000
0010
0000
1000
0000
0000
0000
0000
0010
0000
0000
0100
0000
0000
0000
0000
0000
0001
0000
0000
0000
0000
0000
0010
0000
0000
0000
0000
0000
0100
0000
0000
0000
0000
0000
,  // measure 23
1100
0000
0101
0000
1001
0000
1000
0001
,  // measure 24
0010
0000
0100
0000
1000
0000
0010
1000
0010
0000
1000
0000
1000
0000
0010
0000
,  // measure 25
0110
0000
0100
0001
0000
0001
0010
0000
0011
0000
0001
1000
0000
1000
0100
0000
,  // measure 26
1100
0000
1000
0001
0000
1000
0001
0000
0220
0000
0000
0000
0330
0000
0000
0000
,  // measure 27
0011
0000
1010
0000
0110
0000
0001
1000
,  // measure 28
0100
0000
1000
0000
0001
0000
0010
0000
0001
0000
0100
0000
0010
0000
0001
0010
,  // measure 29
0100
0010
0100
0001
0000
1000
0010
0100
,  // measure 30
1100
0000
0010
0000
0000
0100
0000
0000
0001
0000
0000
0010
0000
0100
1000
0000
,  // measure 31
0010
0100
0001
0010
0100
1000
0100
0010
,  // measure 32
0100
0000
1000
0000
0001
0000
0100
0001
0010
0000
0001
0000
0001
0000
1000
0000
,  // measure 33
0100
0100
1000
0010
0010
1000
0010
0201
,  // measure 34
0000
0000
0301
0000
0010
0000
0010
0000
0001
0000
0100
0000
0100
0001
0010
0000
,  // measure 35
0011
0000
1100
0000
0101
0000
0010
1000
,  // measure 36
0010
0000
0001
0000
0010
0000
0100
0000
0010
0000
1000
0000
0100
0000
0010
0100
,  // measure 37
1000
0000
0000
0000
0101
0000
0000
0000
0010
0000
0100
0000
0000
0001
0010
0001
,  // measure 38
0000
1001
0000
0000
1000
0000
0100
0000
0010
0000
0000
0100
1000
0100
1000
0000
,  // measure 39
0010
0100
0000
0100
0001
0000
0010
0001
0010
0000
0001
0000
1000
0000
0010
0000
,  // measure 40
0100
0000
1000
0000
0100
0000
0010
0000
0100
0000
0000
1000
0100
0000
0010
0000
,  // measure 41
0001
0010
0200
0000
0001
0000
1000
0000
,  // measure 42
0301
0000
0010
0000
0100
0000
0010
0000
0001
0000
0010
0100
0010
0000
0100
0000
,  // measure 43
1000
0000
0100
0000
0001
0100
0001
0100
0001
0000
0100
0000
1000
0000
0001
0000
,  // measure 44
0010
0000
0100
0000
1000
0000
0100
0000
0010
0100
0000
0100
1000
0000
0010
0000
,  // measure 45
0100
0001
0020
0000
1000
0000
0001
0000
,  // measure 46
1030
0000
0010
0000
0001
0000
0100
0000
0010
0000
0100
0001
0100
0000
0001
0000
,  // measure 47
0010
0000
0100
0000
1000
0010
1000
0010
1000
0010
0100
0000
0001
0000
1000
0001
;

//---------------dance-double - ----------------
#NOTES:
     dance-double:
     CHALLENGE:
     Challenge:
     14:
     0.000000,0.000000,0.000000,0.000000,0.000000,0.000000,0.000000,0.000000,0.000000,0.000000,0.000000,0.000000,0.000000,0.000000,0.000000,0.000000,0.000000,0.000000,0.000000,0.000000,0.000000,0.000000:
00010000
00100000
00000000
00100000
01000000
00000000
10000000
00000000
00100000
01000000
00010000
00000000
01000000
00000000
00001000
00000000
,
00010000
00001000
00000000
00001000
00000100
00000000
00000010
00000000
00001000
00000100
00000010
00000000
00000001
00000000
00001000
00000001
,
00002000
00000010
00000010
00000000
00000100
00000000
00000001
00000000
,
00003100
00001000
00010000
00001000
00000100
00010000
00001000
00010000
,
00100000
00000000
01000000
00000000
00010000
00000000
10000000
00100000
10000000
00000000
01000000
00000000
00100000
00000000
01000000
10000000
,
01000000
00000000
00100000
00000000
00001000
00000000
00010000
00001000
00010000
00000000
00000100
00000000
00001000
00000000
00000010
00000001
,
00000020
00001000
00001000
00000000
00000100
00000000
00000001
00000000
,
00000130
00000000
00000010
00000000
00010000
00000000
00000100
00000000
00000010
00000000
00000100
00000000
00010000
00000000
00001000
00010000
,
00001000
00000000
00100000
00000000
00010000
00000000
10000000
00010000
10000000
00000000
00100000
00000000
01000000
00000000
10000000
01000000
,
10000000
00000000
00000000
00000000
00000000
00000000
01000000
00000000
00000000
00000000
00000000
00000000
00100000
00000000
00000000
00000000
00000000
00000000
01000000
00000000
00000000
00010000
00000000
00000000
01000000
00000000
00000000
00000000
00000000
00000000
00001000
00000000
00000000
00000000
00000000
00000000
00001000
00000000
00000000
00000000
00000000
00000000
00100000
00000000
00001000
00000000
00100000
00000000
,
00001000
00000000
00001100
00000000
00000011
00000000
00001000
00000100
,
00000010
00000000
00000100
00000000
00010000
00000000
00001000
00000000
00100000
00000000
01000000
00000000
10000000
00010000
10000000
00000000
,
00100000
00100000
00100000
00100000
00000000
01000000
00002000
00000000
,
00010000
00000000
00010000
00000000
00000000
00000000
00100000
00000000
00103000
00000000
00001000
00000000
00010000
00000000
00000100
00000010
,
00000001
00000000
00000110
00000000
00011000
00000000
00100000
00010000
,
01000000
00000000
10000000
00000000
01000000
00000000
00010000
00000000
00100000
00000000
00001000
00000000
00000100
00000000
00000010
00001000
,
00000010
00000100
00010000
00100000
00000000
11000000
01020000
00000000
,
00100000
00000000
00100000
00000000
00000000
00000000
00130000
00000000
01000000
00000000
10000000
00000000
00100000
01000000
00010000
01000000
,
00010000
00100000
00010000
00001000
00000100
00010000
00001000
00000100
,
00000010
00000000
00002000
00000000
00000000
00000000
00000001
00000000
00000001
00000000
00000001
00000000
00003001
00001000
00000010
00000000
,
00000100
00001000
00010000
00100000
00001000
00010000
00100000
01000000
,
10010000
00000000
00000000
00100000
00000000
00000000
01000000
00000000
00000000
10000000
00000000
00000000
00010000
10000000
00010000
10000000
00000000
00000000
01000000
00000000
00000000
00100000
00000000
00000000
,
00001000
00000000
00000000
00000000
00000000
00000000
00010000
00000000
00000000
00000000
00000000
00000000
00001000
00000000
00010000
00000000
00001000
00000000
00000000
00000000
00000000
00010000
00000000
00000000
00000100
00000000
00000000
00000000
00000000
00000000
00000010
00000000
00000000
00000000
00000000
00000000
00000001
00000000
00000000
00000000
00000000
00000000
00000010
00000000
00000000
00000000
00000000
00000000
,
00010100
00000000
00110000
00000000
11000000
00000000
00100000
01000000
,
00010000
00001000
00000100
00000010
00000100
00010000
00000100
00000000
,
00001100
00000000
00000100
00000010
00000000
00000010
00000001
00000000
00001001
00000000
00001000
00000010
00000000
00000010
00010000
00000000
,
00011000
00000000
00001000
01000000
00000000
01000000
00100000
00000000
20000000
00000000
01000000
00000000
31000000
00000000
00000000
00000000
,
00101000
00000000
00001100
00000000
00000011
00000000
00001000
00000100
,
00000010
00000000
00000100
00000000
00010000
00000000
00001000
00000000
00100000
00000000
01000000
00000000
00100000
00000000
00010000
10000000
,
00020000
00100000
00100000
00000000
01030000
00010000
00100000
00001000
,
00010000
00000000
00100000
00000000
00010000
00000000
00001000
00000000
00010000
00000000
00000100
00000000
00000010
00000000
00000100
00001000
,
00000001
00000010
00000001
00000010
00001000
00000010
00001000
00000010
,
00000100
00000000
00010000
00000000
00000100
00000000
00010000
00002000
00100000
00000000
00100000
00000000
00103000
00000000
00000000
00000000
,
00010000
00000000
00010000
00000000
10000000
00000000
10000000
00000000
00100000
01000000
00000000
01000000
00010000
00000000
00100000
00000000
,
00100000
00000000
00100000
00000000
00010000
00000000
00010000
00000000
10000000
00100000
10000000
00000000
00100000
00000000
01000000
00000000
,
00001000
01000000
00001000
00100000
00001000
00100000
00010000
00001000
,
00010000
00000000
00001000
00000000
00000100
00000000
00000010
00000001
00001000
00000000
00000010
00000000
00000010
00000000
00000010
00000000
,
00000100
00000000
00000001
00000000
00001000
00000000
00000100
00000000
00000010
00000000
00000110
00000000
00000000
00010000
00000100
00010000
,
00000000
00001000
00100000
00000000
00010000
10000000
00010000
00000000
10000000
00000000
10000000
00000000
00100000
01000000
00010000
01000000
,
00000000
00010000
00100000
00000000
00001000
00010000
00001000
00010000
00000100
00010000
00000100
00001000
00000100
00000000
00001000
00000000
,
00000010
00000000
00000010
00000000
00001000
00000000
00001000
00000000
00000011
00000000
00000000
00000100
00000010
00000000
00000010
00000000
,
00010000
00000000
00000000
00000000
00000000
00000000
00010000
00000000
00000000
00000000
00000000
00000000
00001000
00000000
00100000
00000000
00001000
00000000
00000000
00000000
00000000
00100000
00000000
00000000
00001000
00000000
00000000
00000000
00000000
00000000
00010000
00000000
00000000
00000000
00000000
00000000
00100000
00000000
00000000
00000000
00000000
00000000
01000000
00000000
00000000
00000000
00000000
00000000
,
00100000
00000000
00100000
00000000
01000000
00000000
01000000
00000000
10010000
00000000
00000000
01000000
00010000
00000000
00010000
00000000
,
01000000
00000000
00000000
00000000
00000000
00000000
01000000
00000000
00000000
00000000
00000000
00000000
00001000
00000000
00010000
00000000
00001000
00000000
00000000
00000000
00000000
00010000
00000000
00000000
00000100
00000000
00000000
00000000
00000000
00000000
00001000
00000000
00000000
00000000
00000000
00000000
00000010
00000000
00000000
00000000
00000000
00000000
00000100
00000000
00000000
00000000
00000000
00000000
,
00000001
00000000
00000010
00000000
00001000
00000000
00000010
00000000
00000001
00000000
00000100
00000010
00000100
00000000
00010000
00000000
,
00000100
00000000
00000010
00000000
00000100
00001000
00000100
00001000
00000100
00010000
00000100
00010000
00000100
00000000
00010000
00000000
,
00001000
00000000
00100000
00000000
01000000
00000000
00100000
00000000
00001000
00000000
00100000
00010000
00100000
00000000
00010000
00000000
,
10000000
00000000
01000000
00000000
00010000
00000000
01000000
10000000
01000000
10000000
00010000
10000000
00010000
00000000
00100000
01000000
;
