#VERSION:0.83;
#TITLE:BREEDING;
#SUBTITLE:;
#ARTIST:SLAKE;
#TITLETRANSLIT:;
#SUBTITLETRANSLIT:;
#ARTISTTRANSLIT:;
#GENRE:TECHNO;
#ORIGIN:;
#TAGS:;
#CREDIT:YonabearCWY/Pandemonium X;
#BANNER:BREEDING.png;
#BACKGROUND:BREEDING-bg.png;
#PREVIEWVID:;
#JACKET:BREEDING-jacket.png;
#CDIMAGE:;
#DISCIMAGE:;
#LYRICSPATH:;
#CDTITLE:Beatmania IIDX.png;
#MUSIC:BREEDING.ogg;
#OFFSET:-3.300000;
#SAMPLESTART:70.487999;
#SAMPLELENGTH:15.000000;
#SELECTABLE:YES;
#BPMS:0.000000=150.000000
,120.000000=75.000000
,134.000000=150.000000
,138.000000=37.500000
,141.750000=150.000000
,206.000000=75.000000
,210.000000=150.000000
;
#STOPS:141.750000=0.300000
;
#DELAYS:;
#WARPS:;
#TIMESIGNATURES:0.000000=4=4
;
#TICKCOUNTS:0.000000=4
;
#COMBOS:0.000000=1
;
#SPEEDS:0.000000=1.000000=0.000000=0
;
#SCROLLS:0.000000=1.000000
;
#FAKES:;
#LABELS:0.000000=Song Start
;
#BGCHANGES:-9.000=BREEDING.mp4=1.000=1=0=0=StretchNoLoop==CrossFade==,
99999=-nosongbg-=1.000=0=0=0 // don't automatically add -songbackground-
;
#KEYSOUNDS:;
#ATTACKS:
;

//---------------dance-single - ----------------
#NOTEDATA:;
#CHARTNAME:BEGINNER;
#CHARTHASH:3618722135;
#STEPSTYPE:dance-single;
#BANNER:;
#DESCRIPTION:;
#CHARTSTYLE:;
#DIFFICULTY:Beginner;
#METER:2;
#METERF:2.000000;
#LASTSECONDHINT:110.500000;
#RADARVALUES:0.120284,0.175343,0.050519,0.084198,0.000000,100.000000,94.000000,6.000000,10.000000,0.000000,0.000000,0.000000,0.000000,0.000000,0.120284,0.175343,0.050519,0.084198,0.000000,100.000000,94.000000,6.000000,10.000000,0.000000,0.000000,0.000000,0.000000,0.000000;
#CREDIT:YonabearCWY;
#NOTES:
1000
0000
0000
0000
,
1000
0000
0000
0000
,
0001
0000
0000
0000
,
0001
0000
0000
0000
,
1000
0000
0000
0000
,
1000
0000
0000
0000
,
0000
0000
0000
0000
,
0010
0010
0000
0000
,
0100
0100
0000
0000
,
0010
0010
0000
0000
,
1000
1000
1000
0000
,
1000
0000
0000
0000
,
0001
0001
0001
0000
,
0001
0000
0000
0000
,
0010
0010
0010
0000
,
0010
0000
0000
0000
,
0100
0100
0100
0000
,
0100
0000
0000
0000
,
1000
1000
1000
0000
,
1001
0000
0000
0000
,
0001
0001
0001
1001
,
0000
0000
0000
0000
,
0010
0000
0010
0000
,
0010
0000
0000
0000
,
0100
0000
0100
0000
,
0100
0000
0000
0000
,
0001
0000
0001
0000
,
0001
0000
0000
0000
,
1000
0000
1000
0000
,
1000
0000
0000
0000
,
2002
0000
0000
3003
,
0200
0000
0000
0300
,
0020
0000
0000
0030
,
2002
0000
3003
0000
,
0000
0000
0100
0100
,
0100
0100
0000
1000
,
0000
1000
1000
0000
,
0000
0000
0000
0001
,
0000
0001
0001
0000
,
0000
0000
0000
0100
,
0000
0100
0100
0000
,
0000
0000
0000
0010
,
0000
0010
0010
0000
,
0000
0000
0000
1000
,
1000
1000
0000
0000
,
0000
0000
0000
0100
,
0100
0100
0000
0000
,
0000
0000
0000
0010
,
0010
0010
0000
0000
,
0000
0000
0000
0001
,
0001
0001
0000
0000
,
0000
0000
2002
0000
,
0000
3003
0010
0000
,
0010
0000
0100
0000
,
0100
0000
0001
0000
,
0001
0000
1000
0000
,
1000
0000
0010
0000
,
0010
0000
0100
0000
,
0100
0000
2002
0000
,
0000
0000
3003
0000
;

//---------------dance-single - ----------------
#NOTEDATA:;
#CHARTNAME:BASIC;
#CHARTHASH:2899152036;
#STEPSTYPE:dance-single;
#BANNER:;
#DESCRIPTION:;
#CHARTSTYLE:;
#DIFFICULTY:Easy;
#METER:5;
#METERF:5.000000;
#LASTSECONDHINT:110.500000;
#RADARVALUES:0.206888,0.250490,0.117878,0.092618,0.004210,172.000000,158.000000,14.000000,11.000000,0.000000,0.000000,0.000000,0.000000,0.000000,0.206888,0.250490,0.117878,0.092618,0.004210,172.000000,158.000000,14.000000,11.000000,0.000000,0.000000,0.000000,0.000000,0.000000;
#CREDIT:YonabearCWY;
#NOTES:
1000
0000
1000
0000
,
0001
0000
0001
0000
,
1000
0000
1000
0000
,
0001
0000
0001
0000
,
0100
0000
0100
0000
,
0010
0000
0010
0000
,
0220
0000
0000
0330
,
1000
1000
0001
0000
,
0001
0001
1000
0000
,
0000
0100
0100
0010
,
1001
0000
0010
0000
,
0010
0000
0010
0000
,
0100
0100
0001
0001
,
0010
0010
0100
0100
,
1001
0000
0100
0000
,
0100
0000
0100
0000
,
0100
0100
1000
1000
,
0010
0010
0100
0100
,
1001
0010
0000
0010
,
0000
0010
0000
0010
,
0100
0100
0010
0220
,
0000
0000
0000
0330
,
1001
0000
1000
1000
,
1000
0000
0010
0100
,
0001
0000
0001
0001
,
0001
0000
0010
0100
,
1000
0000
0010
0100
,
0001
0100
0010
0000
,
1000
0010
1000
0100
,
0010
0000
0001
1000
,
2002
0000
0000
3003
,
1000
0000
1000
0000
,
0001
0000
0001
0000
,
0010
0010
0100
1000
,
0100
0010
2001
0001
,
0001
0000
0000
0000
0001
0000
0000
3000
0000
0000
0000
0000
0010
0000
0000
0000
,
0010
0010
0000
0010
,
0010
0010
0000
0100
,
0100
0100
0000
0100
,
0100
0100
0000
0001
,
0001
0001
0000
0001
,
0001
0001
0000
1000
,
1000
1000
0000
1000
,
1000
1000
0000
0010
,
0100
0010
0110
0000
,
0100
0010
0110
0000
,
0001
1000
1001
0000
,
1000
0001
1001
0000
,
1000
0000
1000
0100
,
0010
0001
0010
0000
,
0010
0000
0010
0100
,
1000
0001
2002
0000
,
0000
3003
0100
0000
,
0000
0100
0000
0010
,
0000
0010
0100
0000
,
0100
0001
1000
0000
,
1000
0000
1000
0000
,
0100
0000
0010
0000
,
0001
0000
2002
0000
,
0000
0000
3003
0000
;

//---------------dance-single - ----------------
#NOTEDATA:;
#CHARTNAME:DIFFICULT;
#CHARTHASH:666950079;
#STEPSTYPE:dance-single;
#BANNER:;
#DESCRIPTION:;
#CHARTSTYLE:;
#DIFFICULTY:Medium;
#METER:10;
#METERF:10.000000;
#LASTSECONDHINT:110.500000;
#RADARVALUES:0.422195,0.475932,0.176817,0.159977,0.071569,351.000000,330.000000,21.000000,19.000000,0.000000,0.000000,0.000000,0.000000,0.000000,0.422195,0.475932,0.176817,0.159977,0.071569,351.000000,330.000000,21.000000,19.000000,0.000000,0.000000,0.000000,0.000000,0.000000;
#CREDIT:YonabearCWY;
#NOTES:
1000
1010
0001
0100
,
0001
0011
0100
0010
,
1000
0100
0010
0000
0101
0000
0010
0001
,
0100
0000
0010
1000
0100
0000
1001
0000
,
0100
0010
1000
0000
0110
0000
0001
0010
,
0100
0000
1000
0100
0001
0100
1000
0000
,
2002
0000
0000
3003
,
0200
0000
0000
0010
0000
0000
0010
0000
0020
0000
0000
0000
0330
0000
0000
0000
,
0002
0000
0000
1000
0000
0000
1000
0000
2000
0000
0000
0000
3003
0000
0000
0000
,
0200
0000
0000
0001
0000
0000
0010
0000
0010
0000
0000
1000
0000
0000
0301
0000
,
1001
0000
0100
0010
0100
0000
0010
0000
,
0001
0000
0100
0010
0100
1000
0100
0000
,
1001
0000
0010
1000
0010
0000
0100
0000
,
0010
0000
0100
0001
0100
0010
0100
0000
,
0110
0000
1000
0001
1000
0000
0100
0000
,
0010
0000
0100
1000
0001
0010
0001
0000
,
0110
0000
0001
0010
0001
0000
0100
0000
,
0010
0000
1000
0010
0001
0010
1000
0000
,
2010
0000
3100
0010
0001
1000
0010
0000
,
0100
0000
0001
0010
0001
0100
0100
0000
,
0021
0000
0031
0100
1000
0100
0010
0010
,
0000
1000
0000
0000
0000
0001
0000
0000
0000
1000
0000
0000
0000
0001
0000
0000
,
0110
1000
0010
0001
,
0010
1000
0010
0001
0010
1000
0010
0001
,
0000
0110
0000
1000
0000
0110
0000
0001
,
0000
1000
0100
0001
0100
1000
0100
0001
,
0100
1000
0010
0001
,
0010
0100
0010
0001
0010
0100
0010
0001
,
0000
1010
0000
0100
0000
0011
0000
0100
,
0000
1000
0100
0010
0001
0100
0010
1000
,
2002
0000
0000
0000
0000
0000
0000
3003
,
1000
0000
0010
0000
0000
0100
0000
0000
0001
0000
0010
0000
0000
0000
0000
0000
0100
0000
0001
0000
0000
0100
0000
0000
1000
0000
0100
0000
0000
0000
0000
0000
,
2000
0001
0100
3001
0020
1000
0100
0001
,
0230
0001
0010
1000
0301
0100
0001
0000
,
1000
0010
1000
0000
0120
0000
1000
0000
,
1000
0000
0000
0000
1000
0000
0000
0030
0000
0000
1000
0000
0100
0000
1000
0000
,
0000
0010
1000
0010
0000
1000
0100
1000
,
0000
0001
1000
0001
0000
0010
0010
0010
,
0000
0001
0001
0001
0000
0100
0100
0100
,
0000
0001
0001
0001
0000
1000
0010
0100
,
0001
0000
0010
0000
0100
0000
1000
0100
,
0010
0000
0100
0000
0010
0001
0010
0100
,
1000
0000
0010
0000
0100
0001
0100
1000
,
0100
0010
0100
0010
0000
1000
0001
1000
,
0000
0010
0100
0010
0000
1000
0100
1000
,
0000
0001
0100
0001
0000
0010
0010
0010
,
0000
0100
0100
0100
0000
0010
0010
0010
,
0000
1000
1000
1000
0000
0010
0100
0010
,
0001
0000
0100
0000
0010
0000
1000
0100
,
0010
0001
0100
0000
0001
0000
0010
0001
,
0010
0100
1000
0100
0000
0010
0001
1000
,
0010
1000
0001
0100
0220
0000
0000
0000
,
0000
0000
0000
0000
0000
0000
0330
0000
1000
0000
0000
0010
0000
0000
0100
0000
,
0001
0000
0010
0000
0100
0000
0000
0000
0010
0000
0000
0100
0000
0000
1000
0000
,
0100
0010
0001
0000
0100
0001
0100
0000
,
0001
0010
0001
0000
0100
0010
0100
0000
,
0010
1000
0010
0000
1000
0100
0010
0001
,
0100
0010
1000
0100
0010
0001
0100
0010
,
1000
0001
0010
0000
2002
0000
0000
0000
,
0000
0000
3003
0000
;

//---------------dance-single - ----------------
#NOTEDATA:;
#CHARTNAME:EXPERT;
#CHARTHASH:2570614141;
#STEPSTYPE:dance-single;
#BANNER:;
#DESCRIPTION:;
#CHARTSTYLE:;
#DIFFICULTY:Hard;
#METER:13;
#METERF:13.000000;
#LASTSECONDHINT:110.633339;
#RADARVALUES:0.603823,0.727440,0.168397,0.101038,0.538870,502.000000,482.000000,20.000000,12.000000,0.000000,0.000000,0.000000,0.000000,0.000000,0.603823,0.727440,0.168397,0.101038,0.538870,502.000000,482.000000,20.000000,12.000000,0.000000,0.000000,0.000000,0.000000,0.000000;
#CREDIT:YonabearCWY;
#NOTES:
0010
0000
0000
0000
0100
0001
0100
0001
0000
0010
0000
0000
0100
0000
1000
0000
,
0010
0000
0000
0000
0100
0010
0100
0010
0000
1000
0000
0000
0001
0000
1000
0000
,
0100
0000
0000
0000
1000
0001
1000
0001
0000
0100
0000
0000
0001
0000
0100
0000
,
0010
0000
0000
0000
1000
0100
1000
0100
0000
0010
0000
0000
0001
0000
0010
0000
,
0100
0000
0000
0000
1000
0010
1000
0010
0000
0100
0000
0000
0010
0000
1000
0000
,
0100
0000
0000
0000
1000
0001
1000
0001
1000
0000
0010
0000
0100
0000
0001
0000
,
1001
0000
0000
0100
1000
0000
0001
0100
0001
0000
0000
1000
0100
0000
1000
0000
,
0002
0000
0000
1000
0000
0000
0010
0000
0010
0000
0000
0100
0000
0000
1000
0000
,
1003
0010
1000
0002
0000
0000
0100
0000
0103
0001
0000
0020
0000
0000
0100
0000
,
0130
1000
0010
2000
0000
0000
0001
0000
3001
0100
0000
0010
0000
1000
0001
0000
,
0110
0000
0000
0000
1000
0000
0100
0000
0010
0001
0000
0000
0001
0000
0100
0000
,
0101
0000
0000
0000
1000
0000
0010
0000
0100
0010
0000
0000
0010
0000
0100
0000
,
1100
0000
0000
0010
0000
0000
0100
0000
0001
0000
0000
0010
0000
0000
0001
0000
,
1010
0000
0000
0100
0000
0010
0001
0000
0100
0000
0000
0010
0000
0100
1000
0000
,
0110
0000
0000
0001
1000
0000
0100
0010
0100
0000
0000
1000
0001
0000
0010
0000
,
0100
0000
0000
1000
0000
0000
0100
0000
1000
0000
0000
0001
0000
0000
0010
0000
,
0001
0100
1000
0100
0001
1000
0010
0010
,
0100
0001
0100
1000
0100
0010
0010
0100
,
1001
0000
0000
0000
0100
0000
0010
0000
1000
0010
0000
0000
0010
0000
0100
0000
,
1100
0000
0000
0000
0001
0000
0100
0000
0001
0010
0000
0000
0010
0000
0100
0000
,
0101
0000
0000
1000
0000
0000
0010
0000
0100
0000
0000
0010
0000
0000
1001
0000
,
0000
1000
0000
0001
0000
0010
0000
0100
0000
1000
0000
0010
0000
0100
0000
0000
,
1001
0000
0010
0000
0010
0000
0010
0000
0010
0000
0000
0100
0000
0001
0010
0000
,
0000
0000
0100
0000
1000
0000
0100
0000
1000
0000
0001
0100
0000
0100
0010
0000
,
0000
0000
1000
0000
1000
0000
1000
0000
1000
0000
0000
0010
0000
0100
0001
0000
,
1000
0000
0010
0000
0100
0000
0001
0000
0010
0000
0100
0010
0000
0010
1000
0000
,
0010
0000
0001
0000
0001
0000
0001
0000
0001
0000
0000
1000
0000
0010
0100
0000
,
0000
0000
0001
0000
0010
0000
0001
0000
0100
0000
0010
1000
0000
1000
0100
0000
,
0000
0000
0010
0000
0010
0000
0010
0000
0010
0000
0000
0001
0000
1000
0010
0000
,
0100
0000
0001
0000
0100
0000
1000
0000
0100
0000
0010
0100
0000
0100
0001
0000
,
1001
0000
0000
0000
0100
0000
0000
0010
0000
0001
0000
0000
0010
0000
1000
0000
0110
0000
0000
0000
0001
0000
0000
0010
0000
0100
0000
0000
1000
0000
0100
0000
,
0011
0000
0000
0000
0100
0000
0000
0010
0000
1000
0000
0000
0001
0000
0010
0000
1010
0000
0000
0000
0100
0000
0000
0010
0000
0001
0000
0000
1000
0000
0001
0000
,
0200
0010
0010
0010
0320
1000
1000
1000
,
2030
0000
0100
0000
3002
0000
0100
0000
1003
0000
0000
1000
0010
0000
0000
0010
,
0100
0000
0000
0000
0000
0000
0100
0000
0001
0000
0000
0000
1000
0000
0000
0000
2001
0000
0000
0000
0000
0000
0000
0001
0001
0000
0000
0000
0000
0000
0000
0001
,
0001
0000
0000
0000
0000
0000
0000
0001
0001
0000
0000
0000
0000
0000
3000
0000
0000
0000
0000
0000
0001
0000
0000
0000
0100
0000
0000
0000
0001
0000
0000
0000
,
0010
0000
0001
0100
0000
0001
0100
0000
0000
0000
0010
0000
0010
0000
0010
0000
,
0010
0000
1000
0100
0000
0100
0010
0000
0000
0000
0100
0000
0001
0000
0100
0000
,
0010
0000
0100
1000
0000
0100
1000
0000
0000
0000
0001
0000
0001
0000
0001
0000
,
0001
0000
1000
0010
0000
0010
0100
0001
0100
0000
0010
0000
1000
0000
0100
0000
,
0010
0000
0001
0010
0001
0000
0100
0000
0010
0000
1000
0000
0001
0000
0010
0000
,
0100
0000
1000
0001
1000
0000
0010
0000
1000
0000
0100
0000
0010
0000
0001
0000
,
0100
0000
0001
0010
0001
0000
0010
0000
0001
0000
0100
0000
0010
0000
0100
0000
,
1000
0000
0100
0001
0100
0000
0010
0000
1001
0000
0100
0000
1000
0000
0001
0000
,
1000
0000
0010
0100
0000
0010
1000
0000
0000
0000
0100
0000
0100
0000
0100
0000
,
0100
0000
0010
0001
0000
0001
1000
0000
0010
0000
0100
0000
0001
0000
0010
0000
,
0100
0000
1000
0100
0000
0010
0100
0000
0000
0000
1000
0000
1000
0000
1000
0000
,
1000
0000
0001
0010
0000
0010
0100
0000
0010
0000
0100
0000
1000
0000
0100
0000
,
0010
0000
0001
1000
0010
0000
0100
0000
0100
0000
0001
0000
0010
0000
0001
0000
,
1000
0000
0010
1000
0100
0000
1000
0000
1000
0000
0001
0000
0010
0000
0100
0000
,
0010
0000
0001
1000
0100
0000
0010
0000
0010
0000
0001
0000
0100
0000
0010
0000
,
1000
0000
0100
0010
0001
0000
1000
0000
0120
0000
0000
0000
0000
0100
0100
0000
,
0000
0000
0100
0100
0000
0000
0000
0100
0130
0000
0001
0000
1000
0000
0001
0000
,
0100
0010
0001
1000
0100
0010
0100
0001
,
0010
0100
0001
0100
0010
0100
1000
0001
,
0100
0010
1000
0001
0001
1000
0001
1000
,
1000
0000
0001
0000
0100
0000
0010
0000
0010
0000
0000
0010
0100
0000
0000
0100
,
1000
0000
0000
1000
0100
0000
0000
0100
0001
0000
0000
0001
0010
0000
0000
0010
,
0001
0000
0000
0001
1000
0000
0100
0000
2002
0000
0000
0000
0000
0000
0000
0000
,
0000
0000
0000
0003
3100
0010
0001
1001
0000
0000
0000
0000
;

//---------------dance-single - ----------------
#NOTEDATA:;
#CHARTNAME:CHALLENGE;
#CHARTHASH:687226065;
#STEPSTYPE:dance-single;
#BANNER:;
#DESCRIPTION:;
#CHARTSTYLE:;
#DIFFICULTY:Challenge;
#METER:15;
#METERF:15.000000;
#LASTSECONDHINT:110.900002;
#RADARVALUES:0.686819,1.182252,0.269435,0.261015,0.875664,571.000000,539.000000,32.000000,31.000000,0.000000,0.000000,0.000000,0.000000,0.000000,0.686819,1.182252,0.269435,0.261015,0.875664,571.000000,539.000000,32.000000,31.000000,0.000000,0.000000,0.000000,0.000000,0.000000;
#CREDIT:Pandemonium X;
#NOTES:
// measure 0
0000
0000
0000
0000
,  // measure 1
0000
0000
0000
0000
,  // measure 2
0001
0000
1000
0000
0010
0000
1000
0100
,  // measure 3
0010
0000
0100
0000
1000
0000
0001
0010
,  // measure 4
0100
1000
0010
0000
0100
0001
0010
0000
,  // measure 5
0001
0100
0001
0100
0001
0100
0001
0100
0001
0100
0001
0100
0001
0100
0001
0100
,  // measure 6
0000
0000
0000
0001
1000
0100
1000
0100
0010
0100
0010
0001
1000
0000
0001
0000
,  // measure 7
0200
0000
0000
0001
0000
0000
0310
0000
2000
0000
0000
0100
0000
0000
3001
0100
,  // measure 8
0010
0100
0010
1000
0000
0000
1000
0100
0010
0100
0010
0001
0000
0000
0001
0100
,  // measure 9
0010
0100
0010
1000
0000
0000
1000
0100
0010
0100
0010
0001
0000
0000
1000
0000
,  // measure 10
0001
0000
0000
0001
0010
0000
0000
0010
0100
0000
0000
0100
1000
0000
0010
0000
,  // measure 11
0100
0000
0000
0010
0100
0000
0000
0100
0001
0000
0000
0001
1000
0000
0100
0000
,  // measure 12
0010
0001
1000
0010
0000
0000
0010
0000
0100
0001
1000
0100
0000
0000
0010
0100
,  // measure 13
0010
0001
0010
0001
0010
0001
0010
0001
0010
0001
0010
0001
0010
0000
0001
0000
,  // measure 14
1000
0000
0000
0010
0100
0001
0100
0010
0100
0010
1000
0010
1000
0001
1000
0000
,  // measure 15
0002
0000
0000
0010
0000
0000
1003
0000
2000
0000
0000
0100
0000
0000
3001
0100
,  // measure 16
0001
1000
0001
1000
0000
1000
0100
1000
0001
1000
0001
0100
0000
0001
0100
0001
,  // measure 17
1000
0100
1000
0001
0000
1000
0100
1000
0001
0100
0001
1000
0000
0000
0000
0000
,  // measure 18
1001
0000
0000
1000
0100
0000
0000
0100
0010
0000
0000
0010
0001
0000
0100
0000
,  // measure 19
0010
0000
0000
0010
0100
0000
0000
0100
0001
0000
0000
0001
1000
0000
0100
0010
,  // measure 20
0001
0100
0010
1000
0000
0000
1000
0010
0100
0001
0010
0001
0000
0000
0010
0100
,  // measure 21
2000
3002
2003
3002
2003
3002
2003
3002
,  // measure 22
0103
0000
0001
0000
1000
0000
0001
0000
0101
0000
0000
1010
0000
1000
0100
0000
,  // measure 23
0000
0000
1000
0000
0001
0000
1000
0000
1100
0000
0000
0011
0000
0001
1000
0000
,  // measure 24
0000
0000
0001
0000
0100
0000
0001
0000
0101
0000
0000
1010
0000
1000
0001
0000
,  // measure 25
0000
0000
1000
0000
0010
0000
1000
0000
1010
0000
0000
0101
0000
0001
1000
0000
,  // measure 26
0000
0000
1000
0000
0100
0000
0010
0000
0011
0000
0000
0110
0000
0100
1000
0000
,  // measure 27
0000
0000
0001
0000
0010
0000
0100
0000
1100
0000
0000
0110
0000
0010
0001
0000
,  // measure 28
0000
0000
0010
0000
0100
0000
0010
0000
0011
0000
0000
1001
0000
0001
1000
0000
,  // measure 29
0010
1000
0010
1000
0010
1000
0010
1000
0010
1000
0010
1000
0010
1000
0010
1000
,  // measure 30
0001
0000
0000
0000
1000
0000
0000
0000
0000
0001
0000
0000
0000
1000
0000
0000
,  // measure 31
0000
0001
0000
0000
0000
1000
0000
0000
0001
1000
0001
1000
0001
1000
0001
1000
,  // measure 32
0001
0000
0000
0000
0000
0000
0000
0000
0000
0000
1000
0000
0000
0000
0000
0000
0000
0000
0000
0001
0000
0000
0000
0000
0000
0000
0000
0000
0000
1000
0000
0000
0000
0000
0000
0000
0000
0000
0001
0000
0000
0000
0000
0000
0000
0000
0000
0000
1000
0000
0000
0000
0000
0000
0000
0000
0000
0000
0001
0000
0000
0000
0000
0000
0000
0000
0000
1000
0000
0000
0000
0000
0000
0000
0000
0000
0000
0001
0000
0000
0000
0000
0000
0000
0000
0000
1000
0000
0000
0000
0000
0000
0000
0000
0000
0000
0001
0000
0000
0000
0000
0000
0000
0000
1000
0000
0000
0000
0000
0000
0000
0000
0001
0000
0000
0000
0000
0000
0000
0000
1000
0000
0000
0000
0000
0000
0000
0000
0001
0000
0000
0000
0000
0000
0000
0000
1000
0000
0000
0000
0000
0000
0000
0000
0001
0000
0000
0000
0000
0000
0000
0000
1000
0000
0000
0000
0000
0000
0000
0000
0001
0000
0000
0000
0000
0000
0000
0000
1000
0000
0000
0000
0000
0000
0000
0000
0001
0000
0000
0000
0000
0000
0000
0000
1000
0000
0000
0000
0000
0000
0000
0000
,  // measure 33
0001
1000
0001
1000
0001
1000
0001
1000
0001
1000
0001
1000
0001
1000
0001
1000
0100
0000
0000
0000
0000
0000
0100
0000
0010
0000
0000
0000
0000
0000
0010
0000
,  // measure 34
0001
0000
0000
0000
0000
0000
0001
0000
0100
0000
0000
0000
0010
0000
0000
0000
2000
0000
0000
0000
0000
0001
0000
0001
3002
0000
0000
0000
0000
0100
0000
0100
,  // measure 35
0203
0000
0000
0000
0000
0010
0000
0010
0320
0000
0000
0000
0000
0000
0130
0000
1001
0000
0000
0000
0001
0000
0000
0000
0010
0000
0000
0000
0100
0000
0000
0000
,  // measure 36
1100
0000
0000
1010
0000
1000
0001
0000
0000
0000
1000
0000
0100
0000
0010
0000
,  // measure 37
0011
0000
0000
0101
0000
0001
1000
0000
0000
0000
0001
0000
0010
0000
0001
0000
,  // measure 38
0101
0000
0000
1010
0000
1000
0001
0000
0000
0000
1000
0000
0010
0000
1000
0000
,  // measure 39
1100
0000
0000
0011
0000
0010
0001
0000
0000
0000
1000
0100
1000
0000
0020
0000
,  // measure 40
0000
0000
0230
0000
0000
0000
0301
0000
1000
0000
0001
0010
0001
0000
0020
0000
,  // measure 41
0000
0000
0230
0000
0000
0000
1300
0001
1000
0000
0020
0000
0000
0000
0230
0000
,  // measure 42
0000
0000
0301
1000
0001
0000
1000
0000
0010
0100
0010
0100
0010
0100
0010
0100
,  // measure 43
0010
0100
0010
0100
0010
0000
0000
0000
1000
0000
0001
0000
0010
0000
0100
0000
,  // measure 44
0110
0000
0000
1100
0000
1000
0001
0000
0000
0000
1000
0000
0100
0000
0010
0000
,  // measure 45
0110
0000
0000
0011
0000
0001
1000
0000
0000
0000
0001
0000
1000
0000
0010
0000
,  // measure 46
0110
0000
0000
0101
0000
0001
1000
0000
0000
0000
1000
0000
0010
0000
0100
0000
,  // measure 47
0101
0000
0000
1001
0000
1000
0001
0000
1000
0000
0001
0010
0001
0000
0200
0000
,  // measure 48
0000
0000
0320
0000
0000
0000
1030
0000
0001
0000
1000
0100
1000
0000
0200
0000
,  // measure 49
0000
0000
0320
0000
0000
0000
0031
1000
0001
0000
0200
0000
0000
0000
0320
0000
,  // measure 50
0000
0000
1030
0001
1000
0000
0001
0000
0100
0010
0100
0010
0100
0010
0100
0010
,  // measure 51
0100
0010
0100
0010
0100
0000
0000
0000
0010
0010
0100
0001
1000
0100
0100
1000
,  // measure 52
0010
0100
0010
0010
0100
0001
1000
0100
0100
0000
0010
0000
0001
0000
0100
0000
,  // measure 53
0010
0010
0100
0001
1000
0100
0100
0010
,  // measure 54
0001
1000
0010
0010
1000
0001
1000
0001
,  // measure 55
1000
0001
1000
0001
1000
0001
1000
0001
,  // measure 56
1000
0000
0000
0001
0000
0000
1000
0000
0000
0001
0000
0000
1000
0000
0001
0000
1000
0000
0001
0000
1000
0000
0001
0000
,  // measure 57
1000
0000
0000
0000
0001
0000
0000
0000
1000
0000
0000
0000
0001
0000
0000
0000
1000
0000
0000
0000
0001
0000
0000
0000
1000
0000
0000
0001
0000
0000
1000
0000
0000
0001
0000
0000
1000
0000
0000
0001
0000
0000
1000
0000
0000
0001
0000
0000
,  // measure 58
1000
0001
1000
0001
1000
0001
1000
0001
0200
0000
0000
0000
0000
0000
0000
0000
,  // measure 59
0000
0000
0000
0020
0030
0020
0330
0000
;

//---------------dance-double - ----------------
#NOTEDATA:;
#CHARTNAME:CHALLENGE;
#CHARTHASH:443687151;
#STEPSTYPE:dance-double;
#BANNER:;
#DESCRIPTION:;
#CHARTSTYLE:;
#DIFFICULTY:Challenge;
#METER:15;
#METERF:15.000000;
#LASTSECONDHINT:112.100006;
#RADARVALUES:0.650734,0.840511,0.075779,0.244176,0.774626,541.000000,532.000000,9.000000,29.000000,0.000000,0.000000,0.000000,0.000000,0.000000,0.650734,0.840511,0.075779,0.244176,0.774626,541.000000,532.000000,9.000000,29.000000,0.000000,0.000000,0.000000,0.000000,0.000000;
#CREDIT:Pandemonium X;
#NOTES:
00000000
00000000
00000000
00000000
,
00000000
00000000
00000000
00000000
,
10000000
00000000
00100000
00000000
01000000
00000000
01000000
00010000
,
00100000
00000000
00001000
00000000
00010000
00000000
00001000
00010000
,
00000100
00001000
00000010
00000000
00010000
00001000
00010000
00000000
,
00000100
00010000
00000100
00010000
00001000
00010000
00001000
00010000
00001000
01000000
00001000
01000000
00100000
01000000
00100000
10000000
,
01000000
00000000
00000000
00100000
02000000
00000000
00000000
00000000
00000000
00000000
00000000
00000000
03000000
00000000
10000000
00000000
,
00100000
00000000
00000000
00100000
00000000
00000000
02000000
00000000
00010000
00000000
00000000
03010000
00000000
00000000
00100000
00001000
,
00100000
00001000
00010000
00002000
00000000
00000000
00013000
00000100
00001000
00000010
00001000
00000020
00000000
00000000
00000130
00000001
,
00000010
00000100
00000010
00000200
00000000
00000000
00000310
00000001
00001000
00000010
00001000
00000020
00000000
00000000
00000000
00000000
,
00000130
00000000
00000000
00000001
00001000
00000000
00000000
00001000
00000100
00000000
00000000
00000100
00010000
00000000
00001000
00000000
,
01000000
00000000
00000000
01000000
00100000
00000000
00000000
00100000
10000000
00000000
00000000
10000000
00010000
00000000
10000000
00000000
,
01000000
10000000
01000000
00200000
00000000
00000000
00010000
00000000
00310000
00100000
00001000
00020000
00000000
00000000
00031000
00010000
,
00000100
00001000
00000100
00000010
00000001
00000010
00000001
00001000
00000001
00000100
00000010
00001000
00000010
00000000
00001000
00000000
,
00000010
00000000
00000000
00001000
00000010
00000100
00000010
00001000
00000010
00001000
00000100
00001000
00000100
00010000
00001000
00000000
,
01000000
00000000
00000000
00010000
00000000
00000000
10000000
00000000
01000000
00000000
00000000
10000000
00000000
00000000
00010000
01000000
,
00100000
10000000
00100000
02000000
00000000
00000000
03010000
01000000
00001000
00010000
00000100
00002000
00000000
00000000
00003010
00000100
,
00000010
00001000
00000001
00000020
00000000
00000000
00000130
00001000
00000001
00001000
00000001
00000200
00000000
00000000
00000010
00000000
,
00000310
00000000
00000000
00000100
00000010
00000000
00000000
00000010
00001000
00000000
00000000
00001000
00000001
00000000
00000010
00000000
,
00000100
00000000
00000000
00001000
00000100
00000000
00000000
00000100
00010000
00000000
00000000
00010000
00001000
00000000
01000000
00100000
,
10000000
00010000
10000000
00020000
00000000
00000000
00130000
01000000
10000000
00100000
10000000
00010000
10000000
00000000
01000000
10000000
,
02000000
03020000
00032000
00003100
,
00001001
00000000
00000001
00000000
00001000
00000000
00000010
00000000
00000100
00000000
00000000
00000001
00000000
00000001
00001000
00000000
,
00000000
00000000
00001000
00000000
00000001
00000000
00001000
00000000
00000100
00000000
00000000
00000100
00000000
00000100
00010000
00000000
,
00000000
00000000
00001000
00000000
01000000
00000000
00100000
00000000
01000000
00000000
00000000
00100000
00000000
00100000
10000000
00000000
,
00000000
00000000
01000000
00000000
00100000
00000000
01000000
00000000
10000000
00000000
00000000
10000000
00000000
10000000
01000000
00000000
,
00000000
00000000
00100000
00000000
01000000
00000000
10000000
00000000
00100000
00000000
00000000
01000000
00000000
01000000
00001000
00000000
,
00000000
00000000
00010000
00000000
00000100
00000000
00001000
00000000
00000100
00000000
00000000
00000100
00000000
00000100
00000010
00000000
,
00000000
00000000
00000001
00000000
00001000
00000000
00000010
00000000
00000100
00000000
00000000
00000010
00000000
00001000
00000100
00000000
,
00010000
00001000
00010000
00001000
01000000
00001000
01000000
00001000
01000000
00100000
01000000
00100000
10000000
00100000
10000000
00100000
,
10000000
00010000
01000000
00000000
00010000
00100000
00001000
00000000
,
00010000
00000100
00001000
00000000
00000010
00001000
00000001
00001000
,
00000001
00000000
00000100
00000000
00001000
00000000
00010000
00000000
00100000
10000000
01000000
00010000
00001000
00000010
00000001
00001000
,
00000001
00000100
00001000
00010000
00100000
10000000
01000000
00100000
00010000
00000000
00000000
00010000
00001000
00000000
00000000
00001000
,
00000001
00000000
00000000
00000000
00000000
00000000
00000001
00000000
00001000
00000000
00000000
00000000
00001100
00000000
00000000
00000000
00000200
00000000
00000000
00000000
00000000
00010000
00000000
00010000
00000000
00000000
00000000
00000000
00000000
00001000
00000000
00001000
,
00000000
00000000
00000000
00000000
00000000
00010000
00000000
00010000
00000000
00000000
00000000
00000000
00000000
00000300
00022000
00033000
01001000
00000000
00000000
00000000
01000000
00000000
00000000
00000000
00010000
00000000
00000000
00000000
10000000
00000000
00000000
00000000
,
01000000
00000000
10000000
01000000
00000000
10000000
00010000
00000000
01000000
00000000
00010000
00000000
00100000
00000000
00001000
00000000
,
00010000
00000000
00000100
00001000
00000000
00001000
00000001
00000000
00000100
00000000
00000001
00000000
00001000
00000000
00000100
00000000
,
00000010
00000000
00000001
00000010
00000000
00000001
00001000
00000000
00000010
00000000
00000100
00000000
00000010
00000000
00010000
00000000
,
00001000
00000000
00010000
00001000
00000000
00100000
00010000
00000000
10000000
00000000
01000000
10000000
00010000
00000000
01000000
00000000
,
00001000
00020000
00000000
00000100
00030100
00001000
00000001
00000200
,
00000000
00000001
00000301
00000010
00000100
00002000
00000000
00000001
,
00003001
00000000
00000100
00000000
00000001
00000000
00001000
00000000
00000100
00001000
00000100
00010000
00000100
00010000
00001000
01000000
,
00001000
01000000
00100000
01000000
00010000
10000000
00010000
10000000
01000000
00000000
00010000
00000000
00001000
00000000
00000100
00000000
,
00000110
00000000
00000001
00001000
00000000
00001000
00000001
00000000
00000100
00000000
00001000
00000000
00010000
00000000
00100000
00000000
,
10100000
00000000
10000000
00100000
00000000
01000000
00010000
00000000
10000000
00000000
01000000
00000000
00100000
00000000
00010000
00000000
,
00011000
00000000
00010000
00000100
00000000
00000100
00001000
00000000
00000100
00000000
00010000
00000000
00001000
00000000
01000000
00000000
,
01010000
00000000
01000000
00010000
00000000
00100000
00001000
00000000
00010000
00000000
00000100
00001000
00000001
00000000
00000100
00000000
,
00000001
00000000
00000020
00000000
00000000
00000000
00000031
00001000
00000100
00000000
00000010
00000000
00000001
00000000
00002000
00000000
,
00000000
00000000
00003010
00000000
00010000
00000000
00001000
01000000
00100000
00000000
20000000
00000000
00000000
00000000
31000000
00000000
,
10000000
00000000
00010000
01000000
00100000
00000000
01000000
00000000
00010000
01000000
00010000
01000000
00010000
00100000
00010000
00100000
,
01000000
10000000
01000000
10000000
00010000
00100000
00010000
00100000
00001000
00010000
00000100
00001000
00000010
00000100
00000100
00000001
,
00001000
00000100
00010000
00010000
00001000
01000000
00100000
10000000
10000000
00000000
00100000
00000000
01000000
00000000
10000000
00000000
,
01000000
01000000
00010000
00100000
00001000
00010000
00010000
00000100
,
00000010
00000001
00001000
00001000
00000100
00000010
00000100
00010000
,
00010000
00000000
00000000
00001000
00000000
00000000
01000000
00000000
00000000
00100000
00000000
00000000
10000000
00000000
00010000
00000000
10000000
00000000
00010000
00000000
01000000
00000000
00010000
00000000
,
01000000
00001000
00010000
00000100
00010000
00000010
00000100
00000001
00001000
00000100
00000010
00000001
,
00001000
00000000
00000000
00000000
00000010
00000000
00000000
00000000
00010000
00000000
00000000
00000000
00000100
00000000
00000000
00000000
00010000
00000000
00000000
00000000
00001000
00000000
00000000
00000000
01000000
00000000
00000000
00100000
00000000
00000000
10000000
00000000
00000000
00010000
00000000
00000000
10000000
00000000
00000000
00010000
00000000
00000000
00100000
00000000
00000000
00010000
00000000
00000000
,
00100000
00001000
00010000
00000100
00001000
00000010
00000100
00000001
00002000
00000000
00000000
00000000
00000000
00000000
00000000
00000000
,
00000000
00000000
00000000
00003200
00000300
00022000
00000000
00000000
,
00000000
00000000
00033000
00000000
;
