#VERSION:0.83;
#TITLE:BREAK OUT;
#SUBTITLE:;
#ARTIST:Thomas Howard Lichtenstein;
#TITLETRANSLIT:;
#SUBTITLETRANSLIT:;
#ARTISTTRANSLIT:;
#GENRE:FUNK;
#ORIGIN:;
#TAGS:;
#CREDIT:YonabearCWY;
#BANNER:BREAK OUT.png;
#BACKGROUND:BREAK OUT-bg.png;
#PREVIEWVID:;
#JACKET:BREAK OUT-jacket.png;
#CDIMAGE:;
#DISCIMAGE:;
#LYRICSPATH:;
#CDTITLE:GUITAR FREAKS & drummania.png;
#MUSIC:BREAK OUT.ogg;
#OFFSET:-8.764000;
#SAMPLESTART:43.633091;
#SAMPLELENGTH:15.000000;
#SELECTABLE:YES;
#BPMS:0.000000=110.000000
;
#STOPS:;
#DELAYS:;
#WARPS:;
#TIMESIGNATURES:0.000000=4=4
;
#TICKCOUNTS:0.000000=4
;
#COMBOS:0.000000=1
;
#SPEEDS:0.000000=1.000000=0.000000=0
;
#SCROLLS:0.000000=1.000000
;
#FAKES:;
#LABELS:0.000000=Song Start
;
#BGCHANGES:-16.000=BREAK OUT.mp4=1.000=1=0=0=StretchNoLoop==CrossFade==,
133.000=BREAK OUT-bg.png=1.000=0=0=1=====,
99999=-nosongbg-=1.000=0=0=0 // don't automatically add -songbackground-
;
#KEYSOUNDS:;
#ATTACKS:
;

//---------------dance-single - ----------------
#NOTEDATA:;
#CHARTNAME:BEGINNER;
#CHARTHASH:1376396535;
#STEPSTYPE:dance-single;
#BANNER:;
#DESCRIPTION:;
#CHARTSTYLE:;
#DIFFICULTY:Beginner;
#METER:2;
#METERF:2.000000;
#LASTSECONDHINT:81.173088;
#RADARVALUES:0.137069,0.201537,0.170035,0.072872,0.006073,79.000000,65.000000,14.000000,6.000000,0.000000,0.000000,0.000000,0.000000,0.000000,0.137069,0.201537,0.170035,0.072872,0.006073,79.000000,65.000000,14.000000,6.000000,0.000000,0.000000,0.000000,0.000000,0.000000;
#CREDIT:YonabearCWY;
#NOTES:
1000
0000
0000
0000
,
1000
0000
0000
0000
,
0001
0000
0000
0000
,
0001
0000
0000
0000
,
0100
0000
0100
0000
,
0100
0000
0010
0000
,
0010
0000
0010
0000
,
1000
0000
1000
1000
,
1000
0000
0000
0000
,
1001
0000
0000
0000
,
0010
0000
0010
0000
,
0110
0000
0000
0000
,
0100
0000
0100
0000
,
1001
0000
0000
0000
,
0010
0000
0010
0000
,
0100
0100
0100
0100
,
0110
0000
0001
0001
,
0001
0000
0001
0000
,
1001
0000
0100
0100
,
0100
0000
0100
0000
,
0010
0000
0010
0000
,
0010
0000
0000
0000
,
1000
0000
1000
0000
,
1000
1000
0001
0001
,
1001
0000
1001
0000
,
0110
0000
0010
0010
,
0010
0000
1000
0000
,
0220
0000
0000
0330
,
0110
0000
0110
0000
,
1001
0000
0001
0001
,
1000
1000
0010
0010
,
0220
0000
0000
0000
,
0330
0000
0000
0000
0000
0000
0000
2002
,
0000
0000
0000
3003
0000
0000
0000
0000
0000
0000
0000
0000
0000
0000
0000
0000
;

//---------------dance-single - ----------------
#NOTEDATA:;
#CHARTNAME:BASIC;
#CHARTHASH:1232324332;
#STEPSTYPE:dance-single;
#BANNER:;
#DESCRIPTION:;
#CHARTSTYLE:;
#DIFFICULTY:Easy;
#METER:4;
#METERF:4.000000;
#LASTSECONDHINT:81.173088;
#RADARVALUES:0.196061,0.221691,0.194326,0.242907,0.006073,113.000000,97.000000,16.000000,20.000000,0.000000,0.000000,0.000000,0.000000,0.000000,0.196061,0.221691,0.194326,0.242907,0.006073,113.000000,97.000000,16.000000,20.000000,0.000000,0.000000,0.000000,0.000000,0.000000;
#CREDIT:YonabearCWY;
#NOTES:
1000
0000
1000
0000
,
0001
0001
0001
0000
,
0010
0000
0010
0010
,
0010
0000
0100
0100
,
1001
0000
0010
0000
,
0010
0000
0100
0100
,
1001
0000
0010
0000
,
0010
0010
0100
0100
,
0020
0000
0000
0030
,
2002
0000
0000
3003
,
0020
1000
1000
1030
,
0220
0000
0000
0330
,
0200
0001
0001
0301
,
0010
0000
0010
0000
,
0100
0000
0100
0000
,
1000
1000
0001
0001
,
2002
3003
0010
0100
,
0020
0030
0020
0030
,
0220
0330
1000
0001
,
2000
3000
2000
3000
,
0001
0100
0010
1000
,
0020
0030
0010
0100
,
0001
0010
0100
0010
,
0001
0001
0100
0100
,
0220
0330
1000
0110
,
0001
0100
1000
0101
,
1000
0010
0001
0010
,
1100
0000
0000
0011
0000
0000
1000
0000
,
1010
0010
0100
0001
,
0010
0001
1000
0010
,
0110
0100
0001
1000
,
0101
0000
0000
0011
0000
0000
1000
0000
,
1000
0000
0000
0000
0000
0000
0000
2002
,
0000
0000
0000
3003
0000
0000
0000
0000
0000
0000
0000
0000
0000
0000
0000
0000
;

//---------------dance-single - ----------------
#NOTEDATA:;
#CHARTNAME:DIFFICULT;
#CHARTHASH:1074548510;
#STEPSTYPE:dance-single;
#BANNER:;
#DESCRIPTION:;
#CHARTSTYLE:;
#DIFFICULTY:Medium;
#METER:7;
#METERF:7.000000;
#LASTSECONDHINT:81.173088;
#RADARVALUES:0.312309,0.342613,0.255052,0.267198,0.012145,180.000000,159.000000,21.000000,22.000000,0.000000,0.000000,0.000000,0.000000,0.000000,0.312309,0.342613,0.255052,0.267198,0.012145,180.000000,159.000000,21.000000,22.000000,0.000000,0.000000,0.000000,0.000000,0.000000;
#CREDIT:YonabearCWY;
#NOTES:
1000
0000
1000
0000
1000
0001
0010
0000
,
0100
0000
0010
0000
0001
1000
0100
0000
,
0010
0000
0010
0000
0010
0001
1000
0000
,
0100
0000
0010
0000
0100
1000
0001
0100
,
0010
0100
0001
1000
,
0010
1000
0100
0000
1000
0001
0010
0000
,
0001
0100
0010
1000
,
0100
1000
0010
0000
0100
0001
0010
2002
,
0000
0000
3003
0000
,
2020
0000
0030
0000
0001
0001
3001
0000
,
0020
0100
0100
0130
,
0202
0000
0300
0000
1000
1000
1003
0000
,
0200
0010
0010
0310
,
0001
0010
0001
0000
1000
0010
1000
0000
,
0010
0100
1000
0100
,
0101
1100
0110
0011
,
1000
0001
0000
0010
0000
0001
0000
0100
,
0010
0001
0000
0010
0000
0100
0000
0001
,
1000
0100
0010
0000
0100
0010
0100
1000
,
0100
0000
1000
0001
0010
0000
0001
0100
,
0001
0000
0001
0000
0001
0000
0000
1010
0000
0000
1000
0000
0100
0000
0000
0000
,
1000
0010
0100
0001
,
0010
0100
0010
0000
0100
0001
0100
0000
,
0010
0010
0100
0100
1000
0001
0100
0000
,
2010
0100
0001
3100
,
0012
0000
1000
0000
0010
0010
0013
0000
,
0011
0000
1100
0000
0110
0000
1010
0010
,
0220
0000
0330
2200
0000
3300
0100
0001
,
0012
0000
1000
0000
0010
0010
0013
0000
,
0201
0000
1000
0000
0010
0010
0310
0000
,
0100
0001
0010
0000
0100
1000
0001
0000
,
2200
0000
3300
0220
0000
0330
0001
1000
,
0000
0000
0000
0000
0010
0000
0010
2002
,
0000
0000
0000
3003
0000
0000
0000
0000
0000
0000
0000
0000
0000
0000
0000
0000
;

//---------------dance-single - ----------------
#NOTEDATA:;
#CHARTNAME:EXPERT;
#CHARTHASH:2147483647;
#STEPSTYPE:dance-single;
#BANNER:;
#DESCRIPTION:;
#CHARTSTYLE:;
#DIFFICULTY:Hard;
#METER:9;
#METERF:9.000000;
#LASTSECONDHINT:81.173088;
#RADARVALUES:0.409472,0.423228,0.352215,0.242907,0.115381,236.000000,207.000000,29.000000,20.000000,0.000000,0.000000,0.000000,0.000000,0.000000,0.409472,0.423228,0.352215,0.242907,0.115381,236.000000,207.000000,29.000000,20.000000,0.000000,0.000000,0.000000,0.000000,0.000000;
#CREDIT:YonabearCWY;
#NOTES:
1200
0000
0000
0010
0000
0000
0301
0000
0000
0000
0001
0000
0010
0000
0000
0000
,
0001
0000
1000
0000
0100
0000
0000
1000
0000
0000
0001
0000
0010
0000
0001
0000
,
0210
0000
0000
0001
0000
0000
1300
0000
0100
0000
0001
0000
0010
0000
0100
0000
,
1000
0000
0010
0100
0010
0000
1001
0000
,
0010
0002
0100
0000
1003
0010
0010
1000
,
0100
2000
0001
0000
3010
1000
1000
0100
,
0120
0000
0000
0001
0000
0000
1030
0000
0010
0000
0001
0000
1000
0000
0010
0000
,
0120
0001
0001
0000
1030
0010
0100
1000
,
0001
0000
1000
0000
0010
0100
1001
0010
,
2001
0000
0000
0000
0100
0000
0000
0100
0000
0000
0001
0000
0001
0000
0000
0000
,
3020
1000
0100
0031
,
1200
0000
0000
0000
0001
0000
0000
0001
0000
0000
0010
0000
0010
0000
0000
0000
,
0302
1000
1000
0000
0010
0010
0013
0000
,
0001
1000
0010
1000
0100
1000
0001
0010
,
0100
1000
0000
0001
2000
0000
0000
0000
0010
0000
0010
0000
3010
0000
0000
0000
,
1100
0011
0110
1001
,
0012
0000
2003
0010
0000
3020
0100
0000
,
0130
0001
0010
0100
1000
0001
0100
0010
,
2000
0010
0010
0000
0001
0001
3001
0000
,
0200
1000
1000
0000
0010
0010
0310
0000
,
1000
0000
0001
0000
0100
0001
0000
0011
0000
0000
0001
0000
0100
0000
0010
0000
,
1000
0000
0100
0000
1000
0010
0001
0010
,
0100
0000
0010
0000
0001
0010
1000
0010
,
0100
0000
0100
0000
0010
0000
0010
0000
1000
0000
0001
1000
0001
1000
0000
0000
,
0101
0000
1000
0100
0110
0000
1100
0000
,
0001
0010
1010
0000
0101
0010
1001
0000
,
0100
1000
0100
0010
0001
1000
0010
0100
,
1000
0100
0001
0010
1000
0010
0001
1000
,
1010
0000
0100
0001
0011
0000
1001
0000
,
0010
0000
1000
0000
0100
0000
0010
0000
0001
0100
0000
0001
1000
0000
0010
0000
,
0110
0000
0000
0000
0100
0000
1000
0000
0001
0100
0000
0010
1000
0000
0010
0000
,
0110
0000
0000
1100
0000
0000
1001
0000
0000
0011
0000
0000
0200
0000
0020
0000
,
0000
0000
0000
0000
0000
0330
0000
2002
,
0000
0000
0000
3003
0000
0000
0000
0000
0000
0000
0000
0000
0000
0000
0000
0000
;

//---------------dance-single - ----------------
#NOTEDATA:;
#CHARTNAME:CHALLENGE;
#CHARTHASH:2147483647;
#STEPSTYPE:dance-single;
#BANNER:;
#DESCRIPTION:;
#CHARTSTYLE:;
#DIFFICULTY:Challenge;
#METER:13;
#METERF:13.000000;
#LASTSECONDHINT:81.173088;
#RADARVALUES:0.624618,0.584457,0.182180,0.121454,0.765157,360.000000,345.000000,15.000000,10.000000,0.000000,0.000000,0.000000,0.000000,0.000000,0.624618,0.584457,0.182180,0.121454,0.765157,360.000000,345.000000,15.000000,10.000000,0.000000,0.000000,0.000000,0.000000,0.000000;
#CREDIT:YonabearCWY;
#NOTES:
// measure 0
1000
0010
1000
0000
0001
0000
0100
0000
0010
0001
0010
0000
0100
0000
0001
0000
,  // measure 1
1000
0000
0100
0010
0100
0000
1000
0001
0000
0001
0010
0000
0100
0000
0010
0000
,  // measure 2
1000
0010
1000
0000
0010
0000
0001
0000
0100
1000
0100
0000
0010
0000
0100
0000
,  // measure 3
0001
1000
0010
1000
0100
0000
1000
0000
0100
0010
1000
0010
0001
0000
0010
0000
,  // measure 4
0100
0000
1000
0100
0010
0100
0001
0000
0100
0000
1000
0010
0100
0010
0001
0000
,  // measure 5
0010
0100
0010
1000
0010
0000
0100
0000
0001
1000
0010
1000
0100
0000
1000
0000
,  // measure 6
0001
0000
0100
0010
0001
0010
0100
0000
0010
0000
1000
0001
0100
0001
1000
0000
,  // measure 7
0010
1000
0100
0000
1000
0000
0001
0000
0010
0001
0100
0001
0010
0000
0001
1000
,  // measure 8
0000
0010
0000
0100
0010
0000
0010
0000
1000
0010
0001
0010
1000
0000
0010
0000
,  // measure 9
0102
0000
0000
0000
1000
0000
0000
1000
0000
0000
0010
0000
0010
0000
0000
0000
,  // measure 10
0203
0000
0000
1000
1000
0000
0000
0000
0010
0000
0010
0000
0010
0000
0000
0301
,  // measure 11
2001
0000
0000
0000
0100
0000
0000
0100
0000
0000
0001
0000
0001
0000
0000
0000
,  // measure 12
3020
0000
0000
0001
0001
0000
0000
0000
1000
0000
1000
0000
1030
0000
0000
0000
,  // measure 13
0110
0000
1000
0000
0010
1000
0000
0100
0000
1000
0001
0000
0010
0001
0010
0000
,  // measure 14
0001
0000
0100
0000
1000
0000
0100
0000
0001
0010
1000
0010
0001
0000
0100
0000
,  // measure 15
0010
0100
0000
0010
1000
0100
0000
0010
0001
1000
0000
0010
0100
0100
0000
0001
,  // measure 16
1000
0000
0010
0000
0100
0000
0001
0000
0010
0001
1000
0001
1000
0100
1000
0000
,  // measure 17
0010
0000
0100
0000
0001
0000
0010
0000
0100
0000
1000
0100
0010
0100
0010
0000
,  // measure 18
0001
0000
0100
0000
0010
0000
1000
0000
0100
1000
0001
1000
0000
0010
0000
0100
,  // measure 19
0001
0000
0010
0001
1000
0001
0010
0000
0100
1000
0001
1000
0010
1000
0100
0000
,  // measure 20
1000
1000
0001
0100
0001
0000
0000
0110
0000
1000
0010
0000
0100
0001
0010
0000
,  // measure 21
0001
1000
0100
0010
0000
0100
0010
0001
1000
0010
0000
0100
0000
0102
0000
0000
,  // measure 22
0013
0001
0000
0001
1000
0000
0010
0000
1000
0001
1000
0200
0000
0000
1300
0000
,  // measure 23
1010
0000
1100
0000
0011
0000
0101
0000
1001
0000
0010
1000
0010
0200
0000
0001
,  // measure 24
0301
1000
0001
0000
1000
0000
0010
0000
0100
0001
1000
0000
0010
0000
0100
0000
,  // measure 25
0001
0010
0001
0000
1000
0000
0100
0000
0010
0001
1000
0001
1000
0010
0010
0000
,  // measure 26
0100
0001
0010
1000
0010
0001
1000
0010
0001
0010
1000
0001
0100
1000
0100
0001
,  // measure 27
1000
0000
0010
0100
0000
0100
0001
0000
1000
0010
0000
0010
0110
0000
1001
0000
,  // measure 28
0100
1000
0010
1000
0100
0000
1000
0000
0001
0010
0100
0010
0001
0000
1000
0000
,  // measure 29
0010
0100
0001
0100
0000
0010
0000
1000
0010
0001
0010
1000
0100
0000
1000
0000
,  // measure 30
0001
0100
0001
0010
0000
0001
0000
1000
0001
1000
0010
1000
0100
0000
1001
0000
,  // measure 31
0110
0000
1000
0001
0000
0010
0100
0000
0100
1000
0000
0100
0010
0001
1000
0002
,  // measure 32
0000
0000
0100
0000
0000
0000
0100
0000
0103
0001
0010
0100
1000
0000
2002
0000
,  // measure 33
0000
0000
0000
3003
0000
0000
0000
0000
0000
0000
0000
0000
0000
0000
0000
0000
;

//---------------dance-double - ----------------
#NOTEDATA:;
#CHARTNAME:BASIC;
#CHARTHASH:2067175718;
#STEPSTYPE:dance-double;
#BANNER:;
#DESCRIPTION:;
#CHARTSTYLE:;
#DIFFICULTY:Easy;
#METER:5;
#METERF:5.000000;
#LASTSECONDHINT:81.173088;
#RADARVALUES:0.190856,0.261998,0.170035,0.170035,0.006073,110.000000,96.000000,14.000000,14.000000,0.000000,0.000000,0.000000,0.000000,0.000000,0.190856,0.261998,0.170035,0.170035,0.006073,110.000000,96.000000,14.000000,14.000000,0.000000,0.000000,0.000000,0.000000,0.000000;
#CREDIT:YonabearCWY;
#NOTES:
00100000
00000000
00100000
00000000
,
01000000
01000000
01000000
00000000
,
00010000
00000000
00010000
00000000
,
00100000
00001000
00010000
00000000
,
00000100
00000000
00000100
00000000
,
00001000
00001000
00001000
00000010
,
00000100
00000000
00000001
00000000
,
00000010
00000100
00001000
00010000
,
02200000
00000000
00000000
03300000
,
00202000
00000000
00000000
00303000
,
00020000
00000100
00000100
00030100
,
00020020
00000000
00000000
00030030
,
00002000
00100000
00100000
00103000
,
00010000
10000000
00010000
01000000
,
00001000
00100000
00001000
00010000
,
00000110
00011000
01100000
10010000
,
00100000
00000000
00100000
00000000
,
01000000
01000000
01000000
00001000
,
00100000
00001000
00010000
00000100
,
00000010
00000000
00000010
00000000
,
00000100
00001000
00010000
00100000
,
00010000
00000000
10000000
00000000
,
00010000
01000000
00100000
00010000
,
00011000
00000110
00000011
00001000
,
00010100
00000000
00010000
00001000
,
00100000
00000000
00010000
10000000
,
00100000
00100000
01000000
01000000
,
00022000
00000000
00000000
00033000
,
00000010
00000000
00000100
00000001
,
00001000
00000000
00000010
00010000
,
00001000
00000000
00010000
00001000
,
00022000
00000000
00000000
00033000
,
00100000
00000000
01000000
00000000
00100000
00000000
00000000
20020000
,
00000000
00000000
00000000
30030000
00000000
00000000
00000000
00000000
00000000
00000000
00000000
00000000
00000000
00000000
00000000
00000000
;

//---------------dance-double - ----------------
#NOTEDATA:;
#CHARTNAME:DIFFICULT;
#CHARTHASH:2147483647;
#STEPSTYPE:dance-double;
#BANNER:;
#DESCRIPTION:;
#CHARTSTYLE:;
#DIFFICULTY:Medium;
#METER:8;
#METERF:8.000000;
#LASTSECONDHINT:81.173088;
#RADARVALUES:0.341805,0.322459,0.230762,0.145744,0.042509,197.000000,178.000000,19.000000,12.000000,0.000000,0.000000,0.000000,0.000000,0.000000,0.341805,0.322459,0.230762,0.145744,0.042509,197.000000,178.000000,19.000000,12.000000,0.000000,0.000000,0.000000,0.000000,0.000000;
#CREDIT:YonabearCWY;
#NOTES:
00001000
00001000
00010000
00010000
,
00100000
00000000
10000000
00100000
00010000
00000000
01100000
00000000
,
00001000
00000000
00001000
00000000
00010000
00000100
00001000
00000000
,
00000010
00000000
00000010
00000000
00001000
00000010
00000001
00000010
,
00000100
00000000
00011000
00000000
00100000
00010000
10000000
00010000
,
00100000
00000000
11000000
00000000
00100000
00001000
00010000
00000100
,
00000010
00000000
00000100
00000000
00001010
00000000
00000100
00000001
,
00000010
00000000
00000100
00000000
00011000
00000000
00100000
00020000
,
00000000
00030000
20020000
30030000
,
20100000
00000000
00000000
00000000
01000000
00000000
00000000
01000000
00000000
00000000
00010000
00000000
30010000
00000000
00000000
00000000
,
00200000
00001000
00001000
00301000
,
00000120
00000000
00000000
00000000
00000001
00000000
00000000
00000100
00000000
00000000
00001000
00000000
00001030
00000000
00000000
00000000
,
00000200
00010000
00010000
00010300
,
00000100
00010000
00000100
00000000
00010000
00001000
00010000
00000000
,
00001000
00100000
00001000
00000000
01000000
00010000
01000000
00000000
,
10100000
01010000
00001100
00000011
,
00001000
00000100
00000010
00000100
00010000
00001000
00010000
00000000
,
00001000
00100000
01000000
00000000
10000000
01000000
00010000
00000000
,
01000000
00100000
00001000
00010000
00001000
00100000
00001000
00010000
,
00000100
00000000
00001000
00000000
00000010
00000100
00000001
00000000
,
00001000
00000010
00000001
00000010
00000100
00000000
00001000
00010000
,
00100000
00000000
11000000
00000000
00100000
01000000
00010000
00000000
,
00100000
00010000
00001000
00000100
00000010
00000000
00001001
00000000
,
00000010
00000010
00000100
00000100
00000001
00001000
00000020
00000000
,
00010030
00000000
00001000
00010000
01000000
00010000
00001000
00000000
,
00010000
00000000
00000010
00000100
00010000
00000100
00000010
00000000
,
00001100
00000000
00110000
00000000
11000000
00000000
00010000
01000000
,
00001000
00000000
00000000
00001000
00000000
00000000
00100000
00000000
00000000
00100000
00000000
00000000
00001000
00000000
00010000
00000000
,
00000100
00000000
00000010
00000001
00000010
00000000
00000001
00001000
,
00000100
00000100
00010000
00000000
00001000
00000000
00100000
00001000
,
00010000
00100000
01000000
00100000
00010000
00100000
01000000
00001000
,
00010000
00000000
00000000
00001000
00000000
00000000
00010000
00000000
00000000
00000100
00000000
00000000
00000010
00000000
00002002
00000000
,
00000000
00000000
00000000
00000000
00000000
00003003
00000000
00022000
,
00000000
00000000
00000000
00033000
00000000
00000000
00000000
00000000
00000000
00000000
00000000
00000000
00000000
00000000
00000000
00000000
;

//---------------dance-double - ----------------
#NOTEDATA:;
#CHARTNAME:EXPERT;
#CHARTHASH:2147483647;
#STEPSTYPE:dance-double;
#BANNER:;
#DESCRIPTION:;
#CHARTSTYLE:;
#DIFFICULTY:Hard;
#METER:11;
#METERF:11.000000;
#LASTSECONDHINT:81.173088;
#RADARVALUES:0.437233,0.403074,0.267198,0.121454,0.200398,252.000000,230.000000,22.000000,10.000000,0.000000,0.000000,0.000000,0.000000,0.000000,0.437233,0.403074,0.267198,0.121454,0.200398,252.000000,230.000000,22.000000,10.000000,0.000000,0.000000,0.000000,0.000000,0.000000;
#CREDIT:YonabearCWY;
#NOTES:
00001000
00000100
00000000
00000010
00000000
00000000
00000000
00000000
00000100
00000000
00010000
00000000
00001000
00000000
00100000
00000000
,
00010000
10000000
00010000
00000000
01000000
00000000
00100000
00000000
01000000
00000000
00010000
00000000
00100000
00000000
00000000
00000000
,
00001000
00010000
00000000
00001000
00000000
00000000
00000000
00000000
00010000
00000000
00000100
00000000
00000010
00000000
00000001
00000000
,
00001000
00000010
00000100
00000000
00000010
00010000
00000100
00010000
,
00001000
00000000
01100000
00000000
00010000
10000000
10000000
00100000
,
01000000
00000000
00010000
00100000
00100000
00100000
00001000
00010000
,
00000100
00000010
00000100
00000010
00000000
00000000
00000000
00000000
00000001
00000000
00001000
00000000
00000100
00000000
00000001
00000000
,
00000100
00000000
00001000
00000000
00000010
00000000
00000100
00000000
00001000
00000000
00010000
00000000
00001000
00100000
00001000
00000000
,
00000000
00000000
00000000
00000000
10000000
10000000
10000000
01000000
,
00120000
00000000
00000000
00000000
10000000
00000000
00000000
10000000
00000000
00000000
00100000
00000000
00130000
00000000
00000000
00000000
,
00001000
00010000
00000000
00001000
00020000
00000000
00000000
00000000
00000100
00000000
00000100
00000000
00030100
00000000
00000000
00000000
,
00000012
00000000
00000000
00000000
00001000
00000000
00000000
00000010
00000000
00000000
00000100
00000000
00000100
00000000
00000103
00000000
,
00000001
00000000
00000010
00000000
00000100
00000000
00010000
00000000
00001000
00010000
00001000
00010000
00001000
00000000
00000000
00000000
,
10100000
01000000
00010000
00000000
00100000
00001000
00010000
00000000
,
00000100
00010000
00001000
00000000
00010000
00000010
00000100
00000001
,
00000011
00001100
00110000
11000000
,
00100000
01000000
00000000
00010000
02000000
00000000
00000000
00000000
03010000
00000000
00100000
00000000
00001000
00000000
00100000
00000000
,
00001000
00010000
00000100
00000010
00000001
00001000
00000010
00000100
,
00001000
00000100
00000000
00000010
00000200
00000000
00000000
00000000
00000310
00000000
00010000
00000000
00000010
00000000
00010000
00000000
,
00001000
00010000
00100000
01000000
00100000
10000000
01000000
00100000
,
00010000
01000000
00010000
01000000
00010000
00000000
00000000
00011000
00000000
00000000
00000100
00000000
00000010
00000000
00000100
00000000
,
00002000
00000001
00000000
00000010
00000000
00000001
00003000
00000100
,
00010000
00001000
00200000
00010000
00000000
10000000
00000000
00310000
,
00010000
00000000
00010000
00000000
10000000
00000000
10000000
00000000
00100000
00000000
01000000
00000000
00010000
00100000
00000000
00000000
,
00001100
00000000
00000001
00000010
00001000
00000000
00010100
00000000
,
00010000
00001000
00100000
01000000
10000000
01000000
00010000
01000000
,
10000000
00100000
00100000
01000000
01000000
00001000
00001000
00010000
,
00011000
00000000
00000000
00000110
00000000
00000000
00000101
00000000
00000000
00010010
00000000
00000000
00010000
00000000
00001000
00000000
,
01001000
00000000
00000000
00100000
10000000
00000000
00010000
00000000
01000000
00000000
00010000
00000000
00100000
00000000
00001000
00000000
,
00100000
00000000
00000000
00001000
00010000
00000000
00000100
00000000
00000010
00000000
00000100
00000000
00010000
00000000
00000010
00000000
,
00001000
00000000
00000010
00000000
00000000
00000100
00000000
00000001
00000010
00000000
00000100
00000000
00001000
00000000
00010000
00000000
,
00110000
00000000
00000000
11000000
00000000
00000000
01001000
00000000
00000000
00011000
00000000
00000000
00010000
00000000
00010200
00000000
,
00000000
00000000
00000000
00000000
00000000
00000000
00000300
00000000
00001000
00000001
00001000
00000001
00000010
00000000
00000220
00000000
,
00000000
00000000
00000000
00000330
00000000
00000000
00000000
00000000
00000000
00000000
00000000
00000000
00000000
00000000
00000000
00000000
;

//---------------dance-double - ----------------
#NOTEDATA:;
#CHARTNAME:CHALLENGE;
#CHARTHASH:2147483647;
#STEPSTYPE:dance-double;
#BANNER:;
#DESCRIPTION:;
#CHARTSTYLE:;
#DIFFICULTY:Challenge;
#METER:13;
#METERF:13.000000;
#LASTSECONDHINT:81.173088;
#RADARVALUES:0.598593,0.523996,0.170035,0.121454,0.746939,345.000000,331.000000,14.000000,10.000000,0.000000,0.000000,0.000000,0.000000,0.000000,0.598593,0.523996,0.170035,0.121454,0.746939,345.000000,331.000000,14.000000,10.000000,0.000000,0.000000,0.000000,0.000000,0.000000;
#CREDIT:YonabearCWY;
#NOTES:
00000100
00000010
00000000
00001000
00000000
00000100
00001000
00000000
00000010
00000000
00000100
00000000
00000010
00000000
00001000
00000000
,
00000100
00010000
00000100
00000000
00010000
00000000
00001000
00100000
00000000
00100000
00001000
00000000
00010000
00001000
00010000
00000000
,
00100000
01000000
00000000
00100000
00000000
10000000
01000000
00000000
00100000
00010000
00100000
00000000
01000000
00000000
00100000
00000000
,
00010000
00000000
01000000
00010000
01000000
00000000
00010000
00000000
00100000
00001000
00100000
00001000
00010000
00000000
00001000
00000000
,
00010000
00000100
00000000
00001000
00000000
00000010
00000100
00000010
00001000
00000000
00000010
00000000
00000010
00000000
00000100
00000000
,
00000001
00001000
00000001
00000000
00001000
00000000
00000100
00000000
00010000
00000100
00010000
00000100
00000000
00001000
00000000
00010000
,
00100000
00010000
00000000
10000000
00000000
00100000
10000000
01000000
10000000
00010000
00100000
00000000
00100000
00000000
00010000
00000000
,
01000000
00010000
01000000
00000000
00010000
00000000
00100000
00010000
00100000
00001000
00010000
00001000
00000100
00000010
00000100
00000010
,
00000000
00000000
00000000
00000000
00000000
00000000
00000000
00000000
00011000
00000000
00100000
01000000
10000000
01000000
00100000
01000000
,
20000000
00000000
00000000
00000000
00010000
00000000
00000000
00010000
00000000
00000000
30100000
00000000
01000000
00000000
00001000
00000000
,
00010000
00000000
00001000
00100000
00001000
00100000
00000000
00000000
00000100
00010000
00000100
00010000
00000000
00000010
00000000
00000100
,
00000002
00000000
00000000
00000000
00001000
00000000
00000000
00001000
00000000
00000000
00000103
00000000
00000010
00000000
00001000
00000000
,
00000100
00000000
00010000
00000010
00010000
00000010
00000000
00000000
01000000
00001000
01000000
00001000
00000000
00201000
00000000
00000000
,
01300000
00000000
10000000
00000000
00010000
01000000
00000000
00100000
00000000
10000000
00100000
00000000
01000000
00010000
01000000
00000000
,
00010000
00000000
00100000
00000000
00001000
00000000
00010000
00000000
00000100
00000010
00000100
00000010
00000000
00000001
00000000
00001000
,
00000010
00000100
00000000
00000010
00010000
00001000
00000000
00100000
00001000
00010000
00000000
00001000
01000000
00200000
00000000
00000000
,
10300000
00000000
00100000
00000000
00010000
00000000
00100000
00000000
10000000
01000000
10000000
01000000
00100000
00000000
00001000
00000000
,
00010000
00000000
00001000
00000000
00100000
00001000
00010000
00001000
00010000
00000100
00010000
00000000
00000100
00000000
00001000
00000000
,
00000001
00000000
00000100
00000000
00001000
00000000
00000100
00000000
00000001
00000100
00000010
00000100
00000000
00000010
00000000
00001000
,
00000010
00000000
00001000
00000100
00010000
00000100
00000000
00000000
00100000
00001000
00010000
00001000
00000000
00000000
01100000
00000000
,
10000000
01000000
00010000
01000000
10000000
00000000
00100000
10000000
00000000
10000000
01000000
00000000
00100000
00000000
00001000
00000000
,
00010000
00000100
00010000
00001000
00000100
00000010
00000100
00001000
00000000
00000100
00000000
00000001
00000000
00002001
00000000
00000000
,
00003010
00001000
00000000
00001000
00000100
00000000
00010000
00000000
00001000
00000000
00100000
00020000
00000000
00000000
10030000
00000000
,
10100000
00000000
01100000
00000000
00011000
00000000
00001100
00000000
00000011
00000000
00001000
00000010
00001000
00000200
00000000
00000000
,
00001300
00000010
00001000
00000010
00000100
00000000
00010000
00000000
00000100
00000000
00001000
00000000
00010000
00000000
00001000
00000000
,
00100000
00010000
00100000
01000000
00100000
00000000
00010000
00000000
00100000
00000000
01000000
00000000
00010000
00000000
00001000
00000000
,
00010000
00000100
00010000
00000000
00000010
00001000
00000010
00000000
00010000
00001000
00010000
00000000
00001000
01000000
00001000
00100000
,
00001000
00000000
00010000
00000100
00000000
00000100
00001000
00000000
00001000
00000010
00000000
00000010
00000001
00000000
00001010
00000000
,
00011000
00000000
00100000
00000000
01000000
00000000
10000000
00000000
00010000
00000000
01000000
00000000
10000000
01000000
00010000
00000000
,
00100000
00000000
01000000
00000000
00100000
00000000
00001000
00000000
00010000
00000100
00000010
00000100
00010000
00000100
00001000
00000000
,
00000110
00000000
00000011
00000000
00000000
00001000
00000000
00000010
00001000
00000100
00001000
00000100
00010000
00000000
00010000
00000000
,
00001000
00000000
00100000
00010000
00000000
00010000
01000000
00000000
10000000
01000000
00000000
01000000
00010000
00000000
00010000
00100000
,
00002000
00000000
00000000
00000000
00010000
00000000
00000000
00000000
00013000
00000100
00001000
00000010
00000100
00000000
00002002
00000000
,
00000000
00000000
00000000
00003003
00000000
00000000
00000000
00000000
00000000
00000000
00000000
00000000
00000000
00000000
00000000
00000000
;
