#TITLE:BOBBY SUE AND SKINNY JIM;
#SUBTITLE:;
#ARTIST:Raj Ramayya;
#TITLETRANSLIT:;
#SUBTITLETRANSLIT:;
#ARTISTTRANSLIT:;
#GENRE:JAZZ ROCK;
#CREDIT:YonabearCWY;
#BANNER:BOBBY SUE AND SKINNY JIM.png;
#BACKGROUND:BOBBY SUE AND SKINNY JIM-bg.png;
#LYRICSPATH:;
#CDTITLE:GUITAR FREAKS & drummania.png;
#MUSIC:BOBBY SUE AND SKINNY JIM.ogg;
#OFFSET:-7.305000;
#SAMPLESTART:42.832096;
#SAMPLELENGTH:15.000000;
#SELECTABLE:YES;
#BPMS:0.000000=133.000000
;
#STOPS:
;
#BGCHANGES:0.000=BOBBY SUE AND SKINNY JIM.mp4=1.000=1=0=0=StretchNoLoop==CrossFade==,
185.000=BOBBY SUE AND SKINNY JIM-bg.png=1.000=0=0=1=====,
99999=-nosongbg-=1.000=0=0=0 // don't automatically add -songbackground-
;
#KEYSOUNDS:;
#ATTACKS:;

//---------------dance-single - ----------------
#NOTES:
     dance-single:
     BEGINNER:
     Beginner:
     3:
     0.142279,0.198643,0.120390,0.021889,0.000000,91.000000,80.000000,11.000000,2.000000,0.000000,0.000000,0.142279,0.198643,0.120390,0.021889,0.000000,91.000000,80.000000,11.000000,2.000000,0.000000,0.000000:
1000
0000
0000
0000
,
1000
0000
0000
0000
,
0001
0000
0000
0000
,
0001
0001
1001
0000
,
0100
0000
0000
0000
,
0100
0000
0000
0000
,
0110
0000
0000
0000
,
0010
0010
0010
0000
,
1000
0000
0000
1000
,
1000
0000
0000
0001
,
0001
0000
0000
0001
,
0001
0000
0000
0000
,
1001
0000
1001
0000
,
0110
0000
0000
0000
,
0100
0100
0010
0010
,
0100
0000
0000
0000
,
0110
0000
0110
0000
,
1001
0000
0000
0000
,
1000
1000
0001
0000
,
1001
0000
0000
0000
,
0001
0000
0001
0000
,
0001
0000
0000
0000
,
0010
0000
0010
0000
,
0010
0000
0000
0000
,
0100
0000
0100
0000
,
0100
0000
0000
0000
,
1000
0000
1000
0000
,
1000
0000
0000
0000
,
1000
1000
1000
0000
,
1000
0000
0000
0000
,
1000
1000
1000
0000
,
1000
0000
0000
0000
,
0001
0001
0001
0000
,
0001
0000
0000
0000
,
0001
0001
0001
0000
,
0001
0000
0000
0000
,
0100
0000
0000
0000
,
0100
0000
0000
0000
,
0010
0000
0000
0000
,
0010
0000
0000
0000
,
1000
1000
1000
0000
,
1000
1000
1000
0000
,
0001
0001
0001
0000
,
0001
0001
0001
0000
,
2002
0000
0000
0000
,
0000
3003
0000
0110
0000
0000
0000
0000
;

//---------------dance-single - ----------------
#NOTES:
     dance-single:
     BASIC:
     Easy:
     6:
     0.268922,0.350498,0.295502,0.098501,0.005472,172.000000,145.000000,27.000000,9.000000,0.000000,0.000000,0.268922,0.350498,0.295502,0.098501,0.005472,172.000000,145.000000,27.000000,9.000000,0.000000,0.000000:
1000
1000
1000
1010
,
0001
0001
0001
0101
,
1000
0000
1000
1000
,
1001
0000
0010
0110
,
0001
0001
0001
0011
,
1000
1000
1000
1100
,
2002
0000
0000
3003
,
0000
0000
0100
0000
0000
0100
0000
0000
0010
0000
0000
0000
0000
0000
0000
0000
,
0010
0010
0010
0010
,
0000
0100
0100
0100
,
0010
0010
0010
0010
,
0000
1000
1000
1000
,
1001
1001
0110
0000
,
0110
0110
1001
0000
,
1000
0000
1000
0000
,
0001
0000
0001
0000
,
0011
0011
1100
0000
,
1010
1010
0101
0000
,
0010
0000
0010
0000
,
0100
0000
0100
0000
,
1001
1000
1000
1000
,
1000
0000
0001
1000
,
0001
0001
0001
0001
,
0001
0000
0100
0010
,
0100
0100
0100
0100
,
0100
0000
0010
0100
,
0010
0010
0010
0010
,
0110
0110
1001
0000
,
1000
1000
0100
0000
,
0010
0010
0001
0000
,
0100
0100
0001
0000
,
0010
0010
0100
0000
,
2000
0001
3001
0100
,
0020
1000
1030
0002
,
0100
0103
2000
0001
,
3001
0200
0010
0310
,
1001
0000
0001
0100
,
0001
0000
0010
0001
,
0010
0000
0100
1000
,
0100
0000
0010
0100
,
0010
0000
0100
1000
,
0001
0000
1000
0001
,
0010
0000
0000
1100
0000
0000
0010
0000
,
0000
0101
0000
0000
0010
0000
0001
0000
,
1000
0000
0000
0100
0000
0000
0010
0000
,
0000
2001
0000
0200
0000
0000
3300
0000
;

//---------------dance-single - ----------------
#NOTES:
     dance-single:
     DIFFICULT:
     Medium:
     9:
     0.414328,0.475676,0.339280,0.109445,0.021889,265.000000,234.000000,31.000000,10.000000,0.000000,0.000000,0.414328,0.475676,0.339280,0.109445,0.021889,265.000000,234.000000,31.000000,10.000000,0.000000,0.000000:
1000
0000
1000
0000
0001
0010
0001
0000
,
1000
0000
1000
0000
0100
0001
0100
0000
,
1000
0000
0001
0000
0010
1000
0010
0000
,
0001
0000
0001
0000
1000
0001
1001
0000
,
0001
0000
0001
0000
1000
0100
1000
0000
,
0001
0000
0001
0000
0010
1000
0010
0000
,
0220
0000
0000
0000
0330
1000
0001
1000
,
0000
0000
0101
0000
0000
1001
0000
0000
2020
0000
0000
0000
0000
0000
3030
0000
,
1000
0000
0010
0000
1000
0000
0100
1000
,
0000
0001
0000
0100
0000
0001
0010
0000
,
0001
0000
0100
0000
0001
0000
0010
0001
,
0000
1000
0000
0010
0000
0100
0000
0010
,
1010
1010
0101
0101
,
0010
0000
0001
0000
1000
0000
0001
1000
,
0100
0000
1000
0010
0100
0000
0001
0010
,
0000
1100
0000
0011
0000
0100
0001
0000
,
0011
0011
1100
1100
,
0001
0000
0100
0000
1000
0000
0100
0001
,
0010
0000
0100
0010
1000
0000
0010
2002
,
0000
0000
0000
3003
,
1000
0000
1000
0000
1000
0000
1000
0100
,
0010
0000
0010
0001
0100
0000
0100
0000
,
0100
0000
0100
0001
1000
0000
1000
0100
,
0010
0000
0010
0000
0010
0000
0010
0001
,
0100
0000
0100
0010
1000
0010
0100
0000
,
0100
0000
0010
0001
0010
0100
0010
0000
,
0010
0000
1000
0001
1000
0100
1000
0000
,
1000
0000
0001
0100
0001
1000
0001
0000
,
0102
1000
0010
1003
,
0001
0010
0100
1000
0010
0000
0100
0000
,
2100
0010
0001
3100
,
1000
0100
0010
0001
0100
0001
0010
0000
,
0100
0101
0000
0010
1010
0000
0100
0001
,
0100
0000
0010
1000
0010
0000
1000
1001
,
0000
0001
1001
0000
0010
0100
0010
0000
,
1000
0001
1000
0000
0001
0100
1000
0100
,
0001
0000
0010
0000
0100
1000
0100
0010
,
0100
0000
0010
0000
0100
1000
0001
1000
,
0100
0000
1000
0000
0010
0100
0010
0001
,
0010
0000
0100
0000
0010
1000
0001
1000
,
0010
0000
0101
0000
0010
0001
1000
0100
,
0010
0000
1100
0000
0001
0100
0010
1000
,
0001
0010
0000
0010
0100
0000
0100
1000
,
0000
1000
0010
0100
0000
0100
0001
0000
,
1001
0000
0000
0011
0000
0000
1001
0000
0000
1010
0000
0000
0110
0000
0000
1100
,
0000
0102
0000
2000
0000
0000
3003
0000
;

//---------------dance-single - ----------------
#NOTES:
     dance-single:
     EXPERT:
     Hard:
     13:
     0.619147,0.604137,0.656671,0.142279,0.377586,396.000000,336.000000,60.000000,13.000000,0.000000,0.000000,0.619147,0.604137,0.656671,0.142279,0.377586,396.000000,336.000000,60.000000,13.000000,0.000000,0.000000:
// measure 0
1000
0000
0010
0000
0001
0000
0010
0000
1000
0010
0000
0100
0001
0000
0000
0000
,  // measure 1
0001
0000
0100
0000
1000
0000
0100
0000
0001
0100
0000
0010
1000
0000
0000
0000
,  // measure 2
0100
0010
0001
1000
0100
0010
0001
0100
,  // measure 3
1000
0000
0100
0000
0001
0000
1000
0000
0010
0000
0100
0010
0100
0000
0000
0000
,  // measure 4
0001
0000
0010
0000
0100
0000
0010
0000
0001
0000
1000
0010
1000
0000
0010
0000
,  // measure 5
0100
0000
1000
0000
0100
0000
0010
0000
0100
0000
0001
1000
0001
0000
0100
0000
,  // measure 6
2001
0000
0000
0000
0010
0000
0000
0000
0100
0000
0000
0000
3001
0000
1000
0100
,  // measure 7
0010
0000
0011
0000
0000
1001
0000
0000
0220
0000
0000
0000
0000
0000
0330
0000
,  // measure 8
1000
0000
1000
0000
0000
0010
0000
0000
0100
0000
0000
0001
0000
0010
0001
0010
,  // measure 9
0000
0000
0100
0000
0000
0010
0000
0000
0001
0000
0000
0010
0000
0100
1000
0100
,  // measure 10
1000
0000
0001
0000
0000
0010
0000
0000
0001
0000
0000
0100
0000
0010
1000
0001
,  // measure 11
0000
0000
0100
0000
0010
0000
0000
1000
0000
0100
0000
0010
0000
1001
0000
0000
,  // measure 12
0011
1010
1100
0101
,  // measure 13
0010
0000
0100
0000
1000
0000
0001
0010
0001
0000
0100
0000
0010
0000
1000
0100
,  // measure 14
1000
0010
0010
0010
0010
0010
0100
1001
,  // measure 15
0000
0100
0010
0010
0010
0010
0010
0100
,  // measure 16
0101
0011
1010
1100
,  // measure 17
0100
0000
0010
0000
0001
0000
1000
0010
1000
0000
0001
0000
0010
0000
0001
0100
,  // measure 18
0001
0100
0100
0100
0100
0100
0010
1001
,  // measure 19
0000
0000
0100
0000
0000
0010
0000
0000
1000
0001
0000
0001
0010
0000
0000
0000
,  // measure 20
1100
0000
0101
0000
0011
0000
1010
1000
,  // measure 21
1001
0000
0101
0001
1001
0000
0110
0000
,  // measure 22
1100
0101
0011
1010
,  // measure 23
0101
0001
0011
0001
1001
0000
0110
0000
,  // measure 24
1100
0000
0011
0000
0101
0000
1010
0010
,  // measure 25
0110
0000
0101
0100
1100
0000
0101
0000
,  // measure 26
0011
1001
1100
1001
,  // measure 27
0110
0000
0010
0000
1010
0000
1000
0000
1001
0000
0000
0000
0100
0010
0100
0010
,  // measure 28
0100
1000
1000
0010
0010
0001
0001
0010
,  // measure 29
0010
0000
0100
0000
0100
0000
0001
0000
0001
0000
1000
0000
1000
0020
1000
0000
,  // measure 30
0130
0001
0001
0010
0010
0100
0100
0001
,  // measure 31
0001
0000
0100
0000
0100
0000
1000
0000
1000
0000
0001
0000
0001
0200
0001
0000
,  // measure 32
0310
1010
0100
0001
1001
1000
0100
0011
,  // measure 33
0000
0101
0001
0010
0001
0100
0110
1001
,  // measure 34
1000
0010
1000
0000
0001
0000
0100
0001
0100
0000
0001
0000
0010
0100
0020
0000
,  // measure 35
0000
0000
0130
1000
0200
0000
0000
0000
0310
0001
0020
0000
0000
0000
0031
1000
,  // measure 36
0001
0000
0100
0000
0020
0000
0000
0000
1030
0000
0000
0010
0000
0100
0001
0000
,  // measure 37
0010
0000
0001
0000
1000
0000
0001
0100
0000
0010
0000
1000
0010
0000
0200
0000
,  // measure 38
0000
0000
0301
0000
0000
0010
0000
0000
0100
0000
0000
1000
0000
0100
0010
0100
,  // measure 39
0000
1000
0001
1000
0001
0000
0010
0001
0010
0000
0001
0000
0100
0001
0100
0000
,  // measure 40
0010
1000
0010
0000
0120
0000
0000
0001
0000
0000
1000
0000
0000
0000
0001
0000
,  // measure 41
0130
0000
0010
1000
0000
1000
0010
0000
0100
0001
0000
0001
0100
0000
0010
0000
,  // measure 42
1000
0000
0000
0100
0010
0000
0001
0000
0000
0010
0100
0000
1000
0000
0001
0000
,  // measure 43
0010
0000
0001
1000
0001
0000
1000
0000
0010
1000
0010
1000
0010
0000
0100
0000
,  // measure 44
0101
0000
0000
0011
0000
0000
1001
0000
0000
1010
0000
0000
0110
0000
0000
1100
,  // measure 45
0000
2001
0000
0010
0020
0000
0000
0000
,  // measure 46
3030
0000
0000
0000
;
