#VERSION:0.83;
#TITLE:BIG-BANG STARS;
#SUBTITLE:;
#ARTIST:co-ping;
#TITLETRANSLIT:;
#SUBTITLETRANSLIT:;
#ARTISTTRANSLIT:;
#GENRE:BROKEN-BANG BEAT;
#ORIGIN:;
#TAGS:;
#CREDIT:YonabearCWY;
#BANNER:BIG-BANG STARS.png;
#BACKGROUND:BIG-BANG STARS-bg.png;
#PREVIEWVID:;
#JACKET:BIG-BANG STARS-jacket.png;
#CDIMAGE:;
#DISCIMAGE:;
#LYRICSPATH:;
#CDTITLE:pop'n music.png;
#MUSIC:BIG-BANG STARS.ogg;
#OFFSET:-3.900000;
#SAMPLESTART:24.528008;
#SAMPLELENGTH:15.000000;
#SELECTABLE:YES;
#BPMS:0.000000=124.999992
;
#STOPS:;
#DELAYS:;
#WARPS:;
#TIMESIGNATURES:0.000000=4=4
;
#TICKCOUNTS:0.000000=4
;
#COMBOS:0.000000=1
;
#SPEEDS:0.000000=1.000000=0.000000=0
;
#SCROLLS:0.000000=1.000000
;
#FAKES:;
#LABELS:0.000000=Song Start
;
#BGCHANGES:0.000=light6.mp4=1.000=1=0=1===CrossFade==,
7.000=BIG-BANG COUNTDOWN.mp4=1.000=0=0=1===CrossFade_Fastest==,
24.000=BIG-BANG COUNTDOWN.mp4=1.000=1=0=1=Checkerboard2File2x2=star3.mp4=CrossFade==,
32.000=light6.mp4=1.000=1=0=1=Checkerboard2File2x2=BIG-BANG COUNTDOWN.mp4=CrossFade==,
36.000=BIG-BANG COUNTDOWN.mp4=1.000=1=0=1===CrossFade==,
43.000=tunnel5.mp4=1.000=0=0=1===CrossFade_Fastest==,
51.000=star3.mp4=1.000=0=1=1=StretchRewind====,
59.000=light1.mp4=1.000=0=0=1=====,
67.000=light6.mp4=1.000=0=1=1=StretchRewind====,
75.000=tunnel5.mp4=1.000=0=1=1=StretchRewind====,
83.000=star3.mp4=1.000=0=1=1=StretchRewind====,
91.000=light1.mp4=1.000=0=1=1=StretchRewind====,
99.000=light6.mp4=1.000=0=1=1=StretchRewind====,
105.000=star2.mp4=2.000=0=0=1=====,
107.000=space2.mp4=1.000=0=0=1=====,
119.000=star2.mp4=2.000=0=1=1=StretchRewind====,
123.000=space1.mp4=1.000=0=0=1=====,
131.000=BIG-BANG COUNTDOWNshort.mp4=1.000=0=0=1=Checkerboard2File2x2=space1.mp4=CrossFade_Faster==,
138.250=fireworks5.mp4=2.000=0=0=1===CrossFade_Fastest==,
140.000=fireworks5.mp4=1.000=0=0=1=====,
141.000=galaxy1.mp4=1.000=1=0=1===CrossFade==,
152.000=star3.mp4=1.000=0=1=1=StretchRewind====,
161.250=fireworks5.mp4=2.000=0=1=1=StretchRewind====,
163.000=tunnel22.mp4=1.000=0=0=1=====,
171.000=star3.mp4=1.000=0=1=1=StretchRewind====,
179.000=galaxy1.mp4=1.000=0=1=1=StretchRewind====,
187.000=tunnel5.mp4=1.000=0=1=1=StretchRewind====,
195.000=star2.mp4=2.000=0=1=1=StretchRewind====,
197.000=space2.mp4=1.000=0=1=1=StretchRewind====,
205.000=BIG-BANG COUNTDOWNshort.mp4=1.000=0=1=1=StretchRewind==CrossFade_Faster==,
212.250=fireworks5.mp4=2.000=0=1=1=StretchRewind==CrossFade_Fastest==,
213.000=fireworks5.mp4=1.000=0=0=1=====,
217.000=BIG-BANG STARS-bg.png=1.000=0=0=1=====,
99999=-nosongbg-=1.000=0=0=0 // don't automatically add -songbackground-
;
#KEYSOUNDS:;
#ATTACKS:
;

//---------------dance-single - ----------------
#NOTEDATA:;
#CHARTNAME:BEGINNER;
#CHARTHASH:360819885;
#STEPSTYPE:dance-single;
#BANNER:;
#DESCRIPTION:;
#CHARTSTYLE:;
#DIFFICULTY:Beginner;
#METER:4;
#METERF:4.000000;
#LASTSECONDHINT:107.820007;
#RADARVALUES:0.154793,0.248506,0.137740,0.073461,0.000000,118.000000,103.000000,15.000000,8.000000,0.000000,0.000000,0.000000,0.000000,0.000000,0.154793,0.248506,0.137740,0.073461,0.000000,118.000000,103.000000,15.000000,8.000000,0.000000,0.000000,0.000000,0.000000,0.000000;
#CREDIT:YonabearCWY;
#NOTES:
0000
0000
0010
0000
,
0010
0000
0010
0000
,
0000
0100
0000
0000
,
0000
0010
0000
0000
,
0000
0100
0000
0000
,
0000
0010
0000
0000
,
0000
1000
0000
0000
,
0000
0001
0000
0000
,
0000
1000
0000
0001
,
0000
1000
0000
0001
,
0000
1001
0000
0010
,
0010
0010
0000
0010
,
0000
0000
0000
0100
,
0100
0100
0000
0100
,
0000
0000
0000
0001
,
0001
0001
0000
0001
,
0000
0000
0000
1000
,
1000
1000
0000
1000
,
0000
0000
0000
0010
,
0010
0010
0000
0110
,
0000
0000
0000
0100
,
0100
0100
0000
0110
,
0000
0000
0000
0001
,
0001
0001
0000
1001
,
0000
0000
0000
1000
,
1000
1000
0000
2002
,
0000
0000
3003
0010
,
0000
0010
0000
0010
,
0000
0000
0000
0100
,
0000
0100
0000
0100
,
0000
0000
0000
0001
,
0001
0001
0001
0001
,
0000
0001
0000
1000
,
1000
1000
1000
1000
,
0000
1000
0000
0110
,
2002
0000
0000
0000
,
0000
0000
0000
3003
,
0220
0000
0000
0330
,
1000
0010
0100
0101
,
0000
0000
0000
0000
,
0000
0000
1001
0010
,
0000
0010
0000
0100
,
0000
0100
0000
0001
,
0000
0001
0000
1000
,
0000
1000
0000
0100
,
0000
0100
0000
0010
,
0000
0010
0000
0001
,
0000
0001
0000
0100
,
0100
0010
0010
0000
,
0000
0110
0000
1000
,
1000
1001
0000
0001
,
0001
1001
0000
0100
,
0100
0110
0000
0010
,
0010
2002
0000
0000
,
0000
3003
0000
0000
0000
0000
0000
0000
;

//---------------dance-single - ----------------
#NOTEDATA:;
#CHARTNAME:EXPERT;
#CHARTHASH:624931060;
#STEPSTYPE:dance-single;
#BANNER:;
#DESCRIPTION:;
#CHARTSTYLE:;
#DIFFICULTY:Hard;
#METER:13;
#METERF:13.000000;
#LASTSECONDHINT:107.820007;
#RADARVALUES:0.489304,0.571563,0.321393,0.486681,0.376489,373.000000,338.000000,35.000000,53.000000,0.000000,0.000000,0.000000,0.000000,0.000000,0.489304,0.571563,0.321393,0.486681,0.376489,373.000000,338.000000,35.000000,53.000000,0.000000,0.000000,0.000000,0.000000,0.000000;
#CREDIT:YonabearCWY;
#NOTES:
2002
0003
0020
0030
,
0020
0030
3020
0000
,
0130
0000
0000
0000
0002
0000
0000
1003
0010
0000
0000
0000
0100
0000
0001
0000
,
0010
0000
0000
0000
0200
0000
0000
1300
0001
0000
0000
0000
0010
0000
0100
0000
,
2000
0000
0000
3001
0010
0000
0000
0000
0001
0000
0000
0000
1000
0000
0010
0000
,
0200
0000
0000
0310
0001
0000
0000
0000
0010
0000
0100
0000
0001
0000
1000
0000
,
0020
0000
0000
1030
0000
0010
0100
0000
0002
0000
0000
0000
1003
0000
0010
0000
,
0200
0000
0000
0301
0000
0010
0100
0000
0020
0000
0000
0000
0130
0000
1000
0000
,
0001
1000
0110
0001
0100
1000
0101
0010
,
2002
0000
0000
0000
0000
0000
0000
0000
0000
0000
0000
0000
3003
0000
1000
0100
,
1000
0000
0001
0010
0001
0000
1000
0100
0010
0001
0100
0010
2000
0000
0000
0000
,
0010
0000
3100
1000
1001
0100
1001
0000
,
0010
0000
0001
0000
0100
0000
0010
0000
1000
0100
1000
0000
0102
0000
0000
0000
,
0010
0000
1003
0110
1001
0010
0210
0000
,
0302
0000
0010
0000
0000
1003
0100
0000
0010
0000
0001
0000
0102
0000
0000
0000
,
1000
0000
0013
0001
0110
1000
0110
0000
,
0100
0000
0001
0000
0010
0000
1000
0000
0010
0100
0010
0000
2100
0000
0000
0000
,
0001
0000
3100
1000
0110
0001
1002
0000
,
0103
0020
0000
0130
0010
1000
0002
0000
,
0010
0000
1000
0000
0100
0000
0013
0200
,
1000
0000
0000
0000
0310
0000
1000
0100
0000
0010
0001
0000
2000
0000
0000
0000
,
0010
0000
0000
0000
0100
0000
0000
0000
0001
0000
0000
0000
3100
0000
1000
0010
,
1000
0010
0100
0000
0001
0000
0010
0100
0000
0100
1000
0001
0020
0000
0000
0000
,
0100
0000
0001
0000
1000
0000
0031
0100
,
0010
0000
0001
0000
1000
0000
0001
0010
0000
0100
1000
0001
0200
0000
0000
0000
,
0010
0010
0310
1000
0010
0100
2002
0000
,
0000
0000
0000
0000
0000
0000
0000
0000
3003
0000
0000
0000
0010
1000
0000
0000
,
0010
1000
0000
1000
0100
0000
0010
0000
0001
0100
0000
0000
0001
0010
0000
0000
,
0001
1000
0001
1000
0010
0000
0010
0000
0010
0100
0000
0100
0001
0000
0000
0000
,
1000
0010
0000
0100
0001
0000
0001
0000
0001
2000
0000
0000
3000
0000
0000
0000
,
0000
0000
0000
1010
,
0101
0000
0000
0010
0000
1000
0000
0100
0000
0010
0001
0000
0110
0000
0000
0001
,
0000
1000
0010
1000
0000
0001
0000
0010
0000
0010
0100
0000
1000
0000
0010
0000
,
0002
0000
0013
1000
0100
0001
2000
0010
,
0001
0000
3001
0100
1000
0010
0110
0000
,
2002
0000
0000
0000
,
0000
0000
0000
3003
,
0220
0000
0000
0330
,
1000
0000
0001
0100
0010
0000
0100
0000
0001
0010
0000
0100
2000
0000
0000
0000
,
3002
0000
0000
0003
,
0000
0000
0000
0000
0000
0000
0000
0000
1001
0000
0000
0000
0010
0100
0000
0000
,
0010
0100
0000
0010
0000
1000
0010
0000
0100
0000
0001
0000
0110
0000
1000
0001
,
1000
0000
0100
0000
0010
0000
0001
1000
0000
0100
0010
0000
2100
0000
0000
0000
,
0010
0000
0000
3001
0000
0010
0100
0000
1000
0000
0010
0000
0101
0000
0001
0000
,
1001
0000
0000
0000
0010
0000
0001
0100
0000
0010
1000
0000
0100
0010
0000
0000
,
0100
0010
0000
0001
0000
1000
0010
1000
0001
0000
0100
0000
1001
0000
0010
0100
,
0010
0000
0100
0000
1000
0000
0010
0100
0000
0001
0010
0000
0100
0000
0200
0000
,
0000
1300
0100
0010
0100
0000
0010
0000
0001
0000
1000
0000
0020
0000
0000
1030
,
0200
0000
0000
0310
0002
0000
0000
0103
0020
0000
0000
1030
0002
0000
0000
0000
,
0000
0000
0003
0000
2001
0000
0000
0000
3100
0010
0001
0010
0100
0000
0100
0000
,
0100
0001
0000
0010
1000
0000
0011
0000
1000
0000
0010
0100
0001
0000
0001
0000
,
0001
1000
0000
0000
2010
0000
0000
0000
3100
0000
0000
0000
0012
0000
0000
0000
,
0103
0000
2002
0000
0003
0000
3001
0001
,
0000
2002
0000
0000
,
0000
3003
0000
0000
0000
0000
0000
0000
;

//---------------dance-single - ----------------
#NOTEDATA:;
#CHARTNAME:BASIC;
#CHARTHASH:2246578564;
#STEPSTYPE:dance-single;
#BANNER:;
#DESCRIPTION:;
#CHARTSTYLE:;
#DIFFICULTY:Easy;
#METER:6;
#METERF:6.000000;
#LASTSECONDHINT:107.820007;
#RADARVALUES:0.249243,0.347908,0.211201,0.119374,0.000000,190.000000,167.000000,23.000000,13.000000,0.000000,0.000000,0.000000,0.000000,0.000000,0.249243,0.347908,0.211201,0.119374,0.000000,190.000000,167.000000,23.000000,13.000000,0.000000,0.000000,0.000000,0.000000,0.000000;
#CREDIT:YonabearCWY;
#NOTES:
0020
0000
1000
0000
,
1000
0000
1030
0000
,
0010
0010
0000
0100
,
0001
0001
1000
0000
,
0010
0010
1000
0000
,
0100
0100
0010
0001
,
1000
1000
0001
0100
,
0010
0010
0100
0001
,
0010
0010
0100
0010
,
0010
0100
0001
0001
,
2002
0000
3003
0010
,
0010
0010
0000
0010
,
0000
0010
0000
0100
,
0100
0100
0100
1001
,
0000
0010
0010
0100
,
0100
0100
0000
0100
,
0000
0100
0000
0010
,
0010
0010
0010
1001
,
0000
0110
0000
1000
,
0010
1000
0000
0001
,
0000
0001
0100
0001
,
0010
0001
0000
0100
,
0000
0010
1000
0010
,
0100
0010
0000
1000
,
0001
1000
0000
0100
,
0001
0100
0000
2020
,
0000
0000
3030
0101
,
0010
0001
1000
0000
,
0010
1000
1100
0010
,
0001
0100
2002
0000
,
0000
3003
0000
0010
,
0000
0010
0100
0010
,
0000
0001
1000
0001
,
0000
1000
0001
1000
,
0100
0010
0001
0110
,
1002
0000
0010
0000
,
0010
0000
0100
0000
,
0203
0000
0010
1000
,
0301
0010
0100
1001
,
0000
0000
0000
0000
,
0000
0000
0110
0010
,
1000
0010
0100
0001
,
0100
0001
0010
0001
,
1000
0010
1000
0100
,
0010
0001
0100
0010
,
1000
0001
0010
0100
,
1000
0001
0100
0001
,
1000
0010
1000
0110
,
0011
1010
2002
0000
,
3003
0000
0110
0000
0010
0000
0010
0100
,
1000
0000
1000
0000
1010
0000
0010
0100
,
0001
0010
0011
1000
,
1010
0001
0101
1000
,
0110
2002
0000
0000
,
0000
3003
0000
0000
0000
0000
0000
0000
;

//---------------dance-single - ----------------
#NOTEDATA:;
#CHARTNAME:DIFFICULT;
#CHARTHASH:3234641561;
#STEPSTYPE:dance-single;
#BANNER:;
#DESCRIPTION:;
#CHARTSTYLE:;
#DIFFICULTY:Medium;
#METER:10;
#METERF:10.000000;
#LASTSECONDHINT:107.340004;
#RADARVALUES:0.405349,0.420508,0.312210,0.238749,0.059687,309.000000,275.000000,34.000000,26.000000,0.000000,0.000000,0.000000,0.000000,0.000000,0.405349,0.420508,0.312210,0.238749,0.059687,309.000000,275.000000,34.000000,26.000000,0.000000,0.000000,0.000000,0.000000,0.000000;
#CREDIT:YonabearCWY;
#NOTES:
1002
0000
1000
0000
,
1000
0000
1003
0000
,
0010
0000
0100
0001
0010
0000
0001
0000
,
1000
0000
0010
1000
0100
1000
0101
0000
,
0010
0000
0100
1000
0001
0000
0100
0010
,
0001
0000
0010
0000
0100
0001
1000
0000
,
0100
1000
0010
0000
0100
0001
0010
0000
,
0100
0010
0100
0000
1000
0001
1000
0000
,
0010
0100
0101
0000
0010
1000
1100
0000
,
0010
0001
1001
0000
0220
0000
0000
0000
,
0000
0000
0330
2000
,
0010
0010
0000
3001
1000
0100
0010
0000
,
0001
0000
0010
0000
1000
0000
0000
0011
0000
0000
1000
0000
0010
0000
0000
0000
,
0100
0000
0001
0010
0100
0010
1001
0000
,
0010
0000
0100
0000
1000
0000
0000
0110
0000
0000
0001
0000
0200
0000
0000
0000
,
0010
0010
0000
1300
0100
0010
0100
0000
,
0001
0000
0100
0000
1000
0000
0000
0110
0000
0000
0001
0000
0010
0000
0000
0000
,
0100
0000
1000
0010
0100
0001
0010
0000
,
0100
0000
0010
0000
0100
0000
0000
1001
0000
0000
0010
0000
0100
0000
0000
0000
,
2010
0000
0000
3001
0100
0001
0010
0000
,
0001
0000
1000
0000
0010
0000
0000
0010
0000
0000
0100
0000
0001
0000
0000
0000
,
0010
0100
0010
1000
0010
0001
0100
0000
,
0010
0000
1000
0000
0100
0000
0000
1001
0000
0000
0001
0000
0010
0000
0000
0000
,
0012
0000
0000
1003
0010
1000
0100
0000
,
1000
0000
0010
0000
0100
0000
0000
0001
0000
0000
0001
0000
0010
0000
0100
0000
,
0010
0000
0100
0001
0100
1000
0020
0000
,
0230
0002
0303
1001
,
0010
0000
1000
0010
0001
0010
0100
1000
,
0100
0000
0001
0100
1000
0100
0010
0001
,
0010
0000
0100
0001
1000
0100
0000
0000
,
0000
0000
0000
1001
,
0011
0000
0100
0100
0100
0000
1010
0000
,
0110
0000
0010
0010
0010
0000
2100
0000
,
3001
0012
1003
0120
,
1030
0210
0301
1001
,
0220
0000
0000
0300
,
2000
0000
0000
0030
,
0100
0010
0001
3010
,
1000
0000
0010
0000
0100
0000
0001
0000
0010
0001
0000
1000
0001
0000
0000
0000
,
0020
0000
0000
0030
,
0000
0000
0000
0000
1001
0000
0010
1000
,
0010
0001
0010
0100
1000
0100
0001
0100
,
0010
0001
0010
1000
0100
0010
0001
0100
,
0000
0010
1000
0100
0100
1000
0010
0000
,
0100
0000
0001
0000
0001
0000
0000
0010
0000
0000
0100
0000
0010
0000
0100
0000
,
1000
0001
1000
0010
0100
0001
0010
0100
,
0010
0001
1000
0010
0100
1000
0100
0010
,
0000
0100
0001
0000
0010
0000
0001
0000
1000
0000
0010
0000
1000
0000
0000
0100
,
0010
0000
0000
0000
0001
0000
0000
0010
0100
0000
0000
0000
2002
0000
0000
0000
,
0000
3003
0110
0000
1000
0000
0001
0001
,
0001
0000
0011
0000
0100
0000
0010
0010
,
0010
1200
0301
0021
,
1030
2001
3010
1002
,
0103
0000
2002
0000
0000
0000
0000
3003
;

//---------------dance-single - ----------------
#NOTEDATA:;
#CHARTNAME:CHALLENGE;
#CHARTHASH:1109261126;
#STEPSTYPE:dance-single;
#BANNER:;
#DESCRIPTION:;
#CHARTSTYLE:;
#DIFFICULTY:Challenge;
#METER:17;
#METERF:17.000000;
#LASTSECONDHINT:107.820007;
#RADARVALUES:0.801514,1.018873,0.495863,0.358123,1.083553,611.000000,557.000000,54.000000,39.000000,0.000000,0.000000,0.000000,0.000000,0.000000,0.801514,1.018873,0.495863,0.358123,1.083553,611.000000,557.000000,54.000000,39.000000,0.000000,0.000000,0.000000,0.000000,0.000000;
#CREDIT:YonabearCWY;
#NOTES:
1010
0000
0001
0000
0100
0001
0000
0001
0010
0000
0100
0000
1000
0100
0000
0100
,
0010
0000
0100
0000
0001
0100
0000
0100
1000
0000
0001
1000
0210
0000
0000
0000
,
0301
0000
0010
0000
0100
0000
1000
0100
0000
0010
0100
0000
1000
0001
1000
0100
,
0010
0000
0100
0000
0010
0000
0001
1000
0000
0010
0100
0001
0100
0002
0000
0013
,
0100
0000
1000
0000
0001
0000
0100
0010
0000
0001
0010
0000
0100
1000
0100
0010
,
0100
0000
0001
0000
1000
0000
0100
0000
1000
0100
0010
0100
0010
0001
0000
0010
,
0100
0010
0100
2000
0000
3010
1000
0100
1000
0100
0010
0002
0000
0103
0001
0010
,
0001
1000
0010
2000
0000
3010
0100
0010
0001
0010
0100
1000
0100
0001
1000
0010
,
1000
0001
0100
0001
0010
1000
0010
0001
1000
0010
0001
0010
1000
0001
0100
0010
,
0100
0010
0100
0010
0100
0010
0100
0010
0100
0010
0100
0010
1000
0001
1000
0001
1000
0001
1000
0001
1000
0001
1000
0001
,
1000
0100
0010
0001
0100
0010
1000
0001
0010
0100
1000
0001
0200
0000
0000
0000
,
0010
0000
1300
0110
0101
1100
0102
0000
,
1003
0000
0010
0000
0100
0000
1000
0000
0100
0001
0010
0000
1100
0000
0011
0000
,
1200
0000
0000
0000
0310
0000
1010
0000
0011
0000
1010
0000
1001
0000
0100
0001
,
0010
0100
1000
0010
0100
1000
0100
0010
1000
0010
0100
0001
0020
0000
0000
0000
,
1000
0000
0130
0011
1010
0011
0210
0000
,
0301
0000
1000
0000
0100
0000
0010
0000
0100
0010
1000
0000
1010
0000
0101
0000
,
1020
0000
0000
0000
0130
0000
0011
0000
1100
0000
0101
0000
1010
0000
0100
0001
,
0000
0010
0100
0000
1000
0100
0001
0100
1000
0001
0100
0000
0110
0000
0100
0000
,
1200
0000
0000
0310
1000
0001
2000
0000
0010
0000
0010
0000
3010
0000
1000
0002
,
0100
0000
0100
0000
0103
0000
0001
1000
0000
1000
0010
0100
0010
0000
0100
0000
,
0001
0010
0001
0000
1000
0000
0110
0000
0011
0000
1001
0000
1200
0000
0010
0000
,
0000
0000
1300
0000
0100
0000
0010
0001
1000
0010
0001
0010
1000
0000
0010
0000
,
0021
0000
0000
0031
1000
0010
2000
0000
0100
0000
0100
0000
3100
0000
1000
0010
,
0100
0001
0100
0001
0010
0000
0001
1000
0000
0100
0010
0001
0020
0000
0001
0000
,
0001
0000
0000
0031
0000
0000
1010
0000
0000
0101
0000
0000
1100
0000
0000
0011
0000
0000
1000
0010
1000
0010
1000
0010
,
1000
0000
0010
0000
1000
0000
0010
0000
1000
0000
0010
0000
0100
0000
0001
0000
0100
0000
0001
0000
0100
0000
0001
0000
0100
0000
0000
0001
0000
0000
0010
0000
0000
0100
0000
0000
2100
0000
0000
0000
0000
0000
0000
0000
0000
0000
0000
0000
,
3010
0100
0000
0001
0100
0000
0100
0000
0001
1000
0000
0100
0010
0000
0010
0000
,
0100
0000
1000
0100
0001
0100
1000
0000
0010
0100
0000
0100
0021
0000
0000
0000
,
0031
1000
0000
1000
0010
0000
0010
0000
0100
0110
0000
0000
0000
0000
0000
0000
,
0000
0000
0000
0000
0000
0000
0000
0000
0000
0000
0000
0000
0010
0001
0000
0010
,
0000
0001
1000
0001
0000
1100
0000
1001
0000
1000
0010
0000
0100
0010
0000
0110
,
0000
0100
0001
0010
0100
1000
0000
0100
0000
0010
0001
0000
0001
1000
0000
0100
,
0000
1000
0010
0000
0010
0100
0010
0001
0000
0010
0100
1000
0200
0001
0000
0010
,
0000
0301
2000
0001
0000
0100
0000
3100
0000
1000
0010
0000
2002
0000
3003
0000
,
0210
0001
1000
0001
,
0310
1000
0010
1000
0010
1000
0010
1000
0010
1000
0010
1000
0001
0100
0001
0100
0001
0100
0001
0100
0001
0100
0001
0100
,
0002
1000
0100
0010
,
0103
0000
0001
0000
0010
0000
0100
0000
1000
0010
0000
0100
0002
0000
0000
0000
,
0003
0000
0000
0000
,
0000
0000
0000
0000
0000
0000
0000
0000
0110
0000
0000
0000
0001
1000
0000
0010
,
0000
1000
0001
0000
0200
0000
0010
0000
0010
0000
0310
0000
1010
0000
0001
0010
,
1000
0010
0001
0000
0110
0000
1000
0001
0000
0010
0100
0000
0010
0000
0001
0100
,
0000
1000
0000
0100
0020
0000
0100
0000
0100
0000
0130
0000
0101
0000
1000
0010
,
0001
0010
1000
0000
1001
0000
0100
0001
0000
0010
0100
1000
0100
1000
0000
0001
,
0000
0100
0000
0001
0000
0010
0001
2000
0001
0000
0001
0000
3001
0000
0010
0100
,
1000
0100
0001
0100
1000
0000
0001
0010
0000
0010
0100
0000
0010
0000
0001
0000
,
1000
0010
1000
0000
0001
0000
0020
0000
0000
0130
1000
0000
0001
0020
0000
0031
,
2000
0100
0000
3100
0020
0001
0000
0031
1000
0100
0001
0200
0000
0000
0000
0000
,
0300
0000
0000
0000
1001
0000
0000
0001
0010
0001
0100
0002
0100
0000
0100
0000
,
0103
0010
0000
0010
1010
0000
1000
0000
1002
0000
0000
1003
0100
0010
0100
0000
,
0010
0001
0000
0001
1000
0000
1100
0000
0001
0000
0100
0000
0101
0000
0001
0000
,
1000
0000
0000
0001
0000
0000
0000
0000
0000
0010
0000
0000
0100
0000
1000
0000
0100
0000
1000
0000
0100
0000
1000
0000
0001
0000
0100
0000
0001
0000
0100
0000
0001
0000
0100
0000
0010
0000
1000
0000
0010
0000
1000
0000
0100
0000
0010
0000
,
0100
0010
0001
1000
0100
0010
2002
0000
0000
0000
0000
0000
0000
0000
0000
0000
0000
0000
0000
0000
0000
0000
0000
0000
,
0000
3003
0000
0000
0000
0000
0000
0000
;

//---------------dance-double - ----------------
#NOTEDATA:;
#CHARTNAME:DIFFICULT;
#CHARTHASH:422133150;
#STEPSTYPE:dance-double;
#BANNER:;
#DESCRIPTION:;
#CHARTSTYLE:;
#DIFFICULTY:Medium;
#METER:10;
#METERF:10.000000;
#LASTSECONDHINT:107.820007;
#RADARVALUES:0.405349,0.447310,0.220384,0.275480,0.073461,309.000000,285.000000,24.000000,30.000000,0.000000,0.000000,0.000000,0.000000,0.000000,0.405349,0.447310,0.220384,0.275480,0.073461,309.000000,285.000000,24.000000,30.000000,0.000000,0.000000,0.000000,0.000000,0.000000;
#CREDIT:YonabearCWY;
#NOTES:
01200000
00000000
10000000
00000000
,
10000000
00000000
10300000
00000000
,
00110000
00000000
01000000
00010000
00100000
00000000
00001000
00010000
,
00000100
00000000
00000010
00000010
00000001
00001000
00000010
00000000
,
00001100
00000000
00010000
00000100
00001000
00000000
00010000
01000000
,
00100000
00000000
10000000
01000000
01000000
00100000
00010000
00100000
,
00002000
00010000
00000100
00013000
,
00000200
00000010
00001000
00000310
,
00000001
00000100
00000010
00001000
00000010
00001000
00000100
00010000
,
00100000
01000000
00100000
01000000
00010000
10000000
01000000
00200000
,
00000000
00000000
00000000
00000000
00000000
00300000
00021000
00000000
,
00000010
00000000
00030100
00001000
00001000
00000001
00000100
00000000
,
00000010
00000000
00001000
00000000
00000100
00000000
00000000
00010000
00000000
00000000
00001000
00000000
00020000
00000000
00000000
00000000
,
00100000
00000000
00031000
00010000
00010000
00001000
00100000
00000000
,
00010000
01000000
00000000
10000000
01000000
00000000
00102000
00000000
,
01000000
00000000
00013000
00001000
00001000
00010000
00000100
00000000
,
00001000
00000000
00000010
00000000
00000100
00000000
00000000
00000001
00000000
00000000
00000100
00000000
00000020
00000000
00000000
00000000
,
00001000
00000000
00000130
00000010
00000010
00000100
00001000
00010000
,
00001000
00100000
00001000
00100000
01000000
00100000
10010000
00000000
,
01200000
00000000
00000000
10000000
10000000
10300000
00100000
01000000
,
00001000
00000000
00100000
00000000
00001000
00000000
00000000
00010000
00000000
00000000
00000100
00000000
00000020
00000000
00000000
00000000
,
00000001
00000000
00000130
00001000
00001000
00000010
00000100
00001000
,
00010000
00000000
00001000
00000000
00100000
00000000
00000000
00010000
01000000
00000000
00100000
00000000
00100000
00000000
00000000
00000000
,
00021000
00000000
00000000
00000100
00000100
00030100
00010000
00001000
,
00000100
00000000
00000010
00000000
00001000
00000000
00000000
00000001
00000010
00000000
00000100
00000000
00001000
00000000
00000010
00000000
,
00000100
00000000
00000010
00000100
00001000
00010000
00202000
00000000
,
00000000
00000000
00303000
01200000
,
10300000
00000000
00000000
00010000
00100000
00000000
00010000
00000000
01000000
00000000
00000000
00000000
00101000
00000000
00100000
00000000
,
00010000
00000000
00100000
00001000
00010000
00000100
00000012
00000000
,
00001003
00000000
00000000
00000100
00000010
00000000
00000001
00000000
00000010
00000100
00000000
00000000
00000000
00000000
00000000
00000000
,
00000000
00000000
00000000
00110000
,
01000000
00000000
00100000
00100000
00100000
00100000
00010000
01000000
,
10000000
01000000
00010000
00100000
00001000
00100000
00011000
00000000
,
00000100
00000000
00001000
00001000
00001000
00001000
00000010
00000100
,
00000001
00000010
00000100
00001000
00000100
00000000
00011000
00000000
,
02200000
00000000
00000000
03000000
,
20000000
00000000
00000000
00300000
,
02000000
30000000
03020000
00032000
,
00013000
00000000
00000100
00000000
00000010
00000000
00000001
00000000
00001000
00000010
00000000
00000100
00000001
00000000
00000000
00000000
,
00000000
00000000
00000000
00000000
,
00000000
00000000
00011000
00100000
,
00010000
00000000
01000000
10000000
10000000
01000000
00100000
00000000
,
01000000
00000000
00010000
00000000
00100000
00000000
00000000
00001000
00000000
00010000
00001000
00000000
00010000
00000000
00000000
00000000
,
00000100
00000000
00000010
00000001
00000001
00001000
00000010
00000000
,
00000100
00000000
00001000
00000000
00000100
00000000
00000000
00000010
00000000
00001000
00000100
00000000
00010000
00000000
00000000
00000000
,
00001000
00100000
00100000
00010000
01000000
00100000
10000000
10000000
,
01000000
00000000
00000000
00000000
00100000
00000000
00000000
00001000
00000000
00010000
00100000
00000000
00010000
00000000
00001000
00000000
,
00001000
00010000
00000100
00000010
00000001
00000001
00000110
00000000
,
00000101
00001100
00022000
00033000
,
00000000
00000000
01200000
00000000
10000000
00000000
01300000
10000000
,
01000000
00010000
00100000
00001000
00200000
00000000
00301000
00010000
,
00000200
00000000
00001300
00000010
00000100
00000001
00000010
00001000
,
00000010
00000001
00000202
00000000
00000000
00000000
00000000
00000000
,
00000303
00022000
00000000
00000000
,
00000000
00033000
00000000
00000000
00000000
00000000
00000000
00000000
;

//---------------dance-double - ----------------
#NOTEDATA:;
#CHARTNAME:EXPERT;
#CHARTHASH:4059706766;
#STEPSTYPE:dance-double;
#BANNER:;
#DESCRIPTION:;
#CHARTSTYLE:;
#DIFFICULTY:Hard;
#METER:13;
#METERF:0.000000;
#LASTSECONDHINT:107.820007;
#RADARVALUES:0.539153,0.596413,0.220384,0.275480,0.440767,411.000000,387.000000,24.000000,30.000000,0.000000,0.000000,0.000000,0.000000,0.000000,0.539153,0.596413,0.220384,0.275480,0.440767,411.000000,387.000000,24.000000,30.000000,0.000000,0.000000,0.000000,0.000000,0.000000;
#CREDIT:YonabearCWY;
#NOTES:
00001200
00000000
00010000
00000000
,
00010000
00000000
00020300
00000000
,
00031000
00000000
00100000
00000000
00010000
00000000
00000000
01000000
00000000
00100000
10000000
00000000
01000000
00000000
00100000
00000000
,
00010000
00000000
01000000
00000000
00010000
00000000
00000000
00100000
00000000
00001000
00010000
00000000
00000100
00010000
00000100
00000000
,
00010000
00000000
00000010
00000000
00001000
00000000
00000000
00000010
00000000
00000000
00000100
00000000
00000001
00000000
00000010
00000000
,
00000100
00000000
00001000
00000000
00000100
00000000
00010000
00001000
00000000
00000000
00100000
00000000
00100000
00000000
00010000
00000000
,
01000000
00000000
00000000
00100000
10000000
00000000
01000000
00000000
10000000
00000000
00010000
00000000
00100000
00000000
01000000
00000000
,
00100000
00000000
00001000
00010000
00001000
00000000
00010000
00000000
00000100
00000000
00000010
00000000
00000001
00000000
00001000
00000000
,
00000100
00010000
00001000
00010000
00002000
00000000
00000000
00000000
00103000
00010000
00100000
00010000
20000000
00000000
00000000
00000000
,
30100000
01000000
00100000
01000000
00010000
00000000
00100000
00000000
00001000
00010000
00001000
00010000
00000100
00010000
00000200
00000000
,
00000000
00000000
00000000
00000000
00000300
00000000
00000011
00001000
,
00001020
00000000
00000130
00000010
00000010
00001000
00000100
00010000
,
00001000
00000000
01000000
00000000
00100000
00000000
00010000
00000000
00100000
01000000
00100000
00000000
20010000
00000000
00000000
00000000
,
01000000
00000000
30100000
10000000
10000000
01000000
00210000
00001000
,
00000000
00000000
00010000
00000000
00000000
00000000
00001000
00000000
00000000
00000000
00310000
00000000
00100000
00001000
00100000
00000000
,
00012000
00000000
00013000
00000100
00000100
00001000
00000010
00000100
,
00001000
00000000
00000100
00000000
00000001
00000000
00000010
00000000
00000100
00000010
00000100
00000000
00001002
00000000
00000000
00000000
,
00000010
00000000
00000000
00000000
00001003
00000000
00000010
00000000
00000010
00000000
00000100
00000000
00000010
00000000
00001000
00000100
,
00000000
00000100
00010000
00000000
00001000
00000000
00100000
00001000
00000000
00001000
00010000
00000000
00001000
00100000
00010000
00100000
,
00020000
01000000
00000000
10000000
10030000
01000000
00100000
00010000
,
01000000
00000000
00010000
00000000
00100000
00000000
00001000
00010000
00000000
00010000
00000100
00000000
00001000
00000000
00000001
00000000
,
00000010
00000000
00000200
00000000
00000000
00000000
00000010
00000000
00000010
00000000
00000310
00000000
00001001
00000000
00000000
00000100
,
00000010
00001000
00000010
00000000
00001000
00000000
00000100
00010000
00000000
00010000
00001000
00000000
00100000
00010000
00100000
00000000
,
20010000
01000000
00000000
00100000
00100000
30100000
10000000
00010000
,
00100000
00000000
01000000
00000000
00100000
00000000
00001000
00010000
00000000
00010000
00000100
00000000
00001000
00000000
00000010
00000000
,
00000100
00000010
00000100
00000000
00000002
00000000
00000010
00000000
00000010
00000000
00000013
00000000
00002002
00000000
00000000
00000000
,
00000000
00000000
00003003
00011000
,
00100000
00010000
00000000
10000000
00010000
00000000
00010000
00000000
01000000
00010000
00000000
00100000
00001000
00000000
00010000
00000000
,
00001000
00010000
00000000
00000100
00010000
00000000
00000100
00000000
00001000
00000010
00000000
00000000
00000100
00000001
00000100
00000000
,
00000001
00000010
00000000
00000010
00000100
00001000
00000100
00000000
00010000
00000100
00000000
00000000
00000000
00000000
00000000
00000000
,
00000000
00000000
00000000
00000000
00000000
00000000
00000000
00000000
00000000
00000000
00000000
00000000
00100000
01000000
00000000
10000000
,
00000000
00100000
01000000
00100000
00000000
10000000
00000000
00010000
00000000
01000000
00010000
00000000
00100000
00001000
00000000
00010000
,
00000000
00000100
00010000
00000100
00000000
00001000
00000000
00000100
00000000
00000010
00000001
00000000
00002010
00000000
00000000
00000000
,
00003100
00012000
00103000
02010000
,
13000000
01002000
00013000
00011000
,
00000012
00001000
00000010
00000100
,
00001003
00000100
00001000
00000000
00000010
00000000
00000100
00000000
00001000
00010000
00001000
00000000
00100000
00000000
00010000
00000000
,
02010000
10000000
00100000
03010000
,
01000000
00000000
00100000
00000000
01000000
00000000
00010000
00000000
01000000
00010000
00000000
00100000
00001000
00000000
00000000
00000000
,
00000000
00000000
00000000
00000000
,
00000000
00000000
00000000
00000000
00000000
00000000
00000000
00000000
00000110
00000000
00000000
00000000
00010000
00000100
00000000
00001000
,
00000000
00000100
00000000
00010000
00000100
00000000
00000100
00000000
00000100
00000000
00000100
00000000
00010000
00000000
00001000
00000000
,
00010000
00001000
00010000
00000000
00001000
00000000
00100000
00010000
00000000
01000000
00010000
00000000
00100000
00000000
00001000
00000000
,
00010000
00000000
00001000
00000000
00100000
00000000
00001000
00000000
00001000
00000000
00001000
00000000
00001000
00000000
00010000
00001000
,
00100000
00001000
00100000
00000000
00010000
00000000
01000000
00100000
00000000
01000000
00010000
00000000
00100000
00001000
00000000
00010000
,
00000000
00000100
00000000
00000010
00000000
00000100
00001000
00000100
00010000
00000000
00010000
00000000
00010000
00000000
00000100
00001000
,
00000100
00000000
00001000
00000010
00001000
00000000
00000010
00010000
00000000
00000100
00010000
00000000
00001000
00000000
00100000
00000000
,
00010000
00100000
00010000
00000000
01000000
00000000
01000000
00000000
00010000
00100000
00001000
00000000
00010000
00000000
00000100
00000000
,
00000010
00000100
00010000
00001000
00100000
01000000
00000000
00000000
,
00000000
00000000
00000000
00000000
00021000
00000000
00000000
00000000
00030100
00001000
00000000
00000100
00000020
00000000
00000000
00000000
,
00000031
00001000
00000010
00000000
00000210
00000000
00000000
00000000
00001300
00010000
00000000
00100000
01000000
00000000
10000000
00000000
,
00010000
01000000
00000000
00000000
00102000
00000000
00000000
00000000
00013000
00000000
00000000
00000000
00020100
00000000
00000000
00000000
,
00031000
00000000
00010000
00000100
00000020
00000000
00000130
00010000
,
00001000
00022000
00000000
00000000
,
00000000
00033000
00000000
00000000
00000000
00000000
00000000
00000000
;

//---------------dance-double - ----------------
#NOTEDATA:;
#CHARTNAME:CHALLENGE;
#CHARTHASH:2891272946;
#STEPSTYPE:dance-double;
#BANNER:;
#DESCRIPTION:;
#CHARTSTYLE:;
#DIFFICULTY:Challenge;
#METER:17;
#METERF:17.000000;
#LASTSECONDHINT:107.820007;
#RADARVALUES:0.763472,0.919470,0.367306,0.137740,0.950404,582.000000,542.000000,40.000000,15.000000,0.000000,0.000000,0.000000,0.000000,0.000000,0.763472,0.919470,0.367306,0.137740,0.950404,582.000000,542.000000,40.000000,15.000000,0.000000,0.000000,0.000000,0.000000,0.000000;
#CREDIT:YonabearCWY;
#NOTES:
00000011
00000000
00001000
00000000
00000010
00000100
00000000
00000001
00000100
00000000
00000010
00000000
00001000
00000100
00000000
00001000
,
00000010
00000000
00010000
00000000
00000100
00010000
00000000
00001000
00100000
00000000
00010000
01000000
10000000
01000000
00010000
00100000
,
00010000
00000000
10000000
00000000
00100000
00000000
01000000
00000000
10000000
00000000
01000000
00000000
00010000
00100000
01000000
00100000
,
00010000
00000000
00100000
00000000
00001000
00000000
00010000
00000000
00001000
00000000
00000100
00000010
00000100
00001000
00000000
00000001
,
00001000
00000000
00000010
00000000
00000100
00000000
00001000
00000000
00000100
00000000
00000010
00000000
00001000
00000100
00000001
00000100
,
00001000
00000000
00000100
00000000
00010000
00000000
00001000
00000000
00100000
01000000
00100000
00000000
00010000
10000000
00000000
01000000
,
00100000
00010000
00100000
01000000
00000000
00010000
00001000
00100000
00001000
00010000
00000100
00010000
00000000
00000100
00001000
00000100
,
00000010
00000001
00001000
00000010
00000000
00000100
00000010
00001000
00000010
00000100
00001000
00010000
00001000
00010000
00000000
00001000
,
00100000
00010000
00100000
00010000
01000000
00000000
00100000
10000000
01000000
10000000
01000000
00100000
00010000
00000000
00100000
00001000
,
00010000
00000000
00001000
00000000
00010000
00000000
00001000
00000000
00010000
00000000
00001000
00000000
00010000
00000000
00000000
00000000
00000000
00000000
00000100
00000000
00000000
00001000
00000000
00000000
00000010
00000000
00000100
00000000
00000010
00000000
00000100
00000000
00000010
00000000
00000100
00000000
00000001
00000000
00001000
00000000
00000001
00000000
00001000
00000000
00000000
00000100
00000000
00000000
,
00000010
00000100
00010000
00001000
00100000
00010000
10000000
00010000
01000000
00100000
10000000
01000000
00200000
00000000
00000000
00000000
,
01000000
00000000
00310000
00110000
00101000
00001100
00000120
00000000
,
00001030
00000000
00000001
00000000
00000010
00000000
00000001
00001000
00000000
00000010
00000100
00000000
00000010
00000000
00001000
00000000
,
00000100
00000000
00001000
00000000
00010000
00000000
01100000
00000000
11000000
00000000
01010000
00000000
00011000
00000000
00100000
00010000
,
01000000
00010000
00100000
00001000
00010000
00001000
00000100
00000010
00000100
00000001
00001000
00000100
00000020
00000000
00000000
00000000
,
00000001
00000000
00000130
00001100
00011000
01100000
20100000
00000000
,
30010000
00000000
10000000
00000000
00100000
00000000
01000000
00010000
00000000
10000000
00100000
00000000
01000000
00000000
00010000
00000000
,
00100000
00000000
00001000
00000000
00010000
00000000
00010100
00000000
00000110
00000000
00001001
00000000
00000001
00000010
00000001
00000010
,
00000000
00000100
00001000
00000000
00000100
00000010
00000100
00000010
00000100
00001000
00000100
00000000
00010000
00000000
00001000
00000000
,
00012000
00000000
01000000
01000000
01003000
00100000
00010000
00100000
,
10000000
00000000
01000000
00000000
00010000
00000000
00001000
00010000
00001000
00000000
00010000
00000000
00000100
00000000
00000010
00000000
,
00000012
00001000
00000000
00000010
00000010
00000013
00000001
00001000
,
00000010
00000000
00000100
00000000
00001000
00000000
00010000
00001000
00010000
00000000
00001000
00100000
00001000
00000000
00100000
00000000
,
00010000
02010000
00000000
00100000
00100000
00100000
03100000
01000000
,
00010000
00000000
00100000
00000000
00001000
00000000
00010000
00000100
00010000
00000000
00000100
00000000
00000010
00000000
00000001
00000000
,
00001000
00000000
00000000
00000000
00000000
00000000
00000010
00000000
00000000
00000000
00000000
00000000
00000100
00000000
00000000
00001000
00000000
00000000
00000100
00000000
00000000
00000000
00000000
00000000
00000010
00000000
00000000
00000000
00000000
00000000
00001000
00000000
00000000
00000000
00000000
00000000
00000100
00000000
00001000
00000000
00000100
00000000
00001000
00000000
00000100
00000000
00001000
00000000
,
00000100
00000000
00000000
00000000
00000000
00000000
00010000
00000000
00000000
00000000
00000000
00000000
00001000
00000000
00100000
00000000
00001000
00000000
00100000
00000000
00001000
00000000
00100000
00000000
00001000
00000000
00000000
00100000
00000000
00000000
00010000
00000000
00000000
01000000
00000000
00000000
01200000
00000000
00000000
00000000
00000000
00000000
00000000
00000000
00000000
00000000
00000000
00000000
,
10300000
00100000
00000000
01000000
00010000
00000000
00010000
00000000
00100000
01000000
00100000
00010000
00100000
00000000
00001000
00000000
,
00010000
00001000
00000000
00010000
00000100
00010000
00000100
00000000
00001000
00000010
00000100
00001000
00000100
00000000
00000001
00000000
,
00001000
00000010
00000000
00000100
00000001
00000010
00000001
00000000
00000010
00000110
00000000
00000000
00000000
00000000
00000000
00000000
,
00000000
00000000
00000000
00000000
00000000
00000000
00000000
00000000
00000000
00000000
00000000
00000000
00100000
00010000
00000000
01100000
,
00000000
10000000
01000000
10000000
00000000
01100000
00000000
01010000
00000000
00001000
00100000
00001000
00010000
00001000
00000000
00010100
,
00000000
00000100
00000010
00000001
00000000
00001001
00000000
00001100
00000000
00000100
00000010
00000100
00002000
00000000
00000000
00000000
,
00003010
00000000
00010000
00000000
00001000
00010000
00000000
00001000
00100000
00000000
00010000
00000000
02010000
00000000
00000000
00000000
,
13000000
00210000
00301000
00011000
,
00000100
00000010
00000100
00000000
00000010
00000001
00000000
00001000
00000010
00000000
00000010
00000000
00000100
00000001
00000000
00000010
,
00000100
00001000
00000100
00000000
00010000
00001000
00010000
00001000
00000000
00100000
00010000
00000000
10000000
00100000
00010000
00100000
,
10000000
00100000
00000000
01000000
00010000
01000000
00000000
00100000
00000000
10000000
01000000
00000000
00100000
00010000
00100000
00001000
,
00100000
00000000
00001000
00000000
00010000
00000000
00000100
00000000
00000010
00000100
00000000
00001000
00000001
00000000
00000000
00000000
,
00000000
00000000
00000000
00000000
,
00000000
00000000
00000000
00000000
00000000
00000000
00000000
00000000
00011000
00000000
00000000
00000000
00100000
00010000
00000000
10000000
,
00000000
00100000
01000000
00000000
10000000
01000000
10000000
00000000
01000000
00000000
01000000
00000000
00101000
00000000
00010000
00000100
,
00010000
00001000
00010000
00000000
00001010
00000000
00000100
00000010
00000001
00000010
00001000
00000000
00000110
00000000
00001000
00000000
,
00000001
00000100
00000001
00000000
00002000
00000000
00000100
00000000
00000100
00000000
00003100
00000000
00010100
00000000
00001000
00010000
,
00001000
00000000
00100000
00010000
01000000
00010000
10000000
01000000
00000000
10000000
00100000
00000000
00100000
01000000
00000000
00010000
,
00000000
00100000
00000000
00001000
00000000
00010000
00001000
00010000
00000100
00000000
00010000
00000000
00010010
00000000
00000010
00001000
,
00000100
00001000
00000001
00000000
00000110
00000000
00001000
00000100
00000001
00000100
00001000
00000000
00000100
00000000
00010000
00000000
,
00001000
00010000
00001000
00000000
00100000
00000000
00100000
00000000
00010000
00100000
01000000
00000000
10000000
01000000
00000000
00100000
,
00001000
00100000
00000000
00001000
00010000
00000100
00000000
00001000
00000010
00001000
00000001
00000200
00000000
00000000
00000000
00000000
,
00000000
00000000
00000300
00000000
00010100
00000000
00000000
00001000
00100000
01000000
00100000
00000000
00001000
00000000
00100000
00000000
,
00010000
01000000
00000000
01000000
00100000
00000000
01000000
00000000
11000000
00000000
00010000
01000000
10000000
01000000
00010000
00000000
,
00100000
00010000
00001000
00000100
00001000
00000001
00000000
00000100
00000001
00000100
00000000
00000010
00000000
00001000
00000100
00000000
,
00010000
00000000
00000000
00001000
00000000
00000000
00000000
00000000
00000000
00001000
00000000
00000000
00100000
00000000
00001000
00000000
00100000
00000000
00001000
00000000
00100000
00000000
00001000
00000000
00100000
00000000
00001000
00000000
00100000
00000000
00001000
00000000
00100000
00000000
00001000
00000000
00010000
00000000
00001000
00000000
00010000
00000000
00001000
00000000
00010000
00000000
00001000
00000000
,
00010000
00001000
00010000
00001000
00010000
00001000
00022000
00000000
00000000
00000000
00000000
00000000
00000000
00000000
00000000
00000000
00000000
00000000
00000000
00000000
00000000
00000000
00000000
00000000
,
00000000
00033000
00000000
00000000
00000000
00000000
00000000
00000000
;

//---------------dance-double - ----------------
#NOTEDATA:;
#CHARTNAME:BASIC;
#CHARTHASH:1608189723;
#STEPSTYPE:dance-double;
#BANNER:;
#DESCRIPTION:;
#CHARTSTYLE:;
#DIFFICULTY:Easy;
#METER:6;
#METERF:6.000000;
#LASTSECONDHINT:3.900000;
#RADARVALUES:0.262361,0.347908,0.238749,0.247932,0.000000,200.000000,174.000000,26.000000,27.000000,0.000000,0.000000,0.000000,0.000000,0.000000,0.262361,0.347908,0.238749,0.247932,0.000000,200.000000,174.000000,26.000000,27.000000,0.000000,0.000000,0.000000,0.000000,0.000000;
#CREDIT:YonabearCWY;
#NOTES:
// measure 0
00200000
00000000
00010000
00000000
,  // measure 1
00010000
00000000
00310000
00000000
,  // measure 2
00011000
00001000
00010000
00000100
,  // measure 3
00000010
00000100
00001000
00000001
,  // measure 4
00000010
00001000
00000010
00000100
,  // measure 5
00010000
00001000
00100000
01000000
,  // measure 6
20000000
00000000
30100000
01000000
,  // measure 7
00020000
00000000
00130000
00001000
,  // measure 8
00010000
00001100
00000010
00010100
,  // measure 9
00001000
00110000
01000000
00101000
,  // measure 10
00022000
00000000
00033000
00000120
,  // measure 11
00001000
00000000
00001030
00000100
,  // measure 12
00010000
00001000
00100000
02100000
,  // measure 13
00000000
03010000
01000000
00001000
,  // measure 14
00100000
00001000
00010000
00010200
,  // measure 15
00001000
00000000
00001300
00000100
,  // measure 16
00000010
00000001
00001000
00000010
,  // measure 17
00000100
00010000
00100000
00010000
,  // measure 18
10000000
00100000
01000000
10010000
,  // measure 19
02200000
00000000
03300000
00010000
,  // measure 20
00000000
00010000
00000000
00010000
,  // measure 21
00002200
00000000
00003300
00000010
,  // measure 22
00000000
00000010
00000001
00001000
,  // measure 23
00002002
00000000
00003003
00000010
,  // measure 24
00000010
00010000
00000100
00001000
,  // measure 25
00010000
00100000
00010000
20200000
,  // measure 26
00000000
00000000
30300000
00021000
,  // measure 27
00000100
00001000
00030100
00001000
,  // measure 28
00000010
00000100
00000101
00001020
,  // measure 29
00010000
00000100
00010030
00000000
,  // measure 30
00000000
00000000
00000000
01000000
,  // measure 31
01000000
00000000
00100000
01000000
00100000
00000000
10000000
00000000
,  // measure 32
10000000
00100000
01000000
00001000
,  // measure 33
00001000
00000000
00010000
00001000
00010000
00000000
00000100
00000000
,  // measure 34
00000100
00001000
00000010
00001001
,  // measure 35
00022000
00000000
00000000
00033000
,  // measure 36
02200000
00000000
00000000
03300000
,  // measure 37
00202000
00000000
00000000
00303000
,  // measure 38
00010000
00000100
00000010
00001001
,  // measure 39
00000000
00000000
00000000
00000000
,  // measure 40
00000000
00000000
00011000
00100000
,  // measure 41
00100000
01000000
01000000
10000000
,  // measure 42
10000000
00000000
00010000
00000000
01000000
00010000
01000000
00000000
,  // measure 43
00010000
00010000
00100000
00100000
,  // measure 44
00001000
00000000
00001000
00000000
00010000
00000010
00010000
00000000
,  // measure 45
00000100
00000100
00001000
00001000
,  // measure 46
00000001
00000000
00000001
00000000
00000010
00000100
00000010
00000000
,  // measure 47
00000100
00000100
00010000
00010000
,  // measure 48
00001000
00001000
00100000
00000000
,  // measure 49
00000000
00000000
11000000
00000000
00010000
00000000
01000000
00010000
,  // measure 50
00100000
00000000
00001000
00000000
00011000
00000000
00010000
00000010
,  // measure 51
00000100
00001000
00000100
00000010
,  // measure 52
00000001
00002000
00000000
00000000
,  // measure 53
00003000
00022000
00000000
00000000
,  // measure 54
00000000
00033000
00000000
00000000
00000000
00000000
00000000
00000000
;
