#TITLE:BAD BOY;
#SUBTITLE:(Red Monster Remix);
#ARTIST:CASCADA;
#TITLETRANSLIT:;
#SUBTITLETRANSLIT:;
#ARTISTTRANSLIT:;
#GENRE:HARD TRANCE;
#CREDIT:YonabearCWY;
#BANNER:BAD BOY (Red Monster Remix).png;
#BACKGROUND:BAD BOY (Red Monster Remix)-bg.png;
#LYRICSPATH:;
#CDTITLE:Dance Mania presents Summer Story 2008.png;
#MUSIC:BAD BOY (Red Monster Remix).ogg;
#OFFSET:-1.650000;
#SAMPLESTART:52.838001;
#SAMPLELENGTH:15.000000;
#SELECTABLE:YES;
#BPMS:0.000000=150.000000
;
#STOPS:
;
#BGCHANGES:0.000=heart4.mp4=1.000=1=0=1===CrossFade==,
16.000=heart9.mp4=1.000=0=0=1=====,
28.000=space1.mp4=1.000=0=0=1=====,
32.000=space2.mp4=1.000=0=0=1=====,
40.000=circle10.mp4=0.800=0=0=1=====,
48.000=space2.mp4=1.000=0=1=1=StretchRewind====,
56.000=circle9.mp4=0.800=0=0=1=====,
60.000=circle5.mp4=1.400=0=0=1=====,
64.000=spiral4.mp4=1.000=0=0=1=====,
80.000=tunnel16.mp4=1.000=0=0=1=====,
96.000=heart1.mp4=1.400=0=0=1=====,
104.000=heart14.mp4=1.400=0=0=1=====,
112.000=heart2.mp4=1.400=0=0=1=====,
120.000=heart13.mp4=1.400=0=0=1=====,
128.000=star1.mp4=1.400=0=0=1=====,
136.000=star3.mp4=1.400=0=0=1=====,
144.000=star5.mp4=1.000=0=0=1=====,
152.000=star6.mp4=1.000=0=0=1=====,
160.000=tunnel16.mp4=1.000=0=1=1=StretchRewind====,
168.000=spiral4.mp4=1.000=0=1=1=StretchRewind====,
176.000=space2.mp4=1.000=0=1=1=StretchRewind====,
184.000=space1.mp4=1.000=0=1=1=StretchRewind====,
188.000=heart4.mp4=1.000=0=1=1=StretchRewind====,
192.000=heart9.mp4=1.000=0=1=1=StretchRewind====,
196.000=star3.mp4=1.400=0=1=1=StretchRewind====,
198.000=star2a.mp4=0.100=0=0=1=====,
199.000=star2b.mp4=0.100=0=0=1=====,
200.000=heart4.mp4=1.000=0=1=1=StretchRewind====,
208.000=heart9.mp4=1.000=0=1=1=StretchRewind====,
216.000=heart1.mp4=1.400=0=1=1=StretchRewind====,
224.000=heart2.mp4=1.400=0=1=1=StretchRewind====,
232.000=snow1.mp4=1.000=0=0=1=====,
248.000=star3.mp4=1.400=0=1=1=StretchRewind====,
256.000=star6.mp4=1.000=0=1=1=StretchRewind====,
264.000=star2a.mp4=1.400=0=0=1=====,
266.000=circle10.mp4=1.400=0=1=1=StretchRewind====,
268.000=star2b.mp4=1.400=0=0=1=====,
270.000=circle9.mp4=1.400=0=1=1=StretchRewind====,
272.000=star3.mp4=1.400=0=1=1=StretchRewind====,
274.000=heart4.mp4=1.000=0=1=1=StretchRewind====,
276.000=star5.mp4=1.400=0=1=1=StretchRewind====,
278.000=heart9.mp4=1.000=0=1=1=StretchRewind====,
280.000=star1.mp4=1.800=0=1=1=StretchRewind====,
292.000=BAD BOY (Red Monster Remix)-bg.png=1.000=0=0=1=====,
99999=-nosongbg-=1.000=0=0=0 // don't automatically add -songbackground-
;
#KEYSOUNDS:;
#ATTACKS:;

//---------------dance-single - ----------------
#NOTES:
     dance-single:
     BEGINNER:
     Beginner:
     4:
     0.000000,0.000000,0.000000,0.000000,0.000000,0.000000,0.000000,0.000000,0.000000,0.000000,0.000000,0.000000,0.000000,0.000000,0.000000,0.000000,0.000000,0.000000,0.000000,0.000000,0.000000,0.000000:
1000
0000
0000
0000
,
1000
0000
0000
0000
,
0001
0000
0000
0000
,
0001
0001
0001
0000
,
1000
0000
0000
0000
,
1000
0000
0000
0000
,
1000
0000
0000
0000
,
0001
0001
0001
0000
,
0100
0000
0100
0000
,
0100
0000
0000
0000
,
0010
0000
0010
0000
,
0010
0010
0010
0000
,
0100
0000
0100
0000
,
0100
0000
0000
0000
,
0010
0000
0010
0000
,
0010
0010
0010
0010
,
0010
0000
0000
0000
,
1000
0001
1000
0000
,
1001
0000
0000
0000
,
0010
0100
0010
0000
,
0100
0000
0000
0000
,
0001
1000
0001
0000
,
1001
0000
0000
0000
,
0100
0010
0100
0000
,
0100
0000
0100
0000
,
0100
0000
0000
0000
,
0010
0000
0010
0000
,
0010
0000
0000
0000
,
1000
0000
1000
0000
,
1000
0000
0000
0000
,
0001
0000
0001
0000
,
0001
0000
0000
0000
,
1000
0000
0000
0000
,
1000
0000
0000
0000
,
1000
0000
0000
0000
,
0001
0001
0001
0000
,
0100
0000
0000
0100
,
0100
0000
0100
0000
,
0110
0000
0000
0000
,
1001
0000
0000
0000
,
0010
0000
0000
0000
,
0010
0000
0000
0000
,
0010
0000
0000
0000
,
0100
0100
0100
0000
,
0001
0000
0000
0001
,
0001
0000
0000
0000
,
0110
0000
0000
0000
,
1000
1000
1000
0000
,
0110
0000
0000
0000
,
1001
0000
0000
0000
,
0010
0000
0000
0000
,
0010
0000
0000
0000
,
0100
0000
0000
0000
,
0100
0000
0000
0000
,
0010
0000
0000
0000
,
0010
0000
0000
0000
,
0100
0000
0000
0000
,
0100
0000
0000
0000
,
0001
0001
0001
0000
,
0001
0001
0001
0000
,
1000
1000
1000
0000
,
1000
1000
1000
1000
,
1000
0001
0001
0000
,
0001
1000
1000
0000
,
0100
0010
0010
0000
,
0010
0100
0100
0000
,
1001
0000
0100
0000
,
0010
0000
0100
0000
,
1001
0000
0010
0000
,
0100
0000
0010
0000
,
0100
0000
0100
0000
,
0010
0000
0010
0000
,
1000
0000
1000
0000
,
0001
0000
0000
1000
0000
0000
0000
0000
;

//---------------dance-single - ----------------
#NOTES:
     dance-single:
     BASIC:
     Easy:
     6:
     0.000000,0.000000,0.000000,0.000000,0.000000,0.000000,0.000000,0.000000,0.000000,0.000000,0.000000,0.000000,0.000000,0.000000,0.000000,0.000000,0.000000,0.000000,0.000000,0.000000,0.000000,0.000000:
1000
1000
1000
0000
,
1000
1000
1000
0000
,
0001
0001
0001
0000
,
0001
0001
0001
0000
,
0100
0100
0100
0000
,
0100
0100
0100
0000
,
0010
0010
0010
0000
,
0010
0010
0010
0010
,
1001
0000
0100
0010
,
0100
0000
0100
0000
,
1001
0000
0010
0100
,
0010
0000
0010
0000
,
0110
0000
1000
0001
,
1000
0000
1000
0000
,
0110
0000
0001
1000
,
2002
0000
0000
3003
,
0100
0000
0100
0000
,
0100
0000
0000
0000
,
0010
0010
0010
0010
,
0010
0000
0000
0000
,
1000
0000
1000
0000
,
1000
0000
0000
0000
,
0001
0001
0001
0001
,
0001
0000
0000
0000
,
0100
0000
0010
0000
,
0100
0000
0010
0000
,
0001
0000
1000
0000
,
0010
0100
0001
0100
,
0010
0000
1000
0000
,
0010
0000
0100
0000
,
0001
0000
0010
0000
,
0100
1000
0100
0010
,
1001
1001
0010
0000
,
0110
0110
1000
0000
,
0001
0000
1000
0000
,
0001
1000
0001
0000
,
0110
0110
0001
1001
,
1001
0000
1000
0000
,
0001
0001
0001
0000
,
1000
1000
1000
0000
,
0110
0110
1000
0000
,
1001
1001
0100
0000
,
0010
0000
0100
0000
,
0010
0100
0010
0000
,
1001
1001
0100
0110
,
0110
0000
0010
0000
,
1000
0001
2000
0000
,
3010
0100
0020
0000
,
0130
0001
0200
0000
,
0301
1000
0002
0000
,
0013
0000
0010
0000
,
0010
0100
1000
0100
,
0010
0000
0011
0000
,
1010
1000
0001
0100
,
0001
0000
0001
0000
,
0001
0100
1000
0100
,
0001
0000
0001
0000
,
0001
0000
0101
0000
,
1010
1000
1000
0000
,
1000
1000
1100
0000
,
0011
0001
0001
0000
,
0001
0001
0101
0000
,
0010
0010
0010
0100
,
0001
0001
0001
1000
,
0100
0100
0100
0010
,
0001
1000
0010
0110
,
2001
0000
0010
3000
,
0012
0000
0100
0003
,
2001
3100
0120
1030
,
1002
0013
0210
0301
,
0010
0010
0100
0100
,
1000
1000
0001
0001
,
1000
1000
0001
0001
,
1001
0000
0000
1001
0000
0000
0000
0000
;

//---------------dance-single - ----------------
#NOTES:
     dance-single:
     DIFFICULT:
     Medium:
     10:
     0.000000,0.000000,0.000000,0.000000,0.000000,0.000000,0.000000,0.000000,0.000000,0.000000,0.000000,0.000000,0.000000,0.000000,0.000000,0.000000,0.000000,0.000000,0.000000,0.000000,0.000000,0.000000:
1000
0000
0010
0000
0001
0000
0010
1000
,
0010
0000
0100
0000
0001
0000
0100
0010
,
0100
0000
0001
0000
0010
0000
1000
0010
,
1000
0000
0010
0000
0001
0100
0001
0000
,
0010
0000
0100
0000
0010
0001
0010
0000
,
0100
0000
0010
0000
1000
0001
1000
0000
,
0010
0000
0100
0000
0001
1000
0001
1000
,
0100
1000
0010
1001
,
1000
0000
0100
0000
0010
0000
0001
1000
,
0100
0000
0010
0000
0001
0000
0100
0010
,
0001
0000
0010
0000
0100
0000
0010
1000
,
0001
0000
0100
0000
0010
0100
0010
0100
,
0001
0000
0010
0000
0100
0010
1000
0000
,
0010
0000
0100
0000
0001
0010
1000
0000
,
0010
0000
0001
0000
1000
0100
0001
0000
,
0220
0000
0330
2002
0000
0000
3003
0000
,
2010
0000
0000
3010
1000
0000
0010
0000
,
0100
0000
0001
1000
0001
1000
0100
0000
,
0021
0000
0000
0031
0100
0000
0010
0000
,
1020
0000
0000
0130
0010
0000
1000
0000
,
1002
0000
0000
0013
0001
0100
0001
0000
,
0120
0000
0000
1030
0010
1000
0001
0000
,
0110
0000
0100
1000
0100
0000
1000
0000
,
2002
0000
0000
3003
,
0010
0000
0001
0000
0100
0000
0001
0010
,
0001
0000
0000
1000
0000
0000
0001
0000
0000
0010
0000
0000
0100
0000
1000
0000
,
0100
0000
1000
0000
0010
0000
0001
0010
,
0100
0000
0000
0010
0000
0000
1000
0000
0000
0001
0000
0000
0010
0000
0100
0000
,
1000
0000
0100
0000
0001
0000
0100
0010
,
0100
0000
0000
1000
0000
0000
0001
0000
0000
0010
0000
0000
1001
0000
0000
0000
,
0100
0010
0001
0010
0100
0010
0100
0000
,
1000
0100
1000
0100
0010
0001
1001
0000
,
0120
0001
0100
0032
,
1003
0010
0010
0000
0100
0001
0001
0000
,
0010
0000
0100
0000
1000
0100
0010
0001
,
0101
0101
2002
3003
,
0210
1000
0010
2300
,
0000
3001
1000
0100
0010
0001
0100
0000
,
1010
0000
1010
0000
1000
0001
1000
0000
,
0101
0000
0101
0000
0001
1000
0001
0000
,
0210
0000
0001
0000
1300
0010
1010
0000
,
0120
0000
1000
0000
0031
0010
0110
0000
,
0001
1000
0001
0000
0100
0010
1000
0100
,
0010
0001
0100
0000
0010
1000
1001
0000
,
0120
0000
1000
0000
0031
0010
0012
0000
,
0000
1003
0100
0010
0001
1000
1001
0000
,
2010
0000
0100
0000
0010
0000
3001
0100
,
1000
0100
0001
0000
1000
0001
1000
0001
,
0021
0000
1000
0000
0031
0010
1000
0010
,
2002
0000
3000
0003
,
0100
0000
0010
0000
1000
0000
0100
1000
,
0100
0010
0100
0000
0010
0001
0010
0100
,
1000
0001
0010
0001
,
0100
0001
0010
0001
1000
0001
0100
0000
,
0010
0000
1000
0000
0100
0000
0010
0001
,
0010
1000
0010
0000
0100
0001
0100
0010
,
0001
0100
1000
0100
,
0110
0110
1001
1001
,
0010
1000
0010
1000
0100
1000
0100
0000
,
0010
0001
0100
0001
0100
0001
1000
0000
,
0010
0100
0010
0001
0010
0100
0010
0000
,
0100
1000
0100
0001
0100
0000
1001
0000
,
0010
0001
0100
0001
0100
0001
0001
0000
,
0010
0100
0010
0100
1000
0001
0001
0000
,
0100
0001
1000
0010
1000
0100
0100
0000
,
1000
0001
0100
0010
0100
0000
1001
0000
,
0010
0001
0021
0000
0130
1000
1020
0000
,
0130
0010
0200
0000
0310
1000
0200
0000
,
0310
0001
1020
0000
0130
0001
0120
0000
,
0031
1000
0001
0000
1000
0001
1000
0000
,
0010
1100
1000
0101
,
0010
0011
0100
1100
,
0001
1000
0001
1000
0100
0010
0001
0000
,
0100
0010
1000
1001
0000
0000
0000
0000
;

//---------------dance-single - ----------------
#NOTES:
     dance-single:
     EXPERT:
     Hard:
     13:
     0.660455,0.668726,0.149135,0.207132,0.443262,558.000000,540.000000,18.000000,25.000000,0.000000,0.000000,0.660455,0.668726,0.149135,0.207132,0.443262,558.000000,540.000000,18.000000,25.000000,0.000000,0.000000:
// measure 0
1000
0000
0001
0000
0010
0000
0001
0100
0000
0010
0000
0000
1000
0000
0100
0000
,  // measure 1
0010
0000
0001
0000
0100
0000
0010
1000
0000
0100
0000
1000
0001
0000
0100
0000
,  // measure 2
0010
0000
0001
0000
0010
0000
0100
0010
0000
1000
0000
0100
0010
0000
0001
0000
,  // measure 3
1000
0100
0010
1000
0001
1000
0010
0001
,  // measure 4
0100
0000
0010
0000
1000
0000
0100
1000
0000
0001
0000
0000
0010
0000
0001
0000
,  // measure 5
0100
0000
1000
0000
0100
0000
0010
0100
0000
0001
0000
1000
0010
0000
0100
0000
,  // measure 6
0001
0000
0010
0000
0100
0000
1000
0100
0000
0010
0000
0001
0100
0000
0010
0000
,  // measure 7
1000
0000
0100
0000
1000
0010
0000
0010
0100
0000
0001
0000
0010
0001
0000
0001
,  // measure 8
1000
0001
0100
0001
0010
0001
1000
0000
,  // measure 9
0100
0000
0010
0000
0100
0000
1000
0000
0100
0000
0010
0000
0001
0000
0100
1000
,  // measure 10
0100
0001
0100
1000
0100
0010
0100
0001
,  // measure 11
0001
0000
0100
0000
0001
0000
1000
0010
0000
1000
0000
0001
1000
0000
0010
0100
,  // measure 12
0010
1000
0100
0001
0100
0010
0001
0000
,  // measure 13
0100
1000
0100
0010
1000
0100
0010
0100
,  // measure 14
1000
0000
0010
0000
0100
0000
0001
0010
0000
0001
0000
1000
0010
0000
0100
0001
,  // measure 15
0100
0000
0001
0000
0010
0100
0000
0100
1000
0000
0010
0000
1000
0001
1000
0001
,  // measure 16
2000
0010
0100
0001
,  // measure 17
3020
0001
1000
0100
,  // measure 18
0031
0000
0020
0100
0000
0130
2000
0000
,  // measure 19
3200
0000
0320
1000
0000
1030
0001
0000
,  // measure 20
0200
0001
0010
1000
,  // measure 21
0302
1000
0010
0100
,  // measure 22
0023
0000
0000
0031
0200
0000
0001
0000
,  // measure 23
2300
0000
0000
3100
0020
0000
0100
0000
,  // measure 24
0031
0010
0100
0010
0100
1000
0100
0001
,  // measure 25
0100
0000
0000
0010
0000
0000
1000
0000
0000
0100
0000
0000
0010
0000
0001
0000
,  // measure 26
1000
0000
0001
0000
0010
0000
0001
0000
0010
0000
0100
0000
0010
0000
0001
1000
,  // measure 27
0001
0000
0000
0100
0000
0000
0010
0000
0000
0001
0000
0000
0010
0000
0100
0000
,  // measure 28
0010
1000
0100
0010
0001
0100
0010
0000
,  // measure 29
1000
0000
0000
0100
0000
0000
0001
0000
0000
0100
0000
0000
1000
0000
0001
0000
,  // measure 30
0010
1000
0010
0001
0100
0010
0100
0010
,  // measure 31
0001
0000
0010
0000
1000
0000
0000
0000
0010
0100
0000
0100
0020
0000
0000
0000
,  // measure 32
1030
0000
0100
0000
1000
0000
0000
0100
0000
0001
0000
0100
0010
0000
0000
0000
,  // measure 33
0001
0000
1000
0000
0001
0000
0000
0010
0000
0100
0000
1000
0100
0000
1000
0000
,  // measure 34
0001
0000
0100
0000
0010
1000
0100
0010
,  // measure 35
0001
0100
1000
0000
0110
0000
0001
0010
,  // measure 36
1000
0000
0010
0000
0001
0000
0000
0100
0000
0010
0000
1000
0200
0000
0000
0000
,  // measure 37
0000
1300
0100
0010
0001
0100
1000
0100
,  // measure 38
0001
0000
0110
0000
1000
0000
0001
1000
,  // measure 39
0010
0001
0010
0000
1100
0000
0001
0100
,  // measure 40
0010
0000
0001
0000
0010
0000
0000
0100
0000
0010
0000
0100
1000
0000
0000
0000
,  // measure 41
0100
0000
0010
0000
0100
0000
0000
0001
0000
1000
0000
0001
0100
0000
0010
0000
,  // measure 42
1000
0100
0010
0001
0010
1000
0010
0001
,  // measure 43
0100
0010
1000
0000
0110
0000
0001
0100
,  // measure 44
0010
0000
0100
0000
1000
0000
0000
0100
0000
0001
0000
0010
0002
0000
0000
0000
,  // measure 45
0000
1003
0001
0010
0100
0001
0100
0010
,  // measure 46
0001
0000
1000
0000
0010
0000
1000
0100
0000
1000
0000
0001
0100
0000
0010
0000
,  // measure 47
2001
0000
0010
0000
0100
0000
3010
1000
,  // measure 48
0100
0000
0010
0000
0001
0000
0100
0001
0000
0010
0000
0001
1000
0000
0010
0200
,  // measure 49
0020
0000
0030
0300
,  // measure 50
0001
0000
0010
0000
0001
0100
0000
0010
0000
1000
0000
0010
1000
0000
0100
0000
,  // measure 51
1000
0000
0010
0000
1000
0100
0000
1000
0000
0001
0000
0100
0001
0000
0010
0100
,  // measure 52
1000
0000
0100
0000
0010
0001
0000
1000
0000
0001
0000
0100
0001
0000
0010
0000
,  // measure 53
0001
0000
0100
0000
0010
0000
1000
0010
0000
0100
0001
0100
0001
0000
0010
0000
,  // measure 54
0100
0000
1000
0000
0001
0010
0000
0001
0000
0010
0000
0100
1000
0000
0010
0000
,  // measure 55
1000
0000
0100
0000
1000
0010
0000
1000
0000
0010
0000
0100
0001
0000
0010
0001
,  // measure 56
1000
0000
0100
0000
1000
0010
0000
0100
0000
0010
0000
0100
0001
0000
1000
0000
,  // measure 57
0010
0001
0010
0100
0010
1000
0100
0001
,  // measure 58
0200
0000
0000
0000
0001
0000
1300
0100
0000
0100
0010
0000
0100
0000
1000
0000
,  // measure 59
0001
0000
0010
0000
0100
0000
0010
0001
0010
0000
0100
0000
2000
0000
0000
0000
,  // measure 60
3020
0000
0000
0000
0001
0000
0130
0010
0000
0010
1000
0000
0010
0000
0100
0000
,  // measure 61
0001
0000
0010
0000
0001
0000
1000
0100
1000
0000
0100
0000
0010
0000
0100
0000
,  // measure 62
1000
0000
0001
0000
0010
0000
0001
0000
0100
0000
0001
0000
1000
0001
0000
0000
,  // measure 63
0010
0000
0100
0000
1000
0000
0001
0000
1000
0000
0010
0000
0100
1000
0000
1000
,  // measure 64
0100
0000
0010
0000
0100
0000
0001
1000
0000
0000
0010
0000
0100
0000
1000
0001
,  // measure 65
1000
0100
0010
0100
0001
0000
0110
0000
,  // measure 66
1001
0010
0002
0000
0103
0001
1100
0000
,  // measure 67
0110
1000
0020
0000
1030
0001
0110
0000
,  // measure 68
0012
1000
0010
0000
1000
0010
1003
0000
,  // measure 69
2100
0001
0100
0000
0001
0100
3001
0000
,  // measure 70
0100
0010
0100
0010
1000
0001
1000
0001
,  // measure 71
0010
0100
0010
1000
0010
0001
0010
1000
,  // measure 72
1001
0010
0011
0000
1001
0100
1100
0000
,  // measure 73
1001
0010
0100
0110
0000
0000
0000
0000
;

//---------------dance-double - ----------------
#NOTES:
     dance-double:
     BASIC:
     Easy:
     5:
     0.000000,0.000000,0.000000,0.000000,0.000000,0.000000,0.000000,0.000000,0.000000,0.000000,0.000000,0.000000,0.000000,0.000000,0.000000,0.000000,0.000000,0.000000,0.000000,0.000000,0.000000,0.000000:
10000000
10000000
10000000
00000000
,
10000000
10000000
10000000
00000000
,
00100000
00100000
00100000
00000000
,
00100000
00100000
00100000
00000000
,
00001000
00001000
00001000
00000000
,
00001000
00001000
00001000
00000000
,
00010000
00010000
00010000
00000000
,
00022000
00000000
00000000
00033000
,
00000100
00010000
00000100
00010000
,
00001000
00000000
00001000
00000000
,
00010000
00000010
00010000
00000010
,
00000100
00000000
00000100
00000000
,
00000001
00000010
00000001
00000010
,
00001000
00000010
00001000
00010000
,
00001000
00010000
01000000
10000000
,
02200000
00000000
00000000
03300000
,
00000000
10000000
00000000
10000000
,
00100000
01000000
00010000
00100000
,
00011000
00000100
00011000
01000000
,
00022000
00000000
00000000
00033000
,
00000000
00000010
00000000
00000010
,
00001000
00000100
00000010
00000001
,
00001000
00010100
00010000
00101000
,
00022000
00000000
00000000
00033000
,
00100000
00100000
00100000
01000000
,
00100000
00100000
00100000
01000000
,
10000000
01000000
00100000
00010000
,
01000000
00001000
00100000
00001000
,
00010000
00010000
00010000
00000100
,
00010000
00010000
00010000
00000100
,
00001000
00000100
00000010
00000001
,
00002002
00000000
00000000
00003003
,
00000010
00000010
00000110
00000000
,
00000100
00000100
00000110
00000000
,
00000010
00010000
00000100
00000100
,
00010000
00000100
00010100
00001000
,
00010000
00010000
00010000
00022000
,
00000000
00000000
00033000
00000000
,
00001000
00010000
00100000
01000000
,
10000000
10000000
00010000
00010000
,
10000000
10000000
10010000
00000000
,
00010000
00010000
10010000
00000000
,
01000000
00010000
00001000
00001000
,
00100000
00001000
00001000
00010000
,
00000100
00000100
00000100
00000220
,
00000000
00000000
00000000
00000330
,
00001010
00000100
00010000
00001000
,
00022000
00000000
00000000
00033000
,
01001000
00100000
00010000
00001000
,
00022000
00000000
00030000
00003000
,
00000000
00010000
00000000
00010000
,
00000000
00010000
00100000
01000000
,
10000000
00010000
10000000
00010000
,
01000000
00001000
00010000
00001000
,
00000100
00000000
00000100
00000000
,
00000010
00000010
00001000
00001000
,
00000001
00000010
00000100
00001000
,
00022000
00000000
00000000
00033000
,
00100000
00100000
00100000
00000000
,
00100000
00100000
00100000
00000000
,
01000000
01000000
01000000
00000000
,
01000000
01000000
01000000
01100000
,
00010000
00001000
00000100
00001000
,
00010000
00001000
00000010
00001000
,
00000010
00010000
00000100
00010000
,
00001000
00100000
01000000
10010000
,
02000000
03000000
00200000
00300000
,
02000000
03000000
00002000
00003000
,
00020000
00030000
00000200
00000300
,
00000022
00000033
00002200
00003300
,
00000010
00000011
00001000
00001010
,
00000010
00010010
00010000
00011000
,
00001000
01000000
00100000
10000000
,
00100000
00000000
00000000
10010000
00000000
00000000
00000000
00000000
;

//---------------dance-double - ----------------
#NOTES:
     dance-double:
     DIFFICULT:
     Medium:
     9:
     0.000000,0.000000,0.000000,0.000000,0.000000,0.000000,0.000000,0.000000,0.000000,0.000000,0.000000,0.000000,0.000000,0.000000,0.000000,0.000000,0.000000,0.000000,0.000000,0.000000,0.000000,0.000000:
00000000
01000000
00000000
01000000
00000000
00010000
01000000
00010000
,
00000000
00100000
00000000
00100000
00000000
00001000
00010000
00001000
,
00000000
00010000
00000000
00000100
00000000
00000010
00000001
00001000
,
00000000
00000010
00000000
00000100
00000000
00001000
00010000
00100000
,
00000000
00010000
00000000
00010000
00000000
10000000
01000000
10000000
,
00000000
00100000
00000000
00100000
00000000
01000000
00001000
01000000
,
00000000
00010000
00000000
00100000
00000000
00001000
00010000
00000100
,
00000000
00001000
00000000
00000010
00000000
00010000
00000100
00001000
,
00000010
00000000
00000110
00000000
00000001
00001000
00000010
00001000
,
00000010
00000000
00010010
00000000
00001000
00010000
00001000
00010000
,
00100000
01000000
10000000
01000000
,
00100000
01000000
00010000
01000000
,
00001000
00000000
00011000
00000000
00010000
00000100
00010000
00000100
,
00000010
00000000
00000011
00000000
00000001
00001000
00000010
00001000
,
00000010
00000000
00001000
00000000
00000100
00000000
00010000
00001000
,
00022000
00000000
00000000
00033000
,
01000000
00000000
00010000
00100000
00010000
00000000
10000000
00000000
,
00100000
00000000
01000000
10000000
01000000
00000000
00100000
00000000
,
01000000
00000000
00001000
00100000
00001000
00000000
00010000
00000000
,
00022000
00000000
00000000
00033000
,
00000100
00000000
00001000
00000001
00001000
00000000
00000010
00000000
,
00000100
00000000
00000010
00000100
00000010
00000000
00010000
00000000
,
00000100
00000000
00010000
00000010
00010000
00000000
00001000
00000000
,
00022000
00000000
00000000
00033000
,
00010000
00100000
01000000
10000000
01000000
00000000
00010000
00000000
,
10000000
00000000
01000000
00010000
01000000
00000000
00100000
00000000
,
00010000
00001000
00000100
00000010
00000100
00000000
00001000
00000000
,
00000001
00000100
00000001
00000000
00001000
00001000
00001000
00000000
,
00000100
00000010
00000001
00001000
00000001
00000000
00000100
00000000
,
00000010
00000000
00010000
00000100
00010000
00000000
00001000
00000000
,
00011000
00100000
01100000
10000000
,
10010000
10010000
01001000
01001000
,
00010000
00001000
00010000
00000000
00001000
00010000
00000100
00000000
,
00000010
00000010
00000001
00000001
00001000
00000010
00001000
00000000
,
00000010
00000100
00020200
00030300
,
00001000
00010000
02020000
03030000
,
00100000
10000000
00100000
00000000
10000000
00010000
02010000
00000000
,
00000000
03001000
01000000
00100000
00010000
00001000
00010000
00000000
,
00000100
00000000
00010000
00000000
00001000
00000100
00000010
00000000
,
00000100
00000000
00000001
00000000
00000010
00000100
00001000
00000000
,
00000100
00010000
00000100
00000000
00010000
00001000
01000000
00000000
,
00010000
00010000
10000000
10000000
00100000
01000000
00100000
00000000
,
10000000
01000000
02200000
03300000
,
00001000
00100000
00022000
00033000
,
00000100
00010000
00000010
00000000
00001000
00000010
00002010
00000000
,
00000000
00003010
00000100
00001000
00010000
00000100
00010000
00000000
,
00011000
00100000
00011000
00000100
,
00011000
00000000
00100000
00010000
01000000
00000000
00010000
00100000
,
00001000
00010100
00001000
00101000
,
00022000
00000000
00030000
00003000
,
00010000
00000000
00010000
00000000
00010000
00000000
00010000
00100000
,
01000000
10000000
01000000
00000000
10010000
00000000
01000000
00010000
,
00100000
00000000
00100000
00000000
00100000
00000000
00100000
00001000
,
00010000
00000100
00010000
00000000
00001000
00000100
00000010
00000000
,
00001000
00000000
00001000
00000000
00001000
00000000
00001000
00000100
,
00000010
00000001
00001000
00000000
00000010
00000100
00000001
00000000
,
00001000
00000010
00010000
00000100
,
00011000
00100000
00011000
00000100
,
00001000
00010000
00100000
01000000
00100000
00010000
00100000
00000000
,
10000000
00100000
00010000
00100000
10000000
00100000
01000000
00000000
,
00100000
00001000
00010000
00001000
00000100
00000010
00000100
00000000
,
00000001
00000100
00001000
00000100
00000001
00000100
00000010
00000000
,
00001000
00000100
00010000
00000100
00010000
00001000
00001000
00000000
,
00010000
00001000
00010000
00100000
01000000
00100000
00100000
00000000
,
10000000
00100000
00010000
00100000
10000000
00100000
00100000
01000000
,
00010000
00100000
00001000
00010000
00011000
00000000
00010010
00000000
,
00000210
00001300
00000201
00000310
,
00020010
00031000
00102000
00013000
,
02001000
03010000
00010200
00010300
,
00210000
00310000
01200000
10300000
,
00010000
00100000
00010000
00000000
10000000
00010000
10000000
00000000
,
00010000
01000000
00001000
00000000
00100000
00001000
00010000
00000000
,
00000100
00010000
00001000
00000000
00010000
00000010
00000100
00000010
,
00001000
00000100
00000010
00001001
00000000
00000000
00000000
00000000
;

//---------------dance-double - ----------------
#NOTES:
     dance-double:
     EXPERT:
     Hard:
     12:
     0.000000,0.000000,0.000000,0.000000,0.000000,0.000000,0.000000,0.000000,0.000000,0.000000,0.000000,0.000000,0.000000,0.000000,0.000000,0.000000,0.000000,0.000000,0.000000,0.000000,0.000000,0.000000:
00000000
10000000
00000000
00010000
00000000
01000000
00000000
00010000
,
00000000
00100000
00001000
00100000
00000000
00001000
00010000
00001000
,
00000000
00010000
00000000
00000100
00000000
00000010
00000000
00000001
,
00000000
00000100
00000010
00000100
00000000
00000001
00001000
00000001
,
00000100
00000000
00000010
00000000
00001000
00000010
00000100
00010000
,
00000000
00100000
00000000
00010000
00000000
00001000
00010000
00100000
,
01000000
00100000
01000000
00100000
,
10010000
10000000
00100000
00000000
01010000
00010000
10000000
00000000
,
01000000
00010000
00001000
00010000
00001000
00000100
00000010
00001000
,
00000001
00000100
00000010
00000001
,
00000010
00001000
00000010
00010000
00000100
00010000
00001000
00100000
,
01000000
00000000
00100000
00000000
01000000
10000000
10010000
00000000
,
01000000
00100000
00010000
01000000
00010000
00100000
00001000
00100000
,
00001000
00000000
00010000
00000000
00000100
00000000
00001000
00000100
,
00000010
00000001
00001000
00000010
00001000
00000100
00010000
00100000
,
01200000
00000000
00000000
00000000
10000000
00000000
00000000
00000000
00010000
00000000
00000000
00000000
10300000
00010000
10000000
00010000
,
20000000
00000000
31000000
00100000
00020000
00000000
00130000
00001000
,
00000100
00000000
00000001
00000000
00000100
00000010
00002000
00000000
,
00003100
00001000
00020000
00000000
00130000
01000000
00000000
10000000
,
00000000
00010000
00000000
01000000
00000000
00100000
01100000
00000000
,
01000000
00001000
00200000
00000000
00301000
00010000
00000200
00000000
,
00000310
00000001
00001000
00000001
00001000
00000100
00000020
00000000
,
00000130
00001000
00020000
00000000
00130000
01000000
00010000
01000000
,
00000000
10000000
00000000
00010000
00000000
01000000
00001000
00100000
,
00001000
00000000
00000000
00001000
00000000
00000000
00010000
00000000
00000000
00010000
00000000
00000000
00000100
00000000
00001000
00000000
,
00000010
00000000
00000000
00000010
00000000
00000000
00001000
00000000
00000000
00001000
00000000
00000000
00000010
00000000
00000100
00000000
,
00001000
00000000
00000000
00001000
00000000
00000000
00010000
00000000
00000000
00010000
00000000
00000000
00001000
00000000
00100000
00000000
,
00020000
00000000
10030000
00010000
10000000
00100000
00100000
01000000
,
00010000
00000000
00000000
00110000
00000000
00000000
00100000
00000000
00000000
00101000
00000000
00000000
00001000
00000000
00010000
00000000
,
00000100
00000000
00000000
00000110
00000000
00000000
00000010
00000000
00000000
00000011
00000000
00000000
00000001
00000000
00001000
00000000
,
00000100
00000000
00000100
00000000
00010000
00001000
00011000
00000000
,
00100000
00000000
01000000
00000000
10000000
00000000
00000000
00000000
01100000
00000000
00010000
10000000
00010000
00000000
01000000
00000000
,
00001000
00110000
00001000
00010100
,
00001000
00000100
00000100
00000000
00000010
00000100
00000100
00000000
,
00001001
00000000
00000110
00000000
00000010
00001000
00000100
00000010
,
00000100
00000000
00001000
00000000
00010000
00000000
00000000
00000000
00100000
00010000
00000000
00010000
00100000
00000000
00010000
00000000
,
01000000
00000000
01100000
00000000
00010000
10000000
20010000
00000000
,
00000000
31000000
00100000
00010000
00001000
00010000
00001000
00000100
,
00001000
00000000
00000000
00000000
00000110
00000000
00000000
00000000
00000100
00000001
00000000
00000001
00000100
00000000
00000001
00000000
,
00000010
00000000
00000100
00010000
00001000
00000000
00100000
00010000
,
01000000
10000000
01000000
00000000
00101000
00000000
00001000
00010000
,
00001000
00000100
00000010
00000000
00001001
00000000
00000100
00000010
,
00000100
00001000
00010000
00001000
00100000
00010000
01000000
10000000
,
01000000
00000000
00100000
00000000
01000000
00000000
00000000
00000000
00010000
10000000
00000000
10000000
00010000
00000000
01000000
00000000
,
00100000
00000000
00011000
00000000
00000100
00000010
00000210
00000000
,
00000000
00000310
00000001
00001000
00000010
00001000
00000100
00010000
,
00011000
00100000
00011000
00000100
,
00010000
00000000
00001000
00000000
00100000
00000000
01000000
10000000
00000000
10000000
01000000
00000000
10000000
00000000
00010000
00000000
,
01100000
00000000
00000000
00000000
00010000
00000000
00000000
00000000
00001100
00000000
00000000
00000000
00010000
00000000
00001000
00020000
,
00002000
00000000
00003000
00030000
,
00001000
00100000
00001000
00100000
00010000
10000000
01000000
10000000
,
00010000
00000000
00100000
00000000
00010000
01000000
00000000
01000000
00010000
00000000
00100000
00000000
00001000
00000000
00100000
00000000
,
00001000
00010000
00000100
00000010
,
00000001
00000000
00001000
00000000
00000010
00001000
00000000
00000100
00000000
00001000
00000100
00000000
00010000
00000000
00000010
00000000
,
00001000
00000100
00010000
00001000
00100000
00001000
00010000
00001000
,
01000000
00000000
00100000
00000000
10000000
01000000
00000000
01000000
10000000
00000000
00100000
00000000
00010000
00000000
00100000
00000000
,
01000000
00010000
00100000
00001000
,
00010000
00000000
00010000
00000000
00001000
00010000
00000000
00000000
00000100
00000000
00000100
00000000
00010000
00000100
00000000
00000000
,
00000100
00001000
00000100
00000010
00000001
00001000
00000010
00000010
,
00001000
00000100
00010000
00001000
00010000
00000100
00001000
00010000
,
00010000
00100000
01000000
00100000
00010000
00100000
01000000
01000000
,
10000000
00000000
00010000
00000000
01000000
00000000
00020000
00100000
00000000
00000000
10000000
00000000
10030000
00000000
00000000
00000000
,
01000000
00100000
00001000
00010000
00001000
00100000
00001000
00001000
,
00010000
00000100
00000010
00000001
00000100
00001000
00000100
00000001
,
00001000
00000010
00000100
00000010
00010000
00001000
00000100
00001000
,
00010000
00000000
00001000
00010000
00001000
00000000
00100000
00000000
00100000
00000000
00000000
00000000
10010000
00000000
00000000
00000000
,
01000000
00100000
00020000
00000000
00130000
00001000
00200000
00000000
,
00301000
01000000
00002000
00000000
00013000
00000100
00020000
00000000
,
00030010
00001000
00000200
00000000
00001300
00000010
00000002
00000000
,
00000013
00000100
00020000
00000000
00130000
01000000
20000000
00000000
,
31000000
10100000
01000000
01001000
,
00100000
00101000
00011000
00010100
,
00000100
00000010
00000001
00001000
00000100
00000010
00000100
00010000
,
00001000
01000000
00100000
01100000
00000000
00000000
00000000
00000000
;
