#TITLE:Arabian Rave Night;
#SUBTITLE:;
#ARTIST:dj MAX STEROID;
#TITLETRANSLIT:;
#SUBTITLETRANSLIT:;
#ARTISTTRANSLIT:;
#GENRE:ARABIC HARDCORE;
#CREDIT:YonabearCWY/Fred-104;
#BANNER:Arabian Rave Night.png;
#BACKGROUND:Arabian Rave Night-bg.png;
#LYRICSPATH:;
#CDTITLE:Beatmania IIDX.png;
#MUSIC:Arabian Rave Night.ogg;
#OFFSET:-5.370000;
#SAMPLESTART:80.051003;
#SAMPLELENGTH:15.000000;
#SELECTABLE:YES;
#BPMS:0.000000=180.000000
;
#STOPS:174.000000=0.333000,
207.000000=0.667000,
209.500000=0.500000,
211.500000=0.167000,
308.000000=0.167000,
309.500000=0.166000,
314.000000=0.667000,
316.500000=0.500000
;
#BGCHANGES:;
#KEYSOUNDS:;
#ATTACKS:;

//---------------dance-single - YonabearCWY----------------
#NOTES:
     dance-single:
     BEGINNER:
     Beginner:
     5:
     0.185303,0.306168,0.147774,0.114935,0.000000,158.000000,140.000000,18.000000,14.000000,0.000000,0.000000,0.185303,0.306168,0.147774,0.114935,0.000000,158.000000,140.000000,18.000000,14.000000,0.000000,0.000000:
1000
1000
0000
0000
,
1000
1000
0000
0000
,
0001
0001
0000
0000
,
0001
0001
0000
0000
,
0110
0000
0100
0000
,
0100
0000
0000
0000
,
0100
0100
0000
0010
,
0000
0100
0010
0100
,
1001
0000
0000
0000
,
0001
0100
0001
0000
,
1001
0000
0000
0000
,
1000
0010
1000
0000
,
0110
0000
0010
0000
,
0010
0000
0000
0000
,
0100
0000
0100
0000
,
0100
0100
0010
0010
,
1000
0000
1000
0000
,
0001
0000
0001
0000
,
0100
0000
0100
0000
,
0220
0000
0000
0330
,
0001
0000
0000
0000
,
0001
0000
0000
0000
,
0010
0000
0000
0000
,
0010
0000
0000
0000
,
0100
0000
0000
0000
,
0100
0000
0000
0000
,
1000
0000
0000
0000
,
1000
0000
0000
0000
,
0001
0001
0001
0000
,
0010
0010
0010
0000
,
0100
0100
0100
0000
,
1000
1000
1000
0000
,
0100
0100
0100
0000
,
0010
0010
0010
0000
,
0001
0001
0001
0001
,
1001
0000
0000
0000
,
0100
0000
0000
0000
,
0000
0000
0000
0000
,
0100
0000
0000
0000
,
0000
0000
0000
0000
,
0010
0000
0000
0000
,
0000
0000
0000
0000
,
0010
0000
0000
0000
,
0000
0000
0000
2002
,
0000
0000
0000
0000
,
0000
0000
3003
0220
,
0000
0000
0000
0000
,
0000
0000
0330
1000
,
0000
0001
0000
1000
,
0000
0001
0000
0100
,
0000
0010
0000
0100
,
0000
0010
0000
2002
,
0000
0000
0000
0000
0000
0000
0000
3003
,
0000
0010
0000
0010
,
0010
0010
0010
0110
,
0000
0100
0000
0100
,
0010
0100
0000
0010
,
0000
0010
0000
0100
,
0000
0100
0000
1001
,
0000
1000
0000
1000
,
0001
1000
0000
0001
,
0000
0001
0000
1000
,
0000
1000
0000
0110
,
0000
0010
0000
0010
,
0000
0000
0000
1001
,
0000
1000
0000
1000
,
0000
0000
0100
0110
,
0000
0100
0100
0000
,
0100
0000
0000
1001
,
0000
0001
0001
0000
,
0001
0000
0000
1000
,
0000
1000
0000
1000
,
0000
0000
0000
0001
,
0000
0001
0000
0001
,
0000
0000
0000
0100
,
0000
0100
0000
0100
,
0000
0000
0220
0000
,
0000
0000
0330
1000
,
0001
1000
2002
0000
,
0000
0000
0000
0000
0000
3003
0000
0000
,
0000
0000
0000
0000
,
0000
0000
0000
0000
0000
2002
0000
0000
,
0000
0000
0000
0000
0000
0000
0000
3003
;

//---------------dance-single - YonabearCWY----------------
#NOTES:
     dance-single:
     BASIC:
     Easy:
     8:
     0.387026,0.442243,0.361224,0.402272,0.008210,330.000000,286.000000,44.000000,49.000000,0.000000,0.000000,0.387026,0.442243,0.361224,0.402272,0.008210,330.000000,286.000000,44.000000,49.000000,0.000000,0.000000:
1000
0000
0120
0000
0000
1030
0010
0000
,
0001
0010
0100
1000
,
0001
0000
0210
0000
0000
0301
0100
0000
,
0010
1000
0100
0010
,
0201
0000
0000
0010
0000
0000
0310
0000
,
1000
1000
0001
0001
,
0100
0010
0100
0010
,
1010
1000
0101
0001
,
2000
0000
0000
0010
0000
0000
0001
0000
,
3020
0000
0000
0100
0000
0000
0001
0000
,
0130
0010
0100
0001
,
1000
0000
0001
0000
1000
0001
1000
0000
,
1020
0000
0000
0100
0000
0000
0130
0000
,
0010
0010
0100
0100
,
0001
0100
0001
0010
,
0100
0010
1100
0101
,
1002
0000
0000
1000
0000
0000
0013
0000
,
0210
0000
0000
0001
0000
0000
1300
0000
,
0100
0001
0100
0010
,
0100
0000
0000
0100
0000
0000
0010
0000
0000
0010
0000
0000
1000
0000
0001
0000
,
2000
0010
0010
0000
,
0010
0010
3010
0000
,
0002
0100
0100
0000
,
0100
0100
0103
0000
,
2000
0010
0001
0000
,
0010
0001
0010
0000
,
3002
1000
0100
0000
,
1000
0100
1003
0000
,
0110
0100
0100
0001
,
1001
1000
1000
0010
,
1010
1000
1000
0001
,
0101
0000
0100
0010
0000
0100
0010
0000
,
0011
1000
0001
1010
,
0001
1000
0110
0001
,
2000
0000
3200
0000
0320
0000
0031
1000
,
2002
0000
3003
0000
,
0220
0000
0000
0330
,
2002
0000
0000
3003
,
0020
0001
0100
0031
,
0200
0010
0001
1300
,
0220
0300
1030
0100
,
0022
0003
0031
0100
,
2002
3000
1003
0100
,
0220
0000
0330
2000
,
0001
0000
0001
0001
0000
0000
0001
0000
,
0001
3001
0000
0002
,
1000
0000
1000
1000
0000
0000
1000
0000
,
1000
1003
0000
0120
,
0000
1030
0000
0210
,
0000
0301
0000
0102
,
0000
0013
0000
2010
,
0000
3100
0000
1001
,
0000
0000
0000
0110
0000
0000
0000
1001
,
0000
0100
0010
0000
0100
0000
0100
0000
,
0010
0010
1000
1001
,
0000
0010
0000
0000
0001
0000
0000
0100
,
0010
1000
0100
1001
,
0000
0010
0000
0000
0100
0000
0000
0010
,
0000
1000
0100
0011
,
0000
0100
0000
0000
0001
0000
0000
0010
,
0001
0010
0001
0000
1000
0000
1010
0000
,
0000
0100
0000
0000
0010
0000
0000
1000
,
0000
0010
0100
0000
0001
0000
2001
0000
,
0100
0010
0000
0010
,
0100
3010
0000
1002
,
0010
0100
0000
0013
,
0110
0000
1000
0001
1000
0001
0200
0000
,
0010
0000
0010
0010
0000
0000
0010
0000
,
0010
1300
0000
0020
,
0100
0000
0100
0100
0000
0000
0001
0000
,
0001
0130
1001
0020
,
1000
0100
1030
0200
,
0001
0010
0301
1002
,
0010
1000
0103
2001
,
0100
0000
0010
0000
3001
0000
0100
0010
,
0100
0000
0001
0000
0010
0000
0001
1000
,
0001
1000
0010
1000
,
0002
0000
0000
2000
0000
3003
0001
1000
,
0000
1000
0001
0000
1001
0000
0000
0000
,
0000
0110
0000
0000
0000
1000
0000
0100
,
0000
0010
0000
0001
0000
0100
0000
0010
,
0000
1000
0000
0001
0000
2002
0000
0000
,
0000
0000
0000
0000
0000
0000
0000
3003
;

//---------------dance-single - YonabearCWY----------------
#NOTES:
     dance-single:
     DIFFICULT:
     Medium:
     12:
     0.600477,0.612337,0.451530,0.467950,0.077992,512.000000,457.000000,55.000000,57.000000,0.000000,0.000000,0.600477,0.612337,0.451530,0.467950,0.077992,512.000000,457.000000,55.000000,57.000000,0.000000,0.000000:
1000
0100
0020
0000
0000
0001
0031
0000
,
0100
0000
0001
0000
0010
0000
0001
0000
1000
0010
0000
0000
0100
0000
0100
0000
,
0001
0010
0200
0000
0000
1000
1300
0000
,
0001
0000
1000
0000
0100
0010
0000
0000
0100
0000
0100
0000
1001
0000
0000
0000
,
0021
1030
0201
1300
,
1020
0031
1200
0301
,
0100
1000
0001
0100
1000
0100
0001
0000
,
1000
0000
0010
0000
0001
0000
0000
0000
0010
0100
0010
0000
1001
0000
0000
0000
,
0010
0100
1000
0100
0000
1000
0010
0000
,
0001
0010
0100
0001
0000
1000
0100
0000
,
0010
0001
0010
0000
0100
0010
0100
0000
,
0011
0000
1100
0000
0010
0010
0100
0100
,
2001
3010
1002
0103
,
0120
1030
0210
0301
,
0010
0001
0100
1000
0100
0001
1000
0010
,
0000
0100
0100
0100
0001
0010
1100
0000
,
0010
0100
0001
0100
0000
0001
1000
0000
,
0100
0000
0010
0000
0100
0000
1000
0000
0100
0000
0010
0000
0001
1000
0001
0000
,
0200
0000
0010
0010
0000
0000
0310
0000
,
1001
0000
0000
1100
0000
0000
0110
0000
0000
0011
0000
0000
1010
0000
1000
0000
,
0001
0100
0001
0000
0010
0001
0010
0000
,
0001
1000
0100
0010
0001
0100
0010
0000
,
1000
0100
1000
0000
0100
0010
0100
0000
,
0010
0001
1000
0010
0001
0010
1000
0000
,
0010
0100
0010
0000
0100
0001
0100
0000
,
0010
1000
0100
1000
0000
0001
0101
0000
,
0010
0001
1000
0100
0010
0001
0100
0010
,
1000
0010
0000
1001
0000
0010
0100
1000
,
2001
0010
0100
3010
,
1002
0000
0000
0000
0100
0000
0000
0000
0010
0000
0000
0000
0103
0000
0001
0010
,
0002
0010
0100
1003
,
0110
0000
0000
0000
1000
0000
1010
0000
0000
0000
0001
0000
0101
0000
1000
0010
,
2000
0001
0010
3100
,
1020
0000
0100
0000
0001
0000
0130
0010
,
1000
0100
0010
0001
0100
0010
1000
0001
,
0220
0000
0000
0000
0000
0330
0000
0000
,
2002
0000
0000
3003
,
0202
0000
0000
0303
,
2020
0000
0000
3030
,
0220
0000
0000
0330
,
2000
0000
0001
0000
3010
0100
1000
0001
,
0020
0000
0001
0000
0130
0010
0001
1000
,
0200
0000
0001
0000
1300
0100
0010
0000
,
0100
1000
0100
1000
0001
0100
0001
0000
0000
0120
0000
0000
,
0000
0000
1000
1000
0000
0000
0000
0000
,
1000
2000
0000
0000
3030
0000
0210
0000
,
0000
0000
0001
0001
0000
0000
0000
0001
,
0001
0002
0000
0000
0303
0000
1002
0000
,
0000
0100
0103
0000
0000
0000
2001
0000
,
0000
0010
3010
0000
0000
0000
0120
1000
,
0000
1030
0010
0000
0100
0001
0210
0001
,
0000
0301
1000
0100
0010
0000
2002
0000
,
0000
3003
0000
0220
0000
0330
0000
1020
,
0000
0130
0001
0000
0010
0100
1000
0010
,
0100
0010
0100
1000
0100
0001
1001
0000
,
0010
0001
0000
0100
0001
0100
0010
0000
,
0010
1000
0000
1000
0100
0010
0000
0010
,
0001
0000
0100
0000
1000
0000
0100
0001
0200
0000
0000
0000
0310
0000
1000
0000
,
0100
0000
0010
0000
0001
0000
1000
0010
2000
0000
0000
0000
3001
0000
0000
0000
,
1000
0010
0000
0100
0010
1000
0000
1000
,
0001
0000
0010
0100
0000
0100
1000
0100
,
0010
0000
0001
0000
0100
0000
0001
1000
0001
0000
0000
0000
0010
0000
0001
0000
,
0100
0000
0010
0000
1000
0100
1000
0100
2000
0000
0000
0000
3001
0000
0010
0000
,
1000
0010
0001
1000
0010
0100
0010
1000
,
0001
0100
1000
0100
0002
0000
1003
0100
,
0010
1000
0010
0100
1000
0001
0100
0100
,
0010
0010
2002
0000
0000
3003
0110
0000
,
0010
1000
0000
1000
0100
0000
0010
0001
,
1000
0000
0001
0000
0100
0000
0100
0000
0100
0010
0000
0000
1001
0000
0000
0000
,
0010
0001
0100
0001
0010
0000
0100
1000
,
0100
0010
0001
1000
0110
0000
2010
0000
,
0100
0000
0001
0000
0010
0000
3001
1000
,
0100
0000
0010
0001
0100
0000
0021
0000
,
1000
0000
0001
0000
0100
0000
0031
0010
,
0100
1000
0001
0100
0010
0000
1200
0000
,
0001
0000
0010
0000
1000
0000
0310
0100
,
1000
0000
0100
0010
0100
0000
0010
0000
0001
0000
0010
0000
0202
0000
0000
0000
,
0303
2020
0000
3030
0110
0000
1000
0001
,
1001
0000
0010
0100
0110
1000
0010
0100
,
0001
1001
0000
0010
0100
1000
0100
0010
,
0001
1000
0010
0100
0001
1000
0100
0100
,
0010
0010
0100
0100
1000
2002
0000
0000
,
0000
0000
0000
0000
0000
0000
0000
3003
;

//---------------dance-single - Fred-104----------------
#NOTES:
     dance-single:
     :
     Challenge:
     17:
     0.987503,1.020561,0.673191,0.993367,0.857908,842.000000,760.000000,82.000000,121.000000,0.000000,0.000000,0.987503,1.020561,0.673191,0.993367,0.857908,842.000000,760.000000,82.000000,121.000000,0.000000,0.000000:
0001
0000
0010
0000
0100
0000
0010
0000
0100
0000
1000
0000
0001
0100
0001
0000
,
1000
0000
0100
0000
0010
0100
0010
0000
2000
0000
3020
0000
0032
0000
0103
0010
,
0100
0000
0100
0001
0010
0000
0100
0010
0100
0000
1000
0000
0001
1000
0001
1000
,
0001
0100
0010
0100
0001
0000
0000
1000
0001
0000
1000
0000
0020
0000
0230
0000
,
0302
0010
2003
0100
3001
1000
0001
0100
,
0010
0000
0100
0000
0010
0000
0001
0000
0010
0000
1000
0000
0001
0010
0100
0000
,
1000
0000
0100
0000
0010
0000
1000
0000
0010
0000
0001
0000
1000
0000
0001
1000
,
0002
0000
0203
0000
2300
0000
3002
0000
0023
0000
2030
0000
3100
0010
0100
0010
,
0002
0000
0010
0000
2003
0000
0100
0000
3001
0000
1000
0000
0100
0010
0001
0000
,
2000
0000
0100
0000
3002
0000
1000
0000
0023
0000
0230
0000
1300
0001
1000
0001
,
0020
0230
0302
2003
3020
0230
0302
0203
,
1300
0000
0010
0000
1000
0000
0001
0000
0020
0000
0230
0000
0310
0100
0010
0100
,
0020
0000
0001
0000
0230
0000
1000
0000
0310
0001
0010
0001
1000
0000
0010
0000
,
0001
0000
1000
0000
0100
0000
0010
0000
2000
0000
0000
0000
3100
0010
0001
0000
,
1000
0000
0010
0000
0001
0000
1000
0000
0100
0000
0001
0000
0010
0000
0100
0001
,
0100
0000
0010
0000
0001
0000
1000
0000
0010
1000
0010
1000
0001
0010
0100
1000
,
0001
0100
0010
0001
1000
0100
0001
1000
,
0100
0000
0010
0000
1000
0000
0001
0000
0100
0000
1000
0000
0001
1000
0001
1000
,
0200
0000
0000
0000
0001
0000
0000
0000
0310
0000
0100
0000
1000
0001
1000
0001
,
0010
0000
0000
1010
0000
0000
1100
0000
0000
0101
0000
0000
1001
0000
0001
0000
,
1000
0000
0010
1000
0010
0000
0100
0001
0100
0000
0001
0010
0001
0000
1000
0010
,
1000
0000
0001
0100
0001
0000
1000
0100
1000
0000
0010
0100
0010
0000
1000
0000
,
0001
0000
0010
0100
0010
0000
0001
0100
0010
0100
0001
0000
0100
0000
0001
0010
,
0001
0000
1000
0010
1000
0000
0100
0010
0100
1000
0001
0000
0100
0010
0100
0010
,
0100
0000
0010
1000
0001
0000
0010
0100
1000
0000
0001
1000
0010
1000
0001
0000
,
0010
0000
0100
1000
0001
0000
0100
0001
1000
0000
0100
0010
0001
0000
1000
0010
,
0100
0001
1000
0001
0010
0001
1000
0001
0100
0000
0001
0000
0010
0100
1000
0000
,
0001
0000
0010
0000
1000
0000
0010
0000
0001
0010
0100
1000
0001
0100
0010
0000
,
1010
0101
1010
0101
,
1100
0000
0011
0000
1100
0000
0011
0001
,
0101
1100
1010
0011
,
1100
0000
0000
0000
0011
0000
1010
0000
0000
0000
0101
0000
1001
0000
1000
0100
,
0010
0000
1010
0000
0110
0000
0011
1000
,
1100
0000
1010
0000
1001
0000
0011
0010
,
0210
0300
0120
0030
0210
0300
0120
0030
0210
0300
0120
0030
0210
0300
0120
0030
,
0220
0000
0000
0000
0000
0000
0330
0000
1000
0100
0010
0001
1000
0100
0010
0001
,
1000
0000
0001
0100
0001
0100
0001
0000
0010
0000
0100
0000
1000
0000
1000
0001
,
0100
0000
0010
1000
0010
1000
0000
1000
0001
0010
0100
0010
0100
0000
1000
0001
,
0100
0000
0000
0000
0000
0000
0010
0000
1000
0000
0010
0000
1000
0000
0000
0001
0000
0000
1000
0000
0000
0000
0000
0000
0100
0000
0000
0000
0000
0000
0010
0000
0000
0000
0000
0000
0001
0000
0000
1000
0000
0000
0001
0000
0000
1000
0000
0000
,
0001
0000
0000
0000
0000
0000
0100
0000
0000
0000
0000
0000
0001
0000
0000
0010
0000
0000
0000
0000
0000
0010
0000
0000
0100
0000
0000
1000
0000
0000
0100
0000
0000
1000
0000
0000
0001
0000
0000
0000
0000
0000
0100
0000
0010
0000
0100
0000
,
0010
0000
0000
0000
0000
0000
1000
0000
0001
0000
1000
0000
0001
0000
0000
0000
0000
0000
0010
0000
0000
0000
0000
0000
0100
0000
0000
0000
0000
0000
0001
0000
0000
0000
0000
0000
0100
0000
0000
0000
0000
0000
0010
0000
0000
0001
0000
0000
,
1000
0000
0001
1000
0010
1000
0000
1000
0001
0010
0100
0010
0100
1000
0001
0100
,
0001
0000
0000
0000
0000
0000
1000
0000
0100
0000
1000
0000
0100
0000
0000
0000
0000
0000
0010
0000
0000
0000
0000
0000
0001
0000
0000
0000
0000
0000
1000
0000
0000
0000
0000
0000
0010
0000
0000
0100
0000
0000
0001
0000
0000
1000
0000
0000
,
0001
0010
1000
0001
0100
1000
1001
0000
0000
2100
0000
0000
,
0000
0000
0100
3200
0000
0000
0000
0010
,
0310
0020
0000
0000
0001
0001
0032
0000
,
0000
0000
0103
0200
0000
0000
0000
0010
,
0310
0020
0000
0000
0031
0010
2000
0000
,
0000
0000
3001
0002
0000
0000
0000
0010
,
0010
0023
0000
0000
1030
0010
0100
2000
,
0000
0000
3001
1000
0010
1000
0001
1000
0010
0100
0001
0000
1000
0000
1000
0000
,
0001
0000
0001
0000
1000
0100
1000
0100
0000
0010
0001
0000
2002
0000
3003
0100
,
0010
0000
0100
0000
1001
0000
2002
0000
3003
0010
0100
0000
0010
0000
2002
0000
,
3003
0000
0001
1000
0001
0000
1000
0000
1001
0000
0001
0000
1001
0000
1000
0000
,
1001
0000
0001
1000
0010
0000
0100
0001
0010
0000
0010
0000
0110
0000
0000
0000
,
1000
0000
1001
0000
0001
0100
0001
0100
0010
1000
0010
1000
0001
0100
0020
0000
,
2030
0000
3020
0000
0130
0001
2000
0000
3002
0000
0013
0100
0020
0000
0130
0001
,
0100
0001
2000
0000
3020
0000
0032
0000
2003
0000
3020
0000
0130
1000
0000
0100
,
0010
0000
0100
0000
0001
0000
1000
0000
0100
0010
0100
0010
0002
0000
0000
0000
,
1003
0000
0010
0000
0100
0001
0100
0001
0010
0100
0010
0000
0001
1000
0000
0010
,
0200
0000
2300
0000
3200
0000
0302
0000
2003
0000
3100
0010
0200
0000
0320
0000
,
0032
0000
0203
0000
0301
1000
0001
1000
0100
0010
0100
0010
0100
1000
0000
1000
,
0001
0000
0000
0000
0000
0000
0100
0000
0000
0000
0000
0000
0010
0000
0000
1000
0000
0000
0010
0000
0000
0000
0000
0000
0110
0000
0000
0000
0000
0000
0100
0000
0001
0000
0100
0000
0002
0000
0000
0000
0000
0000
0000
0000
0000
0000
0000
0000
,
0103
0000
0010
0000
1000
0001
1000
0001
0010
0001
0010
0100
0010
0001
0000
1000
,
0020
0000
0230
0000
2300
0000
3002
0000
0013
1000
0020
0000
2030
0000
3200
0000
,
0320
0000
0032
0000
1003
0001
1000
0001
0010
0100
0010
0000
0210
0300
0120
0030
,
0210
0300
0120
0030
0001
1000
0010
0100
0001
1000
0010
0100
0001
0000
1000
0001
,
1000
0000
0100
0000
0010
0100
0010
0001
0010
0100
1000
0001
0100
0010
0200
0000
,
2300
0000
3200
0000
0320
0000
0032
0000
0013
0100
0010
0100
0001
0000
1000
0000
,
0100
0000
0010
0000
0001
0010
0100
0010
0100
1000
0001
0100
0001
0000
0101
0000
,
1000
0000
0000
1010
0000
0000
0001
0000
0000
1000
0000
0000
1001
0000
0000
1000
0100
1000
0100
0000
0000
0000
0000
0000
,
0110
0011
1001
1010
,
0011
0000
0101
0000
1100
1000
1001
0000
,
1010
0000
0000
0000
0011
0000
0000
0000
0101
0000
0000
1000
0100
0000
0000
0000
,
0110
0000
0000
0000
0011
0000
0000
1010
0000
0000
0101
0000
1001
0000
1000
0000
,
1100
0000
0100
0000
0110
0000
0010
0000
0001
1000
0001
1000
0010
0000
0100
0000
,
0101
0000
0001
0000
0020
0000
0230
0000
2300
0000
3001
1000
0001
0000
0100
0000
,
2200
3300
0000
0000
0000
0000
0000
0000
1000
0000
0000
0000
0000
0000
0000
0000
0100
0000
0000
0000
0000
0000
0000
0000
0202
0303
0000
0000
0000
0000
0000
0000
2001
0000
0000
0000
0000
0000
0000
0000
3100
0000
0000
0000
0000
0000
0000
0000
1002
0000
0000
0000
0000
0000
0000
0000
0013
0000
0000
0000
0000
0000
0000
0000
,
1000
0001
0010
0100
0010
0001
0100
0010
2000
0000
3000
0001
1000
0000
0001
0000
,
1001
0000
2002
0000
3003
1000
0001
0000
1000
0000
0002
0000
0203
0000
2300
0000
,
3002
0000
2003
0000
3200
0000
0302
0000
2003
0000
3001
0010
0001
0010
0100
1000
,
0001
0100
0010
1000
0100
0010
0001
0100
0010
1000
2002
0000
0000
0000
0000
0000
,
0000
0000
0000
0000
0000
0000
0000
3003
;

//---------------dance-single - YonabearCWY----------------
#NOTES:
     dance-single:
     EXPERT:
     Hard:
     15:
     0.762324,0.782430,0.574675,0.451530,0.389958,650.000000,580.000000,70.000000,55.000000,0.000000,0.000000,0.762324,0.782430,0.574675,0.451530,0.389958,650.000000,580.000000,70.000000,55.000000,0.000000,0.000000:
1000
0010
0100
0002
0000
0010
0010
0000
,
0103
0000
0001
0000
0010
0000
0100
0000
1000
0200
0000
0000
0010
0000
0310
0000
,
0001
0000
1000
0000
0010
0000
0100
0001
0100
0000
0001
0000
0010
0000
0100
0000
,
1000
0000
0010
0100
0020
0000
0000
0000
1000
0000
1030
0000
0101
0000
0000
0000
,
1010
0110
0101
1010
,
0100
0000
0010
0000
0001
0000
1000
0000
0010
0000
0001
0000
0010
0000
1000
0001
,
1000
0001
0011
0000
0100
1000
1010
0000
,
0100
0000
0010
0000
1001
0000
0000
0000
0010
0100
0010
0100
0010
0000
0000
0000
,
1100
0011
1001
0101
,
0010
0100
1000
0001
0010
0002
0100
0000
,
1003
0000
0100
0010
0100
0000
0000
0000
0010
0000
0001
0000
0010
0000
0100
0000
,
1000
0000
0010
0000
0000
0000
0100
0000
0002
0000
0023
0000
0032
0000
1003
0010
,
0100
0000
0001
0000
1001
0000
0000
0000
0010
1000
0010
1000
0010
0000
0100
0000
,
0001
0000
0020
0000
0000
0000
0130
1000
0200
0000
0000
0000
0000
0000
0310
0001
,
0010
0001
1000
0010
0001
0010
2000
0000
,
0000
0000
3001
0100
0010
0000
1000
0000
0200
0000
0320
0000
0031
1000
0001
1000
,
0001
0000
0100
0010
0000
1000
0001
0010
,
0100
0000
0000
0000
1000
0000
0010
0000
0000
0000
0100
0001
0100
0000
0001
0000
,
0012
0000
1000
1000
0000
0000
0013
0000
,
1010
0000
0000
1001
0000
0000
0101
0000
0000
0110
0000
0000
0010
0000
1000
0000
,
0100
0001
0100
1000
0010
0100
0010
0001
,
0010
0100
1000
0001
1000
0100
0010
0001
,
0010
0100
0010
1000
0100
0010
0001
0100
,
0010
0000
1000
0100
1000
0000
0010
0000
0100
0000
0001
0010
0001
0000
1000
0000
,
0100
0001
0100
1000
0001
0010
0100
0010
,
0001
0010
1000
0001
1000
0010
0001
0100
,
0010
0000
1000
0010
1000
0000
0001
0000
0001
0000
0100
0000
0001
0000
0010
0000
,
0001
0000
0100
0010
1000
0000
0010
0000
0000
0000
1000
0000
0100
0000
0010
0001
,
1000
0101
0011
1001
,
1010
0000
1100
0000
0110
0000
0011
0001
,
1001
1010
0110
1100
,
0101
0000
0000
0000
0110
0000
0100
0000
0000
0000
0001
0000
1001
0000
0100
0001
,
0010
1100
0101
0011
,
1010
1100
0011
1010
,
0102
0023
2030
3020
0032
2003
3020
0130
,
2002
0000
0000
3003
,
2010
0000
0001
0000
,
3100
0000
0000
0010
0001
0000
1000
0000
0000
0010
0100
0000
0001
0000
0010
0002
,
0000
1000
0010
0100
,
0013
0000
0001
0000
1000
0000
0000
0010
0100
0000
0010
0000
1000
0000
0100
0010
,
0200
0001
1000
0001
,
0310
0000
0100
0000
1000
0000
0001
0010
0001
0000
1000
0000
0010
0000
0100
0010
,
0200
0000
0000
0000
0301
0000
1000
0000
0010
0000
0100
0000
0001
0000
0010
0100
,
0010
0100
1000
0001
0010
0100
1001
0000
0000
0201
0000
0000
,
0000
0000
0001
0001
0000
0000
0000
0001
,
0001
0001
0000
0000
1300
0000
1020
0000
,
0000
0000
0100
0100
0000
0000
0000
0100
,
0100
0100
0000
0000
0031
0000
2001
0000
,
0100
0000
0010
0010
0000
0010
3020
0000
,
0000
0130
2002
0000
3003
0000
0010
0002
,
0000
0000
1003
0010
1000
0010
0000
0100
0010
0000
0100
0000
0001
0000
0020
0000
,
0000
0000
0130
1000
0100
1000
0100
0000
1000
0000
0010
0000
0110
0000
0000
0001
,
0010
0000
0100
0000
1000
0000
1001
0000
0000
0100
0010
0000
0001
0000
1001
0000
,
0000
0000
1000
0000
0020
0000
0000
0000
0130
0001
0100
0000
0001
0000
0010
0100
,
0010
0000
0100
1000
0001
0000
1000
0010
1000
0000
0001
0000
0110
0000
0000
0000
,
0020
0000
1000
0000
0000
0000
1030
0100
1000
0000
0100
0000
0010
0000
0001
0000
,
0100
0000
0001
0000
0001
0000
2000
0000
0000
0000
3100
0010
0100
0010
0000
0001
,
1000
0010
0100
0001
0010
0001
0001
1000
,
0010
0000
0010
0000
0100
0001
0100
0000
0010
0000
1000
0000
0101
0000
0000
0000
,
2000
0000
0010
0000
0000
0000
3100
0001
0100
0000
1000
0000
0010
0000
0100
0000
,
1000
0000
0100
0000
0100
0000
0020
0000
0000
0000
1030
0001
1000
0001
0000
0010
,
0100
0010
0100
1000
0001
2000
3020
0230
,
0000
0000
0302
0000
0023
0000
0230
0000
1300
0001
1000
0001
2000
0000
0000
0000
,
3001
0010
0000
0010
0001
0000
0100
0000
0010
0000
1000
0000
0100
0000
0010
0000
,
0001
0000
2000
0000
0000
0000
0010
0000
3010
1000
0000
0000
0102
0000
0000
0000
,
0013
0100
0000
0100
0010
0000
0001
0000
1001
0000
0000
0000
1100
0000
0100
0000
,
0100
0000
0100
0000
0100
1000
0100
1000
0001
0100
0001
0100
0020
0000
0000
0000
,
1030
0100
0000
0100
0010
0000
0001
0000
0100
0000
0020
0000
0000
0000
1030
0000
,
0001
0000
0020
0000
0000
0000
0130
0000
1000
0010
0000
0010
0200
0000
0000
0000
,
0301
0010
0000
0010
0100
0000
1000
0000
0001
0000
0101
0000
0000
0000
1010
0000
,
0000
0000
1001
0000
0010
0000
0010
0000
0010
0000
0100
0001
1000
0000
0000
0000
,
0100
0010
0000
0010
0001
0000
0000
0000
1010
0000
0000
0000
0101
0000
0000
0000
,
0010
0100
0000
0100
1000
0000
0001
0000
0110
0000
0010
0000
1001
0000
0000
0000
,
0110
0000
0000
0000
0001
1000
0000
1000
0100
0000
0000
0000
0011
0000
0000
0000
,
1100
0000
0000
0000
0010
0100
0000
0100
0001
0000
0010
0000
0001
0000
1000
0100
,
0010
0000
0000
0000
0101
0000
0000
0000
0010
1000
0010
1000
0010
0000
1000
0000
,
1100
0000
0000
0000
0011
0000
0000
0000
0100
0000
0001
0000
1000
0000
0010
0100
,
0002
1003
0010
2000
3001
0000
0110
0000
,
1000
0100
0000
0100
0010
0001
1000
0001
1000
0000
0000
0001
0100
0000
0010
0000
,
1000
0000
1001
0000
0000
0100
0010
0000
0001
0000
1000
0000
0010
0000
0001
0000
,
0010
1000
0001
0100
1000
0100
0001
1000
,
1000
0000
0001
0000
0001
1000
0001
1000
0010
0100
0020
0000
0000
0000
0000
0000
,
0000
0000
0000
0000
0000
0000
0000
0030
;

//---------------dance-double - Fred-104----------------
#NOTES:
     dance-double:
     BASIC:
     Easy:
     9:
     0.403445,0.476262,0.270918,0.459740,0.016419,344.000000,311.000000,33.000000,56.000000,0.000000,0.000000,0.403445,0.476262,0.270918,0.459740,0.016419,344.000000,311.000000,33.000000,56.000000,0.000000,0.000000:
// measure 0
00001000
00010000
00000000
00010000
,  // measure 1
00001000
00000000
00000100
00000000
00000001
00000010
00000001
00000000
,  // measure 2
00000010
00000010
00000100
00000100
,  // measure 3
00010000
00001000
00010000
00000000
00001000
00000000
00011000
00000000
,  // measure 4
00010000
00000000
00001000
00000000
00000010
00000100
00000010
00000000
,  // measure 5
00000001
00000000
00001000
00000000
00000010
00000100
00001000
00000000
,  // measure 6
00010000
00000000
00001000
00000000
01000000
00010000
01000000
00000000
,  // measure 7
00100000
00000000
10000000
00000000
00010000
00100000
01000000
00000000
,  // measure 8
10000000
00000000
00100000
00010000
00000000
00010000
00001000
00000000
,  // measure 9
00010000
00000000
00000100
00001000
00000000
00001000
00000010
00000000
,  // measure 10
00001000
00000000
00000001
00000010
00000000
00000010
00001000
00000000
,  // measure 11
00010000
00000000
00001000
00000000
00010000
00001000
00010000
00000000
,  // measure 12
00001000
00000000
00010000
00001000
00000000
00001000
00100000
00000000
,  // measure 13
00010000
00000000
10000000
00000000
00100000
01000000
00100000
00000000
,  // measure 14
00010000
00000000
00001000
00010000
00000000
00010000
00000100
00000000
,  // measure 15
00001000
00000000
00000010
00000000
00000100
00000001
00000100
00000000
,  // measure 16
00000001
00000001
00000001
00000000
00000010
00000000
00001000
00000000
,  // measure 17
00010000
00000000
00001000
00010000
00000000
00010000
00001000
00000000
,  // measure 18
00100000
00100000
00100000
00000000
01000000
00000000
10000000
00000000
,  // measure 19
00010000
00000000
00000000
00010000
00000000
00000000
01000000
00000000
00000000
00001000
00000000
00000000
00010000
00000000
00000000
00000000
,  // measure 20
00002000
00010000
00010000
00000000
,  // measure 21
00010000
00010000
00013000
00000000
,  // measure 22
00000020
00000100
00000100
00000000
,  // measure 23
00000100
00000100
00000130
00000000
,  // measure 24
00000002
00000023
00002030
00023000
,  // measure 25
02030000
23000000
30020000
00030000
,  // measure 26
20000000
30200000
00320000
00032000
,  // measure 27
00003200
00000302
00002003
00003000
,  // measure 28
00001100
00000100
00000010
00000001
,  // measure 29
00001001
00001000
00000010
00000100
,  // measure 30
00001100
00001000
00010000
00001000
,  // measure 31
01001000
00000000
00000000
01000000
00000000
00000000
00100000
00000000
,  // measure 32
10100000
10000000
00010000
00100000
,  // measure 33
01100000
01000000
00010000
00001000
,  // measure 34
00020000
00030000
00002000
00003000
00020000
00030000
00002000
00003000
,  // measure 35
00022000
00000000
00033000
00000000
,  // measure 36
00020200
00000000
00000000
00030300
,  // measure 37
00002002
00000000
00000000
00003003
,  // measure 38
00000220
00000000
00000000
00000330
,  // measure 39
00002002
00000000
00000000
00003003
,  // measure 40
00000002
00000023
00002030
00000000
,  // measure 41
00023000
00230000
20300000
00000000
,  // measure 42
32000000
03200000
00302000
00003000
,  // measure 43
00022000
00000000
00033000
00021000
,  // measure 44
00000000
00032000
00000000
02003000
,  // measure 45
00000000
03000000
00000000
00020000
,  // measure 46
00000000
20030000
00000000
32000000
,  // measure 47
00000000
03000000
00000000
00200000
,  // measure 48
00000000
00302000
00000000
00023000
,  // measure 49
00000000
00030000
00000000
00002000
,  // measure 50
00000000
00003200
00000000
00000301
,  // measure 51
00001000
00000100
00000010
00000011
,  // measure 52
00000000
00000000
00001001
00000000
00000000
00000000
00000000
00000110
,  // measure 53
00000000
00011000
00010000
00001000
,  // measure 54
00001000
00000000
00010000
00001000
00010000
00000000
00011000
00000000
,  // measure 55
00000000
00000000
00001000
00010000
00001000
00010000
00001000
00000000
,  // measure 56
01000000
01000000
00010000
10000000
,  // measure 57
10000000
01000000
00010000
00001000
,  // measure 58
00001000
00000000
00010000
00000100
00010000
00000000
00011000
00000000
,  // measure 59
00000000
00000000
00010000
00000100
00010000
00000100
00001000
00000000
,  // measure 60
00000100
00000100
00000010
00000001
,  // measure 61
00001000
00000010
00000100
00001000
,  // measure 62
00010000
00000000
00001000
00010000
00001000
00000000
00011000
00000000
,  // measure 63
00000000
00000000
00001000
01000000
00001000
01000000
00010000
00000000
,  // measure 64
00100000
01000000
10000000
00100000
,  // measure 65
00010000
00000000
00001000
00010000
00001000
00000000
00010000
00001000
,  // measure 66
00010000
00001000
00010000
00000000
00011000
00000000
00010000
00000000
,  // measure 67
00001000
00000000
00000100
00000001
00000100
00000000
00000010
00000000
,  // measure 68
00001000
00000000
00000001
00000010
00000001
00000000
00000100
00000000
,  // measure 69
00001000
00000000
00010000
00001000
00010000
00000000
00001000
00000000
,  // measure 70
01000000
00000000
00100000
10000000
00100000
00000000
10010000
00000000
,  // measure 71
10000000
01000000
00100000
00101000
,  // measure 72
00001000
00010000
00000010
00001010
,  // measure 73
00001000
00000001
00000010
00000011
,  // measure 74
00000001
00000000
00000000
00000000
00001000
00000000
00000000
00001000
00000000
00000000
00000010
00000000
00010010
00000000
00000000
00000000
,  // measure 75
00010000
00001000
00100000
01100000
,  // measure 76
01000000
10000000
00100000
00010000
,  // measure 77
00021000
00031000
00000000
00012000
00013000
00000000
00001000
00000000
,  // measure 78
01000000
00000000
00000000
00010000
00000000
00000000
01000000
00000000
01100000
00000000
00000000
00000000
00000000
00000000
00000000
00000000
,  // measure 79
10010000
00000000
00000000
00000000
00000000
10000000
00000000
01000000
,  // measure 80
00000000
00100000
00000000
00010000
00000000
00100000
00000000
00001000
,  // measure 81
00000000
00010000
00000000
00001000
00000000
00022000
00000000
00000000
,  // measure 82
00000000
00000000
00000000
00000000
00000000
00000000
00000000
00033000
;

//---------------dance-double - Fred-104----------------
#NOTES:
     dance-double:
     DIFFICULT:
     Medium:
     13:
     0.623933,0.612337,0.541836,0.287337,0.032839,532.000000,466.000000,66.000000,35.000000,0.000000,0.000000,0.623933,0.612337,0.541836,0.287337,0.032839,532.000000,466.000000,66.000000,35.000000,0.000000,0.000000:
00010000
00000100
00001000
00000002
00000000
00000010
00000013
00000000
,
00000100
00001000
00000001
00000000
00000100
00001000
00010000
00000000
,
00001000
00100000
00010000
10000000
00100000
01000000
00010000
00000000
,
10000000
01000000
00010000
00001000
00010000
00000000
00011000
00000000
,
00010000
00001010
00010000
00001100
,
00010000
01001000
00010000
00101000
,
00001000
00010000
00001000
01000000
00010000
01000000
00001000
00000000
,
00010000
00001000
00000100
00000001
00001000
00000100
00000010
00000000
,
00000001
00001000
00000001
00000000
00000100
00000010
00000100
00000000
,
00001000
00010000
00001000
00010000
00100000
10000000
01000000
00000000
,
00100000
00001000
00100000
00000000
00001000
00010000
00001000
00000000
,
00011000
00000000
00001010
00000000
00000010
00000001
00000100
00001000
,
00010000
00001100
00010000
00001010
,
00001000
00110000
00001000
01010000
,
00001000
00010000
00001000
01000000
00010000
00100000
01000000
10000000
,
00100000
00100000
00010000
00010000
00001000
00000000
00011000
00000000
,
00010000
00001000
00000010
00000000
00000001
00000100
00000010
00000000
,
00001000
00000100
00000010
00000001
00000100
00001000
00010000
01000000
,
00020000
00032000
00003020
00002030
,
00013000
00000000
00000000
00010000
00000000
00000000
00001000
00000000
00000000
00001000
00000000
00000000
00011000
00000000
00000000
00000000
,
00010000
00000010
00000100
00000000
00000010
00001000
00000100
00000000
,
00000010
00000001
00001000
00000010
00000100
00001000
00010000
00000000
,
00001000
01000000
00010000
00000000
00100000
01000000
10000000
00000000
,
00100000
01000000
00010000
10000000
01000000
00010000
00001000
00000000
,
00010000
00000100
00001000
00000000
00000100
00010000
00001000
00000000
,
00010000
00001000
00000010
00000001
00001000
00000100
00000010
00000000
,
00001000
00010000
01000000
00100000
00010000
10000000
00100000
00010000
,
00001000
00010000
01000000
10000000
00010000
01000000
00100000
00000000
,
10100000
10100000
01100000
01001000
,
00011000
00000000
00010100
00000000
00001100
00000000
00000100
00000010
,
00000001
00000101
00001100
00011000
,
01100000
00000000
00010000
00010000
00000000
10000000
10000000
01000000
,
01100000
00101000
00011000
00010010
,
00001010
00000101
00001100
00000011
,
00000001
00000100
00001000
00010000
01000000
10000000
00010000
10000000
,
20020000
00000000
30000000
00030000
,
20000000
00000000
32000000
00000000
,
03010000
00001000
00010000
00000000
00000100
00000010
00000001
00000000
,
00000200
00000000
00002300
00000000
,
00013000
00001000
00010000
00000000
00000010
00010000
00001000
00000000
,
00020000
00000000
00230000
10300000
,
01000000
00100000
00001000
00000000
00010000
00000100
00000010
00000000
,
00000001
00001000
00000010
00000100
00001000
00010000
00001000
00000000
,
00010000
00001000
00010000
00001000
00010000
00001000
00010000
00000000
00000000
00012000
00000000
00000000
,
00000000
00000000
00010000
00023000
00000000
00000000
00000000
00000000
,
00000010
00000020
00000000
00000000
00030030
00000000
00000210
00000000
,
00000000
00000000
00000001
00000302
00000000
00000000
00000000
00001000
,
00001000
00002000
00000000
00000000
00003003
00000000
00000001
00000000
,
00000100
00000000
00001000
00010000
00001000
00000000
00010000
00000000
,
00100000
10000000
00100000
01000000
00010000
00000000
10000000
01000000
,
00000000
00100000
00001000
00010000
00001000
00000000
00010000
00000100
,
00000010
00000001
00001000
00000010
00010000
00000000
00022000
00000000
,
00033000
00000000
00022000
00000000
00000000
00033000
00000000
00011000
,
00000000
00000000
00001000
00010000
00001000
00000000
00001000
00010000
,
00100000
10000000
00010000
00100000
01000000
10000000
10000000
00000000
,
00010000
10000000
00100000
00100000
00100000
00100000
00010000
00001000
,
00010000
00000100
00000010
00000001
00001000
00000000
00000001
00001000
,
00000010
00000100
00001000
00010000
00001000
00100000
10000000
00100000
,
00010000
01000000
00100000
00010000
00001000
00000000
00011000
00000000
,
00010000
00001000
00100000
01000000
10000000
00100000
01000000
10000000
,
01000000
00010000
10000000
01000000
00100000
00001000
00010000
00000000
,
00001000
00010000
00000010
00000100
00000010
00001000
00000100
00000010
,
00000001
00000100
00000010
00000100
00001000
00010000
00012000
00000000
,
01003000
00001000
00010000
00001000
00000100
00000001
00001000
00000100
,
00000001
00000100
00000010
00000100
00001000
00000100
00020000
00000000
,
00031000
00010000
00100000
01000000
10000000
01000000
00100000
00100000
,
10000000
10000000
20020000
00000000
30030000
00000000
01100000
00000000
,
10000000
01000000
00010000
00010000
00001000
00001000
00010000
00000100
,
00000010
00000001
00001000
00000010
00000100
00000000
00001001
00000000
,
00000001
00000100
00000010
00000001
00000010
00000100
00000010
00001000
,
00000001
00000010
00000100
00010000
00001000
00000000
00011000
00000000
,
00011000
00001010
00001010
00011000
,
00011000
00000000
00110000
00000000
00100000
10000000
00010000
00000000
,
10010000
11000000
01100000
00101000
,
00011000
00000000
00000000
00000000
00010000
00000000
00000000
00000100
00000000
00000000
00000010
00000000
00000011
00000000
00000000
00000000
,
00001010
00000101
00001100
00000110
,
00011000
00000000
01100000
00000000
10010000
00000000
10000000
01000000
,
00200000
00310000
01000000
00200000
10300000
01000000
00010000
00001000
,
00000100
00000000
00000000
00000001
00000000
00000000
00001000
00000000
00002002
00000000
00000000
00000000
00003003
00000000
00000000
00000000
,
00002200
00000000
00000000
00003300
00000000
00000001
00001000
00000010
,
00000010
00000100
00001000
00010000
00010000
00100000
10000000
01000000
,
00010000
00001000
00010000
00001000
00000000
00022000
00000000
00000000
,
00000000
00000000
00000000
00000000
00000000
00000000
00000000
00033000
;

//---------------dance-double - Fred-104----------------
#NOTES:
     dance-double:
     EXPERT:
     Hard:
     16:
     0.822137,0.816449,0.566465,0.303757,0.447425,701.000000,632.000000,69.000000,37.000000,0.000000,0.000000,0.822137,0.816449,0.566465,0.303757,0.447425,701.000000,632.000000,69.000000,37.000000,0.000000,0.000000:
00001000
00000000
00010000
00000000
00000010
00000000
00010000
00000000
00000000
00000000
00001000
00000000
00100000
00010000
00100000
00000000
,
01000000
00000000
10000000
00000000
00010000
00000000
01000000
00000000
00100000
10000000
00100000
00000000
01000000
00000000
00001000
00000000
,
00010000
00000000
00001000
00000000
00000100
00000000
00000010
00001000
00000100
00000000
00000010
00000000
00000001
00001000
00000001
00000000
,
00000100
00000010
00000100
00000010
00000100
00000000
00000000
00000100
00001000
00000000
00010000
00000000
00002000
00000000
00003000
00000000
,
00101000
00000000
00010010
00000000
00001000
00010000
01000000
10000000
,
00010000
00000000
01000000
00000000
00100000
00000000
00010000
00000000
00001000
00000000
00000100
00000000
00000010
00000001
00000010
00000000
,
00000100
00000010
00001010
00000000
00001000
00000100
00000010
00000001
,
00001000
00000000
00000001
00000000
00000010
00000000
00001000
00000000
00020000
00000000
00032000
00000000
00013000
00001000
00010000
00000000
,
00011000
00000000
00110000
00000000
00100000
10000000
00010000
10000000
,
01000000
00000000
00010000
00000000
00001000
00000000
00000010
00000000
00000100
00000000
00000010
00000000
00000001
00000100
00000000
00000100
,
00000010
00001000
00000001
00000010
00001000
00010000
00001000
00000000
,
00001000
00000000
00010000
00000000
00001000
00000000
01000000
00000000
00200000
00000000
00320000
00000000
00032000
00000000
00013000
00001000
,
00010000
00000000
00000100
00000000
00000010
00000000
00000001
00000000
00001000
00000001
00001000
00000001
00001000
00000000
00000010
00000000
,
00000100
00000000
00001000
00000000
00010000
00000000
00001000
00000000
00000010
00000000
00000001
00000000
00001000
00000001
00001000
00000000
,
00000010
00000100
00001000
00010000
00100000
10000000
00010000
00100000
,
01000000
00000000
00001000
00000000
00000100
00000000
00010000
00000000
00002000
00000000
00023000
00000000
00031000
00010000
00001000
00010000
,
00002000
00000000
00013000
00001000
00000100
00000010
00000100
00001000
,
00010000
00000000
00001000
00000000
01000000
00000000
00010000
00000000
00100000
00000000
01000000
00000000
10000000
00010000
10000000
00010000
,
02000000
00000000
03200000
00000000
00310000
00001000
00000100
00000001
,
00000011
00000000
00000000
00010100
00000000
00000000
01001000
00000000
00000000
10100000
00000000
00000000
10000000
00000000
00010000
00000000
,
10000000
00100000
00010000
10000000
01000000
00100000
01000000
00001000
,
00010000
00000100
00000010
00001000
00000001
00000100
00000010
00000001
,
00001000
00000001
00000010
00001000
00000001
00000100
00001000
00000100
,
00010000
00000000
00001000
00100000
00001000
00000000
00010000
00000000
00000010
00001000
00000010
00000100
00000010
00000000
00010000
00000000
,
00001000
01000000
00100000
00010000
10000000
01000000
00100000
00010000
,
00001000
00010000
01000000
00100000
00010000
01000000
00100000
00010000
,
00001000
00000000
00010000
00001000
00010000
00000000
00000100
00000000
00000010
00000000
00001000
00000000
00010000
00000000
00000010
00000000
,
00001000
00000000
00000100
00000010
00000001
00000000
00001000
00000000
00000010
00000000
00000100
00000000
00001000
00000000
00010000
00001000
,
00010000
00011000
00110000
10100000
,
11000000
00000000
01010000
00000000
00011000
00000000
00001000
00000010
,
00000011
00000101
00001100
00011000
,
00001010
00000000
00000000
00000000
00011000
00000000
00010000
00000000
00000000
00000000
00001000
00000000
01001000
00000000
01000000
00010000
,
00100000
00110000
00101000
00010010
,
00000101
00000000
00010010
00000000
00101000
00000000
11000000
00010000
,
20000000
30000000
02000000
03000000
00200000
00300000
00020000
00030000
00002000
00003000
00000200
00000300
00000020
00000030
00000002
00000003
,
00002002
00000000
00003000
00000003
,
00002001
00000000
00003001
00000100
,
00001000
00000000
00010000
00001000
00010000
00001000
00000000
00100000
00010000
00100000
01000000
00100000
01000000
00000000
10000000
00010000
,
02000000
00000000
00000000
00000000
10000000
00000000
00000000
00000000
00100000
00000000
00000000
00000000
03010000
10000000
00010000
10000000
,
01000000
00000000
00100000
00001000
00100000
00001000
00000000
00010000
00000100
00001000
00000100
00000010
00000100
00000000
00010000
00000000
,
00002000
01000000
00010000
00000010
,
00013000
00000000
00001000
00000000
00000100
00000010
00000000
00000100
00000001
00001000
00000001
00001000
00000100
00000000
00000010
00000001
,
00001000
00000000
00000010
00000100
00000010
00000000
00001000
00000000
00000100
00000000
00000010
00000000
00000100
00000000
00001000
00000000
,
00000001
00000010
00001000
00010000
01000000
10000000
00100000
00000000
00000000
02100000
00000000
00000000
,
00000000
00000000
00010000
00010000
00000000
00000000
00000000
10000000
,
10000000
10000000
00000000
00000000
03100000
00000000
20010000
00000000
,
00000000
00000000
01000000
01000000
00000000
00000000
00000000
00010000
,
00010000
00010000
00000000
00000000
30100000
00000000
02100000
00000000
,
03002000
00000000
00010000
00010000
00000000
00000000
00000000
00000100
,
00000100
00000100
00000000
00000000
00013000
00001000
00000010
00000002
,
00000000
00000000
00001003
00000010
00001000
00000010
00000000
00000010
00000000
00000100
00001000
00000000
00010000
00000000
00010000
00000000
,
00001000
00000000
00001000
00000000
01000000
00010000
01000000
00010000
00000000
00100000
01000000
00000000
01100000
00000000
00000000
10000000
,
01000000
00000000
00100000
00000000
00001000
00000000
00011000
00000000
00000000
00010000
00001000
00000000
00000100
00000000
00000101
00000000
,
00000000
00000000
00000001
00000000
00000011
00000000
00000000
00000000
00010100
00000000
00000000
00000000
00011000
00000000
00001000
01000000
,
00010000
00000000
10000000
01000000
00100000
00000000
00010000
01000000
00100000
00000000
00010000
00000000
00012000
00000000
00000000
00000000
,
00013000
00000000
00010000
00000000
00000100
00000000
00001000
00000010
00001000
00000100
00001000
00000010
00000100
00000000
00001000
00000000
,
00010000
00000000
00100000
00000000
01000000
00000000
00010000
00000000
10000000
00000000
01000000
00000000
00100000
00001000
00000000
00010000
,
00000100
00000010
00000001
00001000
00000010
00010000
00100000
01000000
,
00001000
00000000
00100000
00000000
01000000
00000000
00010000
00000000
00001000
00010000
00001000
00010000
00002000
00000000
00000000
00000000
,
00013000
00000000
00000100
00000000
00010000
00000000
00001000
00100000
00001000
00000000
00010000
00000000
00001000
00000000
01000000
00000000
,
00010000
00000000
00000100
00000000
00000010
00000000
00010000
00000000
00001000
00000000
00000100
00000000
00000010
00010000
00000000
00001000
,
00010000
01000000
00100000
00010000
00001000
00000100
00000010
00001000
,
00100000
00000000
00010000
00000000
01000000
00001000
00010000
00000000
00011000
00000000
00010000
00000010
00002000
00000000
00000000
00000000
,
00013000
01000000
00100000
00010000
00001000
00000100
00000010
00010000
,
00001000
00000000
00000010
00000000
00000001
00001000
00000010
00000000
00000100
00001000
00000100
00001000
00010000
00000000
00001000
00000000
,
01000000
00100000
00010000
10000000
01000000
00100000
10100000
10000000
,
10100000
00000000
00100000
00000000
10000000
00010000
10000000
00010000
00100000
00001000
00010000
00001000
00020000
00000000
00000000
00000000
,
00031000
00000000
00010000
00000000
00001000
00010000
00000100
00010000
00001000
00000000
00010000
00000000
00000100
00000000
00000001
00000000
,
00001000
00000000
00000010
00000000
00000100
00000000
00001000
00000000
00000100
00010000
00000100
00010000
00002000
00000000
00000000
00000000
,
00013000
00000000
00001000
00000000
00010000
00100000
01000000
00100000
10000000
00000000
10100000
00000000
00000000
00000000
01010000
00000000
,
00000000
00000000
11000000
00000000
01000000
00000000
00100000
00000000
00001000
00000000
00010000
00001000
00010000
00000000
00001000
00000000
,
00001100
00000000
00000101
00000000
00001001
00000000
00000001
00000010
,
00000110
00000000
00010100
00000000
00011000
00010000
00001000
01000000
,
01010000
10100000
00110000
01100000
,
10010000
00000000
00000000
00000000
10000000
00000000
01000000
00010000
00000000
00001000
00010000
00000000
00010100
00000000
00000100
00000000
,
00000110
00000000
00000011
00000000
00001001
00001000
00001100
00000100
,
00010100
00000000
00000000
00000000
01001000
00000000
00000000
00000000
10100000
00000000
10000000
00010000
10000000
00000000
01000000
00000000
,
01020000
00031000
00000010
00000012
00001003
00000100
00000001
00000100
,
00010000
00001000
00000000
00001000
00010000
00100000
01000000
00100000
10000000
00000000
00000000
10000000
01000000
00000000
00010000
00000000
,
00001000
00000000
00011000
00000000
00000000
00010000
00001000
00000000
00000010
00000000
00000001
00000000
00000100
00000000
00000010
00000000
,
00001000
00010000
01000000
00100000
10000000
01000000
01000000
00100000
,
00100000
00000000
00001000
00000000
00010000
00000100
00000010
00000001
00000100
00000010
00002000
00000000
00000000
00000000
00000000
00000000
,
00000000
00000000
00000000
00000000
00000000
00000000
00000000
00003000
;

//---------------dance-double - Fred-104----------------
#NOTES:
     dance-double:
     :
     Challenge:
     17:
     0.934726,0.986542,0.591094,0.968738,0.722448,797.000000,725.000000,72.000000,118.000000,0.000000,0.000000,0.934726,0.986542,0.591094,0.968738,0.722448,797.000000,725.000000,72.000000,118.000000,0.000000,0.000000:
00010000
00000000
00001000
00000000
00100000
00000000
01000000
00000000
00100000
00000000
00010000
00000000
00100000
00001000
00010000
00000000
,
00001000
00000000
00000100
00000000
00000001
00001000
00000001
00000000
00002000
00000000
00003200
00000000
00000320
00000000
00001030
00010000
,
00001000
00000000
01000000
00010000
01000000
00000000
00100000
10000000
00100000
00000000
10000000
00000000
01000000
00100000
00010000
00000000
,
00100000
00001000
00010000
00001000
00000100
00000000
00000000
00000100
00000001
00000000
00000010
00000000
00000200
00000000
00002300
00003000
,
00001010
00000000
00001001
00000000
00001000
00000001
00000100
00001000
,
00010000
00000000
00001000
00000000
00000010
00000000
00001000
00000000
00010000
00000000
01000000
00000000
00100000
00010000
10000000
00000000
,
01000000
00000000
10000000
00000000
00100000
00000000
00010000
00000000
00001000
00000000
00010000
00000000
00000100
00000000
00000010
00000001
,
00000020
00000000
00000032
00000000
00000203
00000000
00002300
00000000
00023000
00000000
00032000
00000000
00013000
00001000
00010000
00001000
,
00010000
00000000
00000000
00000000
00011000
00000000
00000000
00000000
00001000
00000000
01000000
00000000
00010000
10000000
00010000
00000000
,
20000000
00000000
01000000
00000000
32000000
00000000
00010000
00000000
03020000
00000000
00032000
00000000
00013000
00001000
00010000
00001000
,
00020000
00032000
00003200
00000320
00000032
00000023
00000230
00002300
,
00013000
00000000
00001000
00000000
00100000
00000000
01000000
00000000
10000000
00000000
10000000
00000000
00100000
01000000
00100000
01000000
,
00200000
00000000
10000000
00000000
02300000
00000000
00010000
00000000
03100000
00000000
10000000
00000000
01000000
00100000
00001000
00000000
,
00010000
00000000
00000100
00000000
00000001
00000000
00000100
00000000
00002000
00000000
00000000
00000000
00003100
00001000
00000100
00000000
,
00010000
00000010
00000100
00001000
00000001
00000010
00001000
00000001
,
00000010
00000000
00000100
00000000
00000010
00000000
00001000
00000000
00010000
00001000
00010000
00001000
00000100
00000010
00000100
00000010
,
00000100
00000001
00000010
00001000
00000001
00000100
00010000
00001000
,
01000000
00000000
00100000
00000000
00010000
00000000
10000000
00000000
01000000
00000000
00010000
00000000
10000000
00010000
10000000
00010000
,
02000000
00000000
00000000
00000000
10000000
00000000
00000000
00000000
03010000
00000000
10000000
00000000
01000000
00000000
00010000
00001000
,
00010000
00000000
00000000
00011000
00000000
00000000
00001010
00000000
00000000
00000011
00000000
00000000
00001001
00000000
00001000
00000000
,
00000010
00000001
00001000
00000100
00000010
00010000
00001000
00100000
,
01000000
10000000
00100000
00010000
10000000
01000000
00010000
00100000
,
00001000
00010000
00100000
01000000
10000000
00010000
00001000
00010000
,
00000100
00000000
00000010
00000000
00001000
00000000
00000001
00000000
00000100
00000000
00001000
00000000
00000010
00001000
00000010
00010000
,
00001000
00100000
01000000
00010000
10000000
00100000
01000000
10000000
,
00010000
01000000
00100000
00001000
00000010
00000100
00001000
00010000
,
02000000
03200000
00302000
00003020
00000130
00010000
00001000
00000100
,
00000001
00000000
00000010
00000000
00001000
00000000
00010000
00000000
01000000
00100000
01000000
00100000
00010000
10000000
00010000
00000000
,
11000000
01010000
00011000
00001010
,
00000011
00000000
00000101
00000000
00001100
00000000
00011000
00010000
,
00110000
10100000
10010000
10100000
,
00110000
00000000
00000000
00000000
00011000
00000000
00001100
00000000
00000000
00000000
00000101
00000000
00001001
00000000
00001000
00000001
,
00000010
00000000
00000110
00000000
00001010
00000000
00000011
00000001
,
00000101
00000000
00001100
00000000
00011000
00000000
00010000
00001000
,
00021000
00030000
00012000
00003000
00021000
00030000
00012000
00003000
00021000
00030000
00012000
00003000
00021000
00030000
00012000
00003000
,
00022000
00000000
00000000
00000000
00000000
00000000
00033000
00000000
00001000
00010000
00000010
00010000
00001000
00010000
00000010
00010000
,
00001000
00000000
00100000
00010000
00100000
00010000
00100000
00000000
01000000
00000000
10000000
00000000
00010000
00000000
01000000
00100000
,
00010000
00000000
00001000
00010000
00001000
00010000
00000000
00010000
00000100
00001000
00000100
00000010
00000001
00000000
00001000
00000001
,
00000100
00000000
00000010
00000100
00000001
00001000
00000100
00000000
00000010
00000000
00001000
00000000
00010000
00001000
00010000
00001000
,
00010000
00000000
00100000
01000000
00100000
01000000
00000000
00010000
00100000
01000000
00100000
01000000
10000000
00000000
00010000
01000000
,
10000000
00000000
00010000
00100000
10000000
00000000
01000000
00000000
00100000
00000000
00001000
00000000
00000010
00000000
00000100
00001000
,
00000100
00000000
00000010
00000001
00000010
00000001
00000000
00000001
00000100
00000010
00000100
00000010
00000100
00001000
00010000
00001000
,
00010000
00000000
00000000
00000000
00000000
00000000
00001000
00000000
00100000
00000000
00001000
00000000
00100000
00000000
00000000
00000000
00000000
00000000
00010000
00000000
00000000
00000000
00000000
00000000
10000000
00000000
00000000
00000000
00000000
00000000
00010000
00000000
00000000
00000000
00000000
00000000
10000000
00000000
00000000
00010000
00000000
00000000
10000000
00000000
00000000
00010000
00000000
00000000
,
10000000
01000000
00010000
00001000
00000010
00000001
00001000
00000000
00000000
00001002
00000000
00000000
,
00000000
00000000
00000103
00000200
00000000
00000000
00000000
00001000
,
00001300
00002000
00000000
00000000
00010000
00010000
00023000
00000000
,
00000000
00000000
00130000
00200000
00000000
00000000
00000000
10000000
,
10300000
20000000
00000000
00000000
31000000
00010000
00002000
00000000
,
00000000
00000000
00013000
00020000
00000000
00000000
00000000
00001000
,
00031000
00002000
00000000
00003100
00000001
00000010
00000100
00002000
,
00000000
00000000
00003001
00000100
00000001
00000100
00000010
00000100
00000000
00001000
00010000
00000000
00001000
00000000
00001000
00000000
,
00010000
00000000
00010000
00000000
00001000
00010000
00001000
01000000
00000000
00001000
00010000
00000000
00022000
00000000
00033000
00010000
,
00001000
00000000
00000000
00000000
00000000
00000000
00000000
00000000
00010000
00000000
00000000
00000000
00000000
00000000
00000000
00000000
00011000
00000000
00000000
00000000
00000000
00000000
00000000
00000000
00022000
00000000
00000000
00000000
00000000
00000000
00000000
00000000
00033000
00000000
00000000
00000000
00001000
00000000
00000000
00000000
00010000
00000000
00000000
00000000
00000000
00000000
00000000
00000000
00001000
00000000
00000000
00000000
00000000
00000000
00000000
00000000
00022000
00033000
00000000
00000000
00000000
00000000
00000000
00000000
,
00010000
00000000
00001000
00010000
00011000
00000000
00011000
00010000
,
00011000
00000000
00001000
00010000
00000100
00000000
00001000
00000001
00000100
00000010
00001000
00000000
00001002
00000000
00000000
00000000
,
00000103
00000000
00000100
00000000
00000010
00001000
00000010
00001000
00000001
00000010
00000001
00000010
00000200
00000000
00000320
00000000
,
00002030
00000000
00023000
00000000
00031000
01000000
00002000
00000000
00023000
00000000
00130000
01000000
00010000
00000000
01000000
00100000
,
01000000
00100000
00020000
00000000
00230000
00000000
02300000
00000000
03020000
00000000
20030000
00000000
31000000
00100000
00000000
00100000
,
00001000
00000000
00000010
00000000
00000100
00000000
00010000
00000000
00001000
00010000
00001000
00010000
00002000
00000000
00000000
00000000
,
00013000
00000000
00001000
00000000
00000100
00000001
00000100
00000001
00001000
00000100
00000010
00000000
00000001
00001000
00000000
00000010
,
00000200
00000000
00002300
00000000
00023000
00000000
00230000
00000000
02300000
00000000
13000000
01000000
00020000
00000000
20030000
00000000
,
32000000
00000000
03020000
00000000
00031000
00010000
00001000
00010000
00000010
00001000
00000010
00001000
00000001
00001000
00000000
00001000
,
00000100
00000000
00000010
00000000
00000001
00001000
00000001
00000000
00000101
00000000
00000100
00000010
00002000
00000000
00000000
00000000
,
00003001
00000000
00000010
00000000
00000100
00001000
00000100
00010000
00001000
00100000
00010000
00100000
01000000
00100000
00000000
00100000
,
00002000
00000000
00203000
00000000
02300000
00000000
23000000
00000000
30010000
01000000
00010000
00000000
00200000
00000000
02300000
00000000
,
03020000
00000000
00032000
00000000
00013000
00001000
00010000
00000010
00010000
00001000
00010000
00000000
00012000
00003000
00021000
00030000
,
00012000
00003000
00021000
00030000
00001000
00010000
00001000
00010000
00000100
00001000
00000100
00000010
00000001
00000000
00001000
00000001
,
00000100
00000000
00000001
00000000
00001000
00000001
00000010
00000100
00001000
00000100
00010000
00000000
00001000
00010000
02000000
00000000
,
03200000
00000000
20300000
00000000
30200000
00000000
00320000
00000000
10030000
00010000
01000000
00001000
00010000
00000000
00000100
00000000
,
00001000
00000000
00000010
00000000
00000100
00000001
00000010
00000001
00001000
00000001
00000100
00000000
00000001
00000000
00000011
00000000
,
00001000
00000000
00001100
00000000
00000001
00000000
00000100
00000000
00000110
00000000
00000010
00001000
00000100
00000000
00000000
00000000
,
00000110
00000000
00000010
00000001
00000100
00000000
00001100
00000000
,
00011000
00000000
00010000
00100000
10000000
01000000
01100000
00000000
,
00110000
00000000
00000000
00000000
00101000
00000000
00001000
00000000
00011000
00000000
00000000
00010000
00000100
00000000
00000010
00000000
,
00001000
00000000
00000001
00000000
00000100
00000000
00000000
00001100
00000000
00000000
00001000
00000001
00000100
00000000
00000010
00000000
,
00000110
00000000
00000100
00000000
00001100
00000000
00001000
00000000
00010000
00001000
00010000
00001000
00010000
00000000
00001000
00000000
,
01001000
00000000
01000000
00000000
00020000
00000000
00230000
00000000
02300000
00000000
23000000
00000000
30010000
10000000
01000000
00100000
,
00002000
00003000
00000000
00000000
00000000
00000000
00000000
00000000
00010000
00000000
00000000
00000000
00000010
00000000
00000000
00000000
00000100
00000000
00000000
00000000
00000001
00000000
00000000
00000000
00002000
00003000
00000000
00000000
00000000
00000000
00000000
00000000
00000210
00000000
00000000
00000000
00000000
00000000
00000000
00000000
00000301
00000000
00000000
00000000
00000000
00000000
00000000
00000000
00000120
00000000
00000000
00000000
00000000
00000000
00000000
00000000
00001030
00000000
00000000
00000000
00000000
00000000
00000000
00000000
,
00000001
00001000
00000001
00001000
00000010
00000100
00001000
00010000
00002000
00000000
00003000
00010000
00001000
00000000
00010000
00000000
,
00011000
00000000
00022000
00000000
00033000
00001000
00010000
00000000
00001000
00000000
00020000
00000000
00032000
00000000
00003200
00000000
,
00000302
00000000
00002003
00000000
00003002
00000000
00000023
00000000
00002030
00000000
00013000
00001000
00010000
00001000
01000000
00010000
,
01000000
00010000
10000000
01000000
00100000
00010000
01000000
00001000
00010000
00000000
00022000
00000000
00000000
00000000
00000000
00000000
,
00000000
00000000
00000000
00000000
00000000
00000000
00000000
00033000
;
