#VERSION:0.83;
#TITLE:AOKI URU;
#SUBTITLE:;
#ARTIST:JOUJOUKA;
#TITLETRANSLIT:;
#SUBTITLETRANSLIT:;
#ARTISTTRANSLIT:;
#GENRE:PSY-TRANCE;
#ORIGIN:;
#TAGS:;
#CREDIT:YonabearCWY;
#BANNER:AOKI URU.png;
#BACKGROUND:AOKI URU-bg.png;
#PREVIEWVID:;
#JACKET:AOKI URU-jacket.png;
#CDIMAGE:;
#DISCIMAGE:;
#LYRICSPATH:;
#CDTITLE:cdtitle.png;
#MUSIC:AOKI URU.ogg;
#OFFSET:-7.480000;
#SAMPLESTART:81.126343;
#SAMPLELENGTH:15.000000;
#SELECTABLE:YES;
#DISPLAYBPM:73.000000:580.000000;
#BPMS:0.000000=290.000000
,29.500000=72.500000
,30.000000=145.000000
,254.000000=72.500000
,276.000000=145.000000
,280.000000=290.000000
,296.000000=580.000000
;
#STOPS:29.500000=0.928000
;
#DELAYS:;
#WARPS:;
#TIMESIGNATURES:0.000000=4=4
;
#TICKCOUNTS:0.000000=4
;
#COMBOS:0.000000=1
;
#SPEEDS:0.000000=1.000000=0.000000=0
;
#SCROLLS:0.000000=1.000000
;
#FAKES:;
#LABELS:0.000000=Song Start
;
#BGCHANGES:0.000=blizzard6.mp4=1.000=1=0=1===CrossFade==,
16.000=blizzard5.mp4=1.000=0=0=1=====,
29.500=blizzard4.mp4=0.100=0=0=1=====,
29.521=blizzard4.mp4=0.700=0=0=1=====,
30.000=blizzard4.mp4=1.000=0=0=1=====,
38.000=letters1.mp4=1.000=0=0=1=====,
46.000=blizzard4.mp4=1.000=0=1=1=StretchRewind====,
54.000=letters1.mp4=1.000=0=1=1=StretchRewind====,
62.000=gradius1.mp4=1.000=0=0=1=====,
63.000=gradius2.mp4=1.000=0=0=1=====,
64.000=gradius1.mp4=1.000=0=0=1=====,
65.000=gradius2.mp4=1.000=0=0=1=====,
66.000=fusion1.mp4=1.000=0=0=1=====,
70.000=gradius1.mp4=1.000=0=0=1=====,
71.000=gradius2.mp4=1.000=0=0=1=====,
72.000=gradius1.mp4=1.000=0=0=1=====,
73.000=gradius2.mp4=1.000=0=0=1=====,
74.000=fusion1.mp4=1.000=0=0=1=====,
78.000=gradius1.mp4=1.000=0=1=1=StretchRewind====,
79.000=gradius2.mp4=1.000=0=1=1=StretchRewind====,
80.000=gradius1.mp4=1.000=0=0=1=====,
81.000=gradius2.mp4=1.000=0=0=1=====,
82.000=fusion1.mp4=1.000=0=1=1=StretchRewind====,
86.000=gradius1.mp4=1.000=0=0=1=====,
87.000=gradius2.mp4=1.000=0=0=1=====,
88.000=gradius1.mp4=1.000=0=0=1=====,
89.000=gradius2.mp4=1.000=0=0=1=====,
90.000=gradius4.mp4=1.000=0=0=1=====,
94.000=fusion2.mp4=1.000=0=0=1=====,
110.000=gradius5.mp4=1.000=0=0=1=====,
122.000=gradius4.mp4=1.000=0=1=1=StretchRewind====,
126.000=fire2.mp4=1.600=0=0=1=====,
134.000=gradius3.mp4=1.400=0=0=1=====,
142.000=fire2.mp4=1.600=0=1=1=StretchRewind====,
150.000=gradius3.mp4=1.400=0=1=1=StretchRewind====,
158.000=gradius5.mp4=1.000=0=1=1=StretchRewind====,
174.000=fusion2.mp4=1.000=0=1=1=StretchRewind====,
190.000=gradius1.mp4=1.000=0=1=1=StretchRewind====,
192.000=gradius2.mp4=1.000=0=1=1=StretchRewind====,
194.000=gradius1.mp4=1.000=0=0=1=====,
196.000=gradius4.mp4=1.000=0=1=1=StretchRewind====,
198.000=blizzard6.mp4=1.000=0=1=1=StretchRewind====,
202.000=blizzard5.mp4=1.000=0=1=1=StretchRewind====,
206.000=gradius1.mp4=1.000=0=1=1=StretchRewind====,
208.000=gradius2.mp4=1.000=0=1=1=StretchRewind====,
210.000=gradius1.mp4=1.000=0=0=1=====,
212.000=gradius4.mp4=1.000=0=1=1=StretchRewind====,
214.000=blizzard6.mp4=1.000=0=1=1=StretchRewind====,
218.000=blizzard5.mp4=1.000=0=1=1=StretchRewind====,
222.000=letters1.mp4=1.000=0=1=1=StretchRewind====,
224.000=fusion1.mp4=1.000=0=1=1=StretchRewind====,
226.000=letters1.mp4=1.000=0=0=1=====,
228.000=fusion1.mp4=1.000=0=0=1=====,
230.000=letters1.mp4=1.000=0=0=1=====,
232.000=fusion1.mp4=1.000=0=0=1=====,
234.000=letters1.mp4=1.000=0=0=1=====,
236.000=fusion1.mp4=1.000=0=0=1=====,
238.000=fire2-start.mp4=0.800=0=0=1=====,
240.000=gradius3.mp4=1.600=0=1=1=StretchRewind====,
242.000=fire2-end.mp4=0.800=0=0=1=====,
244.000=gradius5.mp4=1.600=0=1=1=StretchRewind====,
246.000=fire2-start.mp4=0.800=0=1=1=StretchRewind====,
248.000=gradius3.mp4=1.600=0=0=1=====,
250.000=fire2-end.mp4=0.800=0=1=1=StretchRewind====,
252.000=gradius5.mp4=1.600=0=0=1=====,
254.000=fusion2.mp4=0.700=0=1=1=StretchRewind====,
262.000=fire2.mp4=0.700=0=0=1=====,
270.000=fusion2.mp4=0.700=0=0=1=====,
276.000=fire2-start.mp4=0.800=0=1=1=StretchRewind====,
278.000=fire2-end.mp4=0.800=0=1=1=StretchRewind====,
280.000=fire2.mp4=1.600=0=1=1=StretchRewind====,
288.000=gradius1.mp4=2.000=0=1=1=StretchRewind====,
290.000=gradius2.mp4=2.000=0=1=1=StretchRewind====,
292.000=gradius1.mp4=2.000=0=0=1=====,
294.000=gradius2.mp4=2.000=0=0=1=====,
296.000=gradius3.mp4=2.000=0=1=1=StretchRewind====,
300.000=gradius5.mp4=2.000=0=1=1=StretchRewind====,
304.000=gradius3.mp4=2.000=0=0=1=====,
308.000=gradius5.mp4=2.000=0=0=1=====,
312.000=gradius3.mp4=2.000=0=0=1=====,
316.000=gradius5.mp4=2.000=0=0=1=====,
320.000=gradius4.mp4=2.000=0=1=1=StretchRewind====,
328.000=AOKI URU-bg.png=1.000=0=0=1=====,
99999=-nosongbg-=1.000=0=0=0 // don't automatically add -songbackground-
;
#KEYSOUNDS:;
#ATTACKS:
;

//---------------dance-single - ----------------
#NOTEDATA:;
#CHARTNAME:BASIC;
#CHARTHASH:2459725406;
#STEPSTYPE:dance-single;
#BANNER:;
#DESCRIPTION:;
#CHARTSTYLE:;
#DIFFICULTY:Easy;
#METER:11;
#METERF:11.000000;
#LASTSECONDHINT:135.235580;
#RADARVALUES:0.481459,0.869294,0.241776,0.139204,0.153857,460.000000,427.000000,33.000000,19.000000,0.000000,0.000000,0.000000,0.000000,0.000000,0.481459,0.869294,0.241776,0.139204,0.153857,460.000000,427.000000,33.000000,19.000000,0.000000,0.000000,0.000000,0.000000,0.000000;
#CREDIT:YonabearCWY;
#DISPLAYBPM:73.000000:290.000000;
#NOTES:
1000
0100
1000
0000
,
0001
0010
0001
0000
,
0010
0000
0100
0000
0010
0000
0000
0100
,
0000
0000
1000
0000
0000
0010
0000
0000
,
0100
0001
0100
0000
,
0010
1000
0010
0000
,
0100
0000
0001
0000
0010
0000
0000
1100
,
0000
0000
2002
0000
3003
0000
0100
0010
,
0000
0000
0100
0000
0010
0000
0000
0000
1000
0000
0010
0000
0001
0000
0000
0010
,
0000
1000
0010
0100
0000
0001
1000
0001
,
0000
0000
1000
0000
0001
0000
0000
0000
0100
0000
0010
0000
0001
0000
0000
0010
,
0000
0100
0010
0001
0000
1000
0010
0000
,
0100
0000
0001
0000
0010
0000
0000
0000
0100
0000
1000
0000
1010
0000
0000
0101
,
0000
0001
1000
0010
0001
0010
0110
0000
,
0001
0000
1000
0000
1001
0000
0000
0000
0100
0000
0010
0000
0110
0000
0000
1100
,
0000
0100
0010
0001
1000
0010
0001
0010
,
1000
0000
0000
0000
0110
0000
0000
0000
0001
0000
0100
0000
0100
0000
0000
0010
,
0000
1000
0010
0000
0001
0010
1000
0010
,
0001
0000
0000
0000
0110
0000
0000
0000
1000
0000
0001
0000
0001
0000
0000
0010
,
0000
0001
0100
0100
1000
0100
0001
0100
,
1000
0000
0000
0000
0110
0000
0000
0000
0001
0000
0010
0000
0010
0000
0000
0001
,
0000
1000
0100
0000
0001
0100
1000
0100
,
0001
0000
0110
0000
1001
0000
0000
0110
,
0000
0000
1000
0001
0102
0000
0010
0000
,
1000
0000
0013
0001
0100
0000
0010
1000
,
0100
1000
0210
1000
,
0001
0000
1300
0100
0120
0000
1000
0000
,
0001
0000
0100
0000
1030
0010
0001
0000
,
0100
0000
0010
0100
1000
0000
0100
0000
,
0001
0100
1000
0000
0100
0010
0001
0000
,
0010
0000
0100
0010
0100
0000
1001
0000
,
0010
0010
0010
0000
1000
0000
0000
0100
,
0000
0000
0000
0000
0010
0000
0000
0000
0001
0000
0100
0000
0001
0000
0000
1000
,
0000
0001
0010
0000
0001
0000
0100
0000
,
1000
0100
0001
1000
,
0010
0000
0000
0000
0001
0000
0000
0000
0010
0000
0000
0100
0000
0000
0001
0000
,
0010
0000
0000
0000
1100
0000
0000
0000
0010
0000
0100
0000
0001
0000
0000
1000
,
0000
0000
0100
0000
0010
0000
0000
0000
0101
0000
0000
0010
0000
0000
0001
0000
,
0000
0000
1000
0000
0010
0000
0001
0000
0010
0000
0000
0100
0000
0000
0001
0000
,
0000
0100
0000
0000
0010
0000
1000
0000
2001
0000
0000
0000
0000
0000
0000
0000
,
3020
0000
0000
0100
0000
0100
0000
0100
0000
0000
0000
0000
0230
0000
0000
0000
,
0001
1000
0001
0310
,
0100
0001
0010
0001
,
1000
0000
0001
0000
0010
0000
0000
0000
2100
0000
0000
0001
0000
0001
0000
0001
,
0000
0000
3001
1000
0010
0000
0100
0000
,
0001
0010
0001
1000
,
0010
0000
0100
0000
0010
0000
0000
0000
1001
0000
0000
0100
0000
0000
0010
0000
,
0000
0001
0000
0000
0100
0000
0001
0000
0000
0000
0010
0000
0001
0000
0010
0000
,
0000
0001
1000
0001
0000
1000
0010
1000
,
0000
0010
0000
0100
0000
0001
0100
0010
,
0000
0100
0001
0010
0000
0100
1000
0001
,
0000
1000
0010
0100
0000
0010
0001
0010
,
0000
0100
0001
0100
0000
0010
1000
0010
,
0000
0100
0000
0001
0000
1000
0100
0010
,
0000
0100
0010
0001
0000
0010
0001
1000
,
0000
0010
1000
0001
0000
0100
0000
0001
,
0000
0010
0001
1000
0001
0100
0000
0010
,
0000
1000
0000
0100
1000
0010
1000
0001
,
0000
0100
0000
0001
0000
0010
0001
0010
,
0100
0010
0000
0001
0000
0100
0000
0010
,
0100
1000
0100
0010
0000
0100
0000
0001
,
0000
1000
0100
0001
0100
1000
0000
0010
,
0100
0001
0100
0010
0000
1000
0010
0001
,
0010
0000
1000
0000
0010
0000
0100
0000
2001
0000
0010
0000
0100
0000
3010
0100
,
1000
0000
0000
0000
0101
0000
0000
0010
0000
0000
0001
0000
0100
0000
0010
0000
0012
0000
0000
0000
1000
0000
0000
0000
0010
0000
0000
0000
0100
0000
0000
0000
,
0013
0000
0001
0000
1000
0000
0000
1100
0000
0000
0010
0000
0100
0000
0001
0000
1002
0000
0000
0000
0100
0000
0000
0000
0010
0000
0000
0000
0103
0000
0010
0000
,
0001
0000
0010
0000
0100
0000
0000
1000
0000
0000
0010
0000
0100
0000
0001
0000
2010
0000
0000
0000
0100
0000
0000
0000
0001
0000
0000
0000
0100
0000
0000
0000
,
3010
0000
1000
0001
0100
0000
0101
0000
0010
0001
1000
0000
1000
0010
0110
0000
,
0100
0000
0001
0000
0010
0000
0000
0001
0000
0000
0010
0000
0110
0000
0000
0000
1000
0000
0100
0000
0001
0000
0000
0000
1100
0000
0000
0000
0001
0000
0010
0000
,
2000
0000
3010
0001
0200
0000
0310
1000
,
0002
0000
0013
0001
,
0200
0000
1300
0100
,
0002
0000
0103
0010
,
1000
0010
0100
0001
,
0100
0000
0001
0000
,
0010
0000
0100
0000
,
1000
0000
0001
0000
,
1000
0000
0100
0000
,
0001
0000
0100
0000
,
1000
0000
0010
0000
,
0001
0000
0010
0000
,
1000
0000
0001
0000
,
2000
0000
0000
0000
,
0000
0000
0000
0000
,
0000
0000
0000
3000
;

//---------------dance-single - ----------------
#NOTEDATA:;
#CHARTNAME:DIFFICULT;
#CHARTHASH:314751367;
#STEPSTYPE:dance-single;
#BANNER:;
#DESCRIPTION:;
#CHARTSTYLE:;
#DIFFICULTY:Medium;
#METER:13;
#METERF:13.000000;
#LASTSECONDHINT:135.132141;
#RADARVALUES:0.678229,1.052458,0.175837,0.256429,0.487215,648.000000,624.000000,24.000000,35.000000,0.000000,0.000000,0.000000,0.000000,0.000000,0.678229,1.052458,0.175837,0.256429,0.487215,648.000000,624.000000,24.000000,35.000000,0.000000,0.000000,0.000000,0.000000,0.000000;
#CREDIT:YonabearCWY;
#DISPLAYBPM:73.000000:290.000000;
#NOTES:
1000
0100
0100
1000
,
0001
0100
0100
0100
,
0001
0000
0010
0000
0001
1000
0001
1000
,
0000
0100
0010
0000
0010
0001
0000
0001
,
1000
0010
0010
0001
,
0010
1000
1000
0100
,
0001
0001
0001
0100
,
1000
0000
0010
0200
0310
0100
0001
0100
,
0010
0000
1000
0000
0100
0000
0110
0000
0000
0000
0001
0100
0010
0000
1000
0020
,
0000
0100
0130
0001
0010
0100
1000
0001
,
0100
0000
0010
0000
1000
0000
0101
0000
0000
0000
1000
0001
0010
0000
0001
0100
,
0000
0100
0010
0000
1000
0010
1000
0010
1000
0000
0010
0000
0100
0000
0010
0000
,
0001
0000
0010
0000
0100
0000
0010
0000
1001
0000
0100
0010
1000
0000
0010
0200
,
0000
0001
0301
0100
0010
0001
0010
0100
,
0010
0000
1000
0000
0110
0000
0100
0001
1000
0000
0010
0000
1000
0100
0000
1000
,
0001
1000
0001
0000
0010
0100
0000
0100
1000
0000
0100
0000
0001
0000
0100
0000
,
1000
0000
0001
0000
0100
0000
1000
0000
0100
0000
0001
0000
1000
0010
1000
0020
,
0000
0100
0130
0001
0010
0100
0010
1000
,
0010
0000
0100
0000
0010
0000
0001
0000
0010
0000
0100
0000
1000
0000
0001
1000
,
0010
0000
0100
0001
2000
0000
0010
0000
3010
0000
0100
0000
0001
0000
0010
0000
,
1000
0000
0010
0000
0001
0000
1000
0000
0010
0000
0001
0000
0010
0100
0010
0200
,
0000
1000
1300
0100
0010
0100
0001
0010
,
0001
0000
1000
0000
0010
0000
1000
0000
0100
1000
0000
1000
0010
0000
0100
0001
,
0000
0001
0010
0000
0100
0000
1000
0000
0102
0000
0100
0000
0000
0100
0000
0000
,
0013
0000
0001
0000
1000
0000
0010
0000
0200
0000
0000
0000
0310
0000
1000
0010
,
0000
0010
0100
0000
0100
0001
0000
0001
0010
0000
0120
0000
0000
0100
0000
0000
,
0130
1000
0100
0010
2002
0000
0000
3003
,
0010
0100
0010
0100
0001
0000
0100
0000
1002
0000
1000
0000
0000
1000
0000
0000
,
0103
0000
0010
0000
0001
0000
0010
0000
0100
0000
0001
0000
0010
0000
0001
1000
,
0000
1000
0100
0000
0100
0010
0000
0010
0100
0000
2100
0000
0000
0010
0000
0000
,
3001
0000
0100
0000
1000
0000
0100
0000
0110
0000
0100
0000
0001
0000
0000
1000
,
0000
0100
0010
0000
0100
0000
1000
0001
0010
0000
0100
0000
0100
0000
0010
0000
,
0001
0000
1000
0000
1000
0000
0010
0000
0100
0000
1000
0000
0100
0000
0010
0100
,
0000
0010
0001
0000
0010
0100
0000
0010
1000
0000
0010
0000
0100
0000
0001
0000
,
0100
0001
1000
0010
1000
0020
0000
0130
,
0001
0010
1100
0000
0010
0001
1000
1000
,
0010
0100
0100
0001
0010
0100
0100
0100
,
0010
0000
0001
1000
0001
0000
0100
0000
0010
0100
0010
0000
1000
0000
0100
0010
,
0100
0010
0100
0000
1000
0000
0001
0000
0010
0001
0000
0100
0000
0001
0010
0001
,
0000
1000
0010
0000
0100
0000
0001
0000
0021
0000
0000
0000
1000
0000
0000
0000
,
0031
0000
0000
0100
0000
0001
0000
0010
0100
0000
1000
0000
0100
0000
0001
0000
,
0100
0000
1000
0000
0010
0000
0100
0000
0001
0000
1000
0020
0000
0000
0100
0000
,
0000
0001
0000
0000
1030
0000
0010
0000
0001
0000
0020
0000
0000
0001
0000
0000
,
0100
0000
0000
1000
0000
0000
0130
0000
0010
0000
0000
1000
0100
0000
0010
0000
,
0001
0000
0100
0000
0020
0000
0000
0000
2030
0000
0000
0100
0000
0000
0010
0000
,
0000
3100
0000
0001
1000
0000
0001
0010
0002
0000
0000
0000
1003
0000
0010
0000
,
0200
0000
0301
0010
2000
0000
3010
0001
,
1000
0100
1000
0000
0010
0000
0100
0000
0002
0000
0010
0000
0000
0000
0013
0000
,
0001
1000
0001
1000
0100
0000
0010
0000
1100
0000
0000
0000
0101
0000
0010
0001
,
0000
0001
1000
0000
1000
0010
0000
0010
0200
0000
0010
0000
0000
0000
0310
0000
,
1000
0001
1000
0001
1000
0000
0100
0000
0020
0000
0000
0000
1000
0000
0000
0000
,
0001
0000
0000
0000
0130
0000
0010
0000
0001
0000
1001
0000
0000
0100
1000
0000
,
0010
1000
0010
0000
0100
0000
0001
0000
0010
0000
0001
0100
0000
0100
0010
0100
,
0000
0010
1000
0000
1000
0100
0000
0100
0010
0000
0011
0000
0000
0100
0001
0000
,
0010
0001
1000
0010
0001
0010
1000
0001
,
0100
0010
0100
0001
1000
0100
0001
0100
,
1000
0000
0010
0000
0100
0001
0100
0000
0001
0000
0010
0000
0010
0000
0001
0000
,
0100
0000
0010
0000
1000
0100
1000
0000
0010
0000
0100
0000
0100
0000
0001
0000
,
0100
0000
0010
0000
1000
0001
1000
0000
0010
0000
0001
0000
0010
0000
0100
0000
,
0010
0000
0100
0000
1000
0100
0010
0100
0010
0000
0100
0000
0001
0000
0010
0000
,
0001
0000
1000
0000
0100
0010
0001
0010
0001
0000
0010
0000
0100
0000
0010
0000
,
0001
0000
1000
0000
0010
1000
0100
1000
0100
0000
1000
0000
0001
0000
0010
0000
,
0100
0000
0010
0000
0001
1000
0001
0000
0100
0000
0010
0000
1000
0100
1000
0000
,
0001
0000
0010
0100
0010
0100
0010
0100
2000
0010
0000
3020
0100
0000
0230
0001
,
0000
0000
0301
0000
0010
0000
0000
0001
0000
0000
0010
0000
0000
0100
0000
0000
1000
0000
0100
0000
0000
0000
0001
0000
0100
0000
0000
0000
1000
0000
0010
0000
,
0000
0000
0001
0000
0010
0000
0000
0110
0000
0000
1010
0000
0000
0101
0000
0000
1001
0000
0100
0000
0010
0000
0000
0100
0000
0000
0010
0000
0100
0000
0000
0000
,
0001
0000
0010
0000
0001
0000
0000
1000
0000
0000
0100
0000
0010
0000
0000
0000
0100
0000
1000
0000
1001
0000
0000
0011
0000
0000
0001
0100
0001
0000
0000
0000
,
0010
0000
0100
0000
0101
0000
0000
0110
0000
0000
1000
0010
1000
0000
0000
0000
0010
0000
0100
0000
0002
0000
0000
0000
0103
0000
0010
0000
2000
0000
0000
0000
,
3100
0010
0002
0000
0013
0100
2000
0000
3010
1000
0002
0000
0103
0001
0020
0000
,
0130
1000
0100
0010
0001
0100
0001
1000
,
0010
1000
0010
1000
,
0001
0100
0001
0010
,
0100
1000
0010
0001
,
0010
0100
0010
0100
,
1000
0001
1000
0000
,
0100
0000
0001
0000
,
0010
0100
0010
0000
,
0001
0000
0010
0000
,
1000
0001
1000
0000
,
0010
0000
0001
0000
,
0100
0001
0100
0000
,
0001
1000
0001
1000
,
0002
0000
0000
0000
,
0000
0000
0000
0000
,
0000
0000
0003
0000
;

//---------------dance-single - ----------------
#NOTEDATA:;
#CHARTNAME:EXPERT;
#CHARTHASH:422979944;
#STEPSTYPE:dance-single;
#BANNER:;
#DESCRIPTION:;
#CHARTSTYLE:;
#DIFFICULTY:Hard;
#METER:16;
#METERF:16.000000;
#LASTSECONDHINT:135.132141;
#RADARVALUES:0.808013,1.021503,0.131878,0.380980,1.058686,772.000000,754.000000,18.000000,52.000000,0.000000,0.000000,0.000000,0.000000,0.000000,0.808013,1.021503,0.131878,0.380980,1.058686,772.000000,754.000000,18.000000,52.000000,0.000000,0.000000,0.000000,0.000000,0.000000;
#CREDIT:YonabearCWY;
#DISPLAYBPM:73.000000:290.000000;
#NOTES:
1000
0010
0010
0100
,
1000
1000
0100
0010
,
0100
0000
0001
0000
0010
0001
1000
0001
,
0000
0001
0100
0000
0100
0010
0000
0010
,
1000
0100
0100
0001
,
0100
0100
0010
0100
,
1000
0000
1000
0000
0001
1000
0010
0100
,
0000
0000
0001
0000
1000
0000
0002
0000
1003
0000
0010
0000
0100
0000
0001
0100
,
0000
0010
0000
0000
1100
0000
0100
0010
0100
0000
0010
0000
0011
0000
1000
0001
,
0000
0020
0000
0000
0031
0010
1000
0010
0001
0000
0100
0000
0010
0000
1000
0100
,
0000
0010
0000
0000
0101
0000
0010
1000
0010
0000
0100
0000
0110
0000
1000
0001
,
0000
0100
0000
1000
0100
0001
0100
1000
0100
0000
0010
0000
1010
0000
0001
1000
,
0000
0000
0100
0000
0000
0000
0000
0000
1001
0000
0000
0000
0100
0000
0010
0000
0200
0000
0000
0000
0000
0000
0000
0301
1000
0000
0000
0000
1000
0000
0001
0000
,
0000
0010
0000
0001
0100
0000
0010
1000
0010
0100
0010
0000
0101
0000
1000
0010
,
1000
0000
0000
0000
0010
0000
0000
0000
0110
0000
0000
0000
0001
0000
1000
0000
0002
0000
0000
0000
0000
0000
0000
0103
0010
0000
0000
0000
0100
0000
0001
0000
,
0010
0001
0010
0100
1000
0100
1000
0001
0100
0000
0010
0000
2000
0000
0000
3001
,
0000
0000
0100
0000
0000
0000
0001
0000
0020
0000
0000
0000
0000
0000
0000
0000
0031
0000
0000
0000
1000
0000
0000
1000
0100
0000
0000
0000
0010
0000
0100
0000
,
0000
0100
0001
0000
0100
0000
0010
0000
0001
0000
1000
0000
0020
0000
0000
0130
,
0000
0000
0010
0000
0000
0000
1000
0000
0002
0000
0000
0000
0000
0000
0000
0000
0013
0000
0000
0000
0100
0000
0000
0100
0010
0000
0000
0000
0100
0000
1000
0000
,
0000
0000
0010
0000
1000
0010
0001
0010
1000
0000
0010
0000
0210
0000
0000
0301
,
0000
0000
0110
0000
0000
0000
0010
0000
2000
0000
0000
0000
0000
0000
0000
0000
3100
0000
0000
0000
1000
0000
0000
0001
0100
0000
0000
0000
0001
0000
0010
0000
,
0000
0010
0100
0000
1000
0000
0000
0100
0010
0000
0001
0000
1002
0000
0000
0013
,
0000
0101
0000
0100
0010
0000
1000
0010
1000
0010
0100
0000
0001
0000
0010
0100
,
0010
0000
0100
0000
1000
0001
1000
0001
0020
0000
0001
0000
0000
0001
0000
0000
,
0130
0000
0000
1000
0000
1000
0010
0000
0100
0000
0001
0000
0010
0000
0001
1000
,
0000
1000
0100
0000
0100
0001
0000
0001
0200
0000
1000
0000
0000
1000
0000
0000
,
0310
0000
0100
0000
0001
0000
0100
0000
1000
0010
0000
0010
0100
0000
0100
0001
,
0000
0001
0010
0001
0000
1000
0000
0001
0200
0000
1000
0000
0000
0010
0000
0000
,
0301
0000
0000
0010
0000
0001
0010
0000
0100
0000
0010
0000
1000
0000
0010
0100
,
0000
0100
1000
0000
1000
0001
0000
0001
0020
0000
0001
0000
0000
1000
0000
0000
,
0130
0000
0010
0000
0001
0000
1000
0000
0001
0000
0100
0000
0020
0000
0000
1030
,
0000
0001
0100
0000
0010
0000
1000
0001
2000
0000
0100
0000
0100
0000
3020
0000
,
1000
0000
1000
0000
0230
0000
0001
0000
1300
0000
0100
0000
0010
0000
0100
0001
,
0000
1000
0010
0000
0100
0000
0001
0010
0002
1000
0000
0010
0000
0013
0100
0000
,
2100
0000
0001
0000
0100
0000
3001
1000
0200
0000
1000
0000
0310
0100
1000
0100
,
0001
0100
1000
0000
0110
0000
0001
0100
1000
0200
0000
0010
0000
0001
0000
0310
,
0100
0010
2000
0000
0001
0000
3001
0000
0010
0001
0200
0000
0010
0000
0310
0000
,
0001
0100
0020
0000
1000
0000
1030
0100
0010
0001
0010
0000
0101
0000
1000
0001
,
0000
0010
0100
0010
0100
1000
0001
1000
0001
0010
0000
0100
0000
0010
0001
0010
,
0000
0100
1000
0000
1001
0000
0100
0010
0100
0000
1000
0000
0010
0000
0001
0000
,
0010
0000
2000
0010
0000
0010
0000
3010
0000
0100
0001
0000
0010
0000
0001
1000
,
0000
1000
0100
0000
0010
0000
0001
0200
0000
0000
0320
0000
0000
1000
0000
0000
,
0001
0000
0000
1030
0000
0001
0100
0001
0000
0100
0010
0000
1000
0000
0010
0100
,
0000
0100
0001
0000
0100
0000
0010
0100
1000
0000
0200
0001
0000
0001
0000
0301
,
0000
0010
0001
0000
1000
0100
1000
0000
0002
0000
0203
0010
0000
0010
0000
0310
,
0000
1000
0001
1000
0000
0001
0010
0100
1000
0100
0010
0000
0001
0000
1000
0100
,
0010
0100
1000
0000
0100
0000
0001
0100
0020
0001
0000
0001
0000
0031
1000
0001
,
0000
0010
0100
0000
0010
0000
0100
1000
0001
0010
0001
0010
0002
0000
1000
0000
,
1003
0100
1000
0100
2000
0000
0010
0000
3010
0100
0010
0100
0010
0000
0100
1000
,
0000
0100
0001
0000
0010
0100
0000
1000
0001
0010
0100
0010
0200
0000
0010
0000
,
1300
0100
1000
0100
0002
0000
0100
0000
1003
0010
1000
0010
0001
0000
0100
0000
,
0000
0010
1000
0010
0100
0000
0000
0010
0001
0010
0100
0010
0200
0000
0001
0000
,
1300
0100
1000
0100
0020
0000
0100
0000
0031
0010
1000
0010
0002
0000
0100
0000
,
1003
0100
0001
0100
1000
0100
0000
0010
0001
0010
0100
0010
0001
1000
0002
0000
,
0000
1003
0100
0010
0001
0010
0100
0000
0001
1000
0100
0001
0100
1000
0200
0000
,
0000
0310
0100
0010
0001
0010
0100
1000
0001
1000
0000
0100
0010
0100
0001
0000
,
0010
0100
0000
1000
0001
1000
0010
0000
0000
0100
0010
0001
0010
0100
0010
1000
,
0000
1000
0100
0000
0010
0000
0001
0000
0100
0001
0000
0010
0100
1000
0100
0000
,
0010
0001
0000
1000
0100
0001
0100
0000
0000
1000
0001
0010
0001
0010
0100
0010
,
0000
1000
0001
1000
0010
0000
0100
0000
1000
0000
0010
1000
0001
1000
0100
0000
,
0010
0001
1000
0001
0100
0000
0010
0000
1000
0000
0001
0100
0001
1000
0010
0000
,
1000
0100
0010
0001
0100
0000
1000
0000
0100
0000
0001
0100
0010
0100
0001
0000
,
0010
1000
0100
1000
0001
0000
0010
0000
0100
0000
1000
0100
0010
0001
0010
0001
,
0100
0000
0010
0000
1000
0000
0100
0000
1000
0000
0100
0000
0010
0000
0001
0000
2000
0000
0100
0000
0000
0100
0000
0000
3100
0000
0010
0001
0100
0000
0010
0000
,
0200
0000
0000
0000
1300
0000
0100
0010
0000
0010
1000
0000
0010
0100
0000
0100
0002
0000
0010
0000
0000
0010
0000
0000
0013
0000
0001
0000
0100
0000
0001
0000
,
2000
0000
0000
0000
0100
0000
0000
0000
0010
0000
0000
0000
0100
0000
0100
0000
3020
0000
1000
0000
0000
0001
0000
0000
1000
0000
0000
0031
0000
0100
0010
0000
,
0100
0000
0001
0000
0010
0000
0100
0010
0000
0010
0001
0000
1000
0010
0000
0010
0200
0000
0301
0010
0002
0000
0000
1000
0000
0000
0000
0000
1000
0000
0000
2003
,
0000
0000
0000
0000
0100
0000
0000
0100
0000
3100
0010
0000
0011
0000
0000
0000
0100
0000
0001
0000
0100
0000
0000
0001
0000
0000
0010
0000
0100
0000
0000
1000
,
0000
1000
0010
0000
0100
0000
0001
0000
0010
0000
0001
0000
1000
0000
0000
0010
0000
0010
0100
0000
0001
0000
0000
0001
0000
0100
0001
0000
1000
0000
0010
0100
,
0001
0010
0100
0010
0001
1000
0010
1000
,
0001
0100
1000
0001
,
1000
0100
0001
1000
,
0010
0001
1000
0001
,
0010
1000
0010
0100
,
1000
0010
0000
0100
,
0001
0100
0000
0001
,
0010
0001
0000
1000
,
0001
1000
0000
0010
,
0100
0010
0000
1000
,
0001
0010
0000
0100
,
1000
0001
1000
0100
,
0010
0001
1000
0001
,
2002
0000
0000
0000
,
0000
0000
0000
0000
,
0000
0000
3003
0000
;

//---------------dance-single - ----------------
#NOTEDATA:;
#CHARTNAME:CHALLENGE;
#CHARTHASH:4093366792;
#STEPSTYPE:dance-single;
#BANNER:;
#DESCRIPTION:;
#CHARTSTYLE:;
#DIFFICULTY:Challenge;
#METER:17;
#METERF:17.000000;
#LASTSECONDHINT:135.132141;
#RADARVALUES:0.847786,1.238186,0.293062,0.102572,0.992747,810.000000,770.000000,40.000000,14.000000,136.000000,0.000000,0.000000,0.000000,0.000000,0.847786,1.238186,0.293062,0.102572,0.992747,810.000000,770.000000,40.000000,14.000000,136.000000,0.000000,0.000000,0.000000,0.000000;
#CREDIT:YonabearCWY;
#DISPLAYBPM:73.000000:290.000000;
#NOTES:
1000
0001
1000
0000
0010
0000
0100
0001
,
0100
0000
0001
0000
0010
0100
0010
0000
,
0100
0000
0000
0000
1000
0000
0000
0000
0010
0100
0010
0000
1000
0000
0010
0000
,
0000
0100
0001
0000
0010
0100
0000
0100
,
1000
0100
0010
0000
0100
0000
0010
0001
,
1000
0000
0001
0000
0100
0001
0010
0000
,
0001
0000
1000
0000
0010
0100
0001
0100
,
0000
0000
0010
0000
1000
0000
MMMM
0000
1000
0000
0001
0000
1000
0000
0001
0100
,
0000
0000
0010
0000
0000
0000
0000
0000
0011
0000
0000
0000
0000
0000
0000
0000
MMMM
0000
0000
0000
0000
0000
0000
1000
0010
0000
0000
0000
0100
0000
0001
0000
,
0000
0010
0000
0001
1000
0000
0100
0010
0100
0000
0010
0000
0001
0000
0100
0010
,
0000
0000
1000
0000
0000
0000
0000
0000
1010
0000
0000
0000
0000
0000
0000
0000
MMMM
0000
0000
0000
0000
0000
0000
0001
0100
0000
0000
0000
0010
0000
1000
0000
,
0000
0100
0010
0000
0001
1000
0100
0010
0100
0000
1000
0000
0001
0000
0010
0001
,
0010
0000
0000
0000
0001
0000
0000
0000
0101
0000
0000
0000
0000
0000
0000
0000
MMMM
0000
0000
0000
0000
0000
0010
0100
0010
0000
0000
0000
0100
0000
1000
0000
,
0000
1000
0001
0000
1000
0010
0100
0010
0001
0000
0010
0000
0100
0000
0001
1000
,
0001
0000
0000
0000
1000
0000
0000
0000
1100
0000
0000
0000
0000
0000
0000
0000
MMMM
0000
0000
0000
0000
0000
0001
1000
0001
0000
0100
0000
0001
0000
0010
0000
,
0000
0010
0100
0000
1000
0100
0010
0001
0010
0000
0100
0000
1100
0000
0001
0100
,
1000
0000
0100
0000
0001
0000
0000
0000
0110
0000
0000
0000
0100
0000
0000
0000
MMMM
0000
0000
0000
0000
0000
0010
1000
0010
0000
0000
0000
0100
0000
0001
0000
,
0000
0001
0010
0000
0100
1000
0001
1000
0010
0000
0100
0000
0101
0000
1000
0100
,
0001
0000
0100
0000
1000
0000
0000
0000
1001
0000
0000
0000
0001
0000
0000
0000
MMMM
0000
0000
0000
0000
0100
0010
0100
0010
0000
0000
0000
1000
0000
0100
0000
,
0000
0100
0010
0001
0100
0001
1000
0001
1000
0000
0010
0000
0110
0000
0001
0010
,
1000
0000
0010
0000
0001
0000
0000
0000
1010
0000
0000
0000
1000
0000
0000
0000
MMMM
0000
0000
0000
1000
0001
1000
0001
1000
0000
0000
0000
0001
0000
0100
0000
,
0000
0100
0010
0000
1000
0001
0100
0001
0010
0001
0100
0000
0101
0000
1000
0010
,
0001
0010
1000
0000
0210
0000
0000
0000
0301
0010
0000
0010
0100
0000
0100
0010
,
0000
0010
1000
0000
1000
0010
0001
0010
0200
0000
1000
0000
0000
1000
0000
0000
,
1300
0000
0010
0000
0200
0000
0001
0000
0000
0001
0000
0000
0301
0000
1000
0001
,
0000
0001
0010
0000
0010
0100
0000
0100
0020
0000
0100
0000
0000
0001
0000
0000
,
1030
0000
0010
0000
0001
0000
0100
0000
0020
0000
0000
0001
0000
0000
1000
0000
,
0000
0001
0030
1000
0010
0000
0100
0001
0020
0000
1000
0000
0000
1000
0000
0000
,
1030
0000
0010
0000
0100
0000
1000
0000
0002
0000
0000
1000
0000
0000
0010
0000
,
0013
0100
0010
0000
0100
1000
0100
0001
0200
0000
0010
0000
0000
0010
0000
0000
,
0310
0000
0100
0000
1000
0000
0001
0000
0100
0000
0001
0000
1000
0000
0010
1000
,
0100
1000
0100
0000
0010
0000
0001
0100
0001
0000
0010
0000
0011
0000
1000
0000
,
0010
0000
1010
0000
0001
1000
0001
0000
0100
0000
0010
0000
1000
0010
0100
0010
,
0000
0100
0001
0000
1000
0000
0001
0010
0001
1000
0000
1100
0000
0100
0010
0000
,
0011
0000
0001
0000
1001
0000
1000
0010
0110
0000
0001
0000
0100
1000
0100
0010
,
0100
0010
0001
0000
0010
0000
0100
0001
1000
1001
0000
0011
0000
0101
0000
0001
,
1000
0000
0100
0010
0011
0000
0010
1000
1010
0000
0001
0000
0100
0000
0001
1000
,
0000
1000
0100
0000
0010
0001
0010
0100
0010
0100
1000
0000
0001
0000
0100
0010
,
0000
0010
1000
0010
0100
0010
0001
0010
0100
0101
0000
1001
0000
0001
0010
0000
,
0010
0001
0101
0000
0110
0000
0001
1000
1001
0000
0100
0000
0010
0000
MMMM
0000
,
1001
0000
0001
0010
0000
0001
0000
0100
0001
0000
0010
0100
0010
0000
0100
1000
,
0001
1000
0010
0000
0100
0000
0001
1000
0001
0000
1000
0010
0000
0010
0100
0000
,
0100
0001
0000
0001
0010
0000
0010
0100
0000
0100
1000
0000
0010
0000
1000
0010
,
0001
0010
1000
0000
0110
0000
MMMM
0000
1001
0000
1000
0100
0000
0010
0000
0100
,
0010
0000
0001
1000
0001
0000
1000
0000
0010
1000
0010
0000
0100
0000
0001
0010
,
0001
0100
0001
0000
1000
0000
0100
0010
0100
0000
0010
0000
0001
0000
0100
0010
,
0100
1000
0100
0010
0100
0001
0100
0001
0010
0100
0000
1000
0000
0100
0010
0100
,
0000
0010
0001
0000
1000
0001
0000
0001
0010
0000
0010
0000
MMMM
0000
1000
0000
,
0100
0000
0000
0000
0010
0000
0000
0000
0001
0000
0000
0000
1000
0000
0000
0000
1000
0000
0000
0000
MMMM
0000
0000
0000
0001
0100
0001
0000
0010
0000
0001
0000
,
0000
1000
0001
0000
0001
0100
0000
0100
0010
0000
0010
0000
MMMM
0000
0001
0000
,
0010
0000
0100
0000
1000
0000
0010
0000
0100
0001
0000
0001
0010
0000
0010
1000
,
0000
1000
0010
0000
0010
0001
0000
0001
0100
0000
0100
0000
MMMM
0000
1000
0000
,
0001
0000
0000
0000
0010
0000
0000
0000
0100
0000
0000
0000
0001
0000
0000
0000
0001
0000
0000
0000
MMMM
0000
0000
0000
1000
0010
1000
0000
0100
0000
0010
0000
,
0000
0010
0001
0000
0001
1000
0000
1000
0100
0000
0100
0000
MMMM
0000
0001
0000
,
1000
0000
0100
0000
0010
0000
1000
0000
0010
0001
0000
0001
0100
0001
0100
0000
,
0010
0100
0000
0010
1000
0010
1000
0000
MMMM
0000
1000
0001
0010
0001
0100
0000
,
MMMM
0000
0001
1000
0100
0010
0100
0000
MMMM
0000
0010
0001
0010
0100
0010
0000
,
MMMM
0000
0100
1000
0100
0001
0100
0000
MMMM
0000
1000
0010
0001
0010
1000
0000
,
MMMM
0000
0001
0010
1000
0010
0001
0000
MMMM
0000
1000
0100
0001
0100
1000
0000
,
MMMM
0000
0001
0100
1000
0100
0001
0000
MMMM
0000
1000
0100
0100
0010
0001
0000
,
M1M1
0000
0100
0010
0010
1000
0001
0000
M11M
0000
0010
0100
0100
1000
0100
0000
,
11MM
0000
0010
0001
0001
0100
0001
0000
1MM1
0000
1000
0010
0001
0010
0010
0000
,
M11M
0000
0100
0001
0100
1000
1000
0000
1M1M
0000
0001
0100
1000
0100
0100
0010
,
0100
0000
0001
0000
0010
0000
0100
0000
1000
0000
0001
0000
1000
0000
0200
0000
0010
0000
0010
0000
0000
0010
0000
0000
0310
0001
1000
0001
0100
0000
0010
0000
,
0100
0000
0000
0000
1001
0000
0100
0010
0000
0010
0100
0000
0100
0001
0000
0001
0020
0000
0100
0000
0000
0100
0000
0000
0130
0000
1000
0000
0010
0000
0100
0000
,
0001
0000
0010
0001
0100
0000
0001
1000
0000
1000
0100
0010
0100
0000
0010
0001
2000
0000
0010
0000
0000
0001
0000
0000
3010
1000
0100
0010
0100
0000
1000
0000
,
0010
0000
0000
0000
1001
0000
0010
0100
0000
0100
0010
0000
0010
1000
0000
1000
0200
0000
0010
0000
0000
0010
0000
0000
0310
0000
0001
0010
1000
0000
0000
0000
,
MMM0
0000
0001
0100
1000
0000
0000
0000
M0MM
0000
0100
0010
1000
0000
0000
0000
MMM0
0000
0001
0100
0010
0000
0000
0000
0MMM
0000
1000
0100
0001
0000
0000
0000
,
0MMM
0000
1000
0010
0001
0000
0000
0000
MMM0
0000
0001
0010
0100
0000
0000
0000
M0MM
0000
0100
0010
1000
0000
0000
0000
0MMM
0000
1000
0000
0100
0000
0010
0000
,
0001
0100
1000
0100
1000
0100
0010
0100
,
0010
1000
0010
1000
0100
1000
0100
0010
,
0001
0010
0001
0100
0001
1000
0001
1000
,
0100
0010
0100
0010
0001
0010
0100
0010
,
0100
1000
0100
1000
0100
0001
0100
0010
,
0100
0001
0100
0000
0010
0000
1000
0000
,
0010
0001
0010
0001
,
0010
0001
1000
0000
0010
0000
1000
0000
,
0010
0100
0010
0100
,
0001
0100
1000
0000
0100
0000
0001
0000
,
0100
1000
0001
0010
,
0100
1000
0100
1000
0010
0000
1000
0000
,
0001
0010
1000
0010
,
2002
0000
0000
0000
,
0000
0000
0000
0000
,
0000
0000
3003
0000
;

//---------------dance-single - ----------------
#NOTEDATA:;
#CHARTNAME:BEGINNER;
#CHARTHASH:3851438966;
#STEPSTYPE:dance-single;
#BANNER:;
#DESCRIPTION:;
#CHARTSTYLE:;
#DIFFICULTY:Beginner;
#METER:7;
#METERF:7.000000;
#LASTSECONDHINT:7.480000;
#RADARVALUES:0.249102,0.403601,0.227123,0.293062,0.000000,238.000000,207.000000,31.000000,40.000000,0.000000,0.000000,0.000000,0.000000,0.000000,0.249102,0.403601,0.227123,0.293062,0.000000,238.000000,207.000000,31.000000,40.000000,0.000000,0.000000,0.000000,0.000000,0.000000;
#CREDIT:YonabearCWY;
#DISPLAYBPM:73.000000:290.000000;
#NOTES:
// measure 0
1000
0000
0000
1000
,  // measure 1
0000
0000
1000
0000
,  // measure 2
0001
0000
0001
0000
,  // measure 3
0001
0000
0001
0000
,  // measure 4
0001
0000
0000
0001
,  // measure 5
0000
0000
0001
0000
,  // measure 6
1000
0000
1000
0000
,  // measure 7
1000
0000
0000
2002
3003
0000
0100
0000
,  // measure 8
0000
0100
0000
0100
,  // measure 9
0100
0100
0000
0010
,  // measure 10
0000
0010
0000
0010
,  // measure 11
0010
0010
0000
1000
,  // measure 12
1000
0000
1000
1000
,  // measure 13
0001
0001
0000
0001
,  // measure 14
0001
0000
1000
1000
,  // measure 15
0001
0001
0000
0110
,  // measure 16
0000
0110
0000
1001
,  // measure 17
1001
0100
0000
0110
,  // measure 18
0000
0110
0000
1001
,  // measure 19
1001
0010
0000
1001
,  // measure 20
0000
1001
0000
0110
,  // measure 21
0110
1000
0000
1001
,  // measure 22
0000
0000
1001
0000
0110
0000
0000
0100
,  // measure 23
0000
0100
0200
0300
,  // measure 24
0001
0100
1000
0000
,  // measure 25
1000
0100
0002
0003
,  // measure 26
1000
0001
0020
0030
,  // measure 27
0001
1000
0200
0300
,  // measure 28
1000
0010
0002
0003
,  // measure 29
0001
0010
2000
3000
,  // measure 30
0100
1000
2002
0000
,  // measure 31
0000
3003
0100
0100
,  // measure 32
0010
0100
0010
0010
,  // measure 33
0100
0010
0100
0000
,  // measure 34
0100
0000
0100
0000
,  // measure 35
0100
0100
0100
0001
,  // measure 36
1000
0001
0001
1000
,  // measure 37
0001
1000
1000
0010
,  // measure 38
0000
0010
0000
0100
,  // measure 39
0000
0100
2002
0000
,  // measure 40
0000
3003
0010
0010
,  // measure 41
0010
0010
0220
0000
,  // measure 42
0000
0330
0100
0100
,  // measure 43
0100
0100
2002
0000
,  // measure 44
0000
3003
0010
0010
,  // measure 45
0010
0010
2002
0000
,  // measure 46
0000
0000
3003
0000
0100
0000
0000
0100
,  // measure 47
0000
0010
0010
0000
,  // measure 48
0100
0001
0010
0000
,  // measure 49
0001
1000
0100
1000
,  // measure 50
0000
0010
0100
0001
,  // measure 51
0010
0000
0010
0100
,  // measure 52
1000
0000
0100
0010
,  // measure 53
0001
0100
0000
0010
,  // measure 54
1000
0010
0000
0100
,  // measure 55
0001
0100
1001
0000
,  // measure 56
1001
0000
0020
0000
,  // measure 57
0130
0100
0110
0000
,  // measure 58
0110
0000
0010
0010
,  // measure 59
0200
0000
0310
0000
,  // measure 60
1000
0010
1010
0000
,  // measure 61
0001
0100
0101
0000
,  // measure 62
1000
0001
1001
0000
,  // measure 63
0010
0100
0220
0330
,  // measure 64
1000
0100
0010
0001
0200
0000
0300
0000
,  // measure 65
0010
0010
0100
0100
2002
0000
3003
0000
,  // measure 66
0100
0010
0001
1000
0020
0000
0030
0000
,  // measure 67
0100
0100
0010
0010
,  // measure 68
1000
1000
0001
0001
,  // measure 69
0020
0000
0230
0000
,  // measure 70
0320
0000
0000
0000
,  // measure 71
0032
0000
0000
0000
,  // measure 72
2003
0000
0000
0000
,  // measure 73
3200
0000
0000
0000
,  // measure 74
0302
0000
0000
0000
,  // measure 75
0000
0000
0000
0000
,  // measure 76
0203
0000
0000
0000
,  // measure 77
0000
0000
0000
0000
,  // measure 78
2300
0000
0000
0000
,  // measure 79
3200
0000
0000
0000
,  // measure 80
0302
0000
0000
0000
,  // measure 81
0203
0000
0000
0300
,  // measure 82
2002
0000
0000
0000
,  // measure 83
0000
0000
0000
0000
,  // measure 84
0000
0000
0000
3003
;
