#TITLE:ADVANCE;
#SUBTITLE:;
#ARTIST:SLAKE;
#TITLETRANSLIT:;
#SUBTITLETRANSLIT:;
#ARTISTTRANSLIT:;
#GENRE:ELECTRONICA;
#CREDIT:YonabearCWY;
#BANNER:ADVANCE.png;
#BACKGROUND:ADVANCE-bg.png;
#LYRICSPATH:;
#CDTITLE:Beatmania IIDX.png;
#MUSIC:ADVANCE.ogg;
#OFFSET:-9.680000;
#SAMPLESTART:72.108009;
#SAMPLELENGTH:16.650002;
#SELECTABLE:YES;
#DISPLAYBPM:50.000000:100.000000;
#BPMS:0.000000=50.000000
,8.000000=100.000000
,47.500000=50.000000
,55.000000=100.000000
,87.500000=50.000000
,93.500000=100.000000
,97.500000=200.000000
,105.500000=400.000000
,139.500000=100.000000
,155.000000=50.000000
;
#STOPS:15.250000=0.305000,
55.000000=0.305000,
146.750000=0.305000
;
#BGCHANGES:87.500=bubble2.mp4=0.500=0=1=1=StretchRewind====,
91.500=fireworks2.mp4=0.500=0=1=1=StretchRewind====,
93.500=fireworks2.mp4=1.000=0=0=1=====,
97.500=vortex1.mp4=1.400=0=1=1=StretchRewind====,
105.500=vortex1.mp4=2.000=0=0=1=====,
139.500=pills3.mp4=1.000=0=0=1=====,
146.750=pills3.mp4=0.100=0=0=1=====,
147.000=amoeba1.mp4=1.000=0=1=1=StretchRewind====,
155.000=fireworks2.mp4=0.500=0=1=1=StretchRewind====,
159.000=bubble2.mp4=0.500=0=1=1=StretchRewind====,
162.875=ADVANCE-bg.png=1.000=0=0=1=====,
99999=-nosongbg-=1.000=0=0=0 // don't automatically add -songbackground-
;
#KEYSOUNDS:;
#ATTACKS:;

//---------------dance-single - ----------------
#NOTES:
     dance-single:
     BEGINNER:
     Beginner:
     2:
     0.000000,0.000000,0.000000,0.000000,0.000000,0.000000,0.000000,0.000000,0.000000,0.000000,0.000000,0.000000,0.000000,0.000000,0.000000,0.000000,0.000000,0.000000,0.000000,0.000000,0.000000,0.000000:
1000
0000
1000
0000
,
0001
0000
0001
0000
,
1000
1000
1000
0000
,
1000
0000
1000
0000
1000
0000
0000
0001
,
0000
0001
0000
0001
0000
0000
0000
0001
,
0000
0001
0000
0001
0000
0000
0000
1000
,
0000
1000
0000
1000
0000
0000
0000
1001
,
0000
0000
0000
1001
0000
0000
0000
0010
,
0000
0010
0000
0010
0000
0000
0000
0100
,
0000
0100
0000
0100
0000
0000
0000
0010
,
0000
0010
0000
0010
0000
0000
0000
0110
,
0000
0000
0000
0110
0000
0000
0000
1000
,
0000
0000
0000
1000
0000
0000
0000
0001
,
0000
0000
0000
0001
0000
0000
0000
0100
,
0000
0001
0000
0100
0000
0000
0000
0010
,
0000
1000
0000
0010
0000
0000
0000
1000
,
0000
0001
0000
1000
0000
0000
0000
0001
,
0000
1000
0000
0001
0000
0000
0000
0010
,
0000
0001
0000
0010
0000
0000
0000
0100
,
0000
1000
0000
0100
0000
0000
0000
0010
,
0000
0100
0000
0010
0000
0000
0000
0100
,
0000
0010
0000
0100
0000
1001
0000
0220
,
0000
0330
0000
2200
0000
3300
0000
0022
,
0000
0033
0000
1000
0000
0000
0000
0001
,
0000
0000
0000
2002
0000
0000
0000
0000
,
0000
0000
0000
0000
,
0000
0000
0000
0000
,
0000
0000
0000
0000
,
0000
0000
0000
0000
,
0000
0000
0000
0000
,
0000
0000
0000
0000
,
0000
0000
0000
0000
,
0000
0000
0000
0000
,
0000
0000
0000
0000
,
0000
0000
0000
0000
0000
3003
0000
0010
,
0000
0000
0000
0010
0000
0000
0000
0010
,
0000
0000
0000
0010
0000
0000
0100
0000
,
0000
0100
0000
0100
,
0000
0100
0000
2000
,
3000
0002
0003
2000
,
3000
2002
3003
0000
;

//---------------dance-double - ----------------
#NOTES:
     dance-double:
     BASIC:
     Easy:
     6:
     0.000000,0.000000,0.000000,0.000000,0.000000,0.000000,0.000000,0.000000,0.000000,0.000000,0.000000,0.000000,0.000000,0.000000,0.000000,0.000000,0.000000,0.000000,0.000000,0.000000,0.000000,0.000000:
10000000
10000000
01000000
01000000
,
00010000
00010000
00001000
00001000
,
00000110
00000010
00000100
00000010
,
00011000
00001000
00010000
00001000
,
00000000
01000000
00000000
00000000
00000000
01000000
00100000
00000000
,
00000000
00100000
00000000
00100000
00000000
10010000
00000000
00000000
,
00000000
00001000
00000000
00000000
00000000
00001000
00010000
00000000
,
00000000
00001000
00000000
00000100
00000000
00000010
00000000
00001001
,
00000000
00000010
00000000
00000000
00000000
00000010
00000100
00000010
,
00000000
00001000
00000000
00000100
00000000
00010000
00000000
00000000
,
00000000
01000000
00000000
00000000
00000000
01000000
00100000
01000000
,
00000000
10000000
00000000
01000000
00000000
00100000
00000000
00021000
,
00001000
00001000
00000000
00100000
00100000
00130000
00000000
00012000
,
00010000
00010000
00000000
00000100
00000100
00003100
00000000
00000000
,
00100000
00010000
00000000
10000000
00000000
01100000
00000000
00000000
,
00001000
00010000
00000000
00000100
00000000
00000110
00000000
00000000
,
00001000
00000001
00000000
00001000
00000000
00001010
00000000
00010000
,
00000000
00001000
00000000
00100000
00000000
01000000
00000000
00000000
,
10000000
00100000
00000000
01000000
00010000
01000000
00000000
00000000
,
00001000
00010000
00000000
00000100
00010000
00000100
00000000
00000000
,
00001000
00000010
00000000
00000100
00000001
00000100
00000000
00000001
,
00000000
00001000
00000000
00000100
00000000
00010000
00000000
01200000
,
10000000
00000000
10300000
02000000
00100000
00000000
03100000
00020000
,
00100000
01000000
00130000
00010000
00000000
00100000
00000000
00001000
,
00000000
00010000
00000000
00022000
00000000
00000000
00000000
00000000
,
00000000
00000000
00000000
00000000
,
00000000
00000000
00000000
00000000
,
00000000
00000000
00000000
00000000
,
00000000
00000000
00000000
00000000
,
00000000
00000000
00000000
00000000
,
00000000
00000000
00000000
00000000
,
00000000
00000000
00000000
00000000
,
00000000
00000000
00000000
00000000
,
00000000
00000000
00000000
00000000
,
00000000
00000000
00000000
00000000
00000000
00033000
00000000
00010000
,
00001000
00010000
00000000
00001000
00000000
00100000
00000000
01000000
,
00010000
01000000
00000000
00100000
00000000
10010000
00100000
01000000
,
00100000
00000000
01000000
00000000
00001000
00000000
00010000
00001000
,
00010000
00000100
00000010
00001002
,
00000000
00001003
00000000
00000000
00000000
00000000
00000000
00000000
00021000
00000000
00000000
00000000
00000000
00000000
00000000
00000000
00000000
00031000
00000000
00000000
00000000
00000000
00000000
00000000
20010000
00000000
00000000
00000000
00000000
00000000
00000000
00000000
,
00000000
30010000
00000000
00000000
00000000
00000000
00000000
00000000
00012000
00000000
00000000
00000000
00000000
00000000
00000000
00000000
00000000
00013000
00000000
00000000
00000000
00000000
00000000
00000000
00000000
00000000
00000000
00000000
00000000
00000000
00000000
00000000
;

//---------------dance-double - ----------------
#NOTES:
     dance-double:
     DIFFICULT:
     Medium:
     8:
     0.000000,0.000000,0.000000,0.000000,0.000000,0.000000,0.000000,0.000000,0.000000,0.000000,0.000000,0.000000,0.000000,0.000000,0.000000,0.000000,0.000000,0.000000,0.000000,0.000000,0.000000,0.000000:
10000000
10000000
00010000
01000000
00010000
00100000
00100000
00001000
,
00010000
00010000
00000100
00001000
00000100
00000010
00000010
00000001
,
00001000
00001100
00000100
00010100
,
00010000
00000000
00000000
00000000
00011000
00000000
00000000
00000000
00002000
00000000
00000000
00000000
00000000
00003000
00000000
00000000
,
01000000
00000000
01000000
00000000
01000000
00000000
01000000
00010000
,
00100000
00000000
00100000
00000000
00100000
00000000
00100000
00001000
,
00010000
00000000
00010000
00000100
00001000
00000000
00001000
00000100
,
00000010
00000001
00000000
00000100
00000000
00000010
00010000
00000000
,
00010000
00000000
00010000
00000000
00010000
00000000
00001000
01000000
,
00100000
00000000
00100000
00000000
00100000
00000000
10000000
00010000
,
01000000
00000000
01000000
00000000
01000000
00000000
00010000
00100000
,
00001000
00010000
00000000
00011000
00000000
00001000
00000100
00000010
,
00000010
00000100
00000100
00000001
00000001
00001000
00001000
00000100
,
00000100
00010000
00010000
00100000
00100000
10000000
10010000
00000000
,
01000000
00100000
00000000
10000000
01000000
10000000
00010000
00000000
,
00100000
00001000
00000000
00010000
00001000
00000100
00000010
00000000
,
00000100
00000001
00000000
00000010
00000100
00001000
00000100
00000000
,
00010000
00001000
00001000
00010000
00000000
00001000
00100000
00000000
,
00010000
10000000
00000000
00100000
01000000
00010000
00100000
00000000
,
00001000
00100000
00000000
00001000
00010000
00000100
00000010
00000000
,
00000001
00000100
00000000
00001000
00000100
00000010
00000100
00000000
,
00000010
00001000
00001000
00000010
00010000
00001000
00010000
00011000
,
00001000
00100000
00020000
00000000
10030000
01000000
00200000
00000000
00301000
00010000
00000200
00000000
00001300
00000100
00000020
00000000
,
00000031
00000100
00000010
00001000
00000100
00000000
00010000
00000000
00001000
00000000
00200000
00000000
00000000
00000000
00310000
00000000
,
01000000
00100000
00000000
00022000
00000000
00000000
00000000
00000000
,
00000000
00000000
00000000
00000000
,
00000000
00000000
00000000
00000000
,
00000000
00000000
00000000
00000000
,
00000000
00000000
00000000
00000000
,
00000000
00000000
00000000
00000000
,
00000000
00000000
00000000
00000000
,
00000000
00000000
00000000
00000000
,
00000000
00000000
00000000
00000000
,
00000000
00000000
00000000
00000000
,
00000000
00000000
00000000
00000000
00000000
00033000
00000000
00000100
,
00000000
00010000
00000000
00000000
00001000
00000000
00000000
00000100
00000000
00000010
00000000
00001000
00000000
00000000
00011000
00000000
,
00000000
00100000
00000000
00000000
00010000
00000000
00000000
10000000
00000000
00100000
00000000
01000000
00010000
00000000
00000000
00100000
,
00000000
00000000
00001000
00000000
00000000
00010000
00000000
00000100
00000000
00001000
00000000
00000000
00000110
00000000
00000000
00000001
,
00000000
00000000
00000010
00000000
00000000
00000100
00000000
00001000
00000000
00010000
00000000
00000000
01200000
00000000
00000000
00000000
,
00000000
10300000
00000000
00000000
00000000
00000000
00000000
00000000
00021000
00000000
00000000
00000000
00000000
00000000
00000000
00000000
00000000
00031000
00000000
00000000
00000000
00000000
00000000
00000000
00000210
00000000
00000000
00000000
00000000
00000000
00000000
00000000
,
00000000
00000301
00000000
00000000
00000000
00000000
00000000
00000000
00012000
00000000
00000000
00000000
00000000
00000000
00000000
00000000
00000000
00013000
00000000
00000000
00000000
00000000
00000000
00000000
00000000
00000000
00000000
00000000
00000000
00000000
00000000
00000000
;

//---------------dance-double - ----------------
#NOTES:
     dance-double:
     CHALLENGE:
     Challenge:
     15:
     0.000000,0.000000,0.000000,0.000000,0.000000,0.000000,0.000000,0.000000,0.000000,0.000000,0.000000,0.000000,0.000000,0.000000,0.000000,0.000000,0.000000,0.000000,0.000000,0.000000,0.000000,0.000000:
10000000
00000000
00000000
00000000
00000000
00000000
00000000
00000000
00000000
00000000
00000000
00000000
00100000
00000000
00000000
00000000
00000000
00000000
01000000
00000000
00000000
00000000
00000000
00000000
00100000
00000000
00000000
00000000
00000000
00000000
00000000
00000000
00000000
00000000
00000000
00000000
01000000
00000000
00000000
00000000
00000000
00000000
00000000
00000000
00000000
00000000
00000000
00000000
00010000
00000000
00000000
00000000
00000000
00000000
00000000
00000000
00000000
00000000
00000000
00000000
00001000
00000000
00000000
00000000
00000000
00000000
00000000
00000000
00000000
00000000
00000000
00000000
00000100
00000000
00000000
00000000
00000000
00000000
00000000
00000000
00000000
00000000
00000000
00000000
00000010
00000000
00000000
00000000
00000000
00000000
00000000
00000000
00000000
00000000
00000000
00000000
00000001
00000000
00000000
00000000
00000000
00000000
00000000
00000000
00000000
00000000
00000000
00000000
00001000
00000000
00000000
00000000
00000000
00000000
00000100
00000000
00000000
00000000
00000000
00000000
00001000
00000000
00000000
00000000
00000000
00000000
00000000
00000000
00000000
00000000
00000000
00000000
00000010
00000000
00000000
00000000
00000000
00000000
00000000
00000000
00000000
00000000
00000000
00000000
00000100
00000000
00000000
00000000
00000000
00000000
00000000
00000000
00000001
00000000
00000000
00000000
00000000
00000000
00000000
00000000
00000010
00000000
00000000
00000000
00000000
00000000
00000000
00000000
00000100
00000000
00000000
00000000
00000000
00000000
00000000
00000000
00001000
00000000
00000000
00000000
00000000
00000000
00000000
00000000
00000100
00000000
00000000
00000000
00000000
00000000
00000000
00000000
,
00010000
00000000
00000000
00000000
00000000
00000000
00000000
00000000
00000000
00000000
00000000
00000000
00001000
00000000
00000000
00000000
00000000
00000000
00100000
00000000
00000000
00000000
00000000
00000000
00001000
00000000
00000000
00000000
00000000
00000000
00000000
00000000
00000000
00000000
00000000
00000000
01000000
00000000
00000000
00000000
00000000
00000000
00000000
00000000
00000000
00000000
00000000
00000000
00100000
00000000
00000000
00000000
00000000
00000000
00000000
00000000
00000000
00000000
00000000
00000000
00010000
00000000
00000000
00000000
00000000
00000000
00000000
00000000
00000000
00000000
00000000
00000000
00100000
00000000
00000000
00000000
00000000
00000000
00000000
00000000
00000000
00000000
00000000
00000000
01000000
00000000
00000000
00000000
00000000
00000000
00000000
00000000
00000000
00000000
00000000
00000000
00010000
00000000
00000000
00000000
00000000
00000000
00000000
00000000
00000000
00000000
00000000
00000000
10000000
00000000
00000000
00000000
00000000
00000000
00100000
00000000
00000000
00000000
00000000
00000000
10000000
00000000
00000000
00000000
00000000
00000000
00000000
00000000
00000000
00000000
00000000
00000000
00100000
00000000
00000000
00000000
00000000
00000000
00000000
00000000
00000000
00000000
00000000
00000000
01000000
00000000
00000000
00000000
00000000
00000000
00000000
00000000
00010000
00000000
00000000
00000000
00000000
00000000
00000000
00000000
00100000
00000000
00000000
00000000
00000000
00000000
00000000
00000000
00010000
00000000
00000000
00000000
00000000
00000000
00000000
00000000
00001000
00000000
00000000
00000000
00000000
00000000
00000000
00000000
00000100
00000000
00000000
00000000
00000000
00000000
00000000
00000000
,
00001000
00000000
00000010
00000000
00001000
00000001
00001000
00000000
00000001
00000010
00000000
00000100
00000010
00000200
00000000
00000000
,
00001300
00000000
00000100
00000000
00010000
00000000
00001000
00000000
00100000
00010000
00100000
00010000
10000000
00200000
00000000
00000000
,
01300000
00000000
00100000
00000000
10000000
00000000
00100000
01000000
00010000
01000000
00010000
00100000
00000000
00000000
00000000
00000000
,
00001000
00000000
00000100
00000000
00000010
00000000
00000001
00001000
00000001
00001000
00000100
00000010
00000000
00000000
00000000
00000000
,
00010000
00000000
00100000
00000000
00010000
00000000
10000000
00100000
10000000
00100000
01000000
00000000
10010000
00000000
00000000
00000000
,
00001000
00000000
00000010
00000100
00000000
00000010
00000000
00001000
00000001
00000000
00000110
00000000
00000001
00001000
00000000
00000000
,
00000100
00000000
00010000
00000000
00001000
00000000
00100000
01000000
10000000
01000000
00100000
00010000
00000000
00010000
01000000
00000000
,
00010000
00000000
00100000
00000000
00001000
00000000
00010000
00000100
00001000
00000100
00000010
00000100
00000000
00000100
00001000
00000000
,
00000001
00000000
00000100
00000000
00000010
00000000
00001000
00000100
00001000
00000100
00010000
00000000
00011000
00000000
00000000
00000000
,
00100000
00000000
00000000
00000000
01000000
00000000
10000000
00000000
00000000
00000000
01000000
00000000
00000000
00000000
00100000
00000000
00010000
00000000
00000000
00000000
10010000
00000000
00000000
00000000
01000000
00000000
00100000
00000000
02000000
00000000
00000000
00100000
,
00100000
00000000
00000000
10000000
10000000
00000000
00000000
00010000
00010000
00000000
00000000
00100000
03100000
01000000
00010000
00000000
00100000
00001000
00010000
00000000
00001000
00000000
00000010
00000000
00000100
00000000
00001000
00000010
00000100
00000000
00000001
00000010
,
00000100
00000000
00000000
00000000
00000000
00000000
00000000
00000000
00000000
00000000
00000000
00000000
00001000
00000000
00000000
00000000
00000000
00000000
00000100
00000000
00000000
00000000
00000000
00000000
00010000
00000000
00000000
00000000
00000000
00000000
00001000
00000000
00000000
00000000
00000000
00000000
00010000
00000000
00000000
00000000
00000000
00000000
00001000
00000000
00000000
00000000
00000000
00000000
00100000
00000000
00000000
00000000
00000000
00000000
00010000
00000000
00000000
00000000
00000000
00000000
00100000
00000000
00000000
00000000
00000000
00000000
00010000
00000000
00000000
00000000
00000000
00000000
10000000
00000000
00000000
00000000
00000000
00000000
00100000
00000000
00000000
00000000
00000000
00000000
10000000
00000000
00000000
00000000
00000000
00000000
00100000
00000000
00000000
00000000
00000000
00000000
01000000
00000000
00000000
00000000
00000000
00000000
00010000
00000000
00000000
00000000
00000000
00000000
01000000
00000000
00000000
00000000
00000000
00000000
00010000
00000000
00000000
00000000
00000000
00000000
00100000
00000000
00000000
00000000
00000000
00000000
00000000
00000000
01000000
00000000
00000000
00000000
00000000
00000000
00000000
00000000
10000000
00000000
00000000
00000000
00000000
00000000
00000000
00000000
00020000
00000000
00000000
00000000
00000000
00000000
00000000
00000000
00000000
00000000
00000000
00000000
00000000
00000000
00000000
00000000
00000000
00000000
00000000
00000000
00000000
00000000
00000000
00000000
00000000
00000000
00000000
00000000
00000000
00000000
00000000
00000000
00000000
00000000
00000000
00000000
00000000
00000000
00000000
00000000
00000000
00000000
00000000
00000000
00000000
00000000
00000000
00000000
,
00130000
00000000
00010000
00000000
10000000
00000000
00010000
00100000
00001000
00100000
00001000
00010000
00000000
00000000
00000000
00000000
,
00000010
00000000
00001000
00000000
00000100
00000000
00010000
00001000
00010000
00000100
00010000
00001000
00000000
00000000
00000000
00000000
,
01000000
00000000
00010000
00000000
00100000
00000000
01000000
10000000
01000000
10000000
00100000
00000000
01100000
00000000
00000000
00000000
,
00001100
00000000
00000100
00000010
00000000
00000001
00000000
00000010
00000100
00000000
00001001
00000000
00000100
00000010
00000000
00000000
,
00001000
00000000
00000100
00000000
00010000
00000000
00001000
00100000
00010000
01000000
00010000
00000000
10000000
00000000
00100000
00000000
,
01000000
00000000
00010000
00000000
00100000
00000000
00001000
00010000
00001000
00000000
00010000
00000100
00000000
00000100
00001000
00000000
,
00000010
00000000
00000100
00000000
00000001
00000000
00000010
00000100
00001000
00000100
00001000
00000100
00010000
00000100
00000000
00000000
,
00110000
00000000
00000000
00000000
00010000
00000000
01000000
00000000
00000000
00000000
00100000
00000000
00000000
00000000
10000000
00000000
01000000
00000000
00000000
00000000
10010000
00000000
00000000
00000000
00100000
00000000
01000000
00000000
00200000
00000000
00000000
10000000
,
10000000
00000000
00000000
00010000
00010000
00000000
00000000
01000000
01300000
00000000
00000000
00010000
00020000
00000000
00000000
00100000
00100000
00000000
00000000
00001000
00001000
00000000
00000000
01000000
01030000
00000000
00000000
00010000
00010000
00100000
00000000
00001000
,
00001000
00010000
00000000
00000100
00000100
00001000
00000000
00000100
00000010
00000001
00000010
00000000
00000100
00000000
00000100
00000000
00000000
00000000
00010000
00000000
00001000
00000000
00001000
00000000
00000000
00000000
00100000
00000000
00010000
00000000
00010000
00000000
,
00000000
01000000
00100000
00100000
10000000
00010000
01000000
00000000
00010000
00000000
01000000
00000000
10000000
00000000
01000000
00000000
,
00100000
00010000
00100000
01000000
00001000
00010000
00001000
00100000
,
00001000
00010000
00000100
00000010
00000000
00000001
00000000
00000100
,
00000000
00000010
00000000
00010000
00000000
00000100
00000000
00010000
,
00000000
00001000
00000000
00100000
00000000
00010000
00000000
10000000
,
00000000
00010000
00000000
01000000
00000000
00001000
00000000
00010000
,
00000000
00001000
00000000
00010000
00000000
00000100
00000000
00000010
,
00000000
00000001
00000000
00000100
00000000
00000010
00000000
00010000
,
00000000
00001000
00000000
00100000
00000000
00010000
00000000
10000000
,
00000000
01000000
00000000
00100000
00000000
00000000
00001000
00000000
,
00011000
00000000
00000000
00000000
00000000
00000000
00000000
00001001
,
00000000
00001000
00000010
00000000
00000010
00000100
00000000
00000100
00000000
00000010
00000000
00001000
00000000
00000000
10010000
00000000
,
10000000
00100000
00000000
00100000
01000000
00000000
01000000
00010000
01000000
00010000
00000000
00100000
00011000
00000000
00000000
00000100
,
00001000
00000000
00001000
00000010
00000000
00000100
00000000
00000001
00000000
00000010
00000000
00000000
00011000
00000000
00001000
00100000
,
00000000
00100000
00010000
00000000
00010000
10000000
00010000
10000000
00000000
00100000
00000000
00000000
01200000
00000000
00000000
00000000
,
00000000
20000000
00000000
00000000
30300000
00000000
00000000
00000000
00021000
00000000
00000000
00000000
00000000
00000000
00000000
00000000
00000000
00002000
00000000
00000000
00033000
00000000
00000000
00000000
00000210
00000000
00000000
00000000
00000000
00000000
00000000
00000000
,
00000000
00000002
00000000
00000000
00000303
00000000
00000000
00000000
00012000
00000000
00000000
00000000
00000000
00000000
00000000
00000000
00000000
00020000
00000000
00000000
00000000
00000000
00000000
00000000
00033000
00000000
00000000
00000000
00000000
00000000
00000000
00000000
;

//---------------dance-single - ----------------
#NOTES:
     dance-single:
     BASIC:
     Easy:
     6:
     0.000000,0.000000,0.000000,0.000000,0.000000,0.000000,0.000000,0.000000,0.000000,0.000000,0.000000,0.000000,0.000000,0.000000,0.000000,0.000000,0.000000,0.000000,0.000000,0.000000,0.000000,0.000000:
1000
0000
0100
0000
1000
0000
0001
1000
,
0001
0000
0010
0000
0001
0000
1000
0001
,
1000
0000
1000
0000
,
0001
0000
0000
0000
0001
0000
0000
0100
,
0000
0100
0000
0100
0000
0000
0000
0100
,
0000
0100
0000
0100
0000
0000
0000
0010
,
0000
0010
0000
0010
0000
0000
0000
0010
,
0000
0010
0000
0010
0000
1001
0000
1000
,
0000
1000
0000
1000
0000
0000
0000
1000
,
0000
1000
0000
1000
0000
0000
0000
0001
,
0000
0001
0000
0001
0000
0000
0000
0001
,
0000
0001
0000
0001
0000
0110
0000
1000
,
0100
1000
0100
2000
0000
3000
0000
0001
,
0100
0001
0100
0002
0000
0003
0000
1000
,
0000
0010
0000
1000
0000
1010
0000
0001
,
0000
0100
0000
0001
0000
0101
0000
0100
,
0000
0010
0000
0100
0000
0110
0000
0001
,
0000
0010
0000
0100
0000
1000
0000
0001
,
0000
0100
0000
0001
0000
1010
0000
0100
,
0000
0001
0000
0010
0000
1100
0000
0010
,
0000
0100
0000
0001
0000
0011
0000
1000
,
0000
0001
0000
0100
0000
1010
0000
1002
,
1000
1000
1003
2001
0001
0001
3001
0120
,
0100
0100
0100
0130
0000
0010
0000
1000
,
0000
0100
0000
2002
0000
0000
0000
0000
,
0000
0000
0000
0000
,
0000
0000
0000
0000
,
0000
0000
0000
0000
,
0000
0000
0000
0000
,
0000
0000
0000
0000
,
0000
0000
0000
0000
,
0000
0000
0000
0000
,
0000
0000
0000
0000
,
0000
0000
0000
0000
,
0000
0000
0000
0000
0000
0000
3003
2010
,
0000
0000
0001
0002
0000
3003
0000
0012
,
0000
0000
0000
0000
0100
0000
0000
0200
0000
0000
0303
0000
0010
0000
1000
0000
,
0010
0000
1000
0000
0001
0000
0100
0001
,
0100
0001
1000
0220
,
0330
2020
3030
0202
,
0303
2002
3003
0000
;

//---------------dance-single - ----------------
#NOTES:
     dance-single:
     DIFFICULT:
     Medium:
     8:
     0.000000,0.000000,0.000000,0.000000,0.000000,0.000000,0.000000,0.000000,0.000000,0.000000,0.000000,0.000000,0.000000,0.000000,0.000000,0.000000,0.000000,0.000000,0.000000,0.000000,0.000000,0.000000:
1000
0000
0010
0100
0001
0000
0010
0000
,
0100
1000
0001
0010
0100
0000
0010
0000
,
0001
0100
0001
0000
1000
0000
0110
0000
,
1000
0010
1000
0000
0001
0020
0030
0100
,
1000
0100
0000
1000
0000
0011
0000
0100
,
0001
0100
0000
0010
0000
1100
0001
0000
,
0010
0010
0000
0100
0000
1000
0001
1000
,
0001
0010
0000
0100
0000
1000
0001
0010
,
0100
0010
0000
0001
0000
0100
0001
0000
,
1010
0100
0000
1000
0000
0001
1000
0001
,
0110
0001
0000
0100
0000
0010
1000
0010
,
0000
0100
0000
0001
1000
0001
1000
0010
,
0000
0100
0001
0010
0100
1000
0001
0010
,
0001
0100
0001
1000
0100
0020
0030
0100
,
0001
0100
0000
0010
1000
0001
1001
0000
,
0100
0010
0001
1000
0001
0110
0000
0000
,
0001
0010
0100
1000
0001
1000
1010
0000
,
0101
0010
0001
1000
0010
1000
1001
0010
,
0100
0010
0001
0010
0100
0010
1001
0000
,
0100
1000
0100
0010
0100
1001
0000
0100
,
0001
0010
0001
1000
0001
0100
0011
0000
,
1100
0001
1000
0010
1000
0001
0110
2001
,
0010
0001
0010
3002
0100
1000
0100
2003
,
0010
0100
0001
3010
0000
0100
0001
0100
,
0000
0010
1000
0020
0000
0000
0000
0000
,
0000
0000
0200
0000
,
0000
0000
0000
0000
,
0000
0000
0000
0000
,
0000
0000
0000
0000
,
0000
0000
0000
0000
,
0000
0000
0000
0000
,
0000
0000
0000
0000
,
0000
0000
0000
0000
,
0000
0000
0000
0000
,
0000
0000
0000
0000
0000
0000
0000
0330
,
1000
0000
0000
0010
0000
0000
0100
0000
0000
0001
0000
0000
0010
0000
0001
0000
,
0100
0000
0000
0010
0000
0000
1000
0000
0000
0100
0000
1000
0000
0000
0001
0000
,
0000
0010
0000
0000
0001
0000
0000
0100
0000
0000
0010
0000
0000
0000
1000
0000
,
0100
0000
0000
0010
0000
0000
0001
0000
0000
1000
0000
0000
2002
0000
0000
0000
,
3003
2200
3300
0022
,
0033
0220
0330
0000
;

//---------------dance-single - ----------------
#NOTES:
     dance-single:
     EXPERT:
     Hard:
     12:
     0.000000,0.000000,0.000000,0.000000,0.000000,0.000000,0.000000,0.000000,0.000000,0.000000,0.000000,0.000000,0.000000,0.000000,0.000000,0.000000,0.000000,0.000000,0.000000,0.000000,0.000000,0.000000:
1000
0000
0000
0010
1000
0000
0100
0000
0010
0000
0001
0000
0100
0000
0000
0000
0001
0000
0000
0000
0010
0000
0000
0000
0001
0000
1000
0000
0001
0000
0000
0000
,
0100
0000
0000
0000
0000
0000
0000
0000
0000
0000
0000
0000
0000
0000
0000
0000
0000
0000
0001
0000
0000
0000
0000
0000
0010
0000
0000
0000
0000
0000
0000
0000
0000
0000
0000
0000
0001
0000
0000
0000
0000
0000
0000
0000
0000
0000
0000
0000
0100
0000
0000
0000
0000
0000
0000
0000
0000
0000
0000
0000
0010
0000
0000
0000
0000
0000
0000
0000
0000
0000
0000
0000
1000
0000
0000
0000
0000
0000
0000
0000
0000
0000
0000
0000
0000
0000
0000
0000
0000
0000
0000
0000
0000
0000
0000
0000
0100
0000
0000
0000
0000
0000
0000
0000
0000
0000
0000
0000
0000
0000
0000
0000
0000
0000
0000
0000
0000
0000
0000
0000
0010
0000
0000
0000
0000
0000
0000
0000
0000
0000
0000
0000
0001
0000
0000
0000
0000
0000
0000
0000
0000
0000
0000
0000
1000
0000
0000
0000
0000
0000
0000
0000
0000
0000
0000
0000
0001
0000
0000
0000
0000
0000
0000
0000
0000
0000
0000
0000
1000
0000
0000
0000
0000
0000
0000
0000
0010
0000
0000
0000
0000
0000
0000
0000
0100
0000
0000
0000
0000
0000
0000
0000
,
0001
0000
0010
0000
0100
1000
0000
1000
0001
0010
0000
0010
0200
0000
0000
0000
,
1300
0000
0010
0000
0100
0000
0001
0010
0001
1000
0000
0001
0200
0300
0000
0000
,
0010
0000
1000
0000
0100
0000
1000
0010
1000
0000
0001
0000
0000
0100
0010
0000
,
0100
0000
0001
0000
0010
0000
0100
1000
0100
0001
0100
0000
0000
1000
0001
0000
,
0010
0000
0100
0000
0010
0000
0001
0010
0001
0000
1000
0100
0000
0100
0010
0000
,
0001
0000
0100
0001
0000
0010
0000
0000
0001
0000
1000
0000
0010
1000
0000
0000
,
1001
0000
0100
0000
0001
0000
0010
0000
0001
0010
0100
0010
0000
0100
0000
0000
,
1100
0000
0010
0000
0100
0000
0001
0000
1000
0100
0010
0000
0001
0000
0000
0000
,
0110
0000
1000
0000
0010
0000
0100
0010
0100
0000
0001
0000
0000
1000
0010
0000
,
0100
0000
0001
0010
0000
0001
0000
1000
0010
0000
0100
0000
0001
1000
0001
0000
,
0010
0000
0001
0010
1000
0000
0001
0000
1000
0000
0001
0100
1000
0000
0010
0000
,
0100
0000
0001
1000
0010
0000
0100
0000
0010
0000
1000
0002
0003
0000
0100
0000
,
1000
0000
0001
0000
0100
0000
0001
0010
0001
1000
0001
0000
0000
0100
0010
0000
,
1000
0000
0100
0000
0000
1000
0010
1000
0002
0000
0100
0103
0000
0000
0010
0000
,
0001
0000
1000
0000
0001
0000
0100
0010
1000
0010
0100
0000
0000
0001
0010
0000
,
0100
0000
1000
0010
0000
1000
0000
0001
0100
0000
0001
0000
0010
0001
0000
0000
,
1001
0000
0010
0000
0000
0100
0001
0000
0010
0000
0001
1000
0000
0100
0000
0000
,
1100
0000
0010
0000
0000
1000
0001
1000
0010
0000
0100
0010
0000
0000
0001
0000
,
0101
0000
1000
0000
0001
0100
0010
0100
0001
0000
0100
0000
0010
0000
0000
0000
,
1010
0000
0000
0000
1000
0000
0100
0000
0000
0000
0010
0000
0000
0000
0001
0000
0100
0000
0000
0000
0010
0000
0000
0000
1000
0000
0001
0000
2000
0000
0000
0010
,
0010
0000
0000
0001
0001
0000
0000
0100
3100
0000
0000
0001
0020
0000
0000
1000
1000
0000
0000
0001
0001
0000
0000
0100
0130
0000
0000
0010
0001
0000
0000
1000
,
0010
0000
0000
0100
0001
0000
0000
0010
0100
0000
1000
0000
0001
0000
0000
0000
0000
0000
0100
0000
0001
0000
0000
0000
0000
0000
0010
0000
0100
0000
0000
0000
,
0000
1000
0001
0000
0000
0200
0020
0000
0000
0000
0000
0000
0000
0000
0000
0000
,
0000
0000
0300
1000
2000
0000
0000
0000
,
0000
0030
0001
0002
0000
0000
0000
0000
,
0000
0000
0000
0000
,
0000
0000
0000
0000
,
0000
0000
0000
0000
,
0000
0000
0000
0000
,
0000
0000
0000
0000
,
0000
0000
0000
0000
,
0000
0000
0000
0000
,
0000
0000
0000
0000
0000
0000
3003
0110
,
0010
1000
0000
1000
0100
0000
0100
0010
0000
0001
0000
1000
0000
0000
0011
0000
,
0001
1000
0000
1000
0001
0000
0100
0010
0100
0010
0000
0100
1001
0000
1000
0010
,
0000
0010
0100
0000
0100
0001
0000
0010
0000
0001
0000
0010
0100
0000
1000
0001
,
0000
0001
1000
0000
0001
0100
0001
0100
0000
0020
0000
0000
2030
0000
0000
0100
,
0000
0200
0000
0000
3300
0000
0000
0000
0002
0000
0000
0000
0000
0000
0010
0000
0000
0020
0000
0000
0033
0000
0000
0000
2000
0000
0001
0000
0000
0000
0001
0000
,
0000
0002
0000
0000
3003
0000
0000
0000
0002
0000
1000
0000
0000
0000
1000
0000
0000
2000
0000
0000
0000
0000
0000
0000
3003
0000
0000
0000
0000
0000
0000
0000
;

//---------------dance-single - ----------------
#NOTES:
     dance-single:
     CHALLENGE:
     Challenge:
     15:
     0.587156,0.877881,0.119266,0.174312,0.972477,448.000000,435.000000,13.000000,19.000000,0.000000,0.000000,0.587156,0.877881,0.119266,0.174312,0.972477,448.000000,435.000000,13.000000,19.000000,0.000000,0.000000:
// measure 0
1000
0001
0000
0001
0010
0000
0000
0000
0100
1000
0000
1000
0010
0000
0000
0100
0001
0100
0000
0001
0010
0000
0000
0000
0100
1000
0100
0000
1000
0000
0010
0100
,  // measure 1
0010
0000
0000
0000
0000
0000
0000
0000
0000
0000
0000
0000
0100
0000
0000
0000
0000
0000
0001
0000
0000
0000
0000
0000
0100
0000
0000
0000
0000
0000
0000
0000
0000
0000
0000
0000
0001
0000
0000
0000
0000
0000
0010
0000
0000
0000
0000
0000
0001
0000
0000
0000
0000
0000
0010
0000
0000
0000
0000
0000
0100
0000
0000
0000
0000
0000
1000
0000
0000
0000
0000
0000
0100
0000
0000
0000
0000
0000
0010
0000
0000
0000
0000
0000
0001
0000
0000
0000
0000
0000
1000
0000
0000
0000
0000
0000
0001
0000
0000
0000
0000
0000
1000
0000
0000
0000
0000
0000
0100
0000
0000
0000
0000
0000
0010
0000
0000
0000
0000
0000
0100
0000
0000
0000
0000
0000
0000
0000
0000
0000
0000
0000
0010
0000
0000
0000
0000
0000
0000
0000
0000
0000
0000
0000
0001
0000
0000
0000
0000
0000
0000
0000
0100
0000
0000
0000
0000
0000
0000
0000
0001
0000
0000
0000
0000
0000
0000
0000
0001
0000
0000
0000
0000
0000
0000
0000
1000
0000
0000
0000
0000
0000
0000
0000
0010
0000
0000
0000
0000
0000
0000
0000
,  // measure 2
1010
0000
1000
0000
0100
1000
0100
0000
1000
0010
0000
0010
0100
0001
0000
0001
,  // measure 3
1001
0000
0000
0000
0000
0000
0000
0000
0000
0000
0000
0000
0000
0000
0000
0000
0000
0000
0000
0000
0000
0000
0000
0000
0010
0000
0000
0000
0000
0000
0000
0000
0000
0000
0000
0000
0000
0000
0000
0000
0000
0000
0000
0000
0000
0000
0000
0000
0001
0000
0000
0000
0000
0000
0000
0000
0000
0000
0000
0000
0100
0000
0000
0000
0000
0000
0000
0000
0000
0000
0000
0000
0001
0000
0000
0000
0000
0000
0000
0000
0000
0000
0000
0000
0000
0000
0000
0000
0000
0000
0000
0000
0000
0000
0000
0000
1000
0000
0000
0000
0000
0000
0000
0000
0000
0000
0000
0000
0100
0000
0000
0000
0000
0000
0000
0000
0000
0000
0000
0000
0010
0000
0000
0000
0000
0000
0000
0000
0000
0000
0000
0000
0001
0000
0000
0000
0000
0000
0000
0000
0000
0000
0000
0000
0020
0000
0000
0000
0000
0000
0000
0000
0000
0000
0000
0000
0000
0030
0000
0000
0000
0000
0000
0000
0000
0000
0000
0000
0000
0000
0000
0000
0000
0000
0000
0000
0000
0000
0000
0000
0000
0000
0000
0000
0000
0000
0000
0000
0000
0000
0000
0000
,  // measure 4
0100
1000
0000
0000
1000
0000
0000
0000
0010
0000
0000
0000
0100
0000
0001
0000
0100
0000
1000
0000
0100
0000
0010
0000
0000
0000
0100
0000
0000
0000
0001
0000
,  // measure 5
0010
0001
0000
0000
0001
0000
0000
0000
1000
0000
0000
0000
0010
0000
1000
0000
0100
0000
1000
0000
0001
0000
2000
0000
0000
0000
0000
0000
3010
0000
0000
0000
,  // measure 6
0100
0001
0000
0000
0001
0000
0000
0000
1000
0000
0000
0000
0010
0000
1000
0000
0100
0000
0010
0000
0001
0000
0100
0000
0000
0000
0010
0000
0000
0000
1000
0000
,  // measure 7
0010
0000
0100
0001
0000
0010
0000
0001
1000
0000
0010
0000
0100
0010
0000
0000
,  // measure 8
0101
0000
0001
0000
0010
0000
0001
1000
0100
0010
0100
1000
0000
0010
0100
0000
,  // measure 9
0100
0010
0000
0000
0010
0000
0000
0000
1000
0000
0000
0000
0010
0000
0100
0000
0001
0000
0100
0000
0001
0000
0010
0000
0000
0000
0100
0000
1000
0000
0000
0000
,  // measure 10
1000
0001
0000
0000
0010
0000
0000
0000
0001
0000
0000
0000
0100
0000
0001
0000
0100
0000
0010
0000
1000
0000
0010
0000
0000
0000
0100
0000
0000
0000
0001
0000
,  // measure 11
1000
0000
0000
0000
0010
0000
1000
0000
0000
0000
0100
0000
0000
0000
1000
0000
0001
0000
0000
0000
0100
0000
0000
0000
0001
0000
1000
0000
0001
1000
0000
1000
,  // measure 12
0010
0000
0000
0100
0001
0100
0000
0001
0010
0000
0000
0000
0001
0100
0000
0100
1000
0000
0000
0000
0100
0010
0100
0000
0001
0000
0010
0001
0010
0100
0000
0100
,  // measure 13
1000
0000
0000
0000
0000
0000
0000
0000
0000
0000
0000
0000
0000
0000
0000
0000
0000
0000
0000
0000
0000
0000
0000
0000
0100
0000
0000
0000
0000
0000
0010
0000
0000
0000
0000
0000
0000
0000
0000
0000
0000
0000
0010
0000
0000
0000
0000
0000
0001
0000
0000
0000
0000
0000
1000
0000
0000
0000
0000
0000
0000
0000
0000
0000
0000
0000
0000
0000
0000
0000
0000
0000
0001
0000
0000
0000
0000
0000
1000
0000
0000
0000
0000
0000
0000
0000
0000
0000
0000
0000
1000
0000
0000
0000
0000
0000
0010
0000
0000
0000
0000
0000
0000
0000
0000
0000
0000
0000
0000
0000
0000
0000
0000
0000
0100
0000
0000
0000
0000
0000
0010
0000
0000
0000
0000
0000
0100
0000
0000
0000
0000
0000
0000
0000
0000
0000
0000
0000
0001
0000
0000
0000
0000
0000
2000
3000
0000
0000
0000
0000
0000
0000
0000
0000
0000
0000
0000
0000
0000
0000
0000
0000
0000
0000
0000
0000
0000
0000
0010
0000
0000
0000
0000
0000
0000
0000
0000
0000
0000
0000
1000
0000
0000
0000
0000
0000
0000
0000
0000
0000
0000
0000
,  // measure 14
0100
0000
1000
0000
0001
1000
0010
1000
0100
0000
1000
0002
0000
0000
0013
0100
,  // measure 15
0001
0000
0100
0000
1000
0100
0001
0100
1000
0100
0010
0002
0000
0000
0103
0001
,  // measure 16
0010
0000
0001
0000
1000
0010
1000
0100
1000
0000
0001
0010
0000
0010
0100
0000
,  // measure 17
0010
0000
0100
1000
0000
0010
0000
1000
0001
0000
0100
0000
0001
1000
0010
0100
,  // measure 18
1000
0000
0100
0000
0010
1000
0001
1000
0100
0000
0010
0200
0000
0000
1300
0010
,  // measure 19
0100
0000
0001
0000
0010
0100
1000
0001
1000
0010
0100
0020
0000
0000
0130
0010
,  // measure 20
0001
0000
0010
0000
0100
1000
0100
0001
0100
0010
0100
0000
0010
0000
1001
0000
,  // measure 21
0100
0000
0000
0000
0010
0000
0001
0000
0000
0000
0100
0000
0000
0000
0001
0000
1000
0000
0000
0000
0010
0000
0000
0000
1000
0000
0001
0000
2000
0000
0000
0010
,  // measure 22
0010
0000
0000
0100
0100
0000
0000
0001
0001
0000
0000
0010
3020
0000
0000
1000
1000
0000
0000
0001
0001
0000
0000
0100
0100
0000
0000
1000
1030
0010
0000
0100
,  // measure 23
0100
0001
0000
0010
0010
0100
0000
1000
1000
0001
0010
0000
0110
0000
0100
0000
0000
0000
1000
0000
0001
0000
0010
0000
0000
0000
0100
0000
1000
0000
0001
0000
,  // measure 24
0000
0000
0000
0100
0000
0000
0010
0000
0000
0001
0000
0000
0000
0000
0000
0010
0000
0000
0100
0000
0000
0000
0001
0000
0000
0000
0010
0000
0000
0000
0001
0000
0000
0000
1000
0000
0000
0000
0010
0000
0000
0000
1000
0000
0000
0000
0100
0000
,  // measure 25
0000
1000
0000
0010
0000
0100
0000
0001
0000
0100
0000
0010
0000
1000
0000
0100
0000
0010
0000
0001
0000
0100
0000
0010
,  // measure 26
0000
1000
0000
0100
0000
0010
0000
0001
0000
0100
0000
0000
0000
0000
0000
1000
0000
0000
0000
0000
0000
0100
0000
0000
,  // measure 27
0000
0010
0000
0100
0000
0001
0000
0010
,  // measure 28
0000
0100
0000
1000
0000
0001
0000
0100
,  // measure 29
0000
0010
0000
1000
0000
0010
0000
0001
,  // measure 30
0000
0010
0000
1000
0000
0010
0000
0100
,  // measure 31
0000
0001
0000
0010
0000
0100
0000
1000
,  // measure 32
0000
0100
0000
0001
0000
0100
0000
1000
,  // measure 33
0000
0100
0000
0010
0000
0001
0000
2002
,  // measure 34
0000
0000
0000
0000
0000
3003
0000
1001
,  // measure 35
0001
0010
0000
0010
0100
0000
0100
1000
0000
0100
0000
1000
0010
0100
0110
0000
,  // measure 36
0100
0001
0000
0001
1000
0000
1000
0010
0000
0100
0000
1001
0011
0000
1000
0100
,  // measure 37
0000
0100
0010
0000
0010
0001
0000
1000
0000
0001
0100
0010
1010
0000
1000
0100
,  // measure 38
0000
0100
0010
0000
0010
0001
0000
1000
0000
0001
0000
0100
0120
1000
0000
1000
,  // measure 39
0000
0200
0000
0000
0330
0000
0000
0000
0012
0000
1000
0000
0000
0000
1000
0000
0000
0020
0000
0000
0033
0000
0000
0100
0200
0000
0001
0000
0000
0000
0001
0000
,  // measure 40
0000
2300
0000
0000
0000
0000
0000
0010
3020
0000
1000
0000
0000
0000
0001
0000
0000
0200
0000
0000
0000
0000
0000
0330
0000
0000
0000
0000
0000
0000
0000
0000
;

//---------------dance-double - ----------------
#NOTES:
     dance-double:
     EXPERT:
     Hard:
     12:
     0.000000,0.000000,0.000000,0.000000,0.000000,0.000000,0.000000,0.000000,0.000000,0.000000,0.000000,0.000000,0.000000,0.000000,0.000000,0.000000,0.000000,0.000000,0.000000,0.000000,0.000000,0.000000:
10000000
00000000
00000000
00100000
00100000
00000000
00000000
01000000
01000000
00000000
00010000
00000000
00100000
00000000
00000000
00000000
00001000
00000000
00000000
00010000
00010000
00000000
00000000
00000100
00000100
00000000
00001000
00000000
00000100
00000000
00000010
00000000
,
00000001
00000000
00000000
00000000
00000000
00000000
00000000
00000000
00000000
00000000
00000000
00000000
00000000
00000000
00000000
00000000
00000000
00000000
00000100
00000000
00000000
00000000
00000000
00000000
00000100
00000000
00000000
00000000
00000000
00000000
00000000
00000000
00000000
00000000
00000000
00000000
00000000
00000000
00000000
00000000
00000000
00000000
00000010
00000000
00000000
00000000
00000000
00000000
00000010
00000000
00000000
00000000
00000000
00000000
00000000
00000000
00000000
00000000
00000000
00000000
00001000
00000000
00000000
00000000
00000000
00000000
00000000
00000000
00000000
00000000
00000000
00000000
00000100
00000000
00000000
00000000
00000000
00000000
00000000
00000000
00000000
00000000
00000000
00000000
00010000
00000000
00000000
00000000
00000000
00000000
00000000
00000000
00000000
00000000
00000000
00000000
00001000
00000000
00000000
00000000
00000000
00000000
00000000
00000000
00000000
00000000
00000000
00000000
00000000
00000000
00000000
00000000
00000000
00000000
00010000
00000000
00000000
00000000
00000000
00000000
00010000
00000000
00000000
00000000
00000000
00000000
00000000
00000000
00000000
00000000
00000000
00000000
00000000
00000000
00000000
00000000
00000000
00000000
01000000
00000000
00000000
00000000
00000000
00000000
01000000
00000000
00000000
00000000
00000000
00000000
00000000
00000000
00100000
00000000
00000000
00000000
00000000
00000000
00000000
00000000
01000000
00000000
00000000
00000000
00000000
00000000
00000000
00000000
10000000
00000000
00000000
00000000
00000000
00000000
00000000
00000000
01000000
00000000
00000000
00000000
00000000
00000000
00000000
00000000
00100000
00000000
00000000
00000000
00000000
00000000
00000000
00000000
,
00010000
00000000
01000000
00000000
00010000
00100000
00010000
00000000
00100000
00000000
00001000
00010000
00001000
00000000
00000000
00000000
,
00010000
00000000
00000100
00000000
00000010
00000000
00000001
00000000
00001000
00000010
00001000
00000010
00000200
00000000
00000300
00000000
,
00000010
00000000
00001000
00000000
00000100
00000000
00010000
00001000
00010000
00000000
00001000
00000000
00000000
00100000
01000000
00000000
,
10000000
00000000
01000000
00000000
00100000
00000000
00010000
00000000
01000000
00010000
01000000
00000000
00010000
00000000
00000000
00000000
,
00001000
00000000
00010000
00000000
00001000
00000000
00000100
00000010
00000100
00000000
00001000
00000000
00000100
00000010
00000000
00000000
,
00001001
00000000
00000010
00000001
00000000
00000100
00000000
00000010
00001000
00000000
00000010
00000000
00010000
00000000
00001000
00000000
,
00100000
00000000
01000000
00000000
10000000
00000000
00010000
10000000
00010000
00000000
01000000
00000000
00000000
00010000
00100000
00000000
,
00001000
00000000
00000100
00000000
00000010
00000000
00001000
00000001
00001000
00000001
00000010
00000000
00000000
00000100
00001000
00000000
,
00000100
00000000
00010000
00000000
00001000
00000000
00000100
00000000
00001000
00000000
00010000
00000000
00100000
01000000
00000000
00000000
,
10010000
00000000
00000000
00000000
10000000
00000000
00100000
00000000
00000000
00000000
01000000
00000000
00000000
00000000
00010000
00000000
01000000
00000000
00000000
00000000
00010000
00000000
00000000
00000000
10000000
00000000
00000000
00000000
00100000
00000000
00000000
01000000
,
01000000
00000000
00000000
00010000
00010000
00000000
00100000
00000000
00001000
00000000
00000000
00010000
00010000
00000000
00000000
00001000
00001000
00000000
00000000
00000100
00000100
00000000
00000010
00000000
00001000
00000000
00000100
00010000
00001000
00000000
00000000
00100000
,
00100000
00000000
00000000
00010000
00010000
00000000
00000000
10000000
10000000
00000000
00100000
00000000
01000000
00000000
00000000
00010000
00010000
00000000
00000000
00100000
00100000
00000000
00001000
00000000
00022000
00000000
00000000
00000000
00033000
00000000
00000000
00000000
,
00000010
00000000
00001000
00000000
00000100
00000000
00000010
00000001
00000010
00000000
00000001
00000000
00001000
00000000
00000000
00000000
,
00000100
00000000
00010000
00000000
00100000
00000000
01000000
10000000
01000000
10000000
00010000
01000000
00000000
00000000
00000000
00000000
,
00100000
00000000
01000000
00000000
00010000
00000000
00100000
00000000
00001000
00010000
00001000
00000000
00011000
00000000
00000000
00000000
,
00000110
00000000
00001000
00000001
00000000
00000010
00000000
00000001
00000100
00000000
00000010
00000000
00001000
00000100
00001000
00000000
,
00000100
00000000
00010000
00000000
00001000
00000000
00100000
01000000
00100000
00000000
01000000
00000000
10000000
00010000
00000000
00000000
,
01000000
00000000
00010000
00000000
00100000
00000000
00001000
00010000
00001000
00010000
00000100
00010000
00000000
00000000
00000000
00000000
,
00000010
00000000
00001000
00000000
00000001
00000000
00000100
00000000
00000001
00000010
00000001
00000000
00000110
00000000
00000000
00000000
,
00011000
00000000
00000000
00000000
00100000
00000000
00010000
00000000
00000000
00000000
01000000
00000000
00000000
00000000
00010000
00000000
10000000
00000000
00010000
00000000
10000000
00000000
00000000
00000000
00100000
00000000
00000000
00000000
01000000
00000000
00000000
00010000
,
00100000
00000000
00000000
00010000
10000000
00000000
00000000
00010000
01000000
00000000
00000000
00000000
00100000
00000000
00000000
01000000
00010000
00000000
00000000
01000000
00001000
00000000
00000000
00100000
00001000
00000000
00000000
00000000
00010000
00000000
00000000
00000100
,
00001000
00000000
00000000
00000010
00010000
00000000
00000000
00000100
00010000
00000000
00000100
00000000
00001000
00000000
00000000
00000000
00000000
00000000
00000100
00000000
00000010
00000000
00000000
00000000
00000000
00000000
00000100
00000000
00000001
00000000
00000000
00000000
,
00000000
00000100
00000010
00000000
00000100
00000000
00022000
00000000
00000000
00000000
00000000
00000000
00000000
00000000
00000000
00000000
,
00000000
00000000
00000000
00000000
,
00000000
00000000
00000000
00000000
,
00000000
00000000
00000000
00000000
,
00000000
00000000
00000000
00000000
,
00000000
00000000
00000000
00000000
,
00000000
00000000
00000000
00000000
,
00000000
00000000
00000000
00000000
,
00000000
00000000
00000000
00000000
,
00000000
00000000
00000000
00000000
,
00033000
00000000
00000000
00000000
00000000
00000000
00000000
00011000
,
00000000
00100000
00000000
00010000
10000000
00000000
00100000
10000000
00100000
10000000
00000000
00010000
00000000
00000000
00011000
00000000
,
00010000
00000100
00000000
00000100
00001000
00000000
00001000
00000010
00000000
00000100
00000000
00000001
00000110
00000000
00001000
00000100
,
00001000
00000000
00000100
00000000
00010000
00000000
00001000
00100000
00000000
00010000
00000000
00000000
01100000
00000000
10000000
00010000
,
10000000
00000000
01000000
00000000
00100000
00010000
00000000
00100000
00000000
00001000
00000000
00000000
00012000
00000000
00000000
00000000
,
00000000
00020000
00000000
00000000
00033000
00000000
00000000
00000000
00002001
00000000
00000000
00000000
00000000
00000000
00000000
00000000
00000000
00000002
00000000
00000000
00003003
00000000
00000000
00000000
00021000
00000000
00000000
00000000
00000000
00000000
00000000
00000000
,
00000000
00002000
00000000
00000000
00033000
00000000
00000000
00000000
10020000
00000000
00000000
00000000
00000000
00000000
00000000
00000000
00000000
20000000
00000000
00000000
00000000
00000000
00000000
00000000
30030000
00000000
00000000
00000000
00000000
00000000
00000000
00000000
;
