#TITLE:365;
#SUBTITLE:;
#ARTIST:Charli XCX;
#TITLETRANSLIT:;
#SUBTITLETRANSLIT:;
#ARTISTTRANSLIT:;
#GENRE:DANCE POP;
#CREDIT:YonabearCWY;
#BANNER:365.png;
#BACKGROUND:365-bg.png;
#LYRICSPATH:;
#CDTITLE:brat.png;
#MUSIC:365.ogg;
#OFFSET:-12.278000;
#SAMPLESTART:18.895851;
#SAMPLELENGTH:15.000000;
#SELECTABLE:YES;
#BPMS:0.000000=127.160011
;
#STOPS:72.000000=0.475000
;
#BGCHANGES:0.000=blank.png=1.000=0=0=1===CrossFade_Faster==,
0.500=okay1.png=1.000=0=0=1=====,
1.500=okay2.png=1.000=0=0=1=====,
3.500=okay3.png=1.000=0=0=1=====,
4.500=okay4.png=1.000=0=0=1=====,
5.500=okay5.png=1.000=0=0=1=====,
7.000=blank.png=1.000=1=0=1===CrossFade==,
9.500=herewego1.png=1.000=0=0=1=====,
10.000=herewego2.png=1.000=0=0=1=====,
11.000=ring9.mp4=1.400=1=0=1===CrossFade==,
14.000=dance10.mp4=1.400=0=0=1=====,
17.000=bumpinthat1.png=1.000=0=0=1=====,
18.000=dance10.mp4=1.400=0=0=1=====,
21.000=bumpinthat2.png=1.000=0=0=1=====,
22.000=blank.png=1.000=0=0=1=====,
22.500=3.png=1.000=0=0=1=====,
23.000=6.png=1.000=0=0=1=====,
23.500=5.png=1.000=0=0=1=====,
24.000=partygirl.png=1.000=0=0=1=====,
25.000=partygirl2.png=1.000=0=0=1=====,
26.000=dance10.mp4=1.400=0=0=1=====,
30.000=ring8.mp4=1.400=0=0=1=====,
33.000=bumpinthat3.png=1.000=0=0=1=====,
34.000=ring8.mp4=1.400=0=0=1=====,
37.000=bumpinthat4.png=1.000=0=0=1=====,
38.000=blank.png=1.000=0=0=1=====,
38.500=3.png=1.000=0=0=1=====,
39.000=6.png=1.000=0=0=1=====,
39.500=5.png=1.000=0=0=1=====,
40.000=partygirl.png=1.000=0=0=1=====,
41.000=partygirl2.png=1.000=0=0=1=====,
42.000=ring8.mp4=1.400=0=0=1=====,
46.000=ring11.mp4=1.000=0=0=1=====,
49.000=bumpinthat1.png=1.000=0=0=1=====,
50.000=ring11.mp4=1.000=0=0=1=====,
53.000=bumpinthat2.png=1.000=0=0=1=====,
54.000=ring11.mp4=1.000=0=0=1=====,
57.000=bumpinthat3.png=1.000=0=0=1=====,
58.000=ring11.mp4=1.000=0=0=1=====,
62.000=rain1.mp4=1.400=0=0=1=====,
65.000=bumpinthat4.png=1.000=0=0=1=====,
66.000=rain1.mp4=1.400=0=0=1=====,
69.000=bumpinthat1.png=1.000=0=0=1=====,
70.000=rain1.mp4=1.400=0=0=1=====,
72.000=rain1.mp4=0.100=0=0=1=====,
72.021=bumpinthat2.png=1.000=0=0=1=====,
73.000=rain1.mp4=1.400=0=0=1=====,
77.000=amoeba1.mp4=1.000=0=0=1=====,
80.000=bumpinthat3.png=1.000=0=0=1=====,
81.000=amoeba1.mp4=1.000=0=0=1=====,
84.000=bumpinthat4.png=1.000=0=0=1=====,
85.000=blank.png=1.000=0=0=1=====,
85.500=3.png=1.000=0=0=1=====,
86.000=6.png=1.000=0=0=1=====,
86.500=5.png=1.000=0=0=1=====,
87.000=partygirl.png=1.000=0=0=1=====,
88.000=partygirl2.png=1.000=0=0=1=====,
89.000=amoeba1.mp4=1.000=0=0=1=====,
93.000=ring9.mp4=1.400=0=1=1=StretchRewind====,
96.000=bumpinthat1.png=1.000=0=0=1=====,
97.000=ring9.mp4=1.400=0=0=1=====,
100.000=bumpinthat2.png=1.000=0=0=1=====,
101.000=blank.png=1.000=0=0=1=====,
101.500=3.png=1.000=0=0=1=====,
102.000=6.png=1.000=0=0=1=====,
102.500=5.png=1.000=0=0=1=====,
103.000=partygirl.png=1.000=0=0=1=====,
104.000=partygirl2.png=1.000=0=0=1=====,
105.000=ring9.mp4=1.400=0=0=1=====,
107.000=circle2.mp4=1.000=0=0=1===CrossFade_Faster==,
109.000=tunnel11.mp4=1.400=0=0=1=====,
125.000=tunnel10.mp4=1.400=0=0=1=====,
141.000=ring4.mp4=1.200=0=0=1=====,
149.000=text11.mp4=1.200=0=0=1=====,
157.000=text15.mp4=1.200=0=0=1=====,
165.000=text12.mp4=1.200=0=0=1=====,
173.000=aliens2.mp4=1.400=0=0=1=====,
181.000=aliens1.mp4=1.400=0=0=1=====,
189.000=text15.mp4=1.200=0=1=1=StretchRewind====,
197.000=text12.mp4=1.200=0=1=1=StretchRewind====,
205.000=square4.mp4=1.200=0=0=1=====,
221.000=square5.mp4=1.200=0=0=1=====,
236.500=aliens2.mp4=1.400=0=1=1=StretchRewind====,
240.000=bumpinthat1.png=1.000=0=0=1=====,
241.000=aliens2.mp4=1.400=0=0=1=====,
244.000=bumpinthat2.png=1.000=0=0=1=====,
245.000=aliens2.mp4=1.400=0=0=1=====,
248.000=bumpinthat3.png=1.000=0=0=1=====,
249.000=aliens2.mp4=1.400=0=0=1=====,
253.000=aliens1.mp4=1.400=0=1=1=StretchRewind====,
256.000=bumpinthat4.png=1.000=0=0=1=====,
257.000=aliens1.mp4=1.400=0=0=1=====,
260.000=bumpinthat1.png=1.000=0=0=1=====,
261.000=aliens1.mp4=1.400=0=0=1=====,
264.000=bumpinthat2.png=1.000=0=0=1=====,
265.000=aliens1.mp4=1.400=0=0=1=====,
269.000=arrows1.mp4=1.200=0=0=1=====,
272.000=bumpinthat3.png=1.000=0=0=1=====,
273.000=arrows1.mp4=1.200=0=0=1=====,
276.000=bumpinthat4.png=1.000=0=0=1=====,
277.000=arrows1.mp4=1.200=0=0=1=====,
280.000=bumpinthat1.png=1.000=0=0=1=====,
281.000=arrows1.mp4=1.200=0=0=1=====,
285.000=arrows2.mp4=1.200=0=0=1=====,
288.000=bumpinthat2.png=1.000=0=0=1=====,
289.000=arrows2.mp4=1.200=0=0=1=====,
292.000=bumpinthat3.png=1.000=0=0=1=====,
293.000=arrows2.mp4=1.200=0=0=1=====,
296.000=bumpinthat4.png=1.000=0=0=1=====,
297.000=arrows2.mp4=1.200=0=0=1=====,
298.500=light10.mp4=2.000=0=0=1===CrossFade_Faster==,
301.000=tunnel11.mp4=1.400=0=1=1=StretchRewind====,
309.000=tunnel10.mp4=1.400=0=1=1=StretchRewind====,
317.000=ring9.mp4=1.400=0=1=1=StretchRewind====,
325.000=dance10.mp4=1.400=0=1=1=StretchRewind====,
329.000=light10.mp4=0.800=0=1=1=StretchRewind====,
333.000=ring8.mp4=1.400=0=1=1=StretchRewind====,
341.000=ring11.mp4=1.000=0=1=1=StretchRewind====,
349.000=rain1.mp4=1.400=0=1=1=StretchRewind====,
357.000=ring4.mp4=1.200=0=1=1=StretchRewind====,
365.000=circle2.mp4=1.000=0=1=1=StretchRewind====,
373.000=text11.mp4=1.200=0=1=1=StretchRewind====,
381.000=text15.mp4=1.200=0=1=1=StretchRewind====,
389.000=text12.mp4=1.200=0=1=1=StretchRewind====,
397.000=365-bg.png=1.000=0=0=1===CrossFade_Faster==,
400.000=bumpinthat5.png=1.000=0=0=1=====,
401.000=365-bg.png=1.000=0=0=1=====,
99999=-nosongbg-=1.000=0=0=0 // don't automatically add -songbackground-
;
#KEYSOUNDS:;
#ATTACKS:;

//---------------dance-single - ----------------
#NOTES:
     dance-single:
     BEGINNER:
     Beginner:
     3:
     0.000000,0.000000,0.000000,0.000000,0.000000,0.000000,0.000000,0.000000,0.000000,0.000000,0.000000,0.000000,0.000000,0.000000,0.000000,0.000000,0.000000,0.000000,0.000000,0.000000,0.000000,0.000000:
0000
0000
0010
0000
,
0000
0000
0100
0000
,
0000
0000
1001
0000
,
0000
0000
0010
0000
,
0010
0000
0000
0100
,
0000
0100
0010
0000
,
0010
0010
0010
0000
,
1001
0000
0100
0000
,
0100
0000
0000
0010
,
0000
0010
1000
0000
,
1000
1000
1000
0000
,
0110
0000
0001
0000
,
0001
0000
0010
0000
,
0010
0000
0100
0000
,
0100
0000
1000
0000
,
1000
0000
0010
0010
,
0010
0000
0100
0100
,
0100
0000
0001
0000
,
1001
1000
1000
1000
,
0000
0001
0001
0001
,
0000
0100
0100
0100
,
0000
0010
0010
0010
,
0000
1000
1000
1000
,
0000
0100
0000
0100
,
0000
0010
0000
0010
,
0000
0100
0000
0100
,
0000
0010
0000
1001
,
0000
2000
0000
3000
,
1000
0002
0000
0003
,
0001
0200
0000
0300
,
0100
0020
0000
0030
,
0010
1000
0001
1000
,
0000
0001
1000
0001
,
0000
0100
0010
0100
,
0000
0010
0100
0010
,
0000
1001
0000
0010
,
0010
0000
0000
0100
,
0010
0110
0000
0100
,
0100
0000
0000
0001
,
1000
1001
0000
0100
,
0100
0000
0010
0010
,
0100
0001
0000
0010
,
0100
1000
0000
0100
,
0010
0002
0000
0003
,
0001
2000
0000
3000
,
1000
0020
0000
0030
,
0010
0200
0000
0300
,
0000
0010
1000
0010
,
0000
0100
0001
0100
,
0000
0001
1000
0001
,
0000
1000
0001
1000
,
0000
0000
0010
0000
,
0010
0000
0100
0000
,
0100
0000
0001
0000
,
0001
0000
1000
0000
,
1000
0000
0001
0001
,
0000
0000
1000
1000
,
0000
0000
0010
0010
,
0000
0000
0100
0100
,
0000
2002
0000
0000
,
3003
0220
0000
0000
,
0330
2200
0000
0000
,
3300
0022
0000
0000
,
0033
0000
1000
0000
,
0000
0000
0001
0000
,
0000
0000
0100
0000
,
0000
0000
0010
0000
,
0000
0100
0100
0000
,
0000
0010
0010
0000
,
0000
1000
1000
0000
,
0000
0001
0001
0000
,
0000
0100
0000
0100
,
0000
0010
0000
0010
,
0000
1000
0000
1000
,
0000
0001
0000
0001
,
0000
1001
0000
1001
,
0000
1001
0000
0000
,
0000
0110
0000
0110
,
0000
0110
0000
0000
,
0000
1010
0000
1010
,
0000
1010
0000
0000
,
0000
0101
0000
0101
,
0000
0101
0000
0000
,
0000
1000
1000
1000
,
0000
1000
1000
1000
,
0000
0100
0100
0100
,
0000
0100
0100
0100
,
0000
0010
0010
0010
,
0000
0010
0010
0010
,
0000
0001
0001
0001
,
0000
0001
0001
0001
,
0000
1000
0000
1000
,
0000
0100
0000
0100
,
0000
0010
0000
0010
,
0000
0001
0000
0001
,
0000
1000
0001
1000
,
0000
0001
1000
0001
,
0000
0100
0010
0100
,
0000
0010
0100
0010
,
0000
2000
0000
0000
,
3001
0000
0000
0000
;

//---------------dance-single - ----------------
#NOTES:
     dance-single:
     BASIC:
     Easy:
     7:
     0.000000,0.000000,0.000000,0.000000,0.000000,0.000000,0.000000,0.000000,0.000000,0.000000,0.000000,0.000000,0.000000,0.000000,0.000000,0.000000,0.000000,0.000000,0.000000,0.000000,0.000000,0.000000:
0000
0010
0010
0000
,
0100
0100
1001
0000
,
0000
0000
0110
0000
,
0000
0000
0000
1000
,
0000
1000
1000
0001
,
0000
0001
0001
1000
,
0010
0110
0100
0000
,
2002
0000
3003
0100
,
0000
0100
0100
0001
,
0000
0010
0010
0100
,
1000
1001
0010
0000
,
0220
0000
0330
0001
,
0002
0003
0000
1000
,
2000
3000
0000
0010
,
0010
0110
0000
0100
,
0100
0100
1001
0000
,
0010
0100
0001
0000
,
0010
0100
1000
0001
,
0110
1000
0100
0010
,
0001
0100
0000
0100
,
0010
1000
0010
0000
,
0100
0001
0010
0100
,
0010
0001
1000
0010
,
0100
1000
0000
0100
,
0010
0100
0001
0000
,
0010
0001
0010
1000
,
0000
0010
0100
2002
,
3003
0120
0000
0000
,
1030
0010
0000
0000
0200
0000
0001
0000
,
0310
1002
0000
0000
,
0103
0010
0000
0000
2000
0000
0100
0000
,
3010
1000
0010
0100
,
0001
0010
0001
0000
0100
0000
0001
0000
,
1000
0010
1000
0000
0100
0000
0010
0000
,
0100
1000
0100
0000
1000
0000
0001
0000
,
0010
0100
0010
0000
0011
0000
1000
0000
,
1010
0001
0100
0001
,
1000
0010
1000
1100
,
1001
0010
0100
0010
,
0001
1000
1010
0100
,
0101
0010
0001
0100
,
0101
1001
0010
0100
,
1000
0100
0010
0100
,
0001
2020
0000
3030
,
0100
0020
0200
0000
0000
0000
0330
0000
,
0001
2000
0002
0000
0000
0000
3003
0000
,
0100
2000
0200
0000
0000
3000
0300
0000
,
1001
0010
0010
0020
,
0030
0100
0100
0200
,
0300
0001
0001
0002
,
0003
0000
1000
0000
1000
0010
1000
0000
,
1001
0220
0000
0330
,
1000
0100
0010
0000
0022
0000
0033
0000
,
0001
0100
0010
0000
2020
0000
3030
0000
,
1000
0001
0100
0000
0220
0300
0030
0000
,
1001
0010
1000
0010
,
1000
0001
0010
0000
0100
0000
0010
0000
,
0001
1000
0100
0000
0010
0000
0100
0000
,
1000
0100
0010
0000
0001
0000
0100
0000
,
0010
2000
0000
0000
0000
0000
0000
0000
,
0001
3002
0000
0000
0000
0000
0000
0000
,
0100
0203
0000
0000
0000
0000
0000
0000
,
0010
0320
0000
0000
0000
0000
0000
0000
,
0030
1001
0000
0010
,
0010
0110
0000
1000
,
1000
1001
0000
0100
,
0100
0110
0000
0001
,
0001
0000
0002
0000
0000
0000
1003
0010
,
1000
0000
0200
0000
0000
0000
0310
0001
,
0010
0000
2001
0000
0000
0000
3010
1000
,
0010
0000
0120
0000
0000
0000
0031
0010
,
0001
0100
0010
1000
,
1010
0001
0100
0010
,
0011
0100
0010
0100
,
1100
0000
1000
0000
0001
1000
0001
0000
,
0110
2001
0000
3010
,
1000
0100
0001
0100
,
1000
0021
0000
0031
,
0100
0010
1000
0010
,
0100
1200
0000
0310
,
0100
0002
0000
2003
,
0000
3001
0010
0100
,
1000
0020
0000
0230
,
0000
0310
0010
0100
,
0100
0001
0010
1000
,
0010
0001
0001
1000
,
1000
0100
0001
0100
,
1000
0010
0110
0100
,
0110
0010
0100
0001
,
0100
0010
1010
0010
,
0011
0010
0100
0010
,
1000
0100
0101
0100
,
1100
0100
0010
0001
,
1000
0100
0101
0010
,
1010
1000
0001
1000
,
0001
0010
0010
0100
,
0100
1000
1000
0010
,
0010
0100
0100
0001
,
0001
1000
1000
0001
,
0001
0120
0000
0000
,
1030
0010
0000
0000
0000
0000
0000
0000
;

//---------------dance-single - ----------------
#NOTES:
     dance-single:
     DIFFICULT:
     Medium:
     9:
     0.000000,0.000000,0.000000,0.000000,0.000000,0.000000,0.000000,0.000000,0.000000,0.000000,0.000000,0.000000,0.000000,0.000000,0.000000,0.000000,0.000000,0.000000,0.000000,0.000000,0.000000,0.000000:
0000
1001
2002
3003
,
0110
0110
0220
0330
,
0000
0000
0000
2000
0002
0000
0000
0000
,
3003
0000
0000
0000
0010
0000
0100
1000
,
0100
0000
1001
0000
0010
0000
0100
0001
,
0100
0000
1001
0000
0010
1000
0100
0010
,
0010
0010
1001
0000
0100
0001
0010
0100
,
2000
0000
3002
0000
0103
0000
0010
0001
,
0010
0000
0110
0000
0100
0000
0010
1000
,
0010
0000
0110
0000
0100
1000
0001
0010
,
0100
0100
0110
0000
0010
0001
1000
0100
,
0020
0000
0230
0000
1300
0000
0001
0010
,
0001
0000
1000
1000
0010
0000
0100
0001
,
0100
0000
0010
0010
0100
0000
1000
0001
,
1000
0000
0100
0100
0001
0000
0100
1000
,
0002
0023
0130
1010
,
0100
0001
0010
0100
1000
0000
0010
0000
,
0101
0000
1000
0100
0010
0001
2000
0000
,
3000
0000
0001
0000
0100
0010
0200
0000
,
0320
0000
1030
0000
0010
0100
0001
0010
,
0100
0010
0001
0000
1000
0100
0001
0100
,
1000
0010
0100
0010
0010
0010
0100
0000
,
1001
0000
0010
0100
0010
0001
0020
0000
,
0230
0000
1300
0000
0010
0100
0010
0000
,
1001
0000
0100
0000
0010
1000
0010
0000
,
1100
0000
0010
0001
1000
0001
0100
0000
,
0011
0000
0100
0010
1000
0100
0020
0000
,
0000
0230
0001
1300
,
0101
0020
1000
0130
,
0110
0002
1000
0013
,
1100
2000
0001
3100
,
1000
0000
0010
0100
0001
0010
0100
1000
,
0010
0100
0001
0000
1000
0100
0010
1000
,
0001
0100
0010
0100
0001
0100
1000
0010
,
0100
0000
0001
0010
0100
0010
0001
1000
,
0100
0010
1100
0000
0001
0010
0001
0000
,
1000
1000
0011
0000
0100
1000
0100
0000
,
0010
0010
1001
0000
0100
0001
0100
0000
,
0001
0001
1010
0000
0100
1000
0020
0000
,
0230
0000
0302
0000
0013
0100
1000
0001
,
0200
0000
0310
0000
1000
0100
0001
0100
,
0020
0000
0031
0000
0100
0010
0001
0010
,
2000
0000
3010
0000
1000
0100
0010
0100
,
0001
2001
0000
3100
,
0010
0000
1000
0000
0010
0001
0100
0000
,
0011
1002
0000
0013
,
0100
0000
0010
0000
1000
0010
0001
0100
,
0010
1000
0001
0000
0010
0100
0010
1000
,
0001
0100
1000
0000
0010
0000
0100
0001
,
0010
1000
0001
1000
0010
0000
1001
0000
,
0100
0001
0010
0000
0100
0000
0010
0000
,
0100
0000
2002
0000
0000
3003
0010
0010
,
0010
0000
2200
0000
0000
3300
0001
0001
,
0001
0000
0022
0000
0000
0033
1000
1000
,
1000
0010
0000
0000
0220
0000
0000
0000
0000
0000
0330
0000
0100
0000
0100
0000
,
0100
1000
0000
0000
0011
0000
0000
0000
0100
0000
0000
0010
1000
0000
1000
0000
,
0001
0000
0000
0000
1100
0000
0000
0000
0010
0000
0000
0100
0001
0000
0001
0000
,
0010
0000
0100
0010
0001
0010
0100
1000
,
0001
0000
0100
0010
0100
1000
0100
0010
,
1000
0100
0012
0000
0000
0000
0000
1000
,
0023
0000
0230
0000
0000
0000
0000
0001
,
2300
0000
3020
0000
0000
0000
0000
0100
,
0100
0000
2030
0000
0000
0000
0000
0010
,
0000
0000
3002
0000
1000
0000
0010
1000
,
1000
0000
0203
0000
0001
0000
1000
0001
,
0001
0000
0320
0000
0001
0000
0100
1000
,
1000
0000
0230
0000
0001
0010
0310
0000
,
1001
0000
0220
0000
0000
0300
0000
1030
,
0010
0000
0202
0000
0000
0003
0000
0301
,
1000
0000
2020
0000
0000
3000
0000
0130
,
0010
0000
2002
0000
0000
0000
0000
3003
,
0000
0000
1000
0000
0001
0010
0001
0000
,
1100
0000
0000
0000
0001
0000
0000
0100
0010
0000
0100
0000
0010
0000
0000
0000
,
1001
0000
0010
0000
0100
0001
0100
0000
,
1010
0000
0000
0000
0100
0000
0000
0010
0001
0000
0010
0000
0200
0000
0000
0000
,
2300
0000
0000
0000
3001
0000
0000
0021
0000
0000
0000
0000
0130
0000
0000
2100
,
0000
0000
0000
0000
3010
0000
0000
1002
0000
0000
0000
0000
0103
0000
0000
0021
,
0000
0000
0031
0010
0100
0010
1000
0000
,
0010
0001
0100
0010
1000
0000
0100
1000
,
0100
0010
0001
0100
2000
0000
3100
0010
,
0200
0000
0301
0010
2000
0000
3010
0001
,
0200
0000
0000
0000
0310
0000
0000
1000
0000
0000
0001
0000
0100
0000
0000
0010
,
0000
2000
0002
0000
0000
3000
0003
0000
,
0110
0000
1000
0010
0100
0010
1000
0010
,
0100
0000
0000
0001
0010
0000
0100
0000
0010
0000
0001
0000
0010
0000
0100
0000
,
0010
0100
1000
0001
1000
0010
1000
0001
,
0100
0000
0000
0010
1000
0000
0001
0000
0010
0000
1000
0000
0010
0000
0001
0000
,
0100
0010
1000
0100
0002
0000
0103
1000
,
0020
0000
0130
0001
2000
0000
3010
1000
,
0100
0010
0001
0100
0020
0000
0130
0001
,
2000
0000
3010
1000
0002
0000
0013
0001
,
0100
1000
0100
0001
0011
0000
0100
1000
,
1010
0000
0100
0001
0010
1000
0010
0100
,
1100
0000
0010
0100
1001
0000
0100
0010
,
1001
0000
0010
0100
0001
0010
0100
1000
,
0110
0000
0000
0000
2001
0000
0000
0010
0000
0000
0100
0000
0100
0000
0000
0001
,
0000
0000
0010
0000
0010
0000
0000
0100
0000
0000
0001
0000
0001
0000
0000
0010
,
0000
0000
0100
0000
3020
0000
0000
1000
0000
0000
0001
0000
0001
0000
0000
0100
,
0000
0000
1000
0000
1000
0000
0000
0100
0000
0000
0001
0000
0001
0000
0000
0000
,
0130
2002
0000
3000
,
0013
0001
0000
0000
0000
0000
0000
0000
;

//---------------dance-single - ----------------
#NOTES:
     dance-single:
     EXPERT:
     Hard:
     11:
     0.000000,0.000000,0.000000,0.000000,0.000000,0.000000,0.000000,0.000000,0.000000,0.000000,0.000000,0.000000,0.000000,0.000000,0.000000,0.000000,0.000000,0.000000,0.000000,0.000000,0.000000,0.000000:
0000
1000
0010
2000
0020
0000
3030
0100
,
0001
0001
1000
0010
2002
0000
0000
3003
,
0000
0000
0000
0000
0000
0000
0001
0010
2000
0000
0000
0000
0000
0000
0000
0000
,
0000
0000
3000
0000
0001
0000
1000
0010
,
1000
0000
0000
0000
0010
0100
0020
0000
0000
0000
1000
0000
1030
0000
0000
0000
,
0100
0000
0000
0000
0010
0001
2000
0000
0000
0000
3010
0000
0100
0000
0010
0000
,
1001
0000
0000
0000
0100
0010
0200
0000
0000
0000
0000
0000
0301
0000
0010
0000
,
0100
0000
1010
0000
0100
0000
0001
1000
,
0010
0000
0000
0000
1000
0100
0020
0000
0000
0000
0001
0000
0031
0000
0000
0000
,
0100
0000
0000
0000
0001
0010
0002
0000
0000
0000
1003
0000
0001
0000
1000
0000
,
0110
0000
0000
0000
0001
1000
0200
0000
0000
0000
1000
0000
1300
0000
0100
0000
,
0010
0000
0101
0000
0010
0000
1000
0010
,
0001
0010
1000
0010
0010
0000
0100
0001
,
0100
0010
0001
0010
0010
0000
0100
0001
,
1000
0100
0010
0100
0100
0000
1000
0001
,
2010
0000
0000
0000
3002
0000
0000
0000
0103
0000
0000
0001
0010
0000
0001
1000
,
0001
0000
0100
0000
0000
0000
0010
0000
1000
0000
0100
0000
0010
0000
0000
0001
,
0000
1000
0010
0000
0100
0000
0000
0000
0001
0000
0010
0000
0100
0000
1000
0000
,
1001
0000
0000
0000
0100
0000
0000
0010
1000
0000
0010
0100
0010
0000
0100
0000
,
0000
0001
0000
0000
0020
0000
0000
0000
0001
0000
0000
0000
1000
0000
0000
0000
,
0031
0010
0100
0000
1000
0000
0001
0000
1000
0000
0000
0010
0000
0100
0001
0000
,
1000
0100
0200
0000
0001
0000
1000
0000
,
0301
0100
0010
0000
0100
0000
1000
0000
0100
0000
0010
0000
0012
0000
0000
0000
,
0203
0000
0000
0000
0310
0000
1000
0000
0100
0000
1000
0010
0000
0000
0100
0000
,
0001
0000
0010
0000
0010
0000
0001
0000
0100
0000
0001
0010
0001
0000
1000
0000
,
1000
0000
0000
0000
0010
0000
0100
0000
0010
0000
0000
0001
0000
0010
0100
0000
,
0010
0100
1000
0000
0100
0020
0002
0000
,
0033
2100
0010
0100
,
3001
1000
0002
0000
0000
0000
0010
0000
0010
0000
0000
0000
0100
0000
0000
0000
,
1003
0001
2000
0000
0000
0000
0010
0000
0010
0000
0000
0000
0100
0000
0000
0000
,
3001
0010
0200
0000
0000
0000
0001
0000
0001
0000
0001
0000
0000
0000
1000
0000
,
1000
1300
0020
0000
0100
0000
0001
0000
,
0130
0010
1000
0000
0002
0000
0000
0000
1000
0000
0000
0000
0010
0000
0000
0000
,
0103
0001
0010
0000
0200
0000
0000
0000
0001
0000
0000
0000
1000
0000
0000
0000
,
0301
0100
1000
0000
0002
0000
0000
0000
1000
0000
0000
0000
0010
0000
0000
0000
,
1003
0000
1001
0000
0010
0000
0001
0010
,
0000
0000
0100
0000
1000
0000
0000
0100
0010
0000
0001
1000
0001
0000
1000
0000
,
0000
0010
0100
0001
0010
0100
1000
0001
,
1000
0000
0010
0000
0001
0000
0000
0010
0100
0000
0001
1000
0001
0000
0100
0000
,
0000
1000
0000
0100
0010
0000
0100
0000
0002
0000
0000
0000
0013
0000
0100
0000
,
2000
0000
0000
0001
3001
1000
0010
0200
,
0000
0301
0020
0000
0130
1000
0002
0000
,
0103
0010
0002
0000
0013
0100
0010
0100
,
1000
0100
2002
0000
0000
0000
3003
0000
,
0100
0010
0100
0000
2020
0000
0000
0000
0000
0000
0000
0000
3030
0000
0000
0000
,
0001
0100
0001
0000
0220
0000
0000
0000
0000
0000
0000
0000
0330
0000
0000
0000
,
1000
0001
1000
0000
0202
0000
0000
0000
0000
0000
0000
0000
0303
0000
0000
0000
,
0000
0000
0010
0001
1000
0001
0100
0001
,
0010
0001
0010
0000
0000
0000
0100
0000
1000
0000
0100
0000
0001
0000
0100
0000
,
1000
0001
1000
0000
0000
0000
0010
0000
0100
0000
0010
0000
0001
0000
0010
0000
,
0100
0001
1000
0000
0000
0000
0100
0000
0010
0000
0001
0000
0010
0000
0100
0000
,
1000
0001
0020
0000
0100
0100
0000
0100
,
0130
0000
2001
0000
3100
0010
0100
0100
,
0000
1000
0000
0002
0010
0000
0010
0000
0000
0000
0010
0000
0013
0000
0000
0000
,
1001
0000
0010
1000
0001
2000
0010
3020
,
0000
1030
0200
0000
0010
0010
0000
0010
,
0310
0000
1002
0000
0103
0010
0100
0100
,
0000
0001
0000
0010
0100
0000
1000
0000
0100
0000
0010
0000
0001
0000
1000
0000
,
0010
0100
0020
0000
0000
0000
0100
0000
0100
0000
0000
0000
1000
0000
1030
0000
,
0010
0100
0002
0000
0000
0000
0000
0000
0000
0000
0000
0000
0000
0000
1003
0000
,
0100
0010
0200
0000
0000
0000
0000
0000
0000
0000
0000
0000
0000
0000
0301
0000
,
0100
1000
0020
0000
0000
0000
0000
0000
0000
0000
0000
0000
0000
0000
1030
0000
,
0001
0100
2000
0000
0000
0000
0000
0000
0000
0000
0000
0000
0000
0000
3100
0000
,
0020
2030
0001
0100
,
3001
0010
0200
0000
0001
0000
1000
0000
,
0310
0100
2000
0000
0100
0000
3010
1000
,
0100
0000
0001
0000
0200
0000
0000
0000
0310
0000
0001
0000
2000
0000
0000
3001
,
0000
0100
0001
0000
0220
0000
0000
0000
0000
0000
0000
0000
0330
0000
0000
0000
,
1000
0001
0010
0000
2200
0000
0000
0000
0000
0000
0000
0000
3300
0000
0000
0000
,
0010
0100
0001
0000
0220
0000
0000
0000
0000
0000
0000
0000
0330
0000
0000
0000
,
1000
0010
0001
0000
0022
0000
0000
0000
0000
0000
0000
0000
0033
0000
0000
0000
,
0000
0000
0000
0000
1000
0000
0010
0000
0100
0001
0200
0000
0000
0000
0001
0000
,
0000
0000
0301
0000
0010
0000
0100
0000
1000
0100
1000
0100
2000
0000
0000
0000
,
0001
0000
0000
0000
3001
0000
0100
0000
0010
1000
0020
0000
0000
0000
1000
0000
,
0000
0000
1030
0000
0010
0000
0100
0000
0001
0100
0001
0100
0002
0000
0000
0000
,
0023
0000
0130
1000
0100
0010
0001
0100
,
0010
0000
0000
1000
0100
0000
1000
0000
0001
0000
0100
0000
0001
0000
0010
0000
,
0001
0100
0010
1000
0100
0010
0001
0010
,
0100
0000
0000
1000
0100
0000
0001
0000
0100
0000
0010
0000
0001
0000
1000
0000
,
0001
0010
0100
1000
0001
0010
0100
0001
,
1000
0000
0000
0010
0001
0000
1000
0000
0100
0000
0010
0000
1000
0000
0001
0000
,
0100
0010
0001
1000
0010
0100
0001
0010
,
0100
0000
0000
1000
0001
1000
0000
0001
0100
0000
0000
0001
1000
0001
0000
1000
,
0020
0000
0130
0010
0000
1010
0000
0100
,
0000
0011
0000
0100
0000
1001
0000
0010
,
0001
1000
0001
1000
0000
0000
0110
0000
0000
0000
0001
0000
0000
0000
1010
0000
,
0000
1000
0000
0110
0000
0001
0000
0010
,
0100
0010
0100
0010
0000
0000
1000
0000
0100
0000
1000
0000
0000
0000
0100
0000
,
0001
0100
0000
0010
0001
0010
0000
0100
,
1000
0001
1000
0001
0000
0000
0010
0000
0100
0000
1000
0000
0000
0000
0100
0000
,
0010
0001
0000
0100
0010
1000
0000
0001
,
1000
0001
1000
0001
0010
0000
0000
0100
1000
0000
0010
0000
0001
0000
0000
0010
,
1000
0000
0100
0000
0010
0000
0000
0001
0000
0000
1000
0000
0010
0000
0000
1000
,
0000
0001
0100
0000
0010
0000
0000
1000
0001
0000
0010
0000
0001
0000
0000
0010
,
1000
0000
0010
0000
0001
0000
0000
0100
0010
0000
0001
0000
0010
0000
0000
0100
,
0001
0100
1000
0100
0020
0000
0130
0010
,
0002
0000
0000
0000
0013
0000
0100
0000
0010
2000
0000
0000
3100
0000
0010
0000
,
0001
0020
0000
0000
0130
0000
0010
1000
0200
0000
0000
0000
0310
0000
0001
1000
,
0020
0000
0000
0000
0130
0000
0001
0010
0200
0000
0000
0000
1300
0000
0100
0010
,
0001
2000
0000
0000
0000
0000
0000
0000
0000
0000
0000
0000
0000
0000
0000
0000
,
3001
1000
0001
0000
0000
0000
0000
0000
0000
0000
0000
0000
0000
0000
0000
0000
;

//---------------dance-single - ----------------
#NOTES:
     dance-single:
     CHALLENGE:
     Challenge:
     15:
     0.651007,0.668081,0.039541,0.370693,0.637591,922.000000,914.000000,8.000000,75.000000,0.000000,0.000000,0.651007,0.668081,0.039541,0.370693,0.637591,922.000000,914.000000,8.000000,75.000000,0.000000,0.000000:
// measure 0
0000
1000
0001
1000
0002
0000
0000
0013
,  // measure 1
0100
0010
0001
0010
2000
0000
0000
0000
,  // measure 2
3000
0000
0000
0000
0000
0000
0010
0001
0200
0000
0000
0000
0310
0000
1000
0100
,  // measure 3
0000
0000
0010
0000
0000
0100
0000
0000
1001
0000
0001
0000
0010
0001
0010
0000
,  // measure 4
0001
0000
0100
0001
0100
0001
0100
0000
0010
0000
1000
0000
0100
1000
0100
0000
,  // measure 5
1000
0000
0001
1000
0001
1000
0001
0000
0010
0000
0100
0000
0010
0000
0100
0000
,  // measure 6
1000
0000
0001
0100
1000
0100
0001
0000
0100
0000
0010
0000
0100
0000
0010
1000
,  // measure 7
0000
0000
0100
0000
0010
0001
0000
1000
0001
0000
0100
0000
0010
1000
0010
0000
,  // measure 8
1000
0000
0100
0001
0100
0001
0100
0000
1000
0000
0010
0000
0100
0001
0100
0000
,  // measure 9
0001
0000
0010
1000
0010
1000
0010
0000
0001
0000
0100
0000
0010
0000
0100
0000
,  // measure 10
0010
0000
0001
0010
1000
0010
0001
0000
0010
0000
0100
0000
0001
0000
0010
0100
,  // measure 11
0000
0000
1000
0000
0010
1000
0000
0001
2000
0000
0000
0000
3100
0000
0010
0001
,  // measure 12
0100
0000
0001
0000
1000
0001
1000
0000
0002
0000
0000
0000
0013
0000
0100
1000
,  // measure 13
0100
0000
1000
0000
0010
0100
0002
0000
0010
0000
0010
0000
0013
0000
0010
0001
,  // measure 14
0000
0000
1000
0000
0010
1000
0010
0000
0110
0000
0000
0000
0010
0000
1000
0010
,  // measure 15
0001
0000
0010
0000
1000
0000
0100
0000
0001
0100
1000
0100
0001
0000
0100
0010
,  // measure 16
1000
0000
0010
0000
0100
0010
0001
0000
1010
0000
0000
0000
0100
0000
0001
0100
,  // measure 17
0010
0000
0100
0000
0010
1000
0002
0000
0100
0000
0100
0000
0103
0000
0100
0001
,  // measure 18
1000
0000
0000
0000
0101
0000
0000
0000
1000
0000
0001
0010
1000
0000
0010
0000
,  // measure 19
0001
0000
1000
0000
0100
0000
1000
0000
0010
1000
0010
1000
0010
0000
0100
0000
,  // measure 20
0001
0010
0200
0000
0000
0000
0310
0000
1000
0000
0010
0001
0010
0000
0001
0000
,  // measure 21
1000
0100
0020
0000
0000
0000
0001
0000
0031
0000
0001
0100
0000
0000
0010
0000
,  // measure 22
1000
0001
0200
0000
0000
0000
0310
0000
1000
0000
0100
1000
0001
0000
0010
0000
,  // measure 23
1000
0000
0010
0000
0001
0000
1000
0100
1000
0000
0001
0000
0010
0000
0100
1000
,  // measure 24
0100
0010
0200
0000
0000
0000
1300
0001
0010
0001
0100
0000
0010
0000
1000
0001
,  // measure 25
0100
0001
0020
0000
0000
0000
0031
0000
0010
0000
0100
0000
1000
0000
0100
0010
,  // measure 26
0001
1000
0002
0000
0000
0000
1003
0000
0010
0000
0100
0001
0020
0000
0000
0000
,  // measure 27
0130
0000
0000
0000
0000
0000
1000
0000
0001
0000
0100
0000
0001
0000
0000
0010
0000
0000
0100
0000
1000
0000
0001
0000
,  // measure 28
1000
0000
0000
0010
0000
0000
0100
0000
0000
0000
0000
0000
0010
0000
0000
0000
0001
0000
0000
0000
0010
0000
0000
0000
1000
0000
0000
0000
0000
0000
0010
0000
0000
0000
0000
0000
0100
0000
0000
0000
0001
0000
0000
0000
0100
0000
0000
0000
,  // measure 29
1000
0000
0000
0100
0000
0000
0010
0000
0000
0000
0000
0000
0100
0000
0000
0000
0001
0000
0000
0000
0010
0000
0000
0000
0001
0000
0000
0000
0000
0000
1000
0000
0000
0000
0000
0000
0100
0000
0000
0000
1000
0000
0000
0000
0100
0000
0000
0000
,  // measure 30
0010
0000
0000
0001
0000
0000
1000
0000
0000
0000
0000
0000
0010
0000
0000
0000
0100
0000
0000
0000
0001
0000
0000
0000
0010
0000
0000
0000
0000
0000
0001
0000
0000
1000
0000
0000
0100
0000
0000
0000
0010
0000
0000
0000
0001
0000
0000
0000
,  // measure 31
0100
0000
0000
0001
0000
0000
1000
0000
0000
0000
0000
0000
0001
0000
0000
0010
0000
0000
0001
0000
0000
0010
0000
0000
0100
0000
0000
0000
0010
0000
0000
0000
0100
0000
0000
0000
1000
0000
0000
0000
0001
0000
0000
0000
0010
0000
0000
0000
,  // measure 32
0001
0000
0000
0100
0000
0000
0010
0000
0000
0000
0000
0000
0100
0000
0000
0010
0000
0000
0100
0000
0000
0010
0000
0000
1000
0000
0000
0000
0001
0000
0000
0000
0010
0000
0000
0000
0100
0000
0000
0000
0010
0000
0000
0000
0001
0000
0000
0000
,  // measure 33
0010
0000
0000
0001
0000
0000
1000
0000
0000
0000
0000
0000
0010
0000
0000
1000
0000
0000
0100
0000
0000
1000
0000
0000
0100
0000
0000
0000
0000
0000
1000
0000
0000
0000
0000
0000
0010
0000
0000
0000
0100
0000
0000
0000
0001
0000
0000
0000
,  // measure 34
0010
0000
0000
0001
0000
0000
1000
0000
0000
0000
0000
0000
0100
0000
0000
0010
0000
0000
0100
0000
0000
0010
0000
0000
0001
0000
0000
0000
0000
0000
0010
0000
0000
0000
0000
0000
0001
0000
0000
0000
0100
0000
0000
0000
0010
0000
0000
0000
,  // measure 35
0100
0001
1000
0000
1100
0000
0000
0000
1000
0100
0001
0100
1000
0000
0001
0000
,  // measure 36
0010
0100
0001
0000
0100
0010
0000
0100
0010
0100
0010
0001
0010
0000
0001
1000
,  // measure 37
0001
1000
0001
0000
0011
0000
0000
0000
0001
0010
1000
0010
0001
0000
0100
0000
,  // measure 38
0010
1000
0001
0000
0010
0100
0000
0010
0100
0010
0100
1000
0002
0000
0203
0000
,  // measure 39
2300
0000
3002
0000
0013
0000
0001
0000
0100
0001
0100
0000
0001
0000
1000
0010
,  // measure 40
0001
0010
1000
0000
0010
0000
0100
0000
0001
0000
1000
0100
1000
0000
0001
0010
,  // measure 41
1000
0010
0001
0000
0100
0000
0010
0000
1000
0001
1000
0000
0010
0000
1000
0100
,  // measure 42
0001
0100
1000
0000
0001
0010
0000
0010
0100
0000
2000
0000
3200
0000
0302
0000
,  // measure 43
2003
0000
3020
0000
0032
0000
0000
0103
0020
0000
0100
0000
0230
0000
0000
0301
,  // measure 44
1000
0001
0010
0000
0200
0000
0000
0000
0001
0000
0000
0000
0010
0000
0000
0000
,  // measure 45
1300
0100
0010
0000
0002
0000
0000
0000
1003
0000
0010
0000
2000
0000
0000
3010
,  // measure 46
0001
0010
0100
0000
0020
0000
0000
0000
0100
0000
0100
0000
0230
0000
0302
0000
,  // measure 47
2003
3200
0302
0000
0100
0000
1003
0100
,  // measure 48
0010
0001
1000
0000
0020
0000
0000
0000
0001
0000
0000
0000
0130
0000
0010
0000
,  // measure 49
0001
0010
1000
0000
0200
0000
0000
0000
1000
0000
0000
0000
0301
0000
0100
1000
,  // measure 50
0100
0010
0100
0000
2000
0000
0000
0000
3020
0000
0230
0000
0302
0000
2003
0000
,  // measure 51
3200
0000
0302
0000
0003
0000
0000
1000
0100
0000
1000
0001
1000
0000
0001
0010
,  // measure 52
0100
0010
0001
0000
0000
0000
0000
0100
0001
0000
0010
0100
0010
0000
0100
1000
,  // measure 53
0100
0001
0100
0000
0000
0000
0000
1000
0010
0000
0100
0001
0100
0000
0001
0010
,  // measure 54
1000
0010
0001
0000
0000
0000
0000
0010
0100
0000
2000
0000
3002
0000
0023
0000
,  // measure 55
2030
0000
3002
0000
0103
0000
1000
0100
1000
0000
0010
0000
0100
0000
0010
0100
,  // measure 56
0010
0001
0010
0000
0100
0000
0001
0010
0001
0000
1000
0000
0010
0000
0100
0001
,  // measure 57
0100
1000
0100
0000
0010
0100
0010
0100
0001
0000
0010
0001
0010
0000
0001
1000
,  // measure 58
0100
0001
0100
0000
1000
0100
1000
0100
0010
0000
0001
0100
0001
0000
0010
0100
,  // measure 59
0010
0100
2000
0000
0000
0000
0000
0000
0000
0000
0000
0000
0000
0000
0010
0000
,  // measure 60
3010
0100
0002
0000
0000
0000
0000
0000
0000
0000
0000
0000
0000
0000
1000
0000
,  // measure 61
1003
0001
0020
0000
0000
0000
0000
0000
0000
0000
0000
0000
0000
0000
0001
0000
,  // measure 62
0031
0010
2000
0000
0000
0000
0000
0000
0000
0000
0000
0000
0000
0000
0010
0000
,  // measure 63
3020
0000
0230
0000
1000
0000
0001
0301
,  // measure 64
0100
1000
0001
0000
0020
0000
0000
0000
1000
0000
0000
0000
0001
0000
0031
0000
,  // measure 65
0010
0001
1000
0000
0200
0000
0000
0000
0001
0000
0000
0000
0010
0000
0310
0000
,  // measure 66
0100
1000
0001
0000
0200
0000
0000
0000
0001
0000
0301
0000
2000
0000
0000
0000
,  // measure 67
3010
0000
1000
0000
0001
0010
0000
0010
0001
0000
0100
0000
0010
0000
1000
0000
,  // measure 68
0100
1000
0100
0000
1000
0010
0000
0010
1000
0010
1000
0000
0001
0000
0100
0000
,  // measure 69
0001
0010
0001
0000
0100
0000
0000
0010
1000
0000
0100
0010
0100
0000
0010
0000
,  // measure 70
0001
1000
0001
0000
1000
0100
0000
0100
0010
0001
0010
0100
2000
0000
3002
0000
,  // measure 71
0023
0000
2030
0000
3001
0000
0100
0000
1000
0100
1000
0000
0100
0000
0001
0000
,  // measure 72
0100
1000
0100
0000
1000
0000
0010
0000
0001
0010
0001
0000
0010
0000
1000
0000
,  // measure 73
0010
0001
0010
0000
0100
0000
0001
0100
0001
0100
0001
0000
0100
0000
0010
0001
,  // measure 74
0010
0001
0010
0000
0100
0000
0010
0000
1000
0100
1000
0100
1000
0000
0010
0000
,  // measure 75
0100
0001
0100
0000
2001
0000
0000
3001
0000
1000
0010
0000
0200
0000
0000
0301
,  // measure 76
0000
0010
0100
0000
0020
0000
0000
0031
0000
1000
0010
0000
0100
0000
0001
0000
,  // measure 77
0100
0000
1000
0000
0100
0000
0001
0010
0002
0000
0000
0000
1003
0000
0100
0010
,  // measure 78
0200
0000
0000
0000
0310
0000
0001
1000
0002
0000
0100
0000
0103
0000
0010
0000
,  // measure 79
1000
0000
0001
0000
0020
0000
0000
0130
1000
0100
0000
0010
0002
0000
0000
1003
,  // measure 80
0010
1000
0000
0001
0200
0000
0000
0310
1000
0010
0000
0100
0010
0000
0100
0000
,  // measure 81
0001
0000
0010
0000
0100
0000
1000
0000
0001
0100
1000
0100
0001
0000
0010
0000
,  // measure 82
1000
0010
0001
0020
2000
0000
0000
0000
0000
0000
0030
0000
3000
0000
0000
0000
,  // measure 83
1001
0000
0000
0000
0100
0000
0001
0000
0010
0000
0001
0000
0010
0100
0000
0000
,  // measure 84
1000
0000
0001
0000
1000
0001
0000
0000
0010
0000
0100
0000
0010
0001
0000
1000
,  // measure 85
0001
1000
0001
0000
1000
0000
0010
0000
0100
0000
0001
0000
0100
0001
0000
0000
,  // measure 86
0010
0000
0001
0000
0010
0100
0000
0000
1000
0000
0001
0000
1000
0010
1000
0000
,  // measure 87
0001
0100
0001
0100
0010
0000
1000
0000
0100
0000
0010
0000
0001
0000
0100
0001
,  // measure 88
0010
1000
0010
0000
0100
0000
0001
0000
0100
0000
1000
0000
0100
0000
0010
0001
,  // measure 89
1000
0001
0010
0000
0100
0000
0001
0000
0100
0000
1000
0000
0010
0000
0001
0010
,  // measure 90
1000
0010
0100
0000
0010
0000
1000
0000
0010
0000
0001
0000
0010
0000
0100
0001
,  // measure 91
0010
0001
0010
0000
0100
0000
1000
0010
1000
0000
0001
0100
0001
0000
1000
0100
,  // measure 92
1000
0000
0001
0010
0001
0000
0000
0100
0010
0000
0000
0001
0010
0000
0000
1000
,  // measure 93
0010
0000
0000
0100
0010
0000
0100
0001
0100
0000
0001
0010
0001
0000
0010
0100
,  // measure 94
0010
0000
0100
1000
0100
0000
0000
1000
0001
0000
0000
0010
0100
0000
0000
0010
,  // measure 95
0001
0000
0000
0010
1000
0000
0010
0000
0010
0000
0001
0000
0100
0000
0001
0000
,  // measure 96
0001
0100
0010
1000
1000
0010
0100
0100
,  // measure 97
0001
0100
1000
0000
0100
0000
0001
0000
0001
0000
0100
0000
1000
0000
1000
0000
,  // measure 98
0100
0001
0001
0010
1000
1000
0010
0001
,  // measure 99
0100
0010
2000
0000
0000
0000
0000
0000
,  // measure 100
3001
1000
0001
0000
0000
0000
0000
0000
0000
0000
0000
0000
0000
0000
0000
0000
;
