#TITLE:ZERO-ONE;
#SUBTITLE:;
#ARTIST:Mr.T;
#TITLETRANSLIT:;
#SUBTITLETRANSLIT:;
#ARTISTTRANSLIT:;
#GENRE:ELECTROSHOCK;
#CREDIT:;
#MUSIC:ZERO-ONE.ogg;
#BANNER:ZERO-ONE.png;
#BACKGROUND:ZERO-ONE-bg.png;
#CDTITLE:../_YSD cdtitles/ysd sc2024 cdtitle.png;
#SAMPLESTART:25.313000;
#SAMPLELENGTH:24.000000;
#SELECTABLE:YES;
#OFFSET:0.000000;
#BPMS:0.000000=160.000000;
#STOPS:;
#BGCHANGES:3.000000=ZERO-ONE.avi=1.000000=0=0=0=StretchNoLoop====,
99999.000000=-nosongbg-=1.000000=0=0=0=StretchNoLoop====
;
#FGCHANGES:;

//--------------- dance-single - ----------------
#NOTES:
     dance-single:
     :
     Beginner:
     3:
     0.159093,0.228249,0.040132,0.180592,0,111,107,4,18,0,0,0.159093,0.228249,0.040132,0.180592,0,111,107,4,18,0,0:
0000
0000
0000
0000
,
0000
0000
0000
0000
,
0000
0000
0000
0000
,
0000
0000
0000
0000
,
0000
0000
0000
0000
,
0000
1000
0000
1000
,
0000
0001
0000
0001
,
0000
1000
0000
1000
,
0000
0001
0000
0001
,
0001
0000
1000
0000
,
0001
0000
1000
0000
,
0010
0000
0100
0000
,
0010
0000
0100
0000
,
0001
0000
1000
0000
,
0001
0000
1000
0000
,
0100
0000
0010
0000
,
0200
0000
0000
0300
,
1001
0000
1000
0000
,
0002
0000
0003
0000
,
0100
0000
0010
0000
,
2000
0000
3000
0000
,
0100
0000
0100
0000
,
0010
0000
0010
0000
,
0001
0000
0001
0000
,
2000
0000
0000
3000
,
1001
0000
0001
0000
,
0200
0000
0300
0000
,
0010
0000
1000
0000
,
0002
0000
0003
0000
,
0010
0000
0010
0000
,
0100
0000
0100
0000
,
1000
0000
1000
0000
,
0002
0000
0000
0003
,
2000
0000
0000
3000
,
0020
0000
0000
0030
,
0200
0000
0000
0000
,
0000
0000
0000
0300
,
0002
0000
0000
0003
,
1000
0000
1000
0000
,
0002
0000
0000
0003
,
0020
0000
0000
0030
,
0100
0100
0100
0000
,
1000
1000
1000
0000
,
0001
0001
0001
0000
,
0100
0100
0100
0000
,
0010
1000
0010
0000
,
0100
0001
0100
0000
,
0010
1000
0001
0000
,
0020
0000
0000
0030
,
0110
0000
1000
0000
,
0002
0000
0003
0000
,
0100
0000
0010
0000
,
2000
0000
3000
0000
,
0100
0000
0100
0000
,
0010
0000
0010
0000
,
0001
0000
0001
0000
,
2000
0000
0000
3000
,
1001
0000
0001
0000
,
0100
0000
0010
0000
,
1000
0000
0100
0000
,
0010
0000
0001
0000
,
0000
1000
0000
0001
,
0000
1000
0000
0001
,
0000
1000
0000
0000
0000
0001
0000
0000
,
0000
2000
0000
0000
0000
0000
0000
0000
,
3000
0000
0000
0000
;

//--------------- dance-single - ----------------
#NOTES:
     dance-single:
     :
     Easy:
     7:
     0.325353,0.358676,0.050165,0.100329,0,227,222,5,10,0,0,0.325353,0.358676,0.050165,0.100329,0,227,222,5,10,0,0:
0000
0000
0000
0000
,
0000
0000
0000
0000
,
0000
0000
0000
0000
,
0000
0000
0000
0000
,
0000
0000
0000
0000
,
0000
1000
0000
0001
,
0000
1000
0000
0001
,
0000
0100
0000
0010
,
0000
1000
0000
0010
,
1010
0010
0100
0010
,
1000
0001
1000
0100
,
0010
0001
1000
0001
,
0100
0010
1000
0001
,
1000
0100
0010
0001
,
1000
0010
0100
0001
,
0010
0100
1000
0001
,
0100
0010
0000
0010
1000
0000
0001
0000
,
1100
0100
0010
0100
,
1000
0001
0100
0001
,
1000
0100
0010
0001
,
0100
0010
1000
0001
,
0010
0100
0000
0100
0000
1000
0000
1000
,
0000
0001
0000
0001
0000
0100
0000
0100
,
0000
0010
0000
0010
0000
1000
0000
1000
,
0001
1000
0000
1000
0001
0000
0100
0000
,
0101
0001
1000
0001
,
1000
0100
0010
0001
,
1000
0010
0100
0010
,
1000
0001
0010
0100
,
1000
0001
0000
0001
0000
0100
0000
0100
,
0000
0010
0000
0010
0000
1000
0000
1000
,
0000
0100
0000
0100
0000
0010
0000
0010
,
0001
1000
0000
1000
0001
0000
0100
0000
,
0020
0000
0000
0000
,
2030
0000
0000
0000
,
3200
0000
0000
0000
,
0000
0000
0000
0000
0000
0000
0310
0001
,
2000
0000
0000
0000
,
3020
0030
0020
0000
,
0230
0000
0000
0000
,
0302
0003
0002
0000
,
1003
0100
0001
0100
,
1000
0001
0100
1000
,
0100
0001
1000
0100
,
0010
0000
0001
0000
0100
0000
0010
1000
,
0001
1000
0010
0001
,
0010
1000
0100
0001
,
0100
1000
0001
0100
,
0010
1000
0000
1000
0001
0000
1000
0000
,
1001
0001
0010
0100
,
1000
0010
0100
0001
,
1000
0100
0010
0001
,
0100
0010
1000
0001
,
0010
0100
0000
1000
0000
0100
0000
0001
,
0000
0100
0000
0010
0000
0001
0000
1000
,
0000
0001
0000
0100
0000
1000
0000
0100
,
0010
0100
0000
0100
0001
0000
1000
0000
,
1100
0100
0010
0001
,
1000
0010
0001
0010
,
1000
0100
0010
0001
,
1000
0100
0001
0100
,
1000
0001
0000
0001
0000
0100
0000
0100
,
0000
0010
0000
0010
0000
1000
0000
1000
,
0000
0001
0000
0001
0000
1000
0000
1000
,
0100
0010
0000
0010
0001
0000
2000
0000
,
3000
0000
0000
0000
;

//--------------- dance-single - ----------------
#NOTES:
     dance-single:
     :
     Medium:
     12:
     0.561843,0.553785,0.060197,0.07023,0.316037,392,386,6,7,0,0,0.561843,0.553785,0.060197,0.07023,0.316037,392,386,6,7,0,0:
0000
0000
0000
0000
,
0000
0000
0000
0000
,
0000
0000
0000
0000
,
0000
0000
0000
0000
,
0000
0000
0000
0000
,
1000
1001
0001
0101
,
0100
0110
0010
1010
,
1000
0110
0001
0110
,
0000
1000
0000
0000
0001
0000
0000
0100
0000
0010
0000
0000
1000
0000
0001
0000
,
0010
0100
0010
1000
0010
0001
0010
0100
,
1000
0010
1000
0100
1000
0001
1000
0100
,
0010
0001
0100
0000
0010
1000
0100
0000
,
0001
0100
1000
0000
0001
0100
0010
0000
,
0100
0010
0100
0001
0100
1000
0100
0010
,
1000
0100
1000
0001
1000
0100
0010
0001
,
0100
0001
0010
0000
1000
0010
0001
0000
,
0000
0100
0000
0000
0001
0000
0000
1000
0000
0010
0000
0000
0100
0000
0001
0000
,
0010
0000
0000
0100
0000
1000
0000
0000
0001
0000
0000
0100
0000
0010
0000
0000
,
1000
0000
0001
0000
0001
0000
0010
0001
0000
0000
0000
0000
1000
0000
0001
0000
,
0010
0000
0000
0100
0000
1000
0000
0000
0010
0000
0000
0100
0000
0001
0000
0000
,
1000
0000
0100
0000
0100
0000
0010
0001
0000
0000
0000
0000
0100
0000
0010
0000
,
0010
1000
0000
0000
0001
0000
0000
0000
1000
0000
0100
0000
0010
0000
0000
0000
,
1000
0010
0100
0000
1000
0001
0100
0010
,
1000
0001
0000
0000
1000
0000
0000
0000
0100
0000
0010
0000
0001
0000
0000
0000
,
0000
0100
0000
0000
0010
0000
0000
1000
0000
0100
0000
0000
0010
0000
0001
0000
,
0100
0000
0000
0010
0000
1000
0000
0000
0100
0000
0000
0010
0000
0001
0000
0000
,
0100
0000
0010
0000
0010
0000
1000
0010
0000
0000
0000
0000
1000
0000
0100
0000
,
0010
0000
0000
0001
0000
0100
0000
0000
0010
0000
0000
0100
0000
0001
0000
0000
,
1000
0000
0100
0000
0100
0000
0010
0001
0000
0000
0000
0000
0100
0000
0010
0000
,
0010
1000
0000
0000
0001
0000
0000
0000
0010
0000
0100
0000
1000
0000
0000
0000
,
0001
0100
0010
0000
0001
0010
0100
0001
,
1000
0001
0000
0000
1000
0000
0000
0000
0100
0000
0010
0000
0001
0000
0000
0000
,
0000
0100
0000
0000
0001
0000
0000
1000
0000
0100
0000
0000
0010
0000
0001
0000
,
2000
0000
0000
0000
0100
0000
0000
0000
0001
0000
0000
0001
0000
0000
3001
0000
,
0020
0000
0000
0000
0100
0000
0000
0000
0001
0000
0000
0001
0000
0000
0031
0000
,
0200
0000
0000
0000
0010
0000
0000
0000
0001
0000
0000
0001
0000
0000
0001
0000
,
0000
0010
0000
0000
0010
0000
0000
0000
1000
0000
0000
0000
0301
0000
0010
0000
,
0200
0000
0000
0000
0001
0000
0000
0000
1000
0000
0000
1000
0000
0000
1300
0000
,
0020
0001
0230
0001
,
0320
0000
0000
0000
1000
0000
0000
0000
0100
0000
0000
0100
0000
0000
0130
0000
,
0001
0000
0000
1000
0000
0000
0001
0000
0000
0100
0000
0000
0001
0000
0010
0000
,
0100
1000
0100
0010
0100
0001
0100
1000
,
0010
0100
0010
0001
0010
0100
0010
1000
,
0001
0010
0001
0100
0001
1000
0001
0100
,
0001
0010
0100
0100
1000
1000
0010
0100
,
1000
0100
0001
0100
1000
0100
0010
0100
,
0001
0010
1000
0010
0001
0010
0100
1000
,
0010
0100
0010
0001
0010
0100
0010
1000
,
0001
0010
0000
0010
0000
0010
0100
0000
,
1000
0000
0000
0001
0000
0100
0000
0000
0010
0000
0000
1000
0000
0001
0000
0000
,
0010
0000
0100
0000
0100
0000
0010
0001
0000
0000
0000
0000
0100
0000
0010
0000
,
1000
0000
0000
0001
0000
0010
0000
0000
0100
0000
0000
1000
0000
0100
0000
0000
,
0010
0000
0001
0000
0001
0000
0100
0001
0000
0000
0000
0000
1000
0000
0100
0000
,
0100
0010
0000
0000
0100
0000
0000
0000
1000
0000
0010
0000
0100
0000
0000
0000
,
1000
0100
0010
0000
0100
0001
0010
0100
,
1000
0001
0000
0000
0100
0000
0000
0000
0001
0000
0010
0000
0100
0000
0000
0000
,
0000
1000
0000
0000
0001
0000
0000
0100
0000
0010
0000
0000
1000
0000
0001
0000
,
0010
0001
0100
0010
0100
1000
0100
0010
,
0100
0001
0010
0100
0010
1000
0010
0001
,
1000
0100
1000
0001
1000
0010
1000
0100
,
0010
0001
0100
0010
0100
1000
0100
0010
,
1000
0001
0100
0001
0000
1000
0100
1000
,
0000
0001
0010
0001
0000
1000
0010
1000
,
0000
0001
0010
0100
0000
1000
0010
0100
,
0000
0001
0000
0000
0100
0000
0000
0001
0000
1000
0000
0000
0100
0000
0010
0001
;

//--------------- dance-single - ----------------
#NOTES:
     dance-single:
     :
     Hard:
     15:
     0.710903,0.749239,0,0.060197,0.877879,496,496,0,6,0,0,0.710903,0.749239,0,0.060197,0.877879,496,496,0,6,0,0:
0000
0000
0000
0000
,
0000
0000
0000
0000
,
0000
0000
0000
0000
,
0000
0000
0000
0000
,
0000
0000
0000
0000
,
1000
0000
0000
0001
0000
0010
0000
0000
0001
0000
0000
1000
0000
0010
0000
0000
,
0100
0000
0000
0001
0000
0010
0000
0000
0100
0000
0000
1000
0000
0010
0000
0000
,
0100
0000
0000
0001
0000
0010
0000
0000
0100
0000
0000
0001
0000
0100
0000
0000
,
0000
1000
0100
0010
0001
0000
1000
0001
0000
0100
0000
0010
0100
0001
1000
0000
,
0001
1000
0000
0000
0001
0000
1000
0100
0000
1000
0000
0000
0001
0000
0100
0001
,
0000
0100
0000
0000
0001
0000
0010
0100
0000
1000
0000
0000
0001
0000
0100
0001
,
0100
0001
0010
0100
0010
0001
1000
0010
,
0100
0010
1000
0100
0010
1000
0010
0001
,
1000
0001
0000
0000
0100
0000
0001
1000
0000
0100
0000
0000
1000
0000
0001
0010
,
0000
0001
0000
0000
1000
0000
0001
0100
0000
0001
0000
0000
0010
0000
0100
1000
,
0100
0010
0100
1000
0010
0001
0010
1000
,
0000
0010
1000
0010
1000
0000
0010
0100
0000
0001
0000
1000
0100
0010
0100
0000
,
0010
0000
0000
0100
0000
1000
0000
0000
0001
0000
0000
0100
0000
1000
0000
0000
,
0100
0000
0001
0000
0001
0000
1000
0100
1000
0000
0000
0000
0100
0000
1000
0000
,
0001
0000
0000
0100
0000
0010
0000
0000
0001
0000
0000
0010
0000
1000
0000
0000
,
0001
0000
0100
0000
0100
0000
0010
1000
0010
0000
0000
0000
1000
0000
0100
0000
,
0100
1000
0001
0000
0100
0000
0001
0000
0010
0000
1000
0000
0010
0000
0001
0000
,
1000
0001
0010
0100
1000
0010
0100
0001
,
1000
0100
0010
0000
0100
0000
1000
0000
0010
0000
0001
0000
0010
0000
1000
0000
,
0000
0100
1000
0100
1000
0000
0100
0010
0000
0001
0000
1000
0010
0100
0010
0000
,
0100
0000
0000
0010
0000
1000
0000
0000
0100
0000
0000
0001
0000
0100
0000
0000
,
1000
0000
0010
0000
0010
0000
0100
0001
0100
0000
0000
0000
0001
0000
1000
0000
,
0010
0000
0000
0100
0000
0001
0000
0000
0010
0000
0000
1000
0000
0010
0000
0000
,
0001
0000
0100
0000
0100
0000
0010
1000
0010
0000
0000
0000
1000
0000
0100
0000
,
0100
1000
0001
0000
0100
0000
0010
0000
1000
0000
0100
0000
0001
0000
0100
0000
,
0010
0001
1000
0100
0010
0001
0100
0010
,
1000
0001
0010
0000
0100
0000
0010
0000
0001
0000
1000
0000
0010
0000
0100
0000
,
0000
0001
1000
0001
1000
0000
1000
0100
0000
1000
0000
0010
1000
0001
1000
0000
,
0001
0000
0100
0000
0020
0000
0000
0000
1000
0000
0000
1000
0000
0000
1030
0000
,
0001
0000
0010
0000
0200
0000
0000
0000
1000
0000
0000
1000
0000
0000
1300
0000
,
0010
0000
0100
0000
0002
0000
0000
0000
0010
0000
0000
0010
0000
0000
0100
0000
,
0000
0100
0000
0000
1003
0001
0000
0000
1000
0001
0000
0000
1000
0000
0100
0000
,
0010
0000
0001
0000
0200
0000
0000
0000
0010
0000
0000
1000
0000
0000
0310
0000
,
1000
0000
0001
0000
0020
0000
0000
0000
0100
0000
0000
1000
0000
0000
0130
0000
,
1000
0000
0001
0000
0200
0000
0000
0000
1000
0000
0000
0001
0000
0000
0310
0000
,
1000
0010
0000
1000
0010
0000
1000
0010
0000
1000
0001
1000
0001
0000
0010
0000
,
0100
1000
0100
0000
1000
0001
0000
0100
0001
0000
1000
0001
0000
0100
0001
0000
,
1000
0010
1000
0000
0001
1000
0000
0010
1000
0000
0001
1000
0000
0010
1000
0000
,
0001
0010
0001
0000
1000
0010
0000
1000
0001
0000
1000
0100
0000
1000
0001
0000
,
1000
0001
0000
0000
1000
0100
1000
0000
1000
0100
1000
0000
0010
0000
0100
0000
,
0001
1000
0001
0000
1000
0100
0000
1000
0001
0000
1000
0100
0000
1000
0010
0000
,
0100
0001
0100
0000
0010
1000
0000
0100
1000
0000
0010
1000
0000
0001
0010
0000
,
0100
1000
0100
0000
0010
0001
0000
1000
0010
0000
0100
0001
0000
1000
0100
0000
,
0000
0010
0001
0010
0100
0000
1000
0001
0000
1000
0000
0100
0010
0000
0001
0000
,
0010
0000
0000
0100
0000
1000
0000
0000
0010
0000
0000
0001
0000
0010
0000
0000
,
1000
0000
0001
0000
0001
0000
0010
0100
0010
0000
0000
0000
0001
0000
0010
0000
,
0100
0000
0000
1000
0000
0010
0000
0000
0100
0000
0000
1000
0000
0100
0000
0000
,
0001
0000
0010
0000
0010
0000
0100
1000
0100
0000
0000
0000
1000
0000
0010
0000
,
0010
0100
0001
0000
0010
0000
0100
0000
0010
0000
0001
0000
0100
0000
0010
0000
,
1000
0100
0001
0100
0010
0001
1000
0010
,
0100
0001
1000
0000
0100
0000
0001
0000
0100
0000
1000
0000
0001
0000
0100
0000
,
0000
0001
0010
0001
1000
0000
0001
1000
0000
0010
0000
0100
0001
1000
0001
0000
,
1000
0001
0000
0000
0100
0000
0001
0100
0000
0010
0000
0000
1000
0000
0100
0010
,
0000
0001
0000
0000
0100
0000
0001
0010
0000
0100
0000
0000
1000
0000
0001
0100
,
0000
0010
0000
0000
0001
0000
0010
0100
0000
0001
0000
0000
1000
0000
0100
0010
,
0000
0001
0000
0000
0100
0000
1000
0100
0000
0010
0000
0000
0100
0000
0001
0010
,
0000
0100
0000
0000
1000
0000
0001
0000
0000
0100
0000
0000
0010
0000
1000
0000
,
0000
0100
0000
0000
0001
0000
0100
0000
0000
0010
0000
0000
0001
0000
0100
0000
,
0000
0010
0000
0000
1000
0000
0100
0000
0000
0010
0000
0000
0001
0000
1000
0000
,
0000
0010
0100
0001
1000
0000
0100
0010
0000
0001
0000
0100
0010
1000
0001
0010
;

//--------------- dance-single - ----------------
#NOTES:
     dance-single:
     :
     Edit:
     15:
     0.703737,0.749239,0,0.060197,0.842764,491,491,0,6,0,0,0.703737,0.749239,0,0.060197,0.842764,491,491,0,6,0,0:
0000
0000
0000
0000
,
0000
0000
0000
0000
,
0000
0000
0000
0000
,
0000
0000
0000
0000
,
0000
0000
0000
0000
,
1000
0000
0000
0001
0000
0100
0000
0000
0001
0000
0000
1000
0000
0100
0000
0000
,
0010
0000
0000
0001
0000
0100
0000
0000
0010
0000
0000
1000
0000
0100
0000
0000
,
0010
0000
0000
0001
0000
0100
0000
0000
0010
0000
0000
0001
0000
0010
0000
0000
,
1000
0001
0010
0000
0100
0000
1000
0100
0000
1000
0000
0001
0100
0001
0100
0000
,
0001
1000
0000
0000
0001
0000
1000
0100
0000
1000
0000
0000
0001
0000
0100
0001
,
0000
0100
0000
0000
0001
0000
0010
0100
0000
1000
0000
0000
0001
0000
0100
0001
,
0100
0001
0010
0100
0010
0001
1000
0010
,
0100
0010
1000
0100
0010
1000
0010
0001
,
1000
0001
0000
0000
0100
0000
0001
1000
0000
0100
0000
0000
1000
0000
0001
0010
,
0000
0001
0000
0000
1000
0000
0001
0100
0000
0001
0000
0000
0010
0000
0100
1000
,
0100
0010
0100
1000
0010
0001
0010
1000
,
0000
0001
0100
0000
0001
0000
1000
0100
0000
0010
0000
0100
1000
0100
1000
0000
,
0010
0000
0000
0100
0000
0001
0000
0000
1000
0000
0000
0100
0000
0001
0000
0000
,
0100
0000
1000
0000
1000
0000
0001
0100
0001
0000
0000
0000
0100
0000
0001
0000
,
1000
0000
0000
0100
0000
0010
0000
0000
1000
0000
0000
0010
0000
0001
0000
0000
,
1000
0000
0100
0000
0100
0000
0010
0001
0010
0000
0000
0000
0001
0000
0100
0000
,
0100
0001
1000
0000
0100
0000
1000
0000
0010
0000
0001
0000
0010
0000
1000
0000
,
0001
1000
0010
0100
0001
0010
0100
1000
,
0001
0100
0010
0000
0100
0000
0001
0000
0010
0000
1000
0000
0010
0000
0001
0000
,
0000
0100
0010
0000
1000
0000
0001
1000
0000
0100
0000
0010
0001
0010
0001
0000
,
0100
0000
0000
0010
0000
1000
0000
0000
0100
0000
0000
0001
0000
0100
0000
0000
,
1000
0000
0010
0000
0010
0000
0100
0001
0100
0000
0000
0000
0001
0000
1000
0000
,
0010
0000
0000
0100
0000
0001
0000
0000
0010
0000
0000
1000
0000
0010
0000
0000
,
0001
0000
0100
0000
0100
0000
0010
1000
0010
0000
0000
0000
1000
0000
0100
0000
,
0100
1000
0001
0000
0100
0000
0010
0000
1000
0000
0100
0000
0001
0000
0100
0000
,
0010
0001
1000
0100
0010
0001
0100
0010
,
1000
0001
0010
0000
0100
0000
0010
0000
0001
0000
1000
0000
0010
0000
0100
0000
,
0000
0001
0100
0000
0001
0000
1000
0100
0000
0010
0000
0001
0010
0001
0010
0000
,
0001
0000
0100
0000
0020
0000
0000
0000
1000
0000
0000
1000
0000
0000
1030
0000
,
0001
0000
0010
0000
0200
0000
0000
0000
1000
0000
0000
1000
0000
0000
1300
0000
,
0010
0000
0100
0000
0002
0000
0000
0000
0010
0000
0000
0010
0000
0000
0100
0000
,
0000
0100
0000
0000
1003
0001
0000
0000
1000
0001
0000
0000
1000
0000
0100
0000
,
0010
0000
0001
0000
0200
0000
0000
0000
0010
0000
0000
1000
0000
0000
0310
0000
,
1000
0000
0001
0000
0020
0000
0000
0000
0100
0000
0000
1000
0000
0000
0130
0000
,
1000
0000
0001
0000
0200
0000
0000
0000
1000
0000
0000
0001
0000
0000
0310
0000
,
1000
0010
0000
1000
0010
0000
1000
0010
0000
1000
0001
1000
0001
0000
0010
0000
,
0100
1000
0100
0000
1000
0001
0000
0100
0001
0000
1000
0001
0000
0100
0001
0000
,
1000
0010
1000
0000
0001
1000
0000
0010
1000
0000
0001
1000
0000
0010
1000
0000
,
0001
0010
0001
0000
1000
0010
0000
1000
0001
0000
1000
0100
0000
1000
0001
0000
,
1000
0001
0000
0000
1000
0100
1000
0000
1000
0100
1000
0000
0010
0000
0100
0000
,
0001
1000
0001
0000
1000
0100
0000
1000
0001
0000
1000
0100
0000
1000
0010
0000
,
0100
0001
0100
0000
0010
1000
0000
0100
1000
0000
0010
1000
0000
0001
0010
0000
,
0100
1000
0100
0000
0010
0001
0000
1000
0010
0000
0100
0001
0000
1000
0100
0000
,
0000
0010
0001
0000
1000
0000
0010
0100
0000
0001
0000
0100
0010
0000
1000
0000
,
0100
0000
0000
0010
0000
0001
0000
0000
0100
0000
0000
1000
0000
0100
0000
0000
,
0001
0000
1000
0000
1000
0000
0100
0010
0100
0000
0000
0000
1000
0000
0100
0000
,
0010
0000
0000
0001
0000
0100
0000
0000
0010
0000
0000
0001
0000
0010
0000
0000
,
1000
0000
0100
0000
0100
0000
0010
0001
0010
0000
0000
0000
0001
0000
0100
0000
,
0100
0010
1000
0000
0100
0000
0010
0000
0100
0000
1000
0000
0010
0000
0100
0000
,
0001
0010
1000
0010
0100
1000
0001
0100
,
0010
1000
0001
0000
0010
0000
1000
0000
0010
0000
0001
0000
1000
0000
0010
0000
,
0000
0100
0001
0000
0100
0000
0001
1000
0000
0001
0000
0010
0100
1000
0001
0000
,
1000
0001
0000
0000
0100
0000
0001
0100
0000
0010
0000
0000
1000
0000
0100
0010
,
0000
0001
0000
0000
0100
0000
0001
0010
0000
0100
0000
0000
1000
0000
0001
0100
,
0000
0010
0000
0000
0001
0000
0010
0100
0000
0001
0000
0000
1000
0000
0100
0010
,
0000
0001
0000
0000
0100
0000
1000
0100
0000
0010
0000
0000
0100
0000
0001
0010
,
0000
0100
0000
0000
1000
0000
0001
0000
0000
0100
0000
0000
0010
0000
1000
0000
,
0000
0100
0000
0000
0001
0000
0100
0000
0000
0010
0000
0000
0001
0000
0100
0000
,
0000
0010
0000
0000
1000
0000
0100
0000
0000
0010
0000
0000
0001
0000
1000
0000
,
0000
0001
0010
0100
1000
0000
0100
1000
0000
0001
0100
0000
0010
0100
0001
1000
;

//--------------- dance-double - ----------------
#NOTES:
     dance-double:
     :
     Beginner:
     2:
     0.137594,0.194137,0.050165,0.060197,0,96,91,5,6,0,0,0.137594,0.194137,0.050165,0.060197,0,96,91,5,6,0,0:
00000000
00000000
00000000
00000000
,
00000000
00000000
00000000
00000000
,
00000000
00000000
00000000
00000000
,
00000000
00000000
00000000
00000000
,
00000000
00000000
00000000
00000000
,
00000000
00010000
00000000
00000000
,
00000000
00001000
00000000
00000000
,
00000000
00010000
00000000
00000000
,
00000000
00001000
00000000
00000000
,
00011000
00000000
00010000
00000000
,
00001000
00000000
00000000
00000000
,
01000000
00000000
00010000
00000000
,
10000000
00000000
00000000
00000000
,
01000000
00000000
00100000
00000000
,
00010000
00000000
00000000
00000000
,
01000000
00000000
00001000
00000000
,
00010000
00000000
00000000
00000000
,
00011000
00000000
00010000
00000000
,
00000100
00000000
00000000
00000000
,
00000010
00000000
00000001
00000000
,
00001000
00000000
00000000
00000000
,
00000010
00000000
00000100
00000000
,
00000001
00000000
00000000
00000000
,
00001000
00000000
00000100
00000000
,
00000010
00000000
00000000
00000000
,
00001001
00000000
00000001
00000000
,
00000100
00000000
00000000
00000000
,
00000010
00000000
00010000
00000000
,
00001000
00000000
00000000
00000000
,
00010000
00000000
00001000
00000000
,
01000000
00000000
00000000
00000000
,
00010000
00000000
10000000
00000000
,
00100000
00000000
00000000
00000000
,
02000000
00000000
03000000
00000000
,
00020000
00000000
00030000
00000000
,
20000000
00000000
00000000
00000000
,
00000000
00000000
30000000
00000000
,
02000000
00000000
03000000
00000000
,
00200000
00000000
00300000
00000000
,
00002000
00000000
00003000
00000000
,
00010000
00000000
00001000
00000000
,
00010000
00000000
00000010
00000000
,
00010000
00000000
00000010
00000000
,
00001000
00000000
00000001
00000000
,
00001000
00000000
00000001
00000000
,
00000010
00000000
00000100
00000000
,
00000010
00000000
00000100
00000000
,
00010000
00000000
00000100
00000000
,
00010000
00000000
00001000
00000000
,
00011000
00000000
00010000
00000000
,
00001000
00000000
00000000
00000000
,
01000000
00000000
00010000
00000000
,
10000000
00000000
00000000
00000000
,
01000000
00000000
00100000
00000000
,
00010000
00000000
00000000
00000000
,
10000000
00000000
00100000
00000000
,
01000000
00000000
00000000
00000000
,
10010000
00000000
10000000
00000000
,
00100000
00000000
01000000
00000000
,
00100000
00000000
10000000
00000000
,
00010000
00000000
01000000
00000000
,
00000000
00001000
00000000
00001000
,
00000000
00010000
00000000
00010000
,
00000000
00000000
00001000
00000000
,
00010000
00000000
00001000
00000000
;

//--------------- dance-double - ----------------
#NOTES:
     dance-double:
     :
     Easy:
     8:
     0.333953,0.357987,0.040132,0.07023,0,233,229,4,7,0,0,0.333953,0.357987,0.040132,0.07023,0,233,229,4,7,0,0:
00000000
00000000
00000000
00000000
,
00000000
00000000
00000000
00000000
,
00000000
00000000
00000000
00000000
,
00000000
00000000
00000000
00000000
,
00000000
00000000
00000000
00000000
,
00000000
00010000
00000000
00001000
,
00000000
00010000
00000000
00001000
,
00000000
00100000
00000000
00010000
,
00000000
10000000
00000000
00100000
,
10100000
10000000
00010000
01000000
,
00001000
00010000
00000100
00001000
,
00000001
00000100
00000001
00001000
,
00000100
00000010
00000100
00010000
,
00001000
00010000
00001000
01000000
,
00010000
10000000
01000000
00100000
,
00010000
10000000
00100000
01000000
,
00001000
00010000
00000000
00010000
00000100
00000000
00000010
00000000
,
00000011
00000001
00000100
00000010
,
00001000
00000001
00001000
00000100
,
00010000
00001000
01000000
00010000
,
10000000
01000000
00100000
00010000
,
10000000
00100000
00000000
00100000
00000000
01000000
00000000
01000000
,
00000000
00001000
00000000
00001000
00000000
00010000
00000000
00010000
,
00000000
00000100
00000000
00000100
00000000
00000010
00000000
00000010
,
00000000
00000001
00001000
00000000
00000010
00000000
00000100
00000001
,
00001000
00000100
00000010
00000100
,
00010000
00001000
01000000
00010000
,
10000000
00100000
01000000
00010000
,
10000000
01000000
00100000
00001000
,
00010000
00000010
00000000
00000010
00000000
00001000
00000000
00001000
,
00000000
00000010
00000000
00000010
00000000
00010000
00000000
00010000
,
00000000
00001000
00000000
00001000
00000000
00100000
00000000
00100000
,
00000000
00010000
10000000
00000000
00100000
00000000
01000000
00010000
,
20000000
00000000
01000000
00000000
,
30020000
00000000
01000000
00000000
,
00230000
00000000
00001000
00000000
,
00010000
00001000
00001000
00010000
,
00300020
00000000
00001000
00000000
,
00020030
00000000
00030200
00000000
,
00002300
00000000
00000001
00000000
,
00003010
00000100
00000001
00001000
,
00001100
00000100
00000010
00000100
,
00010000
00001000
01000000
00010000
,
10000000
00100000
01000000
00010000
,
10000000
01000000
01000000
00100000
,
00010000
00100000
00001000
00010000
,
00000010
00001000
00000001
00000100
,
00000010
00001000
00000100
00000010
,
00000100
00001000
00000000
00001000
00000100
00000000
00010000
00000000
,
00011000
00001000
01000000
00010000
,
10000000
00100000
01000000
00010000
,
10000000
01000000
00100000
00001000
,
00010000
00000010
00001000
00000001
,
00000010
00000100
00000000
00000100
00000000
00010000
00000000
00010000
,
00000000
00001000
00000000
00001000
00000000
01000000
00000000
01000000
,
00000000
00010000
00000000
00010000
00000000
10000000
00000000
10000000
,
00000000
01000000
00100000
00000000
00010000
00000000
10000000
00100000
,
01000000
00001000
00010000
00000100
,
00001000
00000001
00000010
00000100
,
00001000
00000010
00000100
00000001
,
00001000
00000100
00000010
00000100
,
00000000
00010000
00000000
00010000
00000000
00001000
00000000
00001000
,
00000000
01000000
00000000
01000000
00000000
00010000
00000000
00010000
,
00000000
10000000
00000000
10000000
00000000
01000000
00000000
01000000
,
00000000
00100000
00010000
00000000
10000000
00000000
00100000
01000000
;

//--------------- dance-double - ----------------
#NOTES:
     dance-double:
     :
     Medium:
     13:
     0.566143,0.553785,0.060197,0.060197,0.346135,395,389,6,6,0,0,0.566143,0.553785,0.060197,0.060197,0.346135,395,389,6,6,0,0:
00000000
00000000
00000000
00000000
,
00000000
00000000
00000000
00000000
,
00000000
00000000
00000000
00000000
,
00000000
00000000
00000000
00000000
,
00000000
00000000
00000000
00000000
,
00010000
00011000
00001000
00101000
,
00100000
00110000
00010000
10010000
,
10000000
10100000
00100000
01100000
,
00000000
01000000
00000000
00000000
00010000
00000000
00000000
01000000
00000000
00001000
00000000
00000000
00100000
00000000
01000000
00000000
,
10000000
01000000
10000000
00010000
10000000
00100000
10000000
01000000
,
00010000
00001000
00010000
00000010
00010000
00000100
00010000
00001000
,
00000100
00000010
00000100
00000001
00000100
00000010
00000100
00001000
,
00010000
01000000
00010000
00001000
00010000
00000100
00010000
00001000
,
00100000
00010000
00100000
01000000
00100000
10000000
00100000
00010000
,
01000000
00100000
01000000
00001000
01000000
00010000
01000000
00100000
,
10000000
01000000
10000000
00010000
10000000
01000000
10000000
00010000
,
00000000
01000000
00000000
00000000
00001000
00000000
00000000
00010000
00000000
00000100
00000000
00000000
00000010
00000000
00000100
00000000
,
00001000
00000000
00000000
00000001
00000000
00000100
00000000
00000000
00000010
00000000
00000000
00001000
00000000
00000010
00000000
00000000
,
00010000
00000000
00001000
00000000
00001000
00000000
00010000
00001000
00000000
00000000
00000000
00000000
00010000
00000000
00001000
00000000
,
00100000
00000000
00000000
00010000
00000000
10000000
00000000
00000000
00100000
00000000
00000000
01000000
00000000
00010000
00000000
00000000
,
10000000
00000000
00010000
00000000
00010000
00000000
10000000
00010000
00000000
00000000
00000000
00000000
01000000
00000000
00001000
00000000
,
00001000
00010000
00000000
00000000
00001000
00000000
00000000
00000000
00000010
00000000
00000100
00000000
00001000
00000000
00000000
00000000
,
00000001
00000100
00000010
00000000
00010000
00001000
00010000
00001000
,
00100000
00010000
00000000
00000000
10000000
00000000
00000000
00000000
00100000
00000000
01000000
00000000
00010000
00000000
00000000
00000000
,
00000000
10000000
00000000
00000000
01000000
00000000
00000000
00100000
00000000
00001000
00000000
00000000
00010000
00000000
00000010
00000000
,
00001000
00000000
00000000
00000010
00000000
00000100
00000000
00000000
00000001
00000000
00000000
00001000
00000000
00000100
00000000
00000000
,
00000010
00000000
00000100
00000000
00000100
00000000
00000010
00000100
00000000
00000000
00000000
00000000
00010000
00000000
00001000
00000000
,
01000000
00000000
00000000
00010000
00000000
10000000
00000000
00000000
01000000
00000000
00000000
00100000
00000000
00010000
00000000
00000000
,
10000000
00000000
00100000
00000000
00100000
00000000
10000000
00100000
00000000
00000000
00000000
00000000
01000000
00000000
00001000
00000000
,
00001000
00010000
00000000
00000000
00001000
00000000
00000000
00000000
00000010
00000000
00000100
00000000
00001000
00000000
00000000
00000000
,
00000001
00000100
00000010
00000000
00010000
00001000
00100000
01000000
,
00100000
00010000
00000000
00000000
10000000
00000000
00000000
00000000
00100000
00000000
01000000
00000000
00001000
00000000
00000000
00000000
,
00000000
00010000
00000000
00000000
00000100
00000000
00000000
00000010
00000000
00000100
00000000
00000000
00010000
00000000
00001000
00000000
,
02000000
00000000
00000000
00000000
00010000
00000000
00000000
00000000
00010000
00000000
00000000
00010000
00000000
00000000
00010000
00000000
,
03200000
00000000
00000000
00000000
10000000
00000000
00000000
00000000
10000000
00000000
00000000
10000000
00000000
00000000
10000000
00000000
,
02300000
00000000
00000000
00000000
00001000
00000000
00000000
00000000
00001000
00000000
00000000
00001000
00000000
00000000
00001000
00000000
,
00000000
00001000
00000000
00000000
03001000
00010000
00000000
00000000
00001000
00010000
00000000
00000000
00001000
00000000
00000010
00000000
,
00000200
00000000
00000000
00000000
00010000
00000000
00000000
00000000
00010000
00000000
00000000
00010000
00000000
00000000
00010000
00000000
,
00002300
00000000
00000000
00000000
00000001
00000000
00000000
00000000
00000010
00000000
00000000
00000010
00000000
00000000
00000010
00000000
,
00003002
00000000
00000000
00000000
00000100
00000000
00000000
00000000
00000100
00000000
00000000
00000100
00000000
00000000
00000100
00000000
,
00001003
00000000
00000000
00001000
00000000
00000000
00000100
00000000
00000000
00000100
00000000
00000000
00000010
00000000
00000100
00000000
,
00001000
00000100
00001000
00000010
00001000
00000001
00001000
00000001
,
00000100
00001000
00010000
00001000
00100000
00001000
01000000
00001000
,
00100000
01000000
00100000
10000000
00100000
00010000
10000000
00100000
,
10000000
00010000
01000000
00100000
01000000
10000000
01000000
00001000
,
00010000
00000100
00010000
00000010
00010000
00001000
00000010
00000001
,
00000100
00000010
00000100
00001000
00000100
00000010
00000100
00000001
,
00001000
00000100
00001000
00000010
00001000
00000001
00001000
00000100
,
00000000
00010000
00000000
00000000
00001000
00000000
00000000
01000000
00000000
00010000
00000000
00000000
10000000
00000000
01000000
00000000
,
00100000
00000000
00000000
00010000
00000000
10000000
00000000
00000000
00100000
00000000
00000000
01000000
00000000
00001000
00000000
00000000
,
00010000
00000000
00000100
00000000
00000100
00000000
00010000
00000100
00000000
00000000
00000000
00000000
00001000
00000000
00000001
00000000
,
00000100
00000000
00000000
00000010
00000000
00001000
00000000
00000000
00000001
00000000
00000000
00000010
00000000
00000100
00000000
00000000
,
00010000
00000000
00001000
00000000
00001000
00000000
00010000
00001000
00000000
00000000
00000000
00000000
00100000
00000000
00010000
00000000
,
00010000
10000000
00000000
00000000
00100000
00000000
00000000
00000000
01000000
00000000
00001000
00000000
00010000
00000000
00000000
00000000
,
00100000
00010000
00001000
00000000
00000010
00000100
00001000
00000001
,
00000100
00000010
00000000
00000000
00001000
00000000
00000000
00000000
00000100
00000000
00000010
00000000
00000001
00000000
00000000
00000000
,
00000000
00000100
00000000
00000000
00001000
00000000
00000000
00010000
00000000
01000000
00000000
00000000
10000000
00000000
00010000
00000000
,
01000000
00100000
01000000
00010000
01000000
00100000
10000000
01000000
,
00100000
01000000
00010000
01000000
00100000
01000000
10000000
00010000
,
01000000
00100000
00010000
00001000
00010000
00000100
00000010
00000100
,
00001000
00000100
00000010
00000100
00000001
00000100
00001000
00000001
,
00000000
00000100
00000000
00000100
00000000
00001000
00000000
00001000
,
00000000
00010000
00000000
00010000
00000000
00000100
00000000
00000100
,
00000000
01000000
00000000
01000000
00000000
00010000
00000000
00010000
,
00000000
10000000
00000000
00000000
01000000
00000000
00000000
00100000
00000000
00010000
00000000
00000000
10000000
00000000
00010000
01000000
;

//--------------- dance-double - ----------------
#NOTES:
     dance-double:
     :
     Hard:
     15:
     0.686538,0.716663,0.010033,0.07023,0.802633,479,478,1,7,0,0,0.686538,0.716663,0.010033,0.07023,0.802633,479,478,1,7,0,0:
00000000
00000000
00000000
00000000
,
00000000
00000000
00000000
00000000
,
00000000
00000000
00000000
00000000
,
00000000
00000000
00000000
00000000
,
00000000
00000000
00000000
00000000
,
00010000
00000000
00000000
00001000
00000000
01000000
00000000
00000000
00010000
00000000
00000000
10000000
00000000
01000000
00000000
00000000
,
00100000
00000000
00000000
00001000
00000000
00010000
00000000
00000000
00000010
00000000
00000000
00001000
00000000
00000001
00000000
00000000
,
00000010
00000000
00000000
00001000
00000000
00010000
00000000
00000000
00100000
00000000
00000000
01000000
00000000
00010000
00000000
00000000
,
00000000
10000000
01000000
00100000
00001000
00000000
01000000
00010000
00000000
10000000
00000000
01000000
00010000
00001000
00000100
00000000
,
00000001
00001000
00000000
00000000
00000100
00000000
00010000
00001000
00000000
01000000
00000000
00000000
00010000
00000000
10000000
01000000
,
00000000
00100000
00000000
00000000
00001000
00000000
00010000
00000010
00000000
00001000
00000000
00000000
00000001
00000000
00000010
00000100
,
00001000
00000100
00000010
00000100
00000001
00000100
00010000
00001000
,
00010000
00100000
01000000
00010000
00100000
10000000
00100000
00010000
,
10000000
00100000
00000000
00000000
01000000
00000000
00001000
00010000
00000000
00000100
00000000
00000000
00000010
00000000
00000001
00001000
,
00000000
00000010
00000000
00000000
00000100
00000000
00000010
00010000
00000000
00001000
00000000
00000000
00100000
00000000
01000000
10000000
,
00010000
01000000
00100000
01000000
10000000
01000000
00001000
00100000
,
00000000
00010000
00100000
00010000
10000000
00000000
00100000
01000000
00000000
00010000
00000000
10000000
00100000
01000000
00100000
00000000
,
10000000
00000000
00000000
00100000
00000000
01000000
00000000
00000000
00001000
00000000
00000000
00010000
00000000
00000100
00000000
00000000
,
00000010
00000000
00000100
00000000
00000100
00000000
00001000
00000001
00001000
00000000
00000000
00000000
00000010
00000000
00000100
00000000
,
00000001
00000000
00000000
00000010
00000000
00000100
00000000
00000000
00010000
00000000
00000000
00001000
00000000
01000000
00000000
00000000
,
00100000
00000000
01000000
00000000
01000000
00000000
00010000
01000000
00010000
00000000
00000000
00000000
10000000
00000000
01000000
00000000
,
01000000
00100000
00010000
00000000
10000000
00000000
00100000
00000000
01000000
00000000
00100000
00000000
00010000
00000000
00001000
00000000
,
00000100
00000010
00001000
00000100
00000010
00000001
00000100
00000010
,
00001000
00000001
00000010
00000000
00000100
00000000
00000010
00000000
00001000
00000000
00010000
00000000
00001000
00000000
00000100
00000000
,
00000000
00000001
00000100
00000001
00001000
00000000
00000100
00000010
00000000
00000100
00000000
00010000
00001000
01000000
00010000
00000000
,
10000000
00000000
00000000
00010000
00000000
01000000
00000000
00000000
00001000
00000000
00000000
00010000
00000000
00000100
00000000
00000000
,
00000010
00000000
00000100
00000000
00000100
00000000
00001000
00000100
00001000
00000000
00000000
00000000
00000001
00000000
00000100
00000000
,
00000010
00000000
00000000
00001000
00000000
00000010
00000000
00000000
00010000
00000000
00000000
00001000
00000000
00100000
00000000
00000000
,
01000000
00000000
10000000
00000000
10000000
00000000
01000000
10000000
01000000
00000000
00000000
00000000
00100000
00000000
00010000
00000000
,
00010000
01000000
00100000
00000000
10000000
00000000
00010000
00000000
00100000
00000000
01000000
00000000
00100000
00000000
10000000
00000000
,
00100000
00010000
01000000
00100000
00010000
00001000
00000010
00000100
,
00001000
00000001
00000100
00000000
00000010
00000000
00000100
00000000
00001000
00000000
00010000
00000000
01000000
00000000
10000000
00000000
,
00000000
00200000
00000000
00000000
00010000
00000000
00010000
00000000
00000000
00000000
10000000
00000000
10000000
00000000
00300000
00000000
,
00100000
00000000
01000000
00000000
00002000
00000000
00000000
00000000
00010000
00000000
00000000
00010000
00000000
00000000
00010000
00000000
,
00013000
00000000
00001000
00000000
00000020
00000000
00000000
00000000
00000100
00000000
00000000
00000100
00000000
00000000
00000100
00000000
,
00000031
00000000
00001000
00000000
00000020
00000000
00000000
00000000
00010000
00000000
00000000
00010000
00000000
00000000
00010000
00000000
,
00000000
00010000
00000000
00000000
00010030
00001000
00000000
00000000
00010000
00001000
00000000
00000000
00010000
00000000
00100000
00000000
,
01000000
00000000
00010000
00000000
20000000
00000000
00000000
00000000
01000000
00000000
00000000
00010000
00000000
00000000
01000000
00000000
,
30010000
00000000
01000000
00000000
00002000
00000000
00000000
00000000
00010000
00000000
00000000
00100000
00000000
00000000
00010000
00000000
,
00103000
00000000
00001000
00000000
00020000
00000000
00000000
00000000
00000010
00000000
00000000
00001000
00000000
00000000
00000010
00000000
,
00031000
00010000
00000000
00000010
00010000
00000000
00000010
00001000
00000000
00000001
00001000
00000000
00000001
00000000
00000010
00000000
,
00000100
00000000
00010000
00000000
00001000
00010000
00000000
00001000
00100000
00000000
00001000
00010000
00000000
00001000
00100000
00000000
,
00010000
00000000
10000000
00000000
00100000
01000000
00000000
00010000
01000000
00000000
00100000
01000000
00000000
00010000
01000000
00000000
,
00001000
00000000
00100000
00000000
00001000
00010000
00000000
00001000
01000000
00000000
00001000
00010000
00000000
00000100
00010000
00000000
,
00001000
00010000
00000000
00000000
00001000
00010000
00000000
00000000
00001000
00010000
00000000
00000000
00001000
00000000
00000010
00000000
,
00000001
00000000
00001000
00000000
00000010
00000100
00000000
00000010
00000001
00000000
00000010
00000100
00000000
00001000
00010000
00000000
,
00001000
00000000
00100000
00000000
01000000
00100000
00000000
01000000
10000000
00000000
01000000
00100000
00000000
00001000
00010000
00000000
,
00100000
00000000
01000000
00000000
00001000
01000000
00000000
00100000
00010000
00000000
00001000
00010000
00000000
00001000
00010000
00000000
,
00000000
00001000
00010000
00001000
01000000
00000000
00100000
10000000
00000000
00010000
00100000
00000000
00011000
00000000
00000000
00000000
,
00100000
00000000
00000000
01000000
00000000
10000000
00000000
00000000
00100000
00000000
00000000
01000000
00000000
00001000
00000000
00000000
,
00010000
00000000
00000100
00000000
00000100
00000000
00000010
00000100
00000010
00000000
00000000
00000000
00000100
00000000
00001000
00000000
,
00000010
00000000
00000000
00000100
00000000
00000001
00000000
00000000
00001000
00000000
00000000
00000100
00000000
00010000
00000000
00000000
,
00001000
00000000
01000000
00000000
01000000
00000000
00010000
01000000
00010000
00000000
00000000
00000000
01000000
00000000
00100000
00000000
,
00100000
10000000
00010000
00000000
00100000
00000000
01000000
00000000
00100000
00000000
10000000
00000000
00100000
00000000
00001000
00000000
,
00010000
00000010
00000100
00001000
00000100
00000001
00000010
00000100
,
00010000
00001000
01000000
00000000
00010000
00000000
01000000
00000000
10000000
00000000
01000000
00000000
00010000
00000000
10000000
00000000
,
00000000
01000000
00010000
01000000
00100000
00000000
01000000
10000000
00000000
00010000
00000000
00100000
01000000
00000000
10000000
00000000
,
00010000
01000000
00000000
00000000
00100000
00000000
10000000
00010000
00000000
00100000
00000000
00000000
00001000
00000000
00010000
00000010
,
00000000
00001000
00000000
00000000
00000001
00000000
00000010
00000100
00000000
00001000
00000000
00000000
00000010
00000000
00010000
00001000
,
00000000
00100000
00000000
00000000
01000000
00000000
00100000
00010000
00000000
10000000
00000000
00000000
00100000
00000000
01000000
00001000
,
00000000
00010000
00000000
00000000
00000100
00000000
00000010
00000001
00000000
00001000
00000000
00000000
00000010
00000000
00000100
00000001
,
00000000
00000010
00000000
00000000
00000100
00000000
00000010
00000000
00000000
00001000
00000000
00000000
00010000
00000000
00100000
00000000
,
00000000
01000000
00000000
00000000
00010000
00000000
10000000
00000000
00000000
01000000
00000000
00000000
00100000
00000000
01000000
00000000
,
00000000
00010000
00000000
00000000
00001000
00000000
00000100
00000000
00000000
00000010
00000000
00000000
00001000
00000000
00000001
00000000
,
00000000
00001000
00000100
00001000
00000100
00000000
00010000
00001000
00000000
01000000
00000000
00010000
10000000
00000000
01000000
00100000
;
