#TITLE:War Maker;
#SUBTITLE:;
#ARTIST:83key;
#TITLETRANSLIT:;
#SUBTITLETRANSLIT:;
#ARTISTTRANSLIT:;
#GENRE:Twerk (Probably);
#CREDIT:skeleton made by Gameoson;
#BANNER:War Maker.png;
#BACKGROUND:War Maker-bg.png;
#LYRICSPATH:;
#CDTITLE:../_YSD cdtitles/ysd sale2 cdtitle.png;
#MUSIC:War Maker.ogg;
#OFFSET:-0.600000;
#SAMPLESTART:19.816000;
#SAMPLELENGTH:19.200001;
#SELECTABLE:YES;
#BPMS:0.000000=100.000000
,100.000000=200.000000
,116.000000=100.000000
,124.000000=200.000000
,140.000000=100.000000
,148.000000=200.000000
,163.500000=100.000000
,171.500000=200.000000
,187.000000=100.000000
;
#STOPS:148.000000=0.150000,
171.500000=0.150000
;
#BGCHANGES:;
#KEYSOUNDS:;
#ATTACKS:;

//---------------dance-single - ----------------
#NOTES:
     dance-single:
     :
     Beginner:
     5:
     0.199176,0.295573,0.176282,0.000000,0.000000,174.000000,152.000000,22.000000,0.000000,0.000000,0.000000,0.199176,0.295573,0.176282,0.000000,0.000000,174.000000,152.000000,22.000000,0.000000,0.000000,0.000000:
// measure 0
0000
0000
0000
0000
,  // measure 1
0000
0000
0000
0000
,  // measure 2
1000
0000
0001
0000
,  // measure 3
1000
0000
0001
0000
,  // measure 4
0100
0000
0010
0000
,  // measure 5
1000
0000
0001
0000
,  // measure 6
1000
0000
0001
0000
,  // measure 7
0010
0010
0010
0000
,  // measure 8
1001
0001
1000
0000
,  // measure 9
1001
1000
0010
0000
,  // measure 10
0110
0100
0001
0000
,  // measure 11
1001
1000
0001
0000
,  // measure 12
0110
0010
0100
0000
,  // measure 13
1001
0001
0100
0000
,  // measure 14
1001
1000
0100
0000
,  // measure 15
0110
0010
0001
0000
,  // measure 16
1001
0000
0000
1000
0000
1000
0000
0000
,  // measure 17
0001
0000
0000
0100
0000
0100
0000
0000
,  // measure 18
0010
0000
0000
1000
0000
1000
0000
0000
,  // measure 19
0001
0000
0000
1000
0000
1000
0000
0000
,  // measure 20
0100
0100
0100
0000
,  // measure 21
0010
0010
0010
0000
,  // measure 22
0001
0001
0001
0000
,  // measure 23
1000
1000
1000
0000
,  // measure 24
0000
0010
0010
0000
0010
0000
0100
0000
,  // measure 25
0000
0001
0001
0000
,  // measure 26
1000
0000
0100
0100
,  // measure 27
0000
0010
0010
0000
,  // measure 28
0001
0000
0100
0100
,  // measure 29
0000
0110
0100
0001
,  // measure 30
1000
1001
0001
0010
,  // measure 31
0000
0100
0100
0000
,  // measure 32
1000
0000
0001
0001
,  // measure 33
0000
0100
0100
0000
,  // measure 34
0010
0000
1000
1000
,  // measure 35
0000
0110
0001
1000
,  // measure 36
0010
0110
0100
1001
,  // measure 37
0000
0001
0000
0001
0000
0000
0000
0100
,  // measure 38
0000
0000
0000
0010
0000
0010
0000
0000
,  // measure 39
0000
1000
0000
1000
0000
0000
0000
0100
,  // measure 40
0000
0000
0000
0010
0000
0010
0000
0000
,  // measure 41
0000
0110
0000
0100
0000
1000
0000
0001
,  // measure 42
0000
0110
0000
1000
0000
1001
0000
0000
,  // measure 43
0001
0001
0000
0100
,  // measure 44
0000
0010
0010
0000
,  // measure 45
1000
1000
0000
0100
,  // measure 46
0000
0010
0010
0010
,  // measure 47
0110
1000
0001
0100
,  // measure 48
0010
1001
0110
1001
,  // measure 49
0000
1000
0000
0001
,  // measure 50
0000
1000
0000
0010
,  // measure 51
0000
0100
0000
0010
,  // measure 52
0000
1000
0000
0001
,  // measure 53
0000
1000
0000
0100
,  // measure 54
0000
0010
0000
0001
,  // measure 55
0000
0100
0000
0010
,  // measure 56
0010
0010
0000
1001
;

//---------------dance-single - ----------------
#NOTES:
     dance-single:
     :
     Easy:
     9:
     0.401786,0.545673,0.032051,0.000000,0.080128,351.000000,347.000000,4.000000,0.000000,0.000000,0.000000,0.401786,0.545673,0.032051,0.000000,0.080128,351.000000,347.000000,4.000000,0.000000,0.000000,0.000000:
0000
0000
0000
0000
,
0000
0000
0000
0000
,
1000
0001
0100
0010
,
0100
0001
1000
0100
,
0010
0000
0001
0000
1000
0000
0010
0100
,
0001
0000
1000
0000
0100
0000
0010
0100
,
1000
0000
0001
0000
0100
0000
0010
1000
,
0001
0010
0100
1000
0001
0100
1000
0100
,
0001
0000
1000
0100
0010
0100
1000
0001
,
0100
0000
0010
1000
0001
0010
0001
1000
,
0010
0000
0100
0001
0010
0100
1000
0001
,
0100
0000
0010
1000
0001
0010
0100
1000
,
1001
0000
0001
0100
0010
1000
0100
0010
,
0001
0000
1000
0010
0100
0001
0010
0100
,
1000
0000
0001
0010
0100
1000
0010
0100
,
0001
0000
1000
0100
0010
0001
0100
0010
,
1000
0001
0000
0001
0000
0001
0000
0000
,
1000
0001
0000
0001
0000
0001
0000
0000
,
0100
0010
0000
0010
0000
0010
0000
0000
,
0100
0010
0000
0010
0000
0010
0000
0000
,
1000
0001
1000
0001
0010
0100
0010
0100
,
1000
0001
1000
0001
0100
0010
0100
0010
,
1000
0100
0010
0001
0100
0010
1000
0001
,
0010
0100
1000
0001
0100
0010
1000
0001
,
0010
0000
0100
0000
0100
0000
0100
0000
0100
0000
0100
0000
0100
1000
0100
0000
,
1001
0001
0001
0100
,
0010
0000
1000
0000
0001
0010
0001
0000
,
1000
0010
0010
0100
,
0001
0000
1000
0100
0010
0000
0100
0000
,
1100
0000
0000
0000
1000
0000
0001
0000
0100
0000
0010
1000
0001
0000
0010
0000
,
0100
0000
0000
0000
1000
0000
0001
0000
0100
0000
0010
1000
0100
0000
0010
0000
,
0011
0001
0001
0100
,
0010
0000
1000
0000
0001
0010
0100
0000
,
1000
0010
0010
0100
,
0001
0000
1000
0100
0010
0000
0001
0000
,
0100
0000
0000
0000
0010
0000
1000
0000
0001
0000
0010
0100
1000
0000
0001
0000
,
0100
0000
0000
0000
0010
0000
1000
0000
0001
0000
0010
0000
0100
1000
0001
0100
,
0000
0010
0000
0010
0000
0100
0001
1000
,
0000
0100
0000
0010
0001
1000
0000
0010
,
0000
0100
0000
0100
0000
0001
1000
0100
,
0000
0010
0100
1000
0000
0001
0000
0100
,
0000
0000
0010
0000
1000
0000
0001
0000
0010
0100
1000
0000
0001
0000
0100
0000
,
0000
0000
0001
0000
0010
0000
0100
0000
1000
0000
0100
0010
0001
0100
0000
0000
,
0010
0000
0010
0000
1000
0001
0010
0000
,
0100
1000
0001
0000
0100
0010
1000
0000
,
0001
0000
0001
0000
0010
0100
1000
0000
,
0010
0100
0001
0000
1000
0000
0100
0010
,
0001
0000
0100
0010
1000
0000
0001
0010
0100
0000
1000
0000
0001
0000
0100
0000
,
0010
0000
1000
0001
0010
0001
1000
0001
0100
0010
1000
0001
0100
0000
0000
0000
,
0010
1000
0001
0010
,
0100
0000
1000
0000
0001
0100
0010
0000
,
1000
0001
0010
0100
,
0010
0000
0001
1000
0010
0000
0100
0001
,
1000
0001
0100
0010
1000
0010
0100
0001
,
0010
0100
1000
0100
0010
0001
1000
0010
,
0100
0000
0001
0000
0010
0000
0100
0000
1000
0000
0001
0000
0100
0010
0100
0010
,
0100
0001
0100
0001
1000
0000
0100
0000
0001
0000
0100
0000
1000
0000
0000
0000
;

//---------------dance-single - ----------------
#NOTES:
     dance-single:
     :
     Medium:
     13:
     0.557463,0.704828,0.264423,0.000000,0.316506,487.000000,454.000000,33.000000,0.000000,0.000000,0.000000,0.557463,0.704828,0.264423,0.000000,0.316506,487.000000,454.000000,33.000000,0.000000,0.000000,0.000000:
0000
0000
0000
0000
,
0000
0000
0000
0000
,
1000
0010
0100
0000
0001
0010
0100
0000
,
1000
0001
0100
0000
0001
1000
0100
0000
,
0010
0001
0010
0001
1000
0010
1000
0010
,
0100
0001
0100
0001
1000
0100
1000
0100
,
0010
0001
0010
0000
0001
1000
0001
0000
1000
0010
1000
0000
0010
0100
0010
0000
,
0100
0000
0000
0001
0000
0000
0100
0000
0000
0001
0000
0000
1000
0000
0000
0100
0000
0000
1000
0000
0000
0100
0000
0000
0010
0000
0000
0000
0000
0000
0001
0000
0000
0000
0000
0000
0100
0000
0000
0000
0100
0000
0010
0000
0000
0000
0010
0000
,
1000
0000
0000
0000
0100
0000
0010
0000
0100
0000
1000
0000
0001
0000
0100
0001
,
0100
0000
0000
0000
0010
1000
0010
0000
0100
0000
0001
0000
1000
0000
0100
0000
,
0010
0000
0000
0000
0001
0000
1000
0000
0010
0100
0010
0000
1000
0000
0001
0000
,
1000
0000
0000
0000
0100
0000
0010
0000
0001
1000
0001
0000
0100
0000
0010
0000
,
1000
0000
0000
0000
0100
0000
0010
0000
0001
0000
1000
0000
0010
0000
0100
0001
,
0100
0000
0000
0000
0010
1000
0010
0000
0100
0000
0001
0000
0010
0000
0100
0000
,
1000
0000
0000
0000
0001
0000
0100
0000
0010
1000
0010
0000
0100
0000
0001
0000
,
0010
0000
0000
0000
0100
0000
1000
0000
0001
0100
0001
0000
1000
0000
0100
0000
,
0010
0001
0000
0001
0000
0001
0000
0000
,
0100
0010
0000
0010
0000
0010
0000
0000
,
1000
0001
0000
0001
0000
0001
0000
0000
,
1000
0100
0000
0100
0000
0100
0000
0000
,
0010
0000
0001
0000
0010
0000
0001
0000
1000
0000
0010
0000
1000
0000
0010
0100
,
0001
0000
0100
0000
0001
0000
0100
0000
0001
0000
1000
0000
0001
0000
1000
0001
,
0010
0100
0010
0000
0100
1000
0100
0000
1000
0001
1000
0000
0001
0100
0001
0000
,
1000
0010
1000
0010
0100
0001
0100
0001
1000
0100
1000
0100
0010
0001
0010
0001
,
1000
0000
0001
0000
0001
0100
0001
0100
0001
0100
0001
0100
0010
1000
0001
1000
,
0100
0000
1100
0000
1100
0000
1000
0100
,
0010
0100
1000
0100
0010
0001
1000
0010
,
0100
0000
0101
0000
0101
0000
0001
1000
,
0010
0100
0001
0010
0100
1000
0001
0000
,
0100
0000
0010
1000
1010
0000
0010
0100
0001
0000
1000
0100
0110
0000
0010
0000
,
0001
0000
1000
0010
1010
0000
1000
0001
0010
0000
0100
1000
1001
0000
0001
0000
,
0100
0000
0110
0000
0110
0000
0010
1000
,
0001
0010
0100
0010
0001
1000
0010
0100
,
0001
0000
0011
0000
0011
0000
0010
0100
,
1000
0010
0100
0001
0010
0100
1000
0000
,
0100
0000
0010
0001
0011
0000
0010
0001
1000
0000
0010
0100
0101
0000
0001
0000
,
1000
0000
0100
1000
1100
0000
0100
1000
0001
0000
0101
0100
0001
0010
0100
1000
,
0000
1001
0000
1001
0000
0001
0010
0100
,
1000
0010
0100
0001
1000
0100
0010
0001
,
0000
0101
0000
0101
0000
0100
0001
1000
,
0100
0010
0001
0100
0010
1000
0000
0100
,
0010
0001
0011
0000
0010
0001
1000
0000
0010
0100
0101
0000
0001
0000
0010
0000
,
0100
1000
1001
0000
0001
0100
0010
0000
1010
1000
0100
0010
0001
0100
0000
0000
,
1010
0000
1010
0000
1000
0100
0010
0001
,
0100
0010
1000
0001
0010
0100
1000
0000
,
1010
0000
1010
0000
0010
0100
0001
1000
,
0100
0000
0010
0000
0001
0000
0100
0000
0010
0000
0000
0000
1000
0000
0100
0010
,
0011
0000
0001
1000
0010
0000
0100
0001
0011
0000
0010
0000
0100
0000
1000
0010
,
0110
0000
0100
0010
1001
1000
0100
0010
0011
0001
0100
0010
1000
0000
0010
0000
,
0100
0000
0001
0010
0100
0000
1000
0001
,
0100
0000
0010
1000
0100
0000
0010
0001
,
1000
0000
0010
0100
0001
0000
0010
0100
,
1000
0000
0010
0100
0001
0000
1000
0100
,
1000
0100
0010
0001
0010
0001
1000
0010
,
1000
0000
0010
0000
0100
0000
0001
0000
0100
0000
0001
0000
1000
0100
1000
0000
,
0001
0100
0001
0000
1000
0010
1000
0000
0001
0010
0001
0000
1000
0100
0010
0001
,
0010
0000
0000
0100
0000
0000
1000
0000
0000
0001
0000
0000
0100
0000
0000
0000
0000
0000
0010
0000
0000
0000
0000
0000
1000
0000
0000
0000
1000
0000
0100
0000
0000
0000
0100
0000
0010
0000
0000
0000
0000
0000
0000
0000
0000
0000
0000
0000
;

//---------------dance-single - ----------------
#NOTES:
     dance-single:
     :
     Hard:
     15:
     0.699405,0.841246,0.240385,0.016026,0.749199,611.000000,581.000000,30.000000,2.000000,0.000000,0.000000,0.699405,0.841246,0.240385,0.016026,0.749199,611.000000,581.000000,30.000000,2.000000,0.000000,0.000000:
0000
0000
0000
0000
,
0000
0000
0000
0000
,
0001
0000
1000
0000
0010
0000
0100
0000
0001
1000
0100
0000
0010
0000
0010
0000
,
0001
0000
1000
0010
0100
0000
0001
0000
1000
0100
0010
0000
0100
1000
0001
0000
,
1000
0000
0010
0000
0100
0000
0010
1000
0001
0000
0010
0000
0100
0000
1000
0001
,
0100
0000
0010
0000
1000
0000
0001
0010
0100
0000
0010
0000
0001
0000
1000
0010
,
0100
0001
0100
0001
1000
0100
1000
0100
0010
0001
0010
0001
1000
0010
1000
0010
,
0100
0000
0000
0001
0000
0000
1000
0000
0000
0100
0000
0000
0010
0000
0000
0001
0000
0000
1000
0000
0000
0010
0000
0000
0100
0000
0000
0000
0000
0000
0001
0000
0000
0000
0000
0000
1000
0000
0100
0000
0010
0000
0001
0000
1000
0000
0001
0000
,
0010
0000
0000
0000
0011
0000
0001
0000
0100
0000
0010
0000
1000
0000
0100
0100
,
1100
0000
0000
0000
1000
1000
0100
0000
1000
0000
0010
0000
0100
0000
0001
0000
,
1001
0000
0000
0000
1000
0000
0100
0000
0010
0010
0100
0000
1000
0000
0001
0000
,
0101
0000
0000
0000
0000
0000
0000
0000
0000
0000
0000
0000
0100
0000
0000
0000
0000
0000
0010
0000
0000
0000
0000
0000
1000
0000
0000
1000
0000
0000
0100
0000
0000
0000
0000
0000
0010
0000
0000
0000
0000
0000
0001
0000
1000
0000
0001
0000
,
1000
0000
0000
0000
1010
0000
0010
0000
0100
0000
0001
0000
0011
0000
0010
0010
,
0110
0000
0000
0000
1100
1000
0001
0000
0100
0000
0010
0000
1010
0000
1000
1000
,
1100
0000
0000
0000
0110
0000
0010
0000
0001
0001
1000
0000
1010
0000
0010
0000
,
0110
0000
0000
0000
0000
0000
0101
0000
0000
0100
0000
0000
0001
0000
0000
0010
0000
0000
0100
1000
0100
0010
0001
0010
,
0100
1000
0000
0001
0000
0001
0000
0000
,
0100
0000
0010
0000
0000
0000
1000
0000
0100
0010
0001
0000
0100
0010
1000
0000
,
0001
0100
0000
0010
0000
0010
0000
0000
,
1000
0000
0100
0000
0000
0000
0001
0000
0100
0010
0001
0000
1000
0000
0000
0000
,
0010
0000
0000
0000
1000
0000
0000
0000
0010
0000
0000
0000
1000
0000
0001
0000
0010
0000
0000
0000
0100
0000
0000
0000
0010
0000
0000
0000
0100
0000
1000
0001
,
1000
0000
0000
0000
0001
0000
0000
0000
0100
0000
0000
0000
0001
0000
1000
0000
0100
0000
0000
0000
0010
0000
0000
0000
0100
0000
0000
0000
0010
0000
0001
1000
,
0001
0100
0001
0100
0010
1000
0010
1000
0100
0010
0100
0010
0001
1000
0001
1000
,
0001
0000
0100
0000
0010
0000
0001
0000
0010
0000
1000
0000
0100
0000
0010
0000
0001
0010
0001
0000
1000
0010
1000
0000
0001
0100
0001
0000
1000
0000
0100
0000
,
1000
0000
0000
0000
0010
0000
0000
0000
0010
0000
0010
1000
0010
0000
0010
0000
0100
0000
0100
0000
0001
0000
0001
1000
0100
0000
0100
0000
0010
0000
0010
0000
,
1001
0000
0000
0001
1000
0000
0000
0010
1000
0000
0000
0001
1000
0000
0100
0000
,
0001
0100
1000
0010
0001
0010
0100
0001
,
1001
0000
0000
0001
0010
0000
0000
0001
1000
0000
0000
0100
1000
0000
0010
0000
,
0001
0000
0010
0000
0100
0000
0001
1000
0100
0000
0010
0000
0001
0000
0000
0000
,
0101
0000
0000
0000
0100
0000
0010
1000
0001
0000
0000
0000
0010
0000
0010
0000
0100
0000
0100
0000
1000
0000
0010
0000
0110
0000
0000
0000
0100
0000
0100
0000
,
0001
0000
0000
0000
0010
0000
0100
1000
0001
0000
0000
0000
0100
0000
0100
0000
0010
0000
0010
0000
1000
0000
1000
0001
0010
0000
0100
0000
1000
0000
0000
0000
,
1001
0000
0000
0001
1000
0000
0000
0100
1000
0000
0000
0001
1000
0000
0010
0000
,
0001
0010
1000
0100
0001
0100
0010
0001
,
1001
0000
0000
0001
0100
0000
0000
0001
1000
0000
0000
0010
1000
0000
0100
0000
,
0001
0000
0100
0000
0010
0000
0001
1000
0010
0000
0100
0000
0001
0000
0000
0000
,
0011
0000
0000
0000
0010
0000
0100
1000
0001
0000
0000
0000
0100
0000
0100
0000
0010
0000
0010
0000
1000
0000
0100
0000
0110
0000
0000
0000
0010
0000
0010
0000
,
0001
0000
0000
0000
0100
0000
0010
1000
0001
0000
0000
0000
0010
0000
0010
0000
0100
0000
0100
0000
1100
0000
1000
0001
0100
0000
0010
0000
1000
0000
0100
0000
,
0020
0030
0000
0000
0001
0000
0000
0000
0000
0000
1000
0000
0010
0000
0000
0000
0000
0000
0100
0000
0001
0000
0000
0000
1000
0000
0000
0000
0100
0000
0000
0000
,
0001
0100
1000
0010
0100
0001
0010
1100
,
0000
1000
0010
0000
0000
0100
0001
0000
0000
0010
0100
0000
1000
0000
0001
0000
,
0100
0000
1000
0000
0100
0001
1000
0000
0100
0000
0010
0000
0001
1000
0010
0000
,
0100
0000
0001
1000
0100
0000
0000
0000
0010
0000
0010
0000
0001
0000
0001
0000
1000
0000
0010
0000
0110
0000
0000
0000
0100
0000
0100
0000
0001
0000
0000
0000
,
0010
0000
0100
1000
0001
0000
0000
0000
0100
0000
0100
0000
0010
0000
0010
0000
1010
0000
1000
0001
0010
0000
0100
0000
1000
0000
0010
0000
0200
0300
0000
0000
,
0001
0000
0000
1000
0100
0000
0000
0010
0001
0000
1000
0000
0010
0000
0001
0000
,
0010
0000
1000
0000
0100
0000
0010
0000
0001
0000
0100
0000
1010
0000
0000
1000
,
0100
0000
0000
0010
0001
0000
0000
0100
0010
0000
1000
0000
0001
0000
0010
0000
,
1000
0000
0000
0000
0010
0000
0001
0000
1000
0000
0000
0000
0010
0000
0000
0000
0100
0000
0000
0000
0001
0000
1000
0000
0100
0000
0000
0000
0010
0000
0001
1000
,
0010
0000
0000
0000
0100
0000
0100
0000
0001
0000
0001
0000
1000
0000
0100
0000
0110
0000
0000
0000
0010
0000
0010
0000
0001
0000
0000
0000
0100
0000
0010
1000
,
0001
0000
0000
0000
0010
0000
0010
0000
0110
0000
0100
0000
1100
0000
1000
0100
0010
0000
1000
0000
0010
0000
0001
0000
1000
0000
0000
0000
0010
0000
0000
0000
,
0100
0000
0001
0000
1000
0100
0100
0000
0010
0000
0010
0000
0001
0000
1000
0010
,
0010
0000
0100
0000
0001
0010
0100
0000
1000
0010
0100
0000
0001
0000
1000
0000
,
0100
0000
0010
0000
0001
1000
1000
0000
0010
0000
0100
0000
0001
0000
1000
0100
,
0100
0000
0010
0000
0001
0100
0010
0000
0001
0010
1000
0000
0100
0000
0010
0000
,
0100
0000
0010
0001
1000
0000
0010
0000
0100
0000
0010
1000
0001
0000
0010
0000
,
0100
0000
0010
0001
1000
0000
0010
0000
0100
0000
0001
0010
0100
1000
0001
0100
,
0010
0100
0001
1000
0100
0010
0001
0100
1000
0100
0001
0010
0100
0001
0100
1000
,
0001
0000
0000
0100
0000
0000
0010
0000
0000
1000
0000
0000
0100
0000
0000
0000
0000
0000
0010
0000
0000
0000
0000
0000
0001
0000
0100
0000
0001
0000
1000
0000
0100
0000
1000
0000
0001
0000
0000
0000
0000
0000
0000
0000
0000
0000
0000
0000
;

//---------------dance-double - ----------------
#NOTES:
     dance-double:
     :
     Beginner:
     4:
     0.155678,0.227364,0.088141,0.000000,0.000000,136.000000,125.000000,11.000000,0.000000,0.000000,0.000000,0.155678,0.227364,0.088141,0.000000,0.000000,136.000000,125.000000,11.000000,0.000000,0.000000,0.000000:
00000000
00000000
00000000
00000000
,
00000000
00000000
00000000
00000000
,
00010000
00000000
00000000
00000000
,
00001000
00000000
00000000
00000000
,
00100000
00000000
00001000
00000000
,
01000000
00000000
00010000
00000000
,
10000000
00000000
01000000
00000000
,
00100000
00000000
00001000
00000000
,
00011000
00010000
00000010
00000000
,
00001010
00001000
00000001
00000000
,
00001001
00001000
00000100
00000000
,
00000110
00000010
00000001
00000000
,
00001001
00001000
00000010
00000000
,
00010010
00000010
00010000
00000000
,
00011000
00001000
00100000
00000000
,
00110000
00010000
10000000
00000000
,
10010000
00000000
00000000
00000000
,
00010000
00000000
00000000
00000000
,
01000000
00000000
00000000
00000000
,
00001000
00000000
00000000
00000000
,
00010000
00000000
00000100
00000000
,
00000010
00000000
00000100
00000000
,
00001000
00000000
00000001
00000000
,
00000100
00000000
00000010
00000000
,
00000100
00000000
00000000
00000000
,
00000000
00000001
00000001
00000000
,
00001000
00000000
00000100
00000100
,
00000000
00000010
00000010
00000000
,
00000100
00000000
00010000
00010000
,
00001000
00000000
00100000
00000000
,
00001000
00000000
01000000
00000000
,
00000000
00010000
00010000
00000000
,
10000000
00000000
01000000
01000000
,
00000000
00100000
00100000
00000000
,
00001000
00000000
00010000
00010000
,
00001000
00000000
00010000
00000000
,
00000010
00000000
00001000
00000000
,
00000000
00000001
00000000
00000001
00000000
00000000
00000000
00001000
,
00000000
00000000
00000000
00000100
00000000
00000100
00000000
00000000
,
00000000
00000010
00000000
00000010
00000000
00000000
00000000
00000001
,
00000000
00000000
00000000
00001000
00000000
00001000
00000000
00000010
,
00000000
00000000
00000000
00000100
00000000
00000000
00000000
00000001
,
00000000
00000000
00000000
00001000
00000000
00000000
00000000
00000000
,
00000100
00000100
00000000
00010000
,
00000000
00001000
00001000
00000000
,
01000000
01000000
00000000
00010000
,
00000000
10000000
10000000
01000000
,
00100000
00001000
00000000
00010000
,
00000010
00001000
00000000
00001001
,
00000000
00000000
00000000
00001000
,
00000000
00000100
00000010
00000001
,
00000000
00000000
00000000
00001000
,
00000000
00000010
00000100
00000001
,
00000000
00001000
00000000
00000100
,
00000000
00010000
00000000
00001000
,
01000000
00100000
01000000
00010000
,
10000000
01000000
00000000
01100000
;

//---------------dance-double - ----------------
#NOTES:
     dance-double:
     :
     Easy:
     8:
     0.349130,0.431991,0.120192,0.000000,0.032051,305.000000,290.000000,15.000000,0.000000,0.000000,0.000000,0.349130,0.431991,0.120192,0.000000,0.032051,305.000000,290.000000,15.000000,0.000000,0.000000,0.000000:
00000000
00000000
00000000
00000000
,
00000000
00000000
00000000
00000000
,
00001000
00010000
00000010
00000100
,
00000001
00000010
00000100
00010000
,
00001000
00100000
00010000
10000000
,
00100000
01000000
00001000
00010000
,
00000100
00001000
00000001
00000100
,
00000010
00001000
00000010
00001000
00000001
00000000
00001000
00000000
,
00000100
00000000
00000010
00000001
00000010
00000100
00001000
00000001
,
00000100
00000000
00000010
00001000
00000100
00010000
00001000
01000000
,
00010000
00000000
10000000
01000000
10000000
00010000
01000000
00010000
,
00100000
00000000
00001000
00010000
00000010
00001000
00000001
00001000
,
00000100
00000000
00000010
00000001
00000100
00000010
00001000
00000001
,
00000010
00000000
00000001
00001000
00000010
00010000
00001000
00100000
,
00010000
00000000
10000000
00100000
01000000
00010000
10000000
01000000
,
00100000
00000000
01000000
00100000
00010000
00100000
00001000
00010000
,
00000010
00001000
00000000
00001000
00000000
00001000
00000000
00000000
,
00000001
00000010
00000000
00000010
00000000
00000010
00000000
00000000
,
00000100
00001000
00000000
00001000
00000000
00001000
00000000
00000000
,
00000100
00010000
00000000
00010000
00000000
00010000
00000000
00000000
,
00001000
00000000
01000000
00010000
10000000
00000000
01000000
00100000
,
00001000
00000000
00010000
00000010
00001000
00000000
00000001
00000100
,
00000010
00001000
00000010
00001000
00000001
00000010
00000001
00000010
,
00000100
00001000
00000001
00000100
00000010
00010000
00001000
00100000
,
00010000
10000000
10000000
10000000
10000000
10000000
10000000
00100000
,
10100000
10000000
01000000
00010000
,
00001000
00000010
00000001
00000100
,
00000010
00000100
00000001
00000100
,
00001000
00010000
00100000
01000000
,
00010000
00000000
10010000
00000000
10000000
01000000
01100000
00000000
,
00100000
00000000
00011000
00000000
00010000
00000010
00001010
00000000
,
00001001
00000001
00000100
00001000
,
00010000
01000000
10000000
00100000
,
01000000
00010000
10000000
01000000
,
00010000
00001000
00000010
00000001
,
00000100
00000000
00000101
00000000
00000001
00001000
00001100
00000000
,
00000100
00000000
00000000
00000000
00011000
00000000
00000000
00000000
00100000
00000000
00001000
00000000
01000000
00010000
01000000
00010000
,
00000000
01000000
00000000
00010000
00000000
10000000
00000000
01000000
,
00000000
00010000
00000000
00001000
00000000
00000010
00000000
00000001
,
00000000
00000100
00000000
00000010
00000000
00000100
00000000
00001000
,
00000000
00010000
00000000
01000000
00000000
10000000
00000000
00010000
,
00000000
01010000
00000000
01000000
00001000
00011000
00000000
00010000
,
00000000
00000000
00001010
00000000
00000000
00000000
00000001
00000000
00000010
00000000
00000001
00001000
00000001
00001000
00000000
00000000
,
00000001
00000100
00001000
00010000
,
01000000
10000000
00100000
00010000
,
00001000
00000010
00000001
00000100
,
00001000
00010000
00100000
10000000
,
11000000
00000000
01000000
00100000
00110000
00000000
00001000
00000000
,
00011000
00000000
00000000
00000000
00001000
00010000
00001000
00010000
00000010
00010000
00000010
00001000
00000010
00000000
00000000
00000000
,
00001000
00000001
00000010
00000100
,
00010000
00001000
00100000
01000000
,
10000000
00010000
01000000
00100000
,
10000000
01000000
00010000
00001000
,
00010000
00000000
00000010
00000000
00000100
00000001
00001000
00000000
,
00000100
00000000
00000010
00000000
00000001
00000100
00001000
00010000
,
00100000
01000000
00010000
10000000
01000000
00100000
01000000
00010000
,
00001000
00000010
00000001
00000100
00001000
00010000
01000000
00000000
;

//---------------dance-double - ----------------
#NOTES:
     dance-double:
     :
     Medium:
     13:
     0.503663,0.613882,0.128205,0.064103,0.212340,440.000000,424.000000,16.000000,8.000000,0.000000,0.000000,0.503663,0.613882,0.128205,0.064103,0.212340,440.000000,424.000000,16.000000,8.000000,0.000000,0.000000:
00000000
00000000
00000000
00000000
,
00000000
00000000
00000000
00000000
,
00010000
00001000
00100000
00000000
00010000
10000000
01000000
00000000
,
00100000
00001000
00010000
00000000
00000010
00001000
00000001
00000000
,
00000010
00000100
00000010
00000100
00001000
00000001
00001000
00000001
,
00000100
00000010
00000100
00000010
00010000
00000010
00010000
00000010
,
00010000
00001000
00010000
00000000
00001000
00010000
00001000
00000000
00100000
00001000
00100000
00000000
00001000
00100000
00001000
00000000
,
00100000
00010000
00100000
00000000
00010000
00100000
00010000
00000000
10000000
00000000
00010000
00000000
01000000
00000000
00100000
00000000
,
10000000
00000000
01000000
00100000
00001000
00010000
00000001
00001000
,
00000010
00000000
00000100
00000001
00000010
00000100
00010000
00001000
,
00100000
00000000
00001000
01000000
00100000
10000000
01000000
00100000
,
00001000
00000000
00010000
00000010
00001000
00000001
00000010
00000100
,
00010000
00000000
00001000
00010000
00100000
01000000
00010000
10000000
,
01000000
00000000
00100000
00001000
00010000
00000010
00000100
00000001
,
00000010
00000000
00000100
00000010
00000001
00000100
00001000
00010000
,
00001000
00000000
00010000
00100000
01000000
00010000
10000000
01000000
,
00100000
00010000
00000000
00010000
00000000
00010000
00000000
00000000
,
00100000
00001000
00000000
00001000
00000000
00001000
00000000
00000000
,
00010000
00000010
00000000
00000010
00000000
00000010
00000000
00000000
,
00001000
00000001
00000000
00000001
00000000
00000001
00000000
00000000
,
00000010
00000100
00000010
00000100
00001000
00000001
00001000
00000001
,
00000100
00000001
00000100
00000001
00001000
00000010
00001000
00000010
,
00010000
00001000
00010000
00001000
00100000
00001000
00100000
00001000
,
01000000
00010000
01000000
00000000
00010000
01000000
00010000
00000000
10000000
00010000
10000000
00000000
01000000
10000000
01000000
00000000
,
00100000
00000000
00001000
00000000
00001000
00010000
00001000
00010000
00001000
00010000
00001000
00010000
00000100
00010000
00000100
00001000
,
00000010
00000000
00001010
00000000
00001010
00000000
00001000
00000010
,
00000100
00000001
00000010
00000100
00010000
00001000
00100000
00001000
,
01000000
00000000
01010000
00000000
01010000
00000000
00010000
10000000
,
01000000
00100000
01000000
00010000
00002000
00000000
00023000
00000000
,
00030100
00000000
00001000
00000001
00000100
00000000
00000001
00000010
00000100
00000000
00001000
00000001
00000100
00000000
00000010
00000000
,
00000100
00000000
00001000
00010000
00001000
00000000
00100000
01000000
10000000
00000000
00100000
01000000
00010000
00000000
00100000
00000000
,
00001000
00000000
00101000
00000000
00101000
00000000
00100000
00001000
,
00010000
00000010
00001000
00000001
00000010
00000100
00001000
00000001
,
00000100
00000000
00000110
00000000
00000110
00000000
00000010
00001000
,
00000100
00000010
00000001
00000100
00002000
00000000
00023000
00000000
,
00031000
00000000
00100000
00010000
01000000
00000000
00100000
10000000
00010000
00000000
00100000
01000000
10000000
00000000
00010000
00000000
,
01000000
00000000
00010000
10000000
01000000
00000000
00010000
00001000
00010000
00000000
00000010
00001000
00000001
00000010
00000100
00001000
,
00000000
00001001
00000000
00001001
00000000
00000001
00000100
00000001
,
00001000
00000100
00010000
00001000
01000000
00010000
10000000
01000000
,
00000000
11000000
00000000
11000000
00000000
10000000
00100000
01000000
,
00010000
00100000
01000000
00020000
00000000
00032000
00000000
00013000
,
00000010
00001000
00000001
00000000
00000010
00000100
00001000
00000000
00000001
00000100
00000010
00000000
00001000
00000000
00000100
00000000
,
00010000
00001000
01000000
00000000
00100000
00010000
00001000
00000000
00100000
01000000
10000000
00010000
01000000
00100000
00000000
00000000
,
10100000
00000000
10100000
00000000
10000000
00010000
00100000
00001000
,
00010000
00000010
00001000
00000001
00000010
00000100
00001000
00000000
,
00001100
00000000
00001100
00000000
00000100
00000010
00000001
00000100
,
00001000
00000000
00010000
00000000
00002000
00000000
00000000
00000000
02003000
00000000
00000000
00000000
03010000
00000000
00100000
01000000
,
10000000
00000000
00100000
01000000
00010000
00000000
10000000
01000000
00010000
00000000
00001000
00000000
00000010
00000000
00000100
00001000
,
00000001
00000000
00000100
00000010
00001000
00000010
00000100
00001000
00010000
00100000
01000000
00010000
10000000
00000000
01000000
00000000
,
00100000
00000000
00010000
01000000
00100000
00000000
10000000
01000000
,
00100000
00000000
00001000
00010000
00000010
00000000
00000100
00000001
,
00000010
00000000
00000100
00010000
00001000
00000000
00100000
01000000
,
10000000
00000000
00100000
01000000
00001000
00000000
00010000
00000100
,
00010000
00000100
00001000
00000010
00001000
00000010
00000100
00000001
,
00000100
00000000
00000001
00000000
00000010
00000000
00000100
00000000
00000010
00000000
00000100
00000000
00010000
00001000
00010000
00000000
,
00001000
00100000
00001000
00000000
01000000
00010000
01000000
00000000
00100000
10000000
00100000
00000000
01000000
00010000
01000000
00000000
,
00010000
10000000
00010000
00000000
10000000
00000000
01000000
00000000
00010000
00000000
00001000
00000000
00000100
00000000
00000000
00000000
;

//---------------dance-double - ----------------
#NOTES:
     dance-double:
     :
     Hard:
     15:
     0.667354,0.773037,0.176282,0.032051,0.669070,583.000000,561.000000,22.000000,4.000000,0.000000,0.000000,0.667354,0.773037,0.176282,0.032051,0.669070,583.000000,561.000000,22.000000,4.000000,0.000000,0.000000:
00000000
00000000
00000000
00000000
,
00000000
00000000
00000000
00000000
,
00010000
00000000
00001000
00000000
00000010
00000000
00000100
00000000
00001000
00000001
00000100
00000000
00000010
00000000
00000010
00000000
,
00001000
00000000
00000100
00000010
00000001
00000000
00000100
00000000
00001000
00010000
00100000
00000000
01000000
00010000
10000000
00000000
,
01000000
00000000
00100000
00000000
01000000
00000000
00100000
00001000
00010000
00000000
00001000
00000000
00010000
00000000
00001000
00010000
,
00000010
00000000
00001000
00000000
00000010
00000000
00001000
00000001
00000010
00000000
00000001
00000000
00000010
00000000
00000001
00000010
,
00000100
00010000
00000100
00010000
00001000
00010000
00001000
00010000
00001000
01000000
00001000
01000000
00010000
01000000
00010000
01000000
,
00100000
00000000
00000000
10000000
00000000
00000000
01000000
00000000
00000000
00100000
00000000
00000000
00001000
00000000
00000000
00010000
00000000
00000000
00000010
00000000
00000000
00000100
00000000
00000000
00000001
00000000
00000000
00000000
00000000
00000000
00000010
00000000
00000000
00000000
00000000
00000000
00000100
00000000
00001000
00000000
00000100
00000000
00010000
00000000
00000100
00000000
00010000
00000000
,
00001000
00000000
00000000
00000000
00010000
00000000
00100000
00000000
10000000
00000000
01000000
00000000
00100000
00000000
00010000
00010000
,
00110000
00000000
00000000
00000000
00100000
00100000
00001000
00000000
00010000
00000000
00000010
00000000
00000100
00000000
00000001
00000000
,
00000101
00000000
00000000
00000000
00000001
00000000
00000010
00000000
00000100
00000100
00010000
00000000
00000010
00000000
00001000
00000000
,
00001010
00000000
00000000
00000000
00000010
00000000
00000100
00000000
00001000
00001000
00010000
00000000
01000000
00000000
10000000
00000000
,
10010000
00000000
00000000
00000000
00010000
00000000
01000000
00000000
00100000
00000000
00010000
00000000
00001000
00000000
00010000
00010000
,
00011000
00000000
00000000
00000000
00001000
00001000
00010000
00000000
00000010
00000000
00000100
00000000
00000001
00000000
00001000
00000000
,
00001100
00000000
00000000
00000000
00000100
00000000
00000001
00000000
00000100
00000100
00001000
00000000
00000010
00000000
00000100
00000000
,
00000110
00000000
00000000
00000000
00000010
00000000
00000100
00000000
00001000
00001000
00010000
00000000
00100000
00000000
01000000
00000000
,
10010000
00010000
00000000
10000000
00000000
10000000
00000000
00000000
,
01000000
00100000
00000000
00001000
00010000
00000010
00000100
00001000
,
00010000
00001000
00000000
00100000
00000000
01000000
00000000
00000000
,
10000000
00100000
00000000
01000000
00100000
00010000
00001000
00000010
,
00000001
00000000
00000010
00000000
00000001
00000000
00000010
00000100
00001000
00000000
00000010
00000000
00001000
00000000
00000010
00010000
,
00001000
00000000
00010000
00000000
00001000
00000000
00010000
00001000
00100000
00000000
00010000
00000000
00100000
00000000
00010000
10000000
,
00100000
10000000
00100000
10000000
00010000
01000000
00010000
01000000
00001000
00010000
00001000
00010000
00000100
00001000
00000100
00001000
,
00000001
00000100
00000010
00001000
00000001
00000010
00000100
00010000
00001000
01000000
00100000
10000000
00010000
10000000
01000000
00100000
,
00001000
00000000
00010000
00000000
00010000
00001000
00010000
00001000
00010000
00001000
00010000
00001000
00010000
00010000
00001000
00001000
,
00011000
00000000
00000000
00000100
00010000
00000000
00000000
00000100
00010000
00000000
00000000
00000100
00010000
00000000
00001000
00000000
,
00000010
00000001
00000100
00001000
00010000
00010000
00001000
00001000
,
01001000
00000000
00000000
01000000
00001000
00000000
00000000
01000000
00001000
00000000
00000000
01000000
00010000
00000000
00100000
00000000
,
01000000
10000000
00100000
00010000
00001000
00010000
00000200
00000000
,
00001300
00000000
00000000
00000000
00000010
00000000
00000100
00000001
00000100
00000000
00000000
00000000
00000001
00000000
00000001
00000000
00000010
00000000
00000010
00000000
00000100
00000000
00001000
00000000
00001100
00000000
00000000
00000000
00000100
00000000
00000100
00000000
,
00000010
00000000
00000000
00000000
00000001
00000000
00001000
00000010
00001000
00000000
00000000
00000000
00000010
00000000
00000010
00000000
00000100
00000000
00001000
00000000
00010000
00000000
00100000
01000000
00100000
00000000
10000000
00000000
00010000
00000000
00000000
00000000
,
10010000
00000000
00000000
00010000
10000000
00000000
00000000
00010000
10000000
00000000
00000000
00010000
10000000
00000000
01000000
00000000
,
00010000
00001000
00000100
00000001
00000010
00000010
00000100
00000100
,
00001100
00000000
00000000
00000001
00001000
00000000
00000000
00000010
00001000
00000000
00000000
00000001
00001000
00000000
00000010
00000000
,
00000100
00000001
00000100
00001000
00010000
00100000
10000000
00000000
,
10100000
00000000
00000000
00000000
00100000
00000000
01000000
00010000
01000000
00000000
00000000
00000000
00001000
00000000
00001000
00000000
00100000
00000000
00100000
00000000
01000000
00000000
10000000
00000000
10010000
00000000
00000000
00000000
00010000
00000000
00010000
00000000
,
01000000
00000000
00000000
00000000
00001000
00000000
00010000
00000100
00010000
00000000
00000000
00000000
00000100
00000000
00000100
00000000
00001000
00000000
00001000
00000000
00001001
00000000
00001000
00000010
00000100
00000000
00000001
00000000
00000010
00000000
00000100
00000000
,
00002000
00003000
00000001
00000000
00001000
00000000
00000000
00000000
00000000
00000000
00000001
00000000
00001000
00000000
00000000
00000000
00000000
00000000
00000001
00000000
00001000
00000000
00000000
00000000
00000010
00000000
00000000
00000000
00000100
00000000
00000000
00000000
,
00001000
00010000
01000000
10000000
10000000
00100000
00100000
01100000
,
00000000
00010000
01000000
00000000
00000000
00010000
01000000
00000000
00000000
00010000
01000000
00000000
00010000
00000000
00100000
00000000
,
01000000
10000000
01000000
00010000
00001000
00000020
00000000
00000031
,
00000100
00000000
00000010
00001000
00000001
00000000
00000000
00000000
00001000
00000000
00001000
00000000
00000100
00000000
00000100
00000000
00000010
00000000
00000100
00000000
00010100
00000000
00000000
00000000
00010000
00000000
00010000
00000000
00001000
00000000
00000000
00000000
,
00100000
00000000
00010000
10000000
00100000
00000000
00000000
00000000
01000000
00000000
01000000
00000000
00010000
00000000
00010000
00000000
00110000
00000000
00010000
00100000
01000000
00000000
10000000
00000000
00100000
00000000
01000000
00000000
00002000
00003000
00010000
00000000
,
00001000
00000000
00000000
00010000
00001000
00000000
00000000
00010000
00001000
00000000
00000010
00000000
00000001
00000000
00000100
00000000
,
00001000
00000000
00010000
00000000
01000000
00000000
10000000
00000000
00100000
00000000
00010000
00000000
00001000
00000000
00000000
00010000
,
00000100
00000000
00000000
00010000
00000100
00000000
00000000
00010000
00000100
00000000
00000001
00000000
00000100
00000000
00001000
00000000
,
00000010
00000000
00000000
00000000
00000100
00000000
00000000
00000000
00001000
00000000
00000000
00000000
00010000
00000000
00000000
00000000
01000000
00000000
00000000
00000000
00100000
00000000
00010000
00000000
10000000
00000000
00000000
00000000
00100000
00000000
01000000
00001000
,
00010000
00000000
00000000
00000000
00001000
00000000
00001000
00000000
00010000
00000000
00010000
00000000
00000010
00000000
00000100
00000000
00000101
00000000
00000000
00000000
00000001
00000000
00000001
00000000
00000010
00000000
00000000
00000000
00000100
00000000
00010000
00000010
,
00001000
00000000
00000000
00000000
00010000
00000000
00010000
00000000
00011000
00000000
00100000
00000000
00011000
00000000
00001000
00010000
00000010
00000000
00000100
00000000
00001000
00000000
00010000
00000000
00001000
00000000
00000000
00000000
00010000
00000000
00000000
00000000
,
00100000
00000000
01000000
00000000
00010000
10000000
01000000
00000000
00100000
00000000
00100000
00000000
01000000
00000000
00010000
00000000
,
00001000
00000000
00010000
00000000
00000010
00001000
00000001
00000000
00000010
00000100
00010000
00000000
00001000
00000000
00010000
00000000
,
01000000
00000000
00100000
00000000
00010000
10000000
00100000
00000000
01000000
00000000
01000000
00000000
00010000
00000000
00100000
01000000
,
10000000
00000000
00100000
00000000
00010000
00001000
00000100
00000000
00000010
00001000
00000001
00000000
00000010
00000000
00000100
00000000
,
00000010
00000000
00000100
00010000
00001000
00000000
00010000
00000000
00001000
00000000
00010000
00001000
01000000
00000000
00010000
00000000
,
01000000
00000000
00010000
10000000
01000000
00000000
10000000
00000000
01000000
00000000
10000000
01000000
00100000
00001000
00100000
00001000
,
00010000
00001000
00010000
00001000
00010000
00000010
00010000
00000010
00001000
00000010
00001000
00000010
00000100
00000001
00000010
00000100
,
00010000
00000000
00000000
00001000
00000000
00000000
01000000
00000000
00000000
00100000
00000000
00000000
10000000
00000000
00000000
00000000
00000000
00000000
01000000
00000000
00000000
00000000
00000000
00000000
00100000
00000000
00010000
00000000
00100000
00000000
00001000
00000000
00100000
00000000
00001000
00000000
00010000
00000000
00000000
00000000
00000000
00000000
00000000
00000000
00000000
00000000
00000000
00000000
;
