#TITLE:WORLD COLOR;
#SUBTITLE:;
#ARTIST:猫叉Master feat. 林ももこ;
#TITLETRANSLIT:;
#SUBTITLETRANSLIT:;
#ARTISTTRANSLIT:Nekomata Master feat. Momoko Hayashi;
#GENRE:VITAMIN POP;
#CREDIT:;
#BANNER:WORLD COLOR.png;
#BACKGROUND:WORLD COLOR-bg.png;
#LYRICSPATH:;
#CDTITLE:../_YSD cdtitles/ysd sc2024 cdtitle.png;
#MUSIC:WORLD COLOR.ogg;
#OFFSET:-0.491000;
#SAMPLESTART:83.400002;
#SAMPLELENGTH:17.455000;
#SELECTABLE:YES;
#DISPLAYBPM:110.000000;
#BPMS:0.000000=110.000000
;
#STOPS:
;
#BGCHANGES:;
#KEYSOUNDS:;
#ATTACKS:;

//---------------dance-single - ----------------
#NOTES:
     dance-single:
     :
     Medium:
     7:
     0.302233,0.369466,0.007693,0.107705,0.034619,275.000000,274.000000,1.000000,14.000000,0.000000,0.000000,0.302233,0.369466,0.007693,0.107705,0.034619,275.000000,274.000000,1.000000,14.000000,0.000000,0.000000:
0000
0000
0000
0000
,
0000
0000
0000
0000
,
0000
0000
0000
0000
,
1000
0100
0010
0001
,
1000
0010
0100
0001
,
1000
0000
0000
0000
0000
0000
0100
0000
0000
0000
0000
0010
0000
0000
0000
0000
0000
0000
0000
0000
0000
0000
0000
0000
,
0000
0000
0001
0000
0000
0000
0100
0000
0000
0000
0000
0010
0000
0000
0000
0000
0000
0000
1000
0000
0000
0000
0000
0000
,
0001
0010
0100
0010
,
0001
1000
0010
0100
,
0101
0001
1000
0001
,
0010
0001
0100
0010
,
1000
0100
0010
0001
,
1000
0001
1000
0000
0010
0000
0100
0001
,
1000
0100
0010
0100
,
1000
0000
0001
0000
0100
0000
0010
1000
,
0001
0010
0100
0010
,
1000
0010
0100
0000
1000
0000
0010
0100
,
0001
0000
0010
0000
0100
0000
1000
0010
,
0100
0000
0001
0000
1000
0000
0100
0010
,
0001
0000
1000
0000
0010
0000
0100
0001
,
0010
0000
0100
0000
1000
0000
0001
0100
,
0010
0100
0001
1000
,
0100
0000
0010
0000
0001
0000
0100
0010
,
1000
0100
0010
0001
,
1000
0000
0010
0000
0100
0000
0001
0010
,
1000
0000
0010
0000
0100
0000
1000
0001
,
0100
0000
0010
0000
0100
0000
0001
0010
,
0100
0000
1000
0000
0001
0000
0100
0010
,
1000
0000
0100
0000
0010
0000
0001
1000
,
0020
0100
0000
1030
,
0200
0010
0000
1300
,
0002
0000
0100
0000
0010
0000
1003
0100
,
0020
0000
0100
0000
0031
0100
0010
1000
,
0002
0100
1000
0013
,
0200
1000
0010
0301
,
0100
0000
0000
0000
0000
1000
0000
0000
0000
0000
0000
0000
0001
0000
0000
0000
0000
0100
0000
0000
0000
0000
0000
0000
,
0010
1000
0001
0000
0010
0100
1000
0000
,
0001
0100
0001
0000
1000
0100
1000
0000
0000
0001
0000
0000
,
0100
0010
1000
1000
0010
0010
1000
1000
,
0001
0001
0010
0010
0001
1000
0010
0100
,
0000
0001
1000
1000
0001
0001
1000
1000
,
0000
0100
0100
0100
0010
0001
1000
0010
,
0000
0100
0001
0001
0100
0100
0001
0001
,
1000
1000
0100
0100
1000
0100
0010
0001
,
2000
0000
0100
0000
0010
0000
3100
0010
,
0002
0000
0100
0000
0010
0000
0103
0010
,
1000
0001
0010
0010
0001
0001
0100
0100
,
0010
0010
1000
1000
0010
0100
0001
1000
,
0000
0100
0010
0010
0001
0001
0010
0010
,
0000
0100
0100
0100
1000
0010
0100
0001
,
0000
1000
0100
0100
1000
1000
0001
0001
,
0100
0100
0010
0010
1000
0100
0010
0001
,
0200
0000
0010
0000
0001
0000
0310
1000
,
0200
0001
0010
1300
,
0001
0020
0032
0203
,
2300
0000
0000
0000
,
0000
0000
3000
0000
;

//---------------dance-single - ----------------
#NOTES:
     dance-single:
     :
     Beginner:
     2:
     0.079130,0.152133,0.046159,0.115398,0.000000,72.000000,66.000000,6.000000,15.000000,0.000000,0.000000,0.079130,0.152133,0.046159,0.115398,0.000000,72.000000,66.000000,6.000000,15.000000,0.000000,0.000000:
0000
0000
0000
0000
,
0000
0000
0000
0000
,
0000
0000
0000
0000
,
1000
0000
0000
0000
,
0001
0000
0000
0000
,
0100
0000
0000
0000
,
0010
0000
0000
0000
,
1000
0000
0000
0000
,
0001
0000
0000
0000
,
1001
0000
0000
0000
,
1000
0000
0000
0000
,
0001
0000
0000
0000
,
0010
0000
0000
0000
,
0100
0000
0000
0000
,
1000
0000
0000
0000
,
0001
0000
0000
0000
,
0100
0000
0000
0000
,
0010
0000
0000
0000
,
1000
0000
0000
0000
,
0001
0000
0000
0000
,
1000
0000
0000
0000
,
0100
0000
0000
0000
,
0010
0000
0000
0000
,
0001
0000
0000
0000
,
1000
0000
0000
0000
,
0010
0000
0000
0000
,
0100
0000
0000
0000
,
0001
0000
0000
0000
,
1000
0000
0000
0000
,
2002
0000
3003
0000
,
2000
0000
3000
0000
,
0002
0000
0003
0000
,
0020
0000
0030
0000
,
0200
0000
0300
0000
,
2000
0000
3000
0000
,
0002
0003
2000
3000
,
0001
0001
1000
1000
,
0002
0000
0003
0000
,
1001
0000
0000
0000
,
1000
0000
0010
0000
,
0100
0000
0000
0000
,
0001
0000
0010
0000
,
0110
0000
0000
0000
,
0100
0000
1000
0000
,
0002
0000
0003
0000
,
1000
0000
0010
0000
,
0110
0000
0000
0000
,
0100
0000
0001
0000
,
1000
0000
0000
0000
,
0100
0000
0010
0000
,
1001
0000
0000
0000
,
1000
0000
0001
0000
,
0200
0000
0300
0000
,
0010
0000
1000
0000
,
0002
0003
2000
3000
,
0020
0000
0000
0000
,
0000
0000
0030
0000
;

//---------------dance-single - ----------------
#NOTES:
     dance-single:
     :
     Easy:
     5:
     0.164854,0.217333,0.038466,0.330807,0.019233,150.000000,145.000000,5.000000,43.000000,0.000000,0.000000,0.164854,0.217333,0.038466,0.330807,0.019233,150.000000,145.000000,5.000000,43.000000,0.000000,0.000000:
0000
0000
0000
0000
,
0000
0000
0000
0000
,
0000
0000
0000
0000
,
1000
0000
0001
0000
,
1000
0000
0001
0000
,
1000
0000
0000
0000
0000
0000
0000
0000
0000
0000
0000
0001
0000
0000
0000
0000
0000
0000
0000
0000
0000
0000
0000
0000
,
0000
0000
1000
0000
0000
0000
0000
0000
0000
0000
0000
0010
0000
0000
0000
0000
0000
0000
0100
0000
0000
0000
0000
0000
,
0001
0000
1000
0000
,
0100
0000
0010
0000
,
0011
0000
0001
0000
,
0200
0300
0020
0030
,
1000
0000
0001
0000
,
0010
0010
0100
0100
,
2000
3000
0002
0003
,
0100
0010
1000
0000
,
0002
0003
2000
3000
,
0100
0010
0001
0000
,
0200
0300
0020
0030
,
0001
0010
0100
0000
,
0002
0003
2000
3000
,
0100
0010
0001
1000
,
1010
0000
0020
0030
,
0100
0001
1000
0000
,
0200
0300
0020
0030
,
0001
0100
0010
0000
,
2000
3000
0002
0003
,
1000
0100
0010
0000
,
2000
3000
0020
0030
,
0001
0100
0010
1000
,
2001
0000
3020
0000
,
0230
0000
0302
0000
,
0023
0000
0230
0000
,
2300
0000
3010
0100
,
0201
0000
0320
0000
,
2030
0000
3200
0000
,
0310
0000
0000
0000
0000
0001
0000
0000
0000
0000
0000
0000
1000
0000
0000
0000
0000
0010
0000
0000
0000
0000
0000
0000
,
0200
0302
0203
0320
,
2030
0000
3001
1000
,
1001
0001
0010
0001
,
1000
0010
1000
0001
,
0000
1000
0100
1000
,
0000
0001
0100
0010
,
0000
0001
0010
0100
,
0010
1000
0100
0010
,
0002
0000
2003
0000
,
3020
0000
0130
0001
,
0000
0010
0100
0010
,
0001
1000
0010
0100
,
0000
0001
0010
0100
,
0000
1000
0100
0001
,
0000
0100
0010
0001
,
1000
0010
0100
0001
,
2000
0000
3002
0000
,
0023
0000
0130
1000
,
0010
0200
0302
0023
,
2030
0000
0000
0000
,
0000
0000
3000
0000
;

//---------------dance-single - ----------------
#NOTES:
     dance-single:
     Colorful Planet:
     Hard:
     12:
     0.453899,0.456399,0.061546,0.230796,0.230796,413.000000,405.000000,8.000000,30.000000,0.000000,0.000000,0.453899,0.456399,0.061546,0.230796,0.230796,413.000000,405.000000,8.000000,30.000000,0.000000,0.000000:
0000
0000
0000
0000
,
0000
0000
0000
0000
,
0000
0000
0000
0000
,
2000
3020
0230
0302
,
0023
0000
0230
0000
1300
0001
0100
0010
,
0100
0000
0000
0000
0000
0000
0001
0000
0000
0000
0000
1000
0000
0000
0000
0000
0000
0000
0100
0000
0000
0010
0000
0000
,
0001
0000
0000
0000
1000
0000
0000
0000
0000
0000
0000
0000
0010
0000
0000
0000
0000
0000
0100
0000
0000
0000
0001
0000
0000
0000
0000
0010
0000
0000
0000
0000
0000
0000
0000
0000
1000
0000
0000
0000
0000
0000
0010
0000
0000
0000
0000
0000
,
0002
0203
0320
2030
,
3100
0010
0001
0100
,
0001
0000
0000
0000
0000
0010
0001
0000
0000
1000
0000
0000
0010
0000
0100
0001
0000
0000
0010
0000
0100
1000
0000
0000
,
0002
0000
0000
0000
0000
0000
0100
0000
0000
0010
0000
0000
1003
0000
0010
0100
0000
0000
0001
0000
1000
0100
0000
0000
,
0010
0000
0000
0000
0000
0001
0100
0000
0000
0001
0000
0000
0010
0000
0000
0100
0000
0000
1000
0000
0001
0100
0000
0000
,
0010
0000
0000
0010
0000
0000
0100
0000
0000
0100
0000
0000
0001
0000
0000
0001
0000
0000
0010
0000
0100
1000
0000
0000
,
0001
0000
0000
0000
0000
0000
0100
0000
0000
0010
0000
0000
1000
0000
0000
0100
0000
0000
0010
0000
0000
0000
0000
0100
,
1000
0000
0000
0001
0000
0000
0100
0000
0000
0010
0000
0000
1000
0000
0001
0100
0000
0000
0010
0000
0000
1000
0000
0000
,
0100
0000
0000
0000
0000
0000
0010
0000
0000
0100
0000
0000
1000
0000
0000
0010
0000
0000
0001
0000
0000
0010
0000
0100
,
0000
0000
0001
1000
0000
0000
0100
0000
0000
0010
0000
0000
0100
0000
0000
0000
0000
1000
0001
0000
0000
0100
0000
0000
,
1000
0000
0000
0100
0000
0000
0001
0000
0000
0010
0000
0100
0000
0000
1000
0001
0000
0000
0100
0000
0000
0010
0000
0000
,
0001
0010
1000
0100
0010
0001
0100
1000
,
0100
0000
0000
0000
0000
0001
1000
0000
0000
0100
0000
0000
0010
0000
0000
0000
0000
0001
0100
0000
0000
0010
0000
0000
,
1000
1000
0100
0100
0010
0001
0100
0010
,
1000
0000
0000
0000
0000
0100
0010
0000
0000
0001
0000
0000
0100
0000
0000
0000
0000
0010
1000
0000
0000
0001
0000
0010
,
0000
0100
1000
0001
0100
0010
1000
0100
,
0010
0000
0000
0000
0000
0001
0100
0000
0000
0010
0000
0000
1000
0000
0000
0000
0000
0100
0010
0000
0000
0100
0000
0001
,
0000
0000
0100
1000
0000
0000
0001
0000
0000
0100
0000
0000
0010
0000
0000
0100
0000
0000
0001
0000
0000
0010
0000
0000
,
1000
0000
0000
0010
0000
0000
0001
0000
0000
0100
0000
0010
0000
0000
1000
0001
0000
0000
0010
0000
0000
0100
0000
0000
,
0001
0100
1000
0001
0100
0010
1000
0100
,
0010
0000
0000
0000
0000
0001
0100
0000
0000
0010
0000
1000
0000
0000
0000
0100
0000
0000
0010
0000
0000
0001
0000
0000
,
0100
0100
0010
0010
1000
1000
0100
0010
,
0002
0000
0100
0010
2003
0100
0000
0001
,
3200
0000
0001
0010
2300
0001
0000
0010
,
3002
0000
0010
0100
1003
0010
0100
1000
,
0200
0000
1000
0000
0301
0010
0100
1000
,
0020
0000
0001
0100
2030
0001
0000
0010
,
3200
0000
0001
0010
2300
0001
0000
0010
,
3001
0000
0000
0000
0000
1010
0000
0000
0000
1000
0000
0000
0100
0000
0000
0000
0000
0011
0000
0000
0000
0001
0000
0000
,
0101
1000
1100
0001
0101
1000
0100
0010
,
1000
0010
0001
0000
0100
0010
1000
0000
0000
1010
0000
0000
,
0101
0000
0000
0100
0000
0000
0001
0000
0000
0001
0000
0000
0010
0000
0000
0010
0000
0000
0100
0000
0000
0100
0000
1000
,
0001
0000
0000
0001
0000
0000
0100
0000
0000
0100
0000
0000
0010
0000
0000
0001
0000
0000
0010
0000
0000
0100
0000
0001
,
1000
0000
0000
0100
0000
0000
0010
0000
0000
0010
0000
0000
0001
0000
0000
0001
0000
0000
0100
0000
0000
0010
0000
1000
,
0001
0000
0000
0010
0000
0000
0100
0000
0000
0100
0000
0000
1000
0000
0000
0100
0000
0000
0001
0000
0000
0100
0000
1000
,
0001
0000
0000
0100
0000
0000
0010
0000
0000
0010
0000
0000
1000
0000
0000
1000
0000
0000
0100
0000
0000
0100
0000
0010
,
0001
0000
0000
0001
0000
0000
0100
0000
0000
0100
0000
0000
0010
0000
0000
1000
0000
0000
0001
0000
0000
0010
0000
0100
,
2000
0000
0000
0000
0000
0000
0010
0000
0000
3100
0000
1000
0002
0000
0000
0000
0000
0103
0010
0000
0000
1000
0000
0100
,
0010
0000
0000
0000
0000
0001
0100
0000
0000
0010
0000
0000
0100
0000
0000
0001
0000
0000
0010
0000
0000
0100
0000
0000
,
1100
0000
0000
1000
0000
0000
0010
0000
0000
0010
0000
0000
0100
0000
0000
0100
0000
0000
1000
0000
0000
1000
0000
0100
,
0010
0000
0000
0010
0000
0000
1000
0000
0000
1000
0000
0000
0100
0000
0000
0010
0000
0000
0001
0000
0000
0100
0000
0010
,
1000
0000
0000
0100
0000
0000
0010
0000
0000
0010
0000
0000
1000
0000
0000
1000
0000
0000
0010
0000
0000
0001
0000
0100
,
0010
0000
0000
1000
0000
0000
0100
0000
0000
0100
0000
0000
0001
0000
0000
0100
0000
0000
1000
0000
0000
0001
0000
0100
,
0010
0000
0000
1000
0000
0000
0100
0000
0000
0100
0000
0000
0001
0000
0000
0001
0000
0000
0100
0000
0000
0100
0000
1000
,
0001
0000
0000
0100
0000
0000
0010
0000
0000
0010
0000
0000
0001
0000
0000
0010
0000
0000
1000
0000
0000
0100
0000
0010
,
0002
0000
0000
0000
0000
0103
0010
0000
0000
1000
0000
0002
0000
0000
0000
0000
0000
0013
0100
0000
0000
0010
0000
0001
,
0200
0000
1000
0010
0301
0010
0100
0001
,
0100
0000
0000
0000
0000
1000
0002
0000
0000
0000
0000
0000
0023
0000
0000
0000
0000
0130
2000
0000
0000
0000
0000
0000
,
3020
0000
0000
0000
,
0000
0000
0030
0000
;

//---------------dance-double - ----------------
#NOTES:
     dance-double:
     :
     Beginner:
     2:
     0.072536,0.108666,0.038466,0.092318,0.000000,66.000000,61.000000,5.000000,12.000000,0.000000,0.000000,0.072536,0.108666,0.038466,0.092318,0.000000,66.000000,61.000000,5.000000,12.000000,0.000000,0.000000:
// measure 0
00000000
00000000
00000000
00000000
,  // measure 1
00000000
00000000
00000000
00000000
,  // measure 2
00000000
00000000
00000000
00000000
,  // measure 3
00010000
00000000
00000000
00000000
,  // measure 4
00001000
00000000
00000000
00000000
,  // measure 5
01000000
00000000
00000000
00000000
,  // measure 6
00010000
00000000
00000000
00000000
,  // measure 7
10000000
00000000
00000000
00000000
,  // measure 8
01000000
00000000
00000000
00000000
,  // measure 9
01100000
00000000
00000000
00000000
,  // measure 10
00100000
00000000
00000000
00000000
,  // measure 11
00010000
00000000
00000000
00000000
,  // measure 12
00100000
00000000
00000000
00000000
,  // measure 13
00001000
00000000
00000000
00000000
,  // measure 14
00010000
00000000
00000000
00000000
,  // measure 15
00000010
00000000
00000000
00000000
,  // measure 16
00001000
00000000
00000000
00000000
,  // measure 17
00000001
00000000
00000000
00000000
,  // measure 18
00001000
00000000
00000000
00000000
,  // measure 19
00000100
00000000
00000000
00000000
,  // measure 20
00000010
00000000
00000000
00000000
,  // measure 21
00000110
00000000
00000000
00000000
,  // measure 22
00000100
00000000
00000000
00000000
,  // measure 23
00001000
00000000
00000000
00000000
,  // measure 24
00000001
00000000
00000000
00000000
,  // measure 25
00000100
00000000
00000000
00000000
,  // measure 26
00000010
00000000
00000000
00000000
,  // measure 27
00010000
00000000
00000000
00000000
,  // measure 28
00001000
00000000
00000000
00000000
,  // measure 29
00020000
00000000
00030000
00000000
,  // measure 30
00002000
00000000
00003000
00000000
,  // measure 31
02000000
00000000
03000000
00000000
,  // measure 32
00020000
00000000
00030000
00000000
,  // measure 33
10010000
00000000
00000000
00000000
,  // measure 34
10000000
00000000
00000000
00000000
,  // measure 35
00010000
00000000
00000000
00000000
,  // measure 36
10000000
00000000
01000000
00000000
,  // measure 37
00200000
00000000
00300000
00000000
,  // measure 38
01100000
00000000
00000000
00000000
,  // measure 39
00010000
00000000
10000000
00000000
,  // measure 40
00010000
00000000
00000000
00000000
,  // measure 41
01000000
00000000
00001000
00000000
,  // measure 42
00010000
00000000
00000000
00000000
,  // measure 43
00001000
00000000
00010000
00000000
,  // measure 44
00000200
00000000
00000300
00000000
,  // measure 45
00002000
00000000
00003000
00000000
,  // measure 46
00001001
00000000
00000000
00000000
,  // measure 47
00000001
00000000
00000100
00000000
,  // measure 48
00000010
00000000
00000000
00000000
,  // measure 49
00001000
00000000
00000001
00000000
,  // measure 50
00001000
00000000
00000000
00000000
,  // measure 51
00000100
00000000
00010000
00000000
,  // measure 52
00002000
00000000
00003000
00000000
,  // measure 53
00020000
00000000
00030000
00000000
,  // measure 54
00002000
00003000
02000000
03000000
,  // measure 55
00200000
00000000
00000000
00000000
,  // measure 56
00000000
00000000
00300000
00000000
;

//---------------dance-double - ----------------
#NOTES:
     dance-double:
     :
     Easy:
     5:
     0.176943,0.217333,0.053852,0.192330,0.015386,161.000000,154.000000,7.000000,25.000000,0.000000,0.000000,0.176943,0.217333,0.053852,0.192330,0.015386,161.000000,154.000000,7.000000,25.000000,0.000000,0.000000:
// measure 0
00000000
00000000
00000000
00000000
,  // measure 1
00000000
00000000
00000000
00000000
,  // measure 2
00000000
00000000
00000000
00000000
,  // measure 3
00000000
00000000
00000000
00000000
,  // measure 4
00000000
00000000
00000000
00000000
,  // measure 5
00010000
00000000
00000000
00000000
00000000
00000000
00000000
00000000
00000000
00000000
00000000
00001000
00000000
00000000
00000000
00000000
00000000
00000000
00000000
00000000
00000000
00000000
00000000
00000000
,  // measure 6
00010000
00000000
00000000
00000000
00000000
00000000
00000000
00000000
00000000
00000000
00000000
00100000
00000000
00000000
00000000
00000000
00000000
00000000
00000000
00000000
00000000
00000000
00000000
00000000
,  // measure 7
01000000
00000000
00010000
00000000
,  // measure 8
10000000
01000000
00100000
00001000
,  // measure 9
00011000
00000000
00010000
00000000
,  // measure 10
00000010
00000100
00000001
00000000
,  // measure 11
00001000
00000000
00000100
00000000
,  // measure 12
00000010
00000001
00001000
00000010
,  // measure 13
00010000
00000000
00001000
00000000
,  // measure 14
00100000
01000000
10000000
00000000
,  // measure 15
00010000
00000000
01000000
00000000
,  // measure 16
00100000
00010000
00001000
00000000
,  // measure 17
00011000
00000000
00010000
00000000
,  // measure 18
00001000
00000010
00000100
00000000
,  // measure 19
00001000
00000000
00000001
00000000
,  // measure 20
00000100
00000010
00010000
00001000
,  // measure 21
00011000
00000000
00010000
00000000
,  // measure 22
00100000
01000000
00010000
00000000
,  // measure 23
10000000
00000000
01000000
00000000
,  // measure 24
00100000
00010000
01000000
00000000
,  // measure 25
01100000
00000000
00100000
00000000
,  // measure 26
00010000
00001000
00010000
00000000
,  // measure 27
00001000
00000000
00000010
00000000
,  // measure 28
00000100
00001000
00000010
00000100
,  // measure 29
00000002
00000000
00000100
00001000
,  // measure 30
00000023
00000000
00000100
00000001
,  // measure 31
00000230
00000000
00010000
00001000
,  // measure 32
00020300
00000000
00031000
00100000
,  // measure 33
02000000
00000000
00100000
10000000
,  // measure 34
03200000
00000000
01000000
00010000
,  // measure 35
00301000
00000000
00000000
00000000
00000000
00100000
00000000
00000000
00000000
00000000
00000000
00000000
00001000
00000000
00000000
00000000
00000000
00100000
00000000
00000000
00000000
00000000
00000000
00000000
,  // measure 36
00020000
20030000
30200000
02300000
,  // measure 37
03020000
00000000
10030000
00010000
,  // measure 38
01010000
01000000
00100000
00010000
,  // measure 39
00001000
00010000
00000100
00000010
,  // measure 40
00000001
00000100
00000010
00001000
,  // measure 41
00000100
00000010
00001000
00010000
,  // measure 42
00011000
00001000
00010000
00100000
,  // measure 43
01000000
00010000
00100000
01000000
,  // measure 44
20000000
00000000
30020000
00000000
,  // measure 45
02030000
00000000
03200000
00300000
,  // measure 46
10010000
10000000
00100000
01000000
,  // measure 47
00100000
00010000
00001000
00010000
,  // measure 48
00001000
00000100
00000010
00000100
,  // measure 49
00000001
00001000
00000100
00000010
,  // measure 50
00000001
00000100
00000010
00000100
,  // measure 51
00001000
00010000
00001000
00100000
,  // measure 52
02000000
00000000
03200000
00000000
,  // measure 53
00320000
00000000
20030000
30200000
,  // measure 54
02300000
23000000
32000000
03002000
,  // measure 55
00023000
00000000
00000000
00000000
,  // measure 56
00000000
00000000
00030000
00000000
;

//---------------dance-double - ----------------
#NOTES:
     dance-double:
     :
     Medium:
     8:
     0.307728,0.369466,0.007693,0.115398,0.042313,280.000000,279.000000,1.000000,15.000000,0.000000,0.000000,0.307728,0.369466,0.007693,0.115398,0.042313,280.000000,279.000000,1.000000,15.000000,0.000000,0.000000:
// measure 0
00000000
00000000
00000000
00000000
,  // measure 1
00000000
00000000
00000000
00000000
,  // measure 2
00000000
00000000
00000000
00000000
,  // measure 3
00010000
00001000
00100000
01000000
,  // measure 4
00100000
00010000
10000000
00100000
,  // measure 5
01000000
00000000
00000000
00000000
00000000
00000000
00001000
00000000
00000000
00000000
00000000
00010000
00000000
00000000
00000000
00000000
00000000
00000000
00000000
00000000
00000000
00000000
00000000
00000000
,  // measure 6
00000000
00000000
00001000
00000000
00000000
00000000
00000010
00000000
00000000
00000000
00000000
00000100
00000000
00000000
00000000
00000000
00000000
00000000
00001000
00000000
00000000
00000000
00000000
00000000
,  // measure 7
00000001
00000100
00000010
00010000
,  // measure 8
00001000
00010000
00100000
01000000
,  // measure 9
01100000
00100000
10000000
00010000
,  // measure 10
10000000
01000000
00100000
00001000
,  // measure 11
00010000
00001000
00010000
00000010
,  // measure 12
00000100
00000100
00000001
00000001
00001000
00000000
00000100
00000010
,  // measure 13
00000001
00001000
00000010
00000100
,  // measure 14
00001000
00000000
00010000
00000000
01000000
00000000
00100000
00010000
,  // measure 15
10000000
00100000
01000000
00010000
,  // measure 16
10000000
00000000
01000000
00000000
00100000
00000000
00001000
00010000
,  // measure 17
00000010
00000000
00001000
00000000
00000010
00000000
00000100
00001000
,  // measure 18
00010000
00000000
00001000
00000000
00100000
00000000
01000000
00100000
,  // measure 19
00010000
00000000
10000000
00000000
00100000
00000000
01000000
00100000
,  // measure 20
10000000
00000000
00010000
00000000
10000000
00000000
01000000
00100000
,  // measure 21
00001000
00010000
00000010
00000100
,  // measure 22
00000001
00000000
00000010
00000000
00000100
00000000
00000010
00000001
,  // measure 23
00000100
00000010
00000100
00001000
,  // measure 24
00010000
00000000
00100000
00000000
01000000
00000000
00010000
00100000
,  // measure 25
01000000
00000000
00100000
00000000
00010000
00000000
10000000
00100000
,  // measure 26
01000000
00000000
10000000
00000000
01000000
00000000
00100000
01000000
,  // measure 27
00001000
00000000
00010000
00000000
00001000
00000000
00000010
00000100
,  // measure 28
00001000
00000000
00000001
00000000
00000100
00000000
00000010
00010000
,  // measure 29
00002000
01000000
00010000
01000000
,  // measure 30
00203000
01000000
00010000
01000000
,  // measure 31
00320000
00000000
01000000
00000000
00100000
00000000
10030000
00100000
,  // measure 32
02000000
00000000
00010000
00000000
03001000
00100000
00001000
00010000
,  // measure 33
00000010
00001000
00000010
00000100
,  // measure 34
00000010
00001000
00000100
00000010
,  // measure 35
00000001
00000000
00000000
00000000
00000000
00001000
00000000
00000000
00000000
00000000
00000000
00000000
00000001
00000000
00000000
00000000
00000000
00001000
00000000
00000000
00000000
00000000
00000000
00000000
,  // measure 36
00000010
00000100
00001000
00010000
,  // measure 37
00100000
01000000
00100000
00000000
10000000
00010000
10000000
00000000
00000000
00010000
00000000
00000000
,  // measure 38
10000000
01000000
00100000
00100000
00010000
00010000
01000000
01000000
,  // measure 39
00001000
00001000
00010000
00010000
00000100
00001000
00000100
00000010
,  // measure 40
00000000
00000001
00000100
00000100
00000010
00000010
00010000
00010000
,  // measure 41
00000000
00001000
00010000
00010000
00100000
10000000
01000000
00100000
,  // measure 42
00010000
01000000
00001000
00001000
00010000
00010000
00000100
00000100
,  // measure 43
00000010
00000010
00000001
00000001
00000100
00000010
00010000
00001000
,  // measure 44
00200000
00000000
00000000
00000000
00000000
00000000
00000000
00000000
00000000
01300000
00000000
20000000
00000000
00000000
00000000
00000000
00000000
00000000
00000000
00000000
00000000
30100000
00000000
00000000
,  // measure 45
02000000
00000000
00000000
03010000
10000000
00100000
01000000
00010000
,  // measure 46
10000000
01000000
00100000
00100000
00001000
00001000
00010000
00010000
,  // measure 47
00000010
00000010
00000100
00000100
00000001
00000010
00000100
00001000
,  // measure 48
00000000
00000001
00000100
00000100
00000010
00000010
00010000
00010000
,  // measure 49
00000000
00001000
00010000
00010000
00001000
00000010
00000001
00000100
,  // measure 50
00000010
00001000
00000001
00000001
00000010
00000010
00000100
00000100
,  // measure 51
00001000
00001000
00000010
00000010
00010000
00001000
00100000
01000000
,  // measure 52
20000000
00000000
00000000
00000000
00000000
00000000
30010000
00000000
00000000
01000000
00000000
00200000
00000000
00000000
00000000
00000000
00000000
00000000
00000000
00000000
00000000
10300000
00000000
00000000
,  // measure 53
02000000
00000000
03100000
10000000
00100000
00010000
00100000
00001000
,  // measure 54
00020000
00030020
00000230
00002300
,  // measure 55
00023000
00000000
00000000
00000000
,  // measure 56
00000000
00000000
00030000
00000000
;

//---------------dance-double - ----------------
#NOTES:
     dance-double:
     Mixed Together:
     Hard:
     12:
     0.446205,0.434666,0.030773,0.192330,0.276955,406.000000,402.000000,4.000000,25.000000,0.000000,0.000000,0.446205,0.434666,0.030773,0.192330,0.276955,406.000000,402.000000,4.000000,25.000000,0.000000,0.000000:
// measure 0
00000000
00000000
00000000
00000000
,  // measure 1
00000000
00000000
00000000
00000000
,  // measure 2
00000000
00000000
00000000
00000000
,  // measure 3
00020000
00230000
02300000
03020000
,  // measure 4
20030000
00000000
31000000
00100000
00010000
10000000
00100000
01000000
,  // measure 5
00002000
00000000
00000000
00000000
00000000
00000000
00023000
00000000
00000000
00000000
00000000
00130000
00000000
00000000
00000000
00000000
00000000
00000000
00010000
00000000
00000000
00100000
00000000
00000000
,  // measure 6
00010000
00000000
00000000
00000000
00002000
00000000
00000000
00000000
00000000
00000000
00000000
00000000
00003010
00000000
00000000
00000000
00000000
00000000
00000100
00000000
00000000
00000000
00001000
00000000
00000000
00000000
00000000
00000001
00000000
00000000
00000000
00000000
00000000
00000000
00000000
00000000
00000100
00000000
00000000
00000000
00000000
00000000
00001000
00000000
00000000
00000000
00000000
00000000
,  // measure 7
00020000
00230000
02300000
03020000
,  // measure 8
20030000
32000000
03200000
00320000
,  // measure 9
10030000
00000000
00000000
00000000
00000000
10000000
00010000
00000000
00000000
00000000
00000000
00010000
01000000
00000000
00000000
00000000
00000000
01000000
00001000
00000000
00000000
00000000
00000000
00001000
,  // measure 10
00010000
00000000
00000000
00000000
00000000
00010000
00100000
00000000
00000000
00000000
00000000
00100000
00010000
00000000
00000000
00000000
00000000
00010000
00001000
00000000
00000000
00010000
00000000
00000000
,  // measure 11
00000100
00000000
00000000
00000000
00000000
00000100
00000010
00000000
00000000
00000000
00000000
00000010
00000100
00000000
00000000
00000000
00000000
00000100
00001000
00000000
00000000
00000001
00000000
00000000
,  // measure 12
00000100
00000100
00001000
00001000
00000100
00000100
00000001
00000010
,  // measure 13
00000100
00000000
00000000
00000000
00000000
00001000
00000010
00000000
00000000
00010000
00000000
00000000
00001000
00000000
00000000
00000000
00000000
00100000
00010000
00000000
00000000
00000000
00000000
10000000
,  // measure 14
00100000
01000000
00010000
00000000
10000000
01000000
00100000
00010000
,  // measure 15
01000000
00000000
00000000
00000000
00000000
00001000
00010000
00000000
00000000
00001000
00000000
00000000
00000010
00000000
00000000
00000000
00000000
00000001
00001000
00000000
00000000
00000010
00000000
00000100
,  // measure 16
00000000
00000000
00000001
00001000
00000000
00000000
00000100
00000000
00000000
00000010
00000000
00000000
00000100
00000000
00000000
00010000
00000000
00000000
00001000
00000000
00000000
01000000
00000000
00100000
,  // measure 17
10000000
00000000
00000000
00000000
00000000
00100000
01000000
00000000
00000000
00010000
00000000
10000000
01000000
00000000
00000000
00000000
00000000
00000000
00100000
00000000
00000000
00010000
00000000
00000000
,  // measure 18
10000000
00100000
00010000
00001000
00010000
00100000
10000000
01000000
,  // measure 19
00100000
00000000
00000000
00000000
00000000
00001000
00010000
00000000
00000000
00000010
00000000
00010000
00001000
00000000
00000000
00000000
00000000
00000000
00000010
00000000
00000000
00000100
00000000
00000000
,  // measure 20
00001000
00001000
00000001
00000001
00000100
00000100
00000010
00001000
,  // measure 21
00000001
00000000
00000000
00000000
00000000
00000010
00000100
00000000
00000000
00010000
00000000
00000000
00001000
00000000
00000000
00000000
00000000
01000000
00100000
00000000
00000000
00000000
00000000
10000000
,  // measure 22
00010000
00100000
01000000
00000000
10000000
00100000
01000000
00010000
,  // measure 23
00100000
00000000
00000000
00000000
00000000
01000000
10000000
00000000
00000000
00100000
00000000
00000000
01000000
00000000
00000000
00000000
00000000
00001000
00010000
00000000
00000000
00000100
00000000
00000010
,  // measure 24
00000000
00000000
00000001
00001000
00000000
00000000
00000010
00000000
00000000
00000100
00000000
00000000
00000010
00000000
00000000
00001000
00000000
00000000
00000100
00000000
00000000
00000010
00000000
00001000
,  // measure 25
00010000
00000000
00000000
00000000
00000000
00100000
01000000
00000000
00000000
00010000
00000000
10000000
01000000
00000000
00000000
00000000
00000000
00000000
00100000
00000000
00000000
10000000
00000000
00000000
,  // measure 26
00010000
01000000
00100000
00010000
00001000
00000100
00000010
00001000
,  // measure 27
00000001
00000000
00000000
00000000
00000000
00001000
00000100
00000000
00000000
00000010
00000000
00000001
00000100
00000000
00000000
00000000
00000000
00000000
00000010
00000000
00000000
00010000
00000000
00000000
,  // measure 28
00001000
00001000
00000010
00000010
00001000
00001000
00010000
00100000
,  // measure 29
02000000
00000000
00010000
00100000
03020000
10000000
00000000
00100000
,  // measure 30
20030000
00000000
00100000
00010000
30200000
01000000
00000000
10000000
,  // measure 31
02300000
00000000
00010000
00001000
03010000
00100000
00010000
00001000
,  // measure 32
00020000
00000000
00001000
00000000
00030100
00001000
00000100
00000010
,  // measure 33
00000001
00000000
00000000
00000000
00000000
00000001
00001000
00000000
00000000
00000000
00000000
00001000
00000010
00000000
00000000
00000000
00000000
00000010
00000100
00000000
00000000
00000001
00000000
00000000
,  // measure 34
00001000
00000000
00000000
00000000
00000000
00001000
00000100
00000000
00000000
00000000
00000000
00000100
00000010
00000000
00000000
00000000
00000000
00000010
00001000
00000000
00000000
00010000
00000000
00000000
,  // measure 35
00001000
00000000
00000000
00000000
00000000
00110000
00000000
00000000
00000000
00000000
00000000
00000000
00001000
00000000
00000000
00000000
00000000
00010010
00000000
00000000
00000000
00000000
00000000
00000000
,  // measure 36
00010000
00001000
01000000
00000000
00100000
00010000
00001000
00010000
,  // measure 37
00100000
10000000
00010000
00000000
00100000
01000000
10000000
00000000
00000000
00010000
00000000
00000000
,  // measure 38
01010000
00000000
00000000
01000000
00000000
00000000
00100000
00000000
00000000
00100000
00000000
00000000
10000000
00000000
00000000
10000000
00000000
00000000
01000000
00000000
00000000
01000000
00000000
00100000
,  // measure 39
00001000
00000000
00000000
00001000
00000000
00000000
00010000
00000000
00000000
00010000
00000000
00000000
00000010
00000000
00000000
00000100
00000000
00000000
00001000
00000000
00000000
00000100
00000000
00000010
,  // measure 40
00001000
00000000
00000000
00000001
00000000
00000000
00000010
00000000
00000000
00000010
00000000
00000000
00000100
00000000
00000000
00000100
00000000
00000000
00010000
00000000
00000000
00010000
00000000
00001000
,  // measure 41
01000000
00000000
00000000
00100000
00000000
00000000
10000000
00000000
00000000
10000000
00000000
00000000
01000000
00000000
00000000
00010000
00000000
00000000
01000000
00000000
00000000
10000000
00000000
00010000
,  // measure 42
01000000
00000000
00000000
00100000
00000000
00000000
10000000
00000000
00000000
10000000
00000000
00000000
01000000
00000000
00000000
01000000
00000000
00000000
00100000
00000000
00000000
00100000
00000000
00001000
,  // measure 43
00010000
00000000
00000000
00010000
00000000
00000000
00000010
00000000
00000000
00000010
00000000
00000000
00000100
00000000
00000000
00000100
00000000
00000000
00000001
00000000
00000000
00000001
00000000
00001000
,  // measure 44
00000100
00000000
00000000
00000000
00000000
00000100
00000010
00000000
00000000
00000001
00000000
00001000
00000010
00000000
00000000
00000000
00000000
00000010
00000100
00000000
00000000
00000001
00000000
00001000
,  // measure 45
00000100
00000000
00000000
00000000
00000000
00000100
00000010
00000000
00000000
00001000
00000000
00000000
00010000
00000000
00000000
00100000
00000000
00000000
10000000
00000000
00000000
01000000
00000000
00000000
,  // measure 46
01100000
00000000
00000000
00100000
00000000
00000000
10000000
00000000
00000000
10000000
00000000
00000000
00100000
00000000
00000000
00100000
00000000
00000000
00001000
00000000
00000000
00001000
00000000
00010000
,  // measure 47
00000010
00000000
00000000
00000010
00000000
00000000
00000100
00000000
00000000
00000100
00000000
00000000
00001000
00000000
00000000
00000100
00000000
00000000
00000010
00000000
00000000
00001000
00000000
00000001
,  // measure 48
00000010
00000000
00000000
00000100
00000000
00000000
00000001
00000000
00000000
00000001
00000000
00000000
00000100
00000000
00000000
00000100
00000000
00000000
00010000
00000000
00000000
00010000
00000000
00001000
,  // measure 49
01000000
00000000
00000000
00100000
00000000
00000000
10000000
00000000
00000000
10000000
00000000
00000000
01000000
00000000
00000000
00010000
00000000
00000000
00001000
00000000
00000000
00000100
00000000
00000010
,  // measure 50
00001000
00000000
00000000
00000100
00000000
00000000
00000010
00000000
00000000
00000010
00000000
00000000
00001000
00000000
00000000
00001000
00000000
00000000
00010000
00000000
00000000
00010000
00000000
00100000
,  // measure 51
01000000
01000000
10000000
10000000
01000000
00001000
00010000
00000100
,  // measure 52
00000010
00000000
00000000
00000000
00000000
00000010
00000001
00000000
00000000
00001000
00000000
00000010
00000100
00000000
00000000
00000000
00000000
00000100
00000001
00000000
00000000
00000010
00000000
00000100
,  // measure 53
00001000
00000000
00000100
00000001
00000100
00010000
00001000
01000000
,  // measure 54
00100000
00000000
00000000
00000000
00000000
00100000
20000000
00000000
00000000
00000000
00000000
00000000
31000000
00000000
00000000
00000000
00000000
01000000
00200000
00000000
00000000
00000000
00000000
00000000
,  // measure 55
00302000
00000000
00000000
00000000
,  // measure 56
00000000
00000000
00003000
00000000
;
