#VERSION:0.83;
#TITLE:Urban Constellations;
#SUBTITLE:;
#ARTIST:Dirty Andriods;
#TITLETRANSLIT:;
#SUBTITLETRANSLIT:;
#ARTISTTRANSLIT:;
#GENRE:JAZZY FOOTWORK JUNGLE;
#ORIGIN:beatmania IIDX 26 Rootage;
#TAGS:;
#CREDIT:;
#BANNER:Urban Constellations.png;
#BACKGROUND:Urban Constellations-bg.png;
#PREVIEWVID:;
#JACKET:Urban Constellations-jacket.png;
#CDIMAGE:;
#DISCIMAGE:;
#LYRICSPATH:;
#CDTITLE:../_YSD cdtitles/ysd cdtitle.png;
#MUSIC:Urban Constellations.ogg;
#OFFSET:0.000000;
#SAMPLESTART:81.922997;
#SAMPLELENGTH:22.993999;
#SELECTABLE:YES;
#BPMS:0.000000=167.000000
,164.000000=83.500000
,196.000000=167.000000
;
#STOPS:;
#DELAYS:;
#WARPS:;
#TIMESIGNATURES:0.000000=4=4
,164.000000=2=4
,196.000000=4=4
;
#TICKCOUNTS:0.000000=4
;
#COMBOS:0.000000=1
;
#SPEEDS:0.000000=1.000000=0.000000=0
;
#SCROLLS:0.000000=1.000000
;
#FAKES:;
#LABELS:0.000000=Song Start
;
#BGCHANGES:0.000=Urban Constellations.avi=1.000=0=0=0=StretchNoLoop====,
99999=-nosongbg-=1.000=0=0=0 // don't automatically add -songbackground-
;
#KEYSOUNDS:;
#ATTACKS:
;

//---------------dance-single - ----------------
#NOTEDATA:;
#CHARTNAME:;
#CHARTHASH:210780550;
#STEPSTYPE:dance-single;
#BANNER:;
#DESCRIPTION:;
#CHARTSTYLE:;
#DIFFICULTY:Beginner;
#METER:4;
#METERF:0.000000;
#LASTSECONDHINT:116.407188;
#RADARVALUES:0.138236,0.184275,0.050486,0.092558,0.000000,115.000000,109.000000,6.000000,11.000000,0.000000,0.000000,0.000000,0.000000,0.000000,0.138236,0.184275,0.050486,0.092558,0.000000,115.000000,109.000000,6.000000,11.000000,0.000000,0.000000,0.000000,0.000000,0.000000;
#CREDIT:YOSEFU;
#NOTES:
// measure 0
0000
0000
0000
0000
,  // measure 1
0000
0000
0000
0000
,  // measure 2
0000
0000
0000
0000
,  // measure 3
0000
0000
0000
0000
,  // measure 4
0000
0000
0000
0000
,  // measure 5
1000
0000
0000
0000
,  // measure 6
0001
0000
0000
0000
,  // measure 7
0100
0000
0100
0000
,  // measure 8
0010
0000
0010
0000
,  // measure 9
1001
0000
0000
0000
,  // measure 10
1000
0000
0000
0000
,  // measure 11
0100
0000
0000
0000
,  // measure 12
0010
0000
0000
0000
,  // measure 13
0001
0000
0000
0000
,  // measure 14
0100
0000
0000
0000
,  // measure 15
0010
0000
0000
0000
,  // measure 16
1000
0000
0000
0000
,  // measure 17
1001
0000
0000
0001
,  // measure 18
0001
0000
0000
0100
,  // measure 19
0100
0000
0000
0001
,  // measure 20
0001
0000
0000
0010
,  // measure 21
0010
0000
0000
0100
,  // measure 22
0100
0000
0000
1000
,  // measure 23
1000
0000
0000
0010
,  // measure 24
0010
0000
0000
0000
,  // measure 25
0110
0000
0000
1000
,  // measure 26
0001
0000
0000
1000
,  // measure 27
0001
0000
0000
0100
,  // measure 28
0010
0000
0000
0100
,  // measure 29
0010
0000
0000
1000
,  // measure 30
0001
0000
0000
1000
,  // measure 31
0001
0000
0000
0010
,  // measure 32
0100
0000
0000
0000
,  // measure 33
0110
0000
0001
0000
,  // measure 34
1000
0000
0000
0000
,  // measure 35
0010
0000
0100
0000
,  // measure 36
0001
0000
0000
0000
,  // measure 37
1000
0000
0100
0000
,  // measure 38
0010
0000
0000
0000
,  // measure 39
0001
0000
0100
0000
,  // measure 40
0010
0000
0000
0000
,  // measure 41
1001
0000
0000
0000
,  // measure 42
0200
0000
0000
0300
,  // measure 43
0020
0000
0000
0030
,  // measure 44
0020
0000
0030
0100
,  // measure 45
1001
0000
0001
0000
,  // measure 46
1000
0000
0100
0000
,  // measure 47
1000
0000
0001
0000
,  // measure 48
0100
0000
0010
0000
,  // measure 49
1000
0000
0000
0100
,  // measure 50
0010
0000
0000
0100
,  // measure 51
0010
0000
0000
0001
,  // measure 52
1000
0000
0000
0001
,  // measure 53
1000
0000
0000
0010
,  // measure 54
0100
0000
0000
0010
,  // measure 55
0100
0000
0000
0001
,  // measure 56
1000
0000
0001
0000
,  // measure 57
1000
0000
0000
0100
,  // measure 58
0010
0000
0000
0001
,  // measure 59
1000
0000
0000
0010
,  // measure 60
0100
0000
0000
0001
,  // measure 61
1000
0000
0000
0100
,  // measure 62
0010
0000
0000
0001
,  // measure 63
1000
0000
0000
0010
,  // measure 64
0100
0000
0001
0000
,  // measure 65
2000
0000
3000
0000
,  // measure 66
0200
0000
0300
0000
,  // measure 67
0020
0000
0030
0000
,  // measure 68
0002
0000
0003
0000
,  // measure 69
0200
0000
0300
0000
,  // measure 70
0020
0000
0030
0000
,  // measure 71
2000
0000
3000
0000
,  // measure 72
0002
0000
0000
0000
,  // measure 73
0003
0000
0000
0000
;

//---------------dance-single - ----------------
#NOTEDATA:;
#CHARTNAME:;
#CHARTHASH:1137471701;
#STEPSTYPE:dance-single;
#BANNER:;
#DESCRIPTION:;
#CHARTSTYLE:;
#DIFFICULTY:Easy;
#METER:8;
#METERF:0.000000;
#LASTSECONDHINT:116.407188;
#RADARVALUES:0.342586,0.460688,0.117801,0.378648,0.193531,285.000000,271.000000,14.000000,45.000000,0.000000,0.000000,0.000000,0.000000,0.000000,0.342586,0.460688,0.117801,0.378648,0.193531,285.000000,271.000000,14.000000,45.000000,0.000000,0.000000,0.000000,0.000000,0.000000;
#CREDIT:YOSEFU;
#NOTES:
0000
0000
0000
0000
,
0000
0000
0000
0000
,
0000
0000
0000
0000
,
0000
0000
0000
0000
,
0000
0000
0000
0000
,
1000
0000
0000
0010
0000
0000
0000
0000
,
0100
0000
0000
0001
0000
0000
0000
0000
,
1000
0000
0000
0100
0010
0000
0000
0001
,
1000
0000
0000
0010
0100
0000
0001
0000
,
1000
0000
0000
0100
0000
0000
1000
0000
,
0001
0000
0000
0100
0000
0000
0001
0000
,
1000
0000
0000
0010
0000
0000
1000
0000
,
0001
0000
0000
0010
0000
0000
0001
0000
,
1000
0000
0000
1010
0000
0000
0001
0000
,
0010
0000
0000
1100
0000
0000
0001
0000
,
0100
0000
0000
1010
0000
0000
0001
0000
,
1000
0000
0000
0010
0000
0000
0100
0000
0000
0000
0000
0000
0002
0000
0000
0000
,
1003
0000
0000
1000
0000
0000
0200
0000
0000
0000
0000
0000
0310
0000
0000
0000
,
0001
0000
0000
0001
0000
0000
0200
0000
0000
0000
0000
0000
0310
0000
0000
0000
,
1000
0000
0000
1000
0000
0000
0002
0000
0000
0000
0000
0000
0013
0000
0000
0000
,
0100
0000
0000
0100
0000
0000
2000
0000
0000
0000
0000
0000
3001
0000
0000
0000
,
0100
0000
0000
0100
0000
0000
0020
0000
0000
0000
0000
0000
1030
0000
0000
0000
,
0100
0000
0000
0100
0000
0000
0020
0000
0000
0000
0000
0000
0031
0000
0000
0000
,
0100
0000
0000
0100
0000
0000
0002
0000
0000
0000
0000
0000
0013
0000
0000
0000
,
0100
0000
0000
1000
0000
0000
0200
0000
0000
0000
0000
0000
0310
0000
0000
0000
,
0001
0000
0000
0001
0000
0000
0200
0000
0000
0000
0000
0000
0310
0000
0000
0000
,
1000
0000
0000
1000
0000
0000
0002
0000
0000
0000
0000
0000
0013
0000
0000
0000
,
0100
0000
0000
0100
0000
0000
2000
0000
0000
0000
0000
0000
3001
0000
0000
0000
,
0100
0000
0000
0100
0000
0000
0020
0000
0000
0000
0000
0000
1030
0000
0000
0000
,
0001
0000
0000
0010
0000
0000
0200
0000
0000
0000
0000
0000
1300
0000
0000
0000
,
0001
0000
0000
0001
0000
0000
0200
0000
0000
0000
0000
0000
0310
0000
0000
0000
,
1000
0000
0000
1000
0000
0000
0200
0000
0000
0000
0000
0000
0310
0000
0000
0000
,
0001
0000
0000
0100
0000
0000
0002
0000
0000
0000
0000
0000
0103
0000
0000
0000
,
0010
0000
0000
1010
0000
0000
0001
0000
,
1000
0000
0000
0110
0000
0000
0001
0000
,
1000
0000
0000
0101
0000
0000
1000
0000
,
0001
0000
0000
0110
0000
0000
1000
0000
,
0001
0000
0000
0100
0000
0000
0001
0000
0000
0000
0000
0000
1000
0000
0000
0000
,
0001
0000
0000
0010
0000
0000
0001
0000
0000
0000
0000
0000
1000
0000
0000
0000
,
0001
0000
0000
0100
0000
0000
0001
0000
0000
0000
0000
0000
1000
0000
0000
0000
,
0001
0000
0000
0010
0000
0000
0100
0000
0000
0000
0000
0000
1000
0000
0000
0000
,
0002
0000
0000
0000
,
0203
0000
0000
0320
,
2030
0000
0000
0000
0000
0000
0000
0000
3100
0000
0000
0010
0000
0000
0001
0000
,
0100
0000
0000
0010
0000
0000
0000
0000
1000
0000
0000
0000
0001
0000
0010
0000
,
0200
0000
0000
0000
0000
0000
0000
0000
0000
0000
0000
1300
0000
0000
0001
0000
,
0200
0000
0000
0000
0000
0000
0000
0000
0000
0000
0000
0310
0000
0000
1000
0000
,
0100
0000
0000
0010
0000
0000
0001
0000
0100
0000
0000
0010
0000
0000
1000
0000
,
0001
0000
0000
0010
0100
0000
0000
1000
0001
0000
0000
0100
0010
0000
1000
0000
,
0001
0000
0000
0001
0000
0000
0020
0000
0000
0000
0000
0000
0130
0000
1000
0000
,
0100
0000
0000
0100
0000
0000
0020
0000
0000
0000
0000
0000
0031
0000
0100
0000
,
0001
0000
0000
0001
0000
0000
2000
0000
0000
0000
0000
0000
3100
0000
0010
0000
,
0001
0000
0000
0010
0000
0000
0002
0000
0000
0000
0000
0000
1003
0000
0010
0000
,
1000
0000
0000
0010
0000
0000
0200
0000
0000
0000
0000
0000
0301
0000
0010
0000
,
0001
0000
0000
0010
0000
0000
0200
0000
0000
0000
0000
0000
1300
0000
0010
0000
,
1000
0000
0000
0010
0000
0000
2000
0000
0000
0000
0000
0000
3100
0000
0010
0000
,
0100
0000
0000
0001
0000
0000
0100
0000
0000
0000
1000
0000
0001
0000
1000
0000
,
0001
0000
0000
0001
0000
0000
0020
0000
0000
0000
0000
0000
0130
0000
1000
0000
,
0001
0000
0000
0001
0000
0000
2000
0000
0000
0000
0000
0000
3010
0000
0100
0000
,
0001
0000
0000
0001
0000
0000
0020
0000
0000
0000
0000
0000
0130
0000
1000
0000
,
0010
0000
0000
0010
0000
0000
0200
0000
0000
0000
0000
0000
1300
0000
0100
0000
,
0001
0000
0000
0100
0000
0000
0020
0000
0000
0000
0000
0000
1030
0000
0100
0000
,
0010
0000
0000
0010
0000
0000
0002
0000
0000
0000
0000
0000
0103
0000
0010
0000
,
1000
0000
0000
1000
0000
0000
0020
0000
0000
0000
0000
0000
0130
0000
0001
0000
,
0010
0000
0000
1000
0000
0000
0010
0000
0000
0000
0001
0000
1000
0000
0001
0000
,
1000
0000
0000
0201
0000
0310
0000
1000
,
0100
0000
0000
0012
0000
0103
0000
0001
,
1000
0000
0000
2010
0000
3100
0000
1000
,
0001
0000
0000
1020
0000
0130
0000
0001
,
1000
0000
0000
2001
0000
3010
0000
0100
,
0001
0000
0000
0021
0000
0130
0000
1000
,
0010
0000
0000
0120
0000
0001
0000
2000
,
0030
0000
0000
0000
,
3000
0000
0000
0000
;

//---------------dance-single - ----------------
#NOTEDATA:;
#CHARTNAME:;
#CHARTHASH:1645728510;
#STEPSTYPE:dance-single;
#BANNER:;
#DESCRIPTION:;
#CHARTSTYLE:;
#DIFFICULTY:Medium;
#METER:13;
#METERF:0.000000;
#LASTSECONDHINT:116.407188;
#RADARVALUES:0.596220,0.829238,0.067315,0.479620,0.782538,496.000000,488.000000,8.000000,57.000000,0.000000,0.000000,0.000000,0.000000,0.000000,0.596220,0.829238,0.067315,0.479620,0.782538,496.000000,488.000000,8.000000,57.000000,0.000000,0.000000,0.000000,0.000000,0.000000;
#CREDIT:YOSEFU;
#NOTES:
0000
0000
0000
0000
,
0000
0000
0000
0000
,
0000
0000
0000
0000
,
0000
0000
0000
0000
,
0000
0000
0000
0000
,
1000
0000
0000
0010
0000
0000
0100
0000
0000
0000
0001
1000
0000
0000
0100
0000
,
0010
0000
0000
0001
0000
0000
1000
0000
0000
0010
0100
0000
0000
0001
0000
1000
,
0001
0000
0000
0010
0000
0000
0100
0000
0010
0000
0000
0001
0000
0000
0100
0000
,
0010
0000
0000
1000
0000
0000
0100
0000
0010
0000
0001
1000
0020
0000
0000
0000
,
0130
0000
0000
0100
0000
0000
0001
0000
0000
0000
0000
0010
0001
0000
0100
0000
,
0010
0000
0000
0010
0000
0000
1000
0000
0000
0100
0000
0100
0010
0000
0001
0000
,
1000
0000
0000
1000
0000
0000
0010
0000
0000
0000
0000
0100
0001
0000
0010
0000
,
0100
0000
0000
0100
0000
0000
1000
0000
0000
0001
0000
0001
0100
0000
0010
0000
,
1000
0000
0000
1000
0000
0000
0200
0000
0000
0301
0000
0001
0100
0000
0010
0000
,
0001
0000
0000
0001
0000
0000
0200
0000
0000
0310
0000
0010
1000
0000
0100
0000
,
0010
0000
0000
0010
0000
0000
2000
0000
0000
3010
0000
0010
0001
0000
0100
0000
,
0010
0000
0000
1010
0000
0000
0001
0000
0000
0010
0100
0000
2000
0000
0000
0000
,
3001
0000
0100
0020
0000
0000
1000
0000
0000
0000
0000
0130
0001
0000
0010
0000
,
0100
0000
2000
0001
0000
0000
0100
0000
0000
0000
0000
3001
0010
0000
0100
0000
,
1000
0000
0010
0200
0000
0000
0001
0000
0000
0000
0000
0310
0001
0000
0010
0000
,
0100
0000
0001
2000
0000
0000
0010
0000
0000
0000
0000
3100
0001
0000
0100
0000
,
0010
0000
0001
0200
0000
0000
0010
0000
0000
0000
0000
0301
1000
0000
0100
0000
,
0010
0000
0001
0200
0000
0000
0010
0000
0000
0000
0000
0301
1000
0000
0010
0000
,
0100
0000
0001
2000
0000
0000
0100
0000
0000
0000
0000
3010
1000
0000
0100
0000
,
0010
0000
0001
0100
0000
0000
1010
0000
0000
0001
0010
0000
0100
0000
1000
0000
,
0010
0000
0100
0002
0000
0000
0010
0000
0000
1000
0000
1003
0100
0000
0010
0000
,
0001
0000
1000
0020
0000
0000
0100
0000
0000
1000
0000
1030
0100
0000
0010
0000
,
0001
0000
0100
0020
0000
0000
1000
0000
0000
0100
0000
0130
1000
0000
0100
0000
,
0010
0100
0001
0000
1000
0000
0010
0000
0001
0000
0010
0000
1000
0100
0010
0000
,
0001
0000
1000
0020
0000
0000
0001
0000
0000
0100
0000
0130
0001
0000
1000
0000
,
0100
0000
0010
0002
0000
0000
1000
0000
0000
0100
0000
0103
0010
0000
1000
0000
,
0100
0000
0010
0002
0000
0000
0100
0000
0000
0010
0000
0013
0100
0000
1000
0000
,
0010
0000
0100
1000
0000
0100
0010
0000
0100
0001
0000
1000
0001
0000
1000
0000
,
0100
0000
0000
0010
0000
0000
2000
0000
0000
3010
0000
0010
0100
0000
1000
0000
,
0001
0000
0000
0100
0000
0000
0020
0000
0000
1030
0000
1000
0001
0000
0010
0000
,
0100
0000
0000
0010
0000
0000
2000
0000
0000
3010
0000
0010
0001
0000
0100
0000
,
0010
0000
0000
1000
0000
0000
0200
0000
0000
0310
0000
0010
0001
0000
1000
0000
,
0010
0000
0100
0001
0000
0000
1001
0000
0000
1000
0200
0000
0010
0000
0310
0000
,
0110
0000
0010
0001
0000
0000
1001
0000
0000
0100
0000
0100
0010
0000
0100
0000
,
1001
0000
0001
0100
0000
0000
1010
0000
0000
1000
0000
1000
0100
0000
0001
0000
,
0100
0000
1000
0010
0000
0000
0101
0000
0000
0001
1000
0000
0100
0000
0010
0000
,
0002
0000
0000
0000
,
0203
0000
0000
0320
,
2030
0000
0000
0000
0000
0000
0000
0000
3100
0000
0000
0010
0000
0000
0001
0000
,
0200
0000
0000
0310
0000
0000
0000
0000
0200
0000
0000
0000
1300
0000
0100
0000
,
0001
0000
1000
0100
0000
1000
0000
0001
0000
0100
0000
0010
0000
0001
0000
0010
,
0100
0000
0000
0001
0000
0000
1000
0000
0001
0000
0000
0010
0000
0000
0100
0000
0000
0000
0010
0000
0000
0000
0001
0000
0000
0000
1000
0000
0000
0000
0010
0000
,
0100
0000
0000
0001
0000
0000
1000
0000
0000
0000
0100
0010
0000
0000
0001
0000
1000
0000
0000
0010
0000
0000
0100
0000
0000
0001
1000
0000
0000
0001
0000
1000
,
0001
0000
0000
0100
0000
0000
0010
0000
1000
0000
0000
0100
0000
0000
0010
0000
0001
0000
0000
0100
0000
0000
0010
0000
1000
0001
1000
0000
0020
0000
0000
0000
,
0130
0000
0010
2000
0000
0000
0100
0000
0000
0001
0000
3001
0010
0000
0100
0000
,
1000
0000
0001
0200
0000
0000
0010
0000
0000
0001
0000
0301
0010
0000
0100
0000
,
1000
0000
0010
0200
0000
0000
0001
0000
0000
0010
0000
0310
0001
0000
0010
0000
,
1000
0000
0100
0020
0000
0000
0001
0000
0000
0100
0000
0130
0001
0000
0100
0000
,
1000
0000
0001
0200
0000
0000
1000
0000
0000
0010
0000
0310
1000
0000
0001
0000
,
0010
0000
0100
2000
0000
0000
0001
0000
0000
0010
0000
3010
0100
0000
0001
0000
,
0010
0000
0100
2000
0000
0000
0010
0000
0000
0100
0000
3100
0010
0000
0001
0000
,
0100
0000
0010
0001
0000
0010
0100
0000
0001
0010
0000
0100
1000
0000
0001
0000
,
0010
0000
0001
0200
0000
0000
0010
0000
0000
0001
0000
0301
1000
0000
0100
0000
,
0010
0000
0000
1000
0000
0000
0010
0000
0001
0000
0000
0100
0010
0000
1000
0000
,
0100
0000
0010
0002
0000
0000
0100
0000
0000
0010
0000
0013
0100
0000
0001
0000
,
0100
0000
0000
0000
0000
0000
1000
0000
0000
0000
0000
0000
0000
0000
0000
0000
0000
0000
0001
0000
0000
0000
0000
0000
0100
0000
0000
0000
0010
0000
0000
0000
0001
0000
0000
0000
0010
0000
0000
0100
0000
0000
0000
0000
0000
0010
0000
0000
,
1000
0000
0001
0020
0000
0000
1000
0000
0000
0100
0000
0130
1000
0000
0001
0000
,
0100
0000
0010
2000
0000
0000
0100
0000
0000
0001
0000
3001
0100
0000
0010
0000
,
1000
0000
0200
0010
0000
0000
1000
0000
0000
0010
0000
0310
0001
0000
0100
0000
,
0010
0000
0100
1000
0000
0100
0010
0000
0100
0001
0000
0010
0100
0000
1000
0000
,
0001
0000
0000
0100
0000
0000
2000
0000
0000
0000
3200
0000
0000
0000
0301
0000
,
0001
0000
0000
0010
0000
0000
0200
0000
0000
0000
2300
0000
0000
0000
3001
0000
,
0010
0000
0000
0010
0000
0000
2000
0000
0000
0000
3020
0000
0000
0000
0031
0000
,
0001
0000
0000
0100
0000
0000
0020
0000
0000
0000
2030
0000
0000
0000
3100
0000
,
0010
0000
0000
0010
0000
0000
2000
0000
0000
0000
3020
0000
0000
0000
0031
0000
,
0001
0000
0000
0100
0000
0000
0020
0000
0000
0000
0230
0000
0000
0000
0301
0000
,
0010
0000
0000
0010
0000
0000
2000
0000
0000
0000
3020
0000
0000
0000
0002
0000
,
0030
0000
0000
0000
,
0003
0000
0000
0000
;

//---------------dance-single - ----------------
#NOTEDATA:;
#CHARTNAME:;
#CHARTHASH:557334941;
#STEPSTYPE:dance-single;
#BANNER:;
#DESCRIPTION:;
#CHARTSTYLE:;
#DIFFICULTY:Hard;
#METER:16;
#METERF:0.000000;
#LASTSECONDHINT:116.407188;
#RADARVALUES:0.726042,0.890663,0.126216,0.479620,0.984484,604.000000,589.000000,15.000000,57.000000,0.000000,0.000000,0.000000,0.000000,0.000000,0.726042,0.890663,0.126216,0.479620,0.984484,604.000000,589.000000,15.000000,57.000000,0.000000,0.000000,0.000000,0.000000,0.000000;
#CREDIT:Yosefu Under the City Lights;
#NOTES:
0000
0000
0000
0000
,
0000
0000
0000
0000
,
0000
0000
0000
0000
,
0000
0000
0000
0000
,
0000
0000
0000
0000
,
1000
0000
0000
0100
0000
0000
1100
0000
0000
0000
1000
0100
0000
0000
0010
0000
,
0001
0000
0000
0100
0000
0000
0101
0000
0000
0001
0100
0000
0000
0001
0010
0100
,
1000
0000
0000
1010
0000
0000
0010
0000
0100
0000
0000
0101
0000
0000
0001
0000
,
1000
0000
0000
1100
0000
0000
0100
0010
0001
0010
0100
1000
0001
0000
0000
0000
,
0100
0000
0000
0100
0000
0000
0002
0000
0000
0000
1003
0100
0010
0000
1000
0000
,
0010
0000
0000
0010
0000
0000
0002
0000
0000
0000
0103
0010
1000
0000
0001
0000
,
0010
0000
0000
0010
0000
0000
0200
0000
0000
0000
1300
0010
0100
0000
1000
0000
,
0100
0000
0000
0100
0000
0000
0002
0000
0000
0000
0013
0100
1000
0000
0001
0000
,
0100
0000
0000
0100
0000
0000
2000
0000
0000
3100
0000
0100
0010
0000
1000
0000
,
0100
0000
0000
0100
0000
0000
0020
0000
0000
0031
1000
0010
0100
0000
0001
1000
,
0010
0000
0000
0010
0000
0000
0002
0000
0000
0013
0100
0001
0100
0000
0001
0000
,
1000
0000
0010
0200
0000
0000
0001
0000
0000
0000
0010
0000
0301
0010
0100
1000
,
0001
0000
1000
0200
0000
0000
0010
0000
0000
0000
1300
0010
0100
0001
0010
0100
,
1000
0000
0001
0200
0000
0000
0010
0000
0000
0000
0301
0010
0100
1000
0010
0100
,
0001
0000
0010
0200
0000
0000
0001
0000
0000
0000
1300
0100
0001
0100
0010
0001
,
1000
0000
0010
0200
0000
0000
1000
0000
0000
0000
0301
0100
1000
0100
0010
1000
,
0001
0000
0100
0020
0000
0000
0001
0000
0000
0000
1030
0010
0100
0001
0100
0010
,
1000
0000
0100
0020
0000
0000
1000
0000
0000
0000
0031
0010
0100
1000
0100
0010
,
0001
0000
0100
0002
0000
0000
1000
0000
0000
0000
0103
0010
0001
0010
0100
0001
,
1000
0000
0100
0010
0000
0000
0011
0000
0000
0001
1000
0010
0100
0000
0001
0000
,
1000
0000
0001
0200
0000
0000
0010
0000
0000
0000
0301
0010
0100
1000
0010
0100
,
0001
0000
1000
0200
0000
0000
0010
0000
0000
0000
1300
0010
0100
0001
0010
0100
,
1000
0000
0010
0200
0000
0000
1000
0000
0000
0000
0301
0100
1000
0100
0010
1000
,
0001
0000
0010
0200
0000
0000
0001
0000
0000
0000
1300
0100
0001
0100
0010
0001
,
1000
0000
0100
0020
0000
0000
1000
0000
0000
0000
0031
0010
0100
1000
0100
0010
,
0001
0000
0100
0020
0000
0000
0001
0000
0000
0000
1030
0010
0100
0001
0100
0010
,
1000
0000
0100
2000
0000
0000
0001
0000
0000
0000
3100
0010
1000
0010
0100
1000
,
0001
0000
0100
0010
0000
1000
0100
0000
0010
0001
0000
0100
0001
0000
1000
0000
,
0010
0000
1000
0100
0000
1000
0010
0000
0000
0100
0010
0100
0001
0000
0010
0000
,
0100
0000
1000
0001
0000
0100
0001
0000
0000
0010
0100
1000
0001
0000
0100
0000
,
0010
0000
1000
0010
0000
1000
0100
0000
0000
0010
0001
1000
0010
0000
0100
0000
,
0001
0000
1000
0010
0000
0001
0010
0000
0000
0100
0001
0010
0100
0000
1000
0000
,
1100
0000
1000
0001
0000
0000
0101
0000
0000
0001
0200
0000
1000
0000
0301
0000
,
0101
0000
0001
1000
0000
0000
1100
0000
0000
1000
0100
1000
0010
0000
1000
0000
,
1010
0000
1000
0001
0000
0000
0011
0000
0000
0001
1000
0010
0001
0000
0010
0000
,
1010
0000
1000
0001
0000
0000
0101
0000
0000
0100
0001
0000
1000
0001
1000
0100
,
0020
0000
0000
0000
,
0230
0000
0000
2300
,
3002
0000
0000
0000
0000
0000
0000
0000
0010
0000
0000
1000
0000
0000
0100
0000
,
2003
0000
0000
0100
0000
0000
0000
0000
3020
0000
0000
0000
0031
0000
0010
0000
,
2000
0000
0000
0001
0000
0100
0000
0010
0000
0100
0000
3002
0000
0000
0023
0000
,
0230
0000
0000
0000
0000
0000
0000
0000
1000
0000
0000
0010
0000
0000
0001
0000
0000
0000
0010
0000
0000
0000
2300
0000
0000
0000
0000
0000
3020
0000
0000
0000
,
0130
0000
0000
0001
0000
0000
0100
0000
0000
0000
0001
1000
0000
0000
0100
0000
0010
0000
0000
0001
0000
0000
1000
0000
0000
0010
0100
0000
0000
0001
1000
0001
,
1000
0000
0000
0010
0000
0000
0100
0000
0001
0000
0000
0010
0000
0000
0100
0000
1000
0000
0000
0001
0000
0000
0100
0000
0001
1000
0001
1000
0000
0000
0000
0000
,
1001
0000
0001
0200
0000
0000
0010
0000
0000
0000
0301
0010
0100
1000
0010
0100
,
0001
0000
1000
0020
0000
0000
0100
0000
0000
0000
1030
0100
0010
0001
0100
0010
,
1000
0000
0001
0200
0000
0000
1000
0000
0000
0000
0301
0010
1000
0010
0100
1000
,
0001
0000
1000
0020
0000
0000
0001
0000
0000
0000
1030
0100
0001
0100
0010
0001
,
1000
0000
0001
0200
0000
0000
1000
0000
0000
0000
0301
0100
0010
1000
0010
0100
,
0001
0000
1000
0200
0000
0000
0001
0000
0000
0000
1300
0100
0010
0001
0010
0100
,
1000
0000
0001
0200
0000
0000
0010
0000
0000
0000
0301
0010
0100
0001
0100
0010
,
0001
0000
0100
1000
0000
0100
0001
0000
0010
0100
1000
0010
0100
0000
0010
1000
,
0001
0000
1000
0200
0000
0000
0010
0000
0000
0000
1300
0010
0100
0001
0010
0100
,
1000
0000
0001
0020
0000
0000
0100
0000
0000
0000
0031
0100
0010
1000
0100
0010
,
0001
0000
1000
0200
0000
0000
0001
0000
0000
0000
1300
0010
0001
0010
0100
0001
,
1000
0000
0000
0000
0000
0000
0001
0000
0000
0020
0000
0000
0000
0000
0000
0000
0000
0000
1000
0000
0000
0000
0000
0000
0031
0000
0000
0000
0100
0000
0000
0000
1000
0000
0000
0000
0100
0000
0000
0001
0000
0000
0010
0000
0000
0100
0000
0000
,
1000
0000
0001
0020
0000
0000
1000
0000
0000
0000
0031
0010
0100
1000
0100
0010
,
0001
0000
1000
0020
0000
0000
0001
0000
0000
0000
1030
0010
0100
0001
0100
0010
,
1000
0000
0001
0020
0000
0000
0100
0000
0000
0000
0031
0100
0010
0001
0010
0100
,
0001
0000
0010
1000
0000
0010
0001
0000
0100
1000
0000
0100
0001
0000
0010
0000
,
0100
0000
1000
0100
0000
0000
0002
0000
0000
0000
0103
0010
0001
0000
1000
0000
,
0010
0000
0100
0001
0000
0000
0020
0000
0000
0000
0130
1000
0001
0000
0100
0000
,
0010
0000
1000
0010
0000
0000
0002
0000
0000
0000
0013
0100
0001
0000
1000
0000
,
0100
0000
0010
0001
0000
0000
0200
0000
0000
0000
0310
1000
0100
0000
0010
0000
,
0001
0000
0000
0001
0000
0000
0200
0000
0000
0000
1000
0000
0000
0000
0010
0000
,
0301
0000
0000
0001
0000
0000
0020
0000
0000
0000
0100
0000
0000
0000
0031
1000
,
0010
0000
0000
0020
0000
0000
0001
0000
0000
0000
0100
0000
0000
0000
2000
0000
,
0030
0000
0000
0000
,
3000
0000
0000
0000
;

//---------------dance-double - ----------------
#NOTEDATA:;
#CHARTNAME:;
#CHARTHASH:4042686487;
#STEPSTYPE:dance-double;
#BANNER:;
#DESCRIPTION:;
#CHARTSTYLE:;
#DIFFICULTY:Beginner;
#METER:5;
#METERF:0.000000;
#LASTSECONDHINT:116.407188;
#RADARVALUES:0.141843,0.245700,0.067315,0.100973,0.000000,118.000000,110.000000,8.000000,12.000000,0.000000,0.000000,0.000000,0.000000,0.000000,0.141843,0.245700,0.067315,0.100973,0.000000,118.000000,110.000000,8.000000,12.000000,0.000000,0.000000,0.000000,0.000000,0.000000;
#CREDIT:YOSEFU;
#NOTES:
00000000
00000000
00000000
00000000
,
00000000
00000000
00000000
00000000
,
00000000
00000000
00000000
00000000
,
00000000
00000000
00000000
00000000
,
00000000
00000000
00000000
00000000
,
00001000
00000000
00000000
00000000
,
00010000
00000000
00000000
00000000
,
00000010
00000000
00000010
00000000
,
00001000
00000000
00001000
00000000
,
00001001
00000000
00000000
00000000
,
00000001
00000000
00000000
00000000
,
00000010
00000000
00000000
00000000
,
00000100
00000000
00000000
00000000
,
00010000
00000000
00000000
00000000
,
00001000
00000000
00000000
00000000
,
01000000
00000000
00000000
00000000
,
00010000
00000000
00000000
00000000
,
10010000
00000000
00000000
10000000
,
10000000
00000000
00000000
01000000
,
01000000
00000000
00000000
00100000
,
00100000
00000000
00000000
00001000
,
00001000
00000000
00000000
00010000
,
00010000
00000000
00000000
00000010
,
00000010
00000000
00000000
00001000
,
00001000
00000000
00000000
00000000
,
00001001
00000000
00000000
00000001
,
00000001
00000000
00000000
00000010
,
00000010
00000000
00000000
00000100
,
00000100
00000000
00000000
00010000
,
00010000
00000000
00000000
00001000
,
00001000
00000000
00000000
01000000
,
01000000
00000000
00000000
00010000
,
00010000
00000000
00000000
00000000
,
10010000
00000000
10000000
00000000
,
00010000
00000000
00000000
00000000
,
01000000
00000000
00001000
00000000
,
00010000
00000000
00000000
00000000
,
00000100
00000000
00001000
00000000
,
00000001
00000000
00000000
00000000
,
00000100
00000000
00000010
00000000
,
00010000
00000000
00000000
00000000
,
00011000
00000000
00000000
00000000
,
00200000
00000000
00000000
00300000
,
02000000
00000000
03000000
00000000
,
20000000
00000000
30000000
00010000
,
10010000
00000000
00000000
10000000
,
00010000
00000000
00000000
01000000
,
00001000
00000000
00010000
00000000
,
00000100
00000010
00000100
00001000
,
00001001
00000000
00000000
00000001
,
00000100
00000000
00000000
00000010
,
00001000
00000000
00000000
00000010
,
00010000
00000000
00000000
00001000
,
00100000
00000000
00000000
00010000
,
10000000
00000000
00000000
00100000
,
10000000
00000000
00000000
00100000
,
01000000
00000000
00000000
00001000
,
00010000
00000000
00000000
00000100
,
00010000
00000000
00000000
00000100
,
00001000
00000000
00000000
00000001
,
00000010
00000000
00000000
00000001
,
00000100
00000000
00000000
00000010
,
00010000
00000000
00000000
00001000
,
00100000
00000000
00000000
01000000
,
00100000
00000000
00000000
00000000
,
20020000
00000000
30030000
00000000
,
00020000
00000000
00030000
00000000
,
02000000
00000000
03000000
00000000
,
00002000
00000000
00003000
00000000
,
00020000
00000000
00030000
00000000
,
00000200
00000000
00000300
00000000
,
00002000
00000000
00003000
00000000
,
00000002
00000000
00000000
00000000
,
00000003
00000000
00000000
00000000
;

//---------------dance-double - ----------------
#NOTEDATA:;
#CHARTNAME:;
#CHARTHASH:3353986006;
#STEPSTYPE:dance-double;
#BANNER:;
#DESCRIPTION:;
#CHARTSTYLE:;
#DIFFICULTY:Easy;
#METER:7;
#METERF:0.000000;
#LASTSECONDHINT:116.407188;
#RADARVALUES:0.301716,0.429975,0.084144,0.328161,0.180909,251.000000,241.000000,10.000000,39.000000,0.000000,0.000000,0.000000,0.000000,0.000000,0.301716,0.429975,0.084144,0.328161,0.180909,251.000000,241.000000,10.000000,39.000000,0.000000,0.000000,0.000000,0.000000,0.000000;
#CREDIT:YOSEFU;
#NOTES:
00000000
00000000
00000000
00000000
,
00000000
00000000
00000000
00000000
,
00000000
00000000
00000000
00000000
,
00000000
00000000
00000000
00000000
,
00000000
00000000
00000000
00000000
,
00010000
00000000
00000000
00001000
00000000
00000000
00000000
00000000
,
00100000
00000000
00000000
00010000
00000000
00000000
00000000
00000000
,
01000000
00000000
00100000
00000000
,
10000000
00000000
01000000
00100000
,
00001000
00000000
00000000
00010000
00000000
00000000
00000010
00000000
,
00000100
00000000
00000000
00000001
00000000
00000000
00001000
00000000
,
00000100
00000000
00000000
00000010
00000000
00000000
00000001
00000000
,
00000100
00000000
00000000
00000010
00000000
00000000
00010000
00000000
,
00001000
00000000
00000000
00110000
00000000
00000000
10000000
00000000
,
00100000
00000000
00000000
01010000
00000000
00000000
00001000
00000000
,
00010000
00000000
00000000
00000010
00000000
00000000
00000100
00000000
,
00000001
00000000
00000000
00001001
00000000
00000000
00001000
00000000
,
00000100
00000000
00000000
00000010
00000000
00000000
00000002
00000000
00000000
00000000
00000000
00000000
00000103
00000000
00000000
00000000
,
00000010
00000000
00000000
00010000
00000000
00000000
00002000
00000000
00000000
00000000
00000000
00000000
00103000
00000000
00000000
00000000
,
00010000
00000000
00000000
01000000
00000000
00000000
00200000
00000000
00000000
00000000
00000000
00000000
10300000
00000000
00000000
00000000
,
01000000
00000000
00000000
00100000
00000000
00000000
00002000
00000000
00000000
00000000
00000000
00000000
00013000
00000000
00000000
00000000
,
00000010
00000000
00000000
00000100
00000000
00000000
00000002
00000000
00000000
00000000
00000000
00000000
00001003
00000000
00000000
00000000
,
00000100
00000000
00000000
00000010
00000000
00000000
00000002
00000000
00000000
00000000
00000000
00000000
00000103
00000000
00000000
00000000
,
00000010
00000000
00000000
00010000
00000000
00000000
00002000
00000000
00000000
00000000
00000000
00000000
01003000
00000000
00000000
00000000
,
00100000
00000000
00000000
10000000
00000000
00000000
00020000
00000000
00000000
00000000
00000000
00000000
10030000
00000000
00000000
00000000
,
01000000
00000000
00000000
00100000
00000000
00000000
00020000
00000000
00000000
00000000
00000000
00000000
01030000
00000000
00000000
00000000
,
00001000
00000000
00000000
00010000
00000000
00000000
00000200
00000000
00000000
00000000
00000000
00000000
00000310
00000000
00000000
00000000
,
00000001
00000000
00000000
00000100
00000000
00000000
00000020
00000000
00000000
00000000
00000000
00000000
00010030
00000000
00000000
00000000
,
00001000
00000000
00000000
00000010
00000000
00000000
00000200
00000000
00000000
00000000
00000000
00000000
00001300
00000000
00000000
00000000
,
00000001
00000000
00000000
00000100
00000000
00000000
00002000
00000000
00000000
00000000
00000000
00000000
00013000
00000000
00000000
00000000
,
00100000
00000000
00000000
01000000
00000000
00000000
00020000
00000000
00000000
00000000
00000000
00000000
10030000
00000000
00000000
00000000
,
01000000
00000000
00000000
00010000
00000000
00000000
00002000
00000000
00000000
00000000
00000000
00000000
00103000
00000000
00000000
00000000
,
00001000
00000000
00000000
00010000
00000000
00000000
00000020
00000000
00000000
00000000
00000000
00000000
00000130
00000000
00000000
00000000
,
00000001
00000000
00000000
00000101
00000000
00000000
00001000
00000000
,
00000100
00000000
00000000
00011000
00000000
00000000
01000000
00000000
,
00010000
00000000
00000000
11000000
00000000
00000000
00010000
00000000
,
00100000
00000000
00000000
00011000
00000000
00000000
00000010
00000000
,
00000100
00000000
00000000
00000010
00000000
00000000
00000100
00000000
00000000
00000000
00000000
00000000
00000101
00000000
00000000
00000000
,
00001000
00000000
00000000
00000100
00000000
00000000
00001000
00000000
00000000
00000000
00000000
00000000
00010100
00000000
00000000
00000000
,
00010000
00000000
00000000
00001000
00000000
00000000
00010000
00000000
00000000
00000000
00000000
00000000
00101000
00000000
00000000
00000000
,
00001000
00000000
00000000
01000000
00000000
00000000
00001000
00000000
00000000
00000000
00000000
00000000
10000000
00000000
00000000
00000000
,
00200000
00000000
00000000
00000000
,
02300000
00000000
00000000
03002000
,
00023000
00000000
00030100
00000010
,
00000001
00000000
00000100
00000000
00001000
00000000
00010000
00100000
,
01000000
00000000
00000000
00000000
00000000
00000000
00000000
00000000
00000000
00000000
00000000
00010000
00000000
00000000
10000000
00000000
,
01000000
00000000
00000000
00000000
00000000
00000000
00000000
00000000
00000000
00000000
00000000
00010000
00000000
00000000
00001000
00000000
,
00010000
00000000
00000000
00000010
00000000
00000000
00000100
00000000
00000001
00000000
00000000
00001000
00000000
00000000
00000100
00000000
,
00000010
00000000
00000000
00000001
00001000
00000000
00000000
00000010
00000100
00000000
00000000
00000001
00001000
00000000
00000000
00000000
,
00000100
00000000
00000000
00000010
00000000
00000000
00000002
00000000
00000000
00000000
00000000
00000000
00000103
00000000
00000000
00000000
,
00000010
00000000
00000000
00010000
00000000
00000000
00002000
00000000
00000000
00000000
00000000
00000000
01003000
00000000
00000000
00000000
,
00010000
00000000
00000000
00100000
00000000
00000000
02000000
00000000
00000000
00000000
00000000
00000000
13000000
00000000
00000000
00000000
,
00100000
00000000
00000000
01000000
00000000
00000000
00002000
00000000
00000000
00000000
00000000
00000000
00013000
00000000
00000000
00000000
,
00000100
00000000
00000000
00000010
00000000
00000000
00000002
00000000
00000000
00000000
00000000
00000000
00001003
00000000
00000000
00000000
,
00000010
00000000
00000000
00000100
00000000
00000000
00000002
00000000
00000000
00000000
00000000
00000000
00000013
00000000
00000000
00000000
,
00000100
00000000
00000000
00010000
00000000
00000000
00002000
00000000
00000000
00000000
00000000
00000000
00103000
00000000
00000000
00000000
,
01000000
00000000
00000000
10000000
00000000
00000000
00020000
00000000
00000000
00000000
00000000
00000000
10030000
00000000
00000000
00000000
,
00100000
00000000
00000000
01000000
00000000
00000000
00020000
00000000
00000000
00000000
00000000
00000000
00130000
00000000
00000000
00000000
,
00001000
00000000
00000000
00010000
00000000
00000000
00000020
00000000
00000000
00000000
00000000
00000000
00000130
00000000
00000000
00000000
,
00000001
00000000
00000000
00000010
00000000
00000000
00000200
00000000
00000000
00000000
00000000
00000000
00010300
00000000
00000000
00000000
,
00001000
00000000
00000000
00000100
00000000
00000000
00000020
00000000
00000000
00000000
00000000
00000000
00001030
00000000
00000000
00000000
,
00000001
00000000
00000000
00000010
00000000
00000000
00002000
00000000
00000000
00000000
00000000
00000000
00013000
00000000
00000000
00000000
,
01000000
00000000
00000000
00100000
00000000
00000000
00020000
00000000
00000000
00000000
00000000
00000000
10030000
00000000
00000000
00000000
,
00100000
00000000
00000000
00010000
00000000
00000000
00002000
00000000
00000000
00000000
00000000
00000000
01003000
00000000
00000000
00000000
,
00001000
00000000
00000000
00010000
00000000
00000000
00000200
00000000
00000000
00000000
00000000
00000000
00000310
00000000
00000000
00000000
,
00000001
00000000
00000000
00000100
00000000
00000000
00000010
00000000
,
00010000
00000000
00000000
00001000
00000000
00000000
00100000
00000000
,
01000000
00000000
00000000
10000000
00000000
00000000
00100000
00000000
,
01000000
00000000
00000000
00001000
00000000
00000000
00010000
00000000
,
00000100
00000000
00000000
00000010
00000000
00000000
00000001
00000000
,
00000100
00000000
00000000
00001000
00000000
00000000
00010000
00000000
,
00100000
00000000
00000000
02000000
00000000
03020000
00000000
20000000
,
00030000
00000000
00000000
00000000
,
30000000
00000000
00000000
00000000
;

//---------------dance-double - ----------------
#NOTEDATA:;
#CHARTNAME:;
#CHARTHASH:4128381852;
#STEPSTYPE:dance-double;
#BANNER:;
#DESCRIPTION:;
#CHARTSTYLE:;
#DIFFICULTY:Medium;
#METER:13;
#METERF:0.000000;
#LASTSECONDHINT:116.407188;
#RADARVALUES:0.597422,0.798526,0.134630,0.412305,0.643701,497.000000,481.000000,16.000000,49.000000,0.000000,0.000000,0.000000,0.000000,0.000000,0.597422,0.798526,0.134630,0.412305,0.643701,497.000000,481.000000,16.000000,49.000000,0.000000,0.000000,0.000000,0.000000,0.000000;
#CREDIT:YOSEFU;
#NOTES:
00000000
00000000
00000000
00000000
,
00000000
00000000
00000000
00000000
,
00000000
00000000
00000000
00000000
,
00000000
00000000
00000000
00000000
,
00000000
00000000
00000000
00000000
,
00010000
00000000
00000000
00001000
00000000
00000000
00100000
00000000
00000000
00000000
00010000
01000000
00000000
00000000
00100000
00000000
,
10000000
00000000
00000000
01000000
00000000
00000000
00100000
00000000
00000000
00001000
00010000
00000000
00000000
00000100
00000000
00001000
,
00000001
00000000
00000000
00000100
00000000
00000000
00001000
00000000
00010000
00000000
00000000
00100000
00000000
00000000
01000000
00000000
,
00010000
00000000
00000000
10000000
00000000
00000000
01000000
00000000
00100000
00000000
00001000
00000000
00010000
00000000
00000000
00000000
,
00000010
00000000
00000000
00001000
00000000
00000000
00000200
00000000
00000000
00000000
00000000
00000310
00000001
00000000
00000100
00000000
,
00001000
00000000
00000000
00010000
00000000
00000000
00200000
00000000
00000000
01000000
00000000
01300000
00010000
00000000
10000000
00000000
,
01000000
00000000
00000000
00100000
00000000
00000000
00020000
00000000
00000000
00000000
00000000
01030000
00001000
00000000
00010000
00000000
,
00001000
00000000
00000000
00000010
00000000
00000000
00000200
00000000
00000000
00001000
00000000
00001300
00000001
00000000
00000100
00000000
,
00000010
00000000
00000000
00000010
00000000
00000000
00000200
00000000
00000000
00000301
00000000
00000001
00001000
00000000
00000100
00000000
,
00000010
00000000
00000000
00000010
00000000
00000000
00000002
00000000
00000000
00000100
00000000
00000103
00000010
00000000
00001000
00000000
,
00000100
00000000
00000000
00000100
00000000
00000000
00020000
00000000
00000000
00001000
00000000
00031000
01000000
00000000
00010000
00000000
,
01000000
00000000
00000000
10010000
00000000
00000000
10000000
00000000
00000000
01000000
00100000
00000000
00002000
00000000
00000000
00000000
,
00013000
00000000
00000010
00002000
00000000
00000000
00000100
00000000
00000000
00000000
00003010
00000000
00000100
00000000
00000001
00000000
,
00001000
00000000
00000100
00020000
00000000
00000000
00001000
00000000
00000000
00000000
00030010
00000000
00010000
00000000
00001000
00000000
,
00100000
00000000
01000000
20000000
00000000
00000000
00100000
00000000
00000000
00000000
31000000
00000000
00010000
00000000
00001000
00000000
,
00000100
00000000
00000002
00001000
00000000
00000000
00000100
00000000
00000000
00000000
00000013
00000000
00001000
00000000
00010000
00000000
,
00100000
00000000
01000000
00020000
00000000
00000000
10000000
00000000
00000000
00000000
00130000
00000000
01000000
00000000
00001000
00000000
,
00010000
00000000
00000100
00002000
00000000
00000000
00000001
00000000
00000000
00000000
00003100
00000000
00010000
00000000
00001000
00000000
,
01000000
00000000
00100000
20000000
00000000
00000000
01000000
00000000
00000000
00000000
30100000
00000000
00001000
00000000
00010000
00000000
,
00100000
00000000
01000000
00010000
00000000
00000000
01010000
00000000
00000000
00001000
00010000
00000000
00000100
00000000
00000010
00000000
,
00000001
00000000
00000100
00000020
00000000
00000000
00001000
00000000
00000000
00000130
00000001
00000000
00001000
00000000
00000100
00000000
,
00000010
00000000
00000100
00020000
00000000
00000000
00001000
00000000
00000000
00030100
00010000
00000000
00001000
00000000
01000000
00000000
,
00100000
00000000
10000000
00020000
00000000
00000000
00100000
00000000
00000000
01030000
00100000
00000000
00010000
00000000
00001000
00000000
,
00000010
00000100
00001000
00000010
00000100
00001000
00010000
00100000
,
01000000
00000000
10000000
02000000
00000000
00000000
00001000
00000000
00000000
03010000
10000000
00000000
01000000
00000000
00100000
00000000
,
00001000
00000000
00010000
00000020
00000000
00000000
00000100
00000000
00000000
00001030
00000001
00000000
00000010
00000000
00000100
00000000
,
00010000
00000000
00001000
02000000
00000000
00000000
00010000
00000000
00000000
03001000
00010000
00000000
00001000
00000000
00100000
00000000
,
01000000
00000000
00100000
00010000
00000000
00000000
01010000
00000000
00000000
00001000
01000000
00000000
00001000
00000000
00010000
00000000
,
00000100
00000000
00000000
00000110
00000000
00000000
00000011
00000000
00000000
00000001
00000000
00000001
00000100
00000000
00000010
00000000
,
00010000
00000000
00000000
00011000
00000000
00000000
01001000
00000000
00000000
01000000
00000000
01000000
00010000
00000000
00100000
00000000
,
01000000
00000000
00000000
11000000
00000000
00000000
10100000
00000000
00000000
00100000
00000000
00100000
01000000
00000000
00001000
00000000
,
00010000
00000000
00000000
00010010
00000000
00000000
00001001
00000000
00000000
00000001
00000000
00000001
00000010
00000000
00000100
00000000
,
00010000
00000000
00001000
00100000
00000000
00000000
00110000
00000000
00000000
10000000
00200000
00000000
01000000
00000000
01300000
00000000
,
01010000
00000000
00001000
00010000
00000000
00000000
00001100
00000000
00000000
00000100
00000000
00000100
00000010
00000000
00000001
00000000
,
00000100
00000000
00000010
00001000
00000000
00000000
00010010
00000000
00000000
00010000
00001000
00000000
00100000
00000000
01000000
00000000
,
10000000
00000000
00010000
01000000
00000000
00000000
00011000
00000000
00000000
00010000
00000100
00000000
00000010
00000000
00000001
00000000
,
00000100
00000000
00000000
00000000
,
00001000
00000000
00000000
00010000
,
00100000
00000000
00000000
00000000
00000000
00000000
00000000
00000000
01000000
00000000
00000000
00010000
00000000
00000000
10000000
00000000
,
01000000
00000000
00000000
00010000
00000000
00000000
00000000
00000000
00001000
00000000
00000000
00000000
00000010
00000000
00001000
00000000
,
00010000
00000000
00001000
00100000
00000000
00010000
00000000
01000000
00000000
00100000
00000000
00010000
00000000
00001000
00000000
00000010
,
00000100
00000000
00000000
00001000
00000000
00000000
00000001
00000000
00000100
00000000
00000000
00000010
00000000
00000000
00000100
00000000
00000000
00000000
00001000
00000000
00000000
00000000
00010000
00000000
00000000
00000000
00100000
00000000
01000000
00000000
00010000
00000000
,
10000000
00000000
00000000
01000000
00000000
00000000
00100000
00000000
00000000
00000000
00001000
00010000
00000000
00000000
00000010
00000000
00000100
00000000
00000000
00000001
00000000
00000000
00000100
00000000
00000000
00000010
00001000
00000000
00000000
00000000
00000100
00000000
,
00010000
00000000
00000000
00001000
00000000
00000000
00000100
00000000
00000010
00000000
00000000
00001000
00000000
00000000
00000100
00000000
00010000
00000000
00000000
00001000
00000000
00000000
01000000
00000000
00100000
00000000
00010000
00000000
00001000
00000000
00000010
00000000
,
00000001
00000000
00000010
00000200
00000000
00000000
00001000
00000000
00000000
00000310
00000001
00000000
00001000
00000000
00000010
00000000
,
00000100
00000000
00000010
00020000
00000000
00000000
00001000
00000000
00000000
00030010
00010000
00000000
00001000
00000000
00100000
00000000
,
01000000
00000000
10000000
00020000
00000000
00000000
01000000
00000000
00000000
00130000
01000000
00000000
00010000
00000000
00001000
00000000
,
00000100
00000000
00000010
00000002
00000000
00000000
00000100
00000000
00000000
00000013
00001000
00000000
00010000
00000000
00100000
00000000
,
01000000
00000000
00010000
00200000
00000000
00000000
10000000
00000000
00000000
00310000
10000000
00000000
00100000
00000000
01000000
00000000
,
00001000
00000000
00010000
00000200
00000000
00000000
00000010
00000000
00000000
00001300
00000001
00000000
00000100
00000000
00000010
00000000
,
00001000
00000000
00000010
00020000
00000000
00000000
00001000
00000000
00000000
00031000
00100000
00000000
01000000
00000000
10000000
00000000
,
00100000
00000000
01000000
10000000
00000000
01000000
00001000
00000000
00000000
00010000
00001000
00000000
00010000
00000000
00000100
00000000
,
00000010
00000000
00000001
00000200
00000000
00000000
00000010
00000000
00000000
00000301
00000010
00000000
00000100
00000000
00010000
00000000
,
00001000
00000000
00000000
00000010
00000000
00000000
00000001
00000000
00000100
00000000
00000000
00001000
00000000
00000000
00010000
00000000
,
01000000
00000000
10000000
00200000
00000000
00000000
01000000
00000000
00000000
10300000
00100000
00000000
00010000
00000000
00001000
00000000
,
00000010
00000000
00000000
00000000
00000000
00000000
00000001
00000000
00000000
00000000
00000000
00000000
00000000
00000000
00000000
00000000
00000000
00000000
00000100
00000000
00000000
00000000
00000000
00000000
00001000
00000000
00000000
00000000
00010000
00000000
00000000
00000000
00100000
00000000
00000000
00000000
01000000
00000000
00000000
00010000
00000000
00000000
00000000
00000000
00000000
00100000
00000000
00000000
,
01000000
00000000
10000000
02000000
00000000
00000000
00001000
00000000
00000000
03100000
00001000
00000000
00010000
00000000
00000010
00000000
,
00000100
00000000
00000001
00002000
00000000
00000000
00000100
00000000
00000000
00003010
00000100
00000000
00000001
00000000
00000010
00000000
,
00000100
00000000
00010000
00002000
00000000
00000000
00100000
00000000
00000000
01003000
00010000
00000000
00100000
00000000
01000000
00000000
,
10000000
00000000
01000000
00010000
00000000
00001000
00010000
00000000
00000100
00010000
00000000
00000100
00001000
00000000
00000001
00000000
,
00000100
00000000
00000000
00000100
00000000
00000000
00000020
00000000
00000000
00000000
00002030
00000000
00000000
00000000
00003100
00000000
,
00010000
00000000
00000000
00010000
00000000
00000000
00002000
00000000
00000000
00000000
02003000
00000000
00000000
00000000
03100000
00000000
,
10000000
00000000
00000000
10000000
00000000
00000000
02000000
00000000
00000000
00000000
03020000
00000000
00000000
00000000
00031000
00000000
,
00010000
00000000
00000000
00010000
00000000
00000000
00000020
00000000
00000000
00000000
00000230
00000000
00000000
00000000
00000301
00000000
,
00001000
00000000
00000000
00001000
00000000
00000000
00000200
00000000
00000000
00000000
00000302
00000000
00000000
00000000
00000103
00000000
,
00010000
00000000
00000000
00010000
00000000
00000000
00002000
00000000
00000000
00000000
02003000
00000000
00000000
00000000
03100000
00000000
,
10000000
00000000
00000000
01000000
00000000
00000000
00020000
00000000
00000000
00000000
00032000
00000000
00000000
00000000
00000200
00000000
,
00003000
00000000
00000000
00000000
,
00000300
00000000
00000000
00000000
;

//---------------dance-double - ----------------
#NOTEDATA:;
#CHARTNAME:;
#CHARTHASH:3526053307;
#STEPSTYPE:dance-double;
#BANNER:;
#DESCRIPTION:;
#CHARTSTYLE:;
#DIFFICULTY:Hard;
#METER:17;
#METERF:0.000000;
#LASTSECONDHINT:116.407188;
#RADARVALUES:0.717627,0.890663,0.067315,0.437548,1.001313,597.000000,589.000000,8.000000,52.000000,0.000000,0.000000,0.000000,0.000000,0.000000,0.717627,0.890663,0.067315,0.437548,1.001313,597.000000,589.000000,8.000000,52.000000,0.000000,0.000000,0.000000,0.000000,0.000000;
#CREDIT:YOSEFU;
#NOTES:
00000000
00000000
00000000
00000000
,
00000000
00000000
00000000
00000000
,
00000000
00000000
00000000
00000000
,
00000000
00000000
00000000
00000000
,
00000000
00000000
00000000
00000000
,
00010000
00000000
00000000
00001000
00000000
00000000
00000010
00000000
00000000
00000000
00000100
00001000
00000000
00000000
00000001
00000000
,
00000100
00000000
00000000
00000010
00000000
00000000
00001000
00000000
00000000
00000010
00000100
00000000
00000000
00000010
00000100
00001000
,
00010000
00000000
00000000
00001000
00000000
00000000
00001000
00000000
00100000
00000000
00000000
00010000
00000000
00000000
00010000
00000000
,
10000000
00000000
00000000
00100000
00000000
00000000
00100000
00000000
01000000
00010000
10000000
01000000
00200000
00000000
00000000
00000000
,
00301000
00000000
00000000
00010000
00000000
00000000
00000020
00000000
00000000
00000000
00000130
00000001
00000010
00000000
00001000
00000000
,
00010000
00000000
00000000
00001000
00000000
00000000
02000000
00000000
00000000
00000000
03100000
10000000
01000000
00000000
00100000
00000000
,
00001000
00000000
00000000
00010000
00000000
00000000
00000200
00000000
00000000
00000000
00001300
00000010
00000100
00000000
00000001
00000000
,
00000010
00000000
00000000
00001000
00000000
00000000
00020000
00000000
00000000
00000000
00031000
00100000
00010000
00000000
10000000
00000000
,
01000000
00000000
00000000
01000000
00000000
00000000
00020000
00000000
00000000
00031000
00000000
00001000
00010000
00000000
00100000
00000000
,
01000000
00000000
00000000
01000000
00000000
00000000
20000000
00000000
00000000
31000000
00010000
10000000
01000000
00000000
00100000
00000000
,
00001000
00000000
00000000
00001000
00000000
00000000
00020000
00000000
00000000
00130000
00010000
00001000
00010000
00000000
00000010
00000000
,
00000100
00000000
00000001
00000010
00000000
00000000
00000200
00000000
00000000
00000000
00001000
00000000
00000310
00000001
00001000
00000010
,
00000100
00000000
00000001
00002000
00000000
00000000
00000100
00000000
00000000
00000000
00003010
00000100
00000001
00000100
00000010
00010000
,
00001000
00000000
00100000
00020000
00000000
00000000
01000000
00000000
00000000
00000000
00130000
01000000
10000000
01000000
00100000
00001000
,
00010000
00000000
00000010
00000200
00000000
00000000
00001000
00000000
00000000
00000000
00000310
00000100
00001000
00010000
00001000
00100000
,
01000000
00000000
10000000
02000000
00000000
00000000
00010000
00000000
00000000
00000000
03100000
01000000
00010000
00001000
00010000
00000010
,
00000100
00000000
00000001
00000020
00000000
00000000
00001000
00000000
00000000
00000000
00000130
00010000
00001000
00100000
00010000
10000000
,
00100000
00000000
10000000
02000000
00000000
00000000
00010000
00000000
00000000
00000000
03100000
00001000
00010000
00000010
00001000
00000001
,
00000010
00000000
00000001
00002000
00000000
00000000
00000100
00000000
00000000
00000000
00003001
00000100
00000010
00000100
00001000
00010000
,
00001000
00000000
00100000
00010000
00000000
00000000
10010000
00000000
00000000
00010000
01000000
00100000
10000000
00000000
01000000
00000000
,
00100000
00000000
00010000
20000000
00000000
00000000
00100000
00000000
00000000
00000000
30010000
00100000
01000000
00100000
00001000
00010000
,
00000010
00000000
00000100
00000002
00000000
00000000
00001000
00000000
00000000
00000000
00000013
00000100
00010000
00001000
01000000
00100000
,
10000000
00000000
00010000
00200000
00000000
00000000
10000000
00000000
00000000
00000000
01300000
00010000
00001000
00000010
00000100
00001000
,
00000001
00000000
00000100
00000020
00000000
00000000
00000001
00000000
00000000
00000000
00000130
00001000
00010000
00100000
01000000
00010000
,
10000000
00000000
01000000
00020000
00000000
00000000
00000100
00000000
00000000
00000000
00031000
00010000
00000100
00001000
00000001
00000100
,
00000010
00000000
00000100
00002000
00000000
00000000
00010000
00000000
00000000
00000000
00003100
00000001
00001000
00000100
00010000
00001000
,
01000000
00000000
00100000
20000000
00000000
00000000
01000000
00000000
00000000
00000000
30010000
00100000
01000000
00010000
00001000
00010000
,
00000100
00000000
00001000
00000010
00000000
00000100
00000001
00000000
00000010
00000100
00000000
00001000
00000001
00000000
00000100
00000000
,
00000010
00000000
00000100
00000001
00000000
00000010
00000001
00000000
00000000
00000010
00000100
00000010
00000100
00000000
00010000
00000000
,
00001000
00000000
00100000
00001000
00000000
00100000
00010000
00000000
00000000
01000000
00010000
10000000
01000000
00000000
00100000
00000000
,
00001000
00000000
00010000
00000100
00000000
00010000
00000010
00000000
00000000
00000100
00000001
00001000
00000100
00000000
00000010
00000000
,
00000001
00000000
00001000
00000010
00000000
00001000
00000100
00000000
00000000
00010000
00001000
00100000
00010000
00000000
10000000
00000000
,
10010000
00000000
00010000
01000000
00000000
00000000
10100000
00000000
00000000
10000000
02000000
00000000
00010000
00000000
13000000
00000000
,
10010000
00000000
00010000
01000000
00000000
00000000
00011000
00000000
00000000
00010000
00001000
00000010
00000100
00000000
00001000
00000000
,
00001001
00000000
00000001
00000100
00000000
00000000
00001010
00000000
00000000
00000010
00000100
00001000
00010000
00000000
00000100
00000000
,
00000001
00000000
00000100
00001000
00000000
00000000
00001100
00000000
00000000
00000100
00010000
00000000
00001000
01000000
00100000
10000000
,
00020000
00000000
00000000
00000000
,
00032000
00000000
00000000
00003200
,
00020300
00000000
00000000
00000000
00000000
00000000
00000000
00000000
00000010
00000000
00000000
00000001
00000000
00000000
00000100
00000000
,
00032000
00000000
00000000
00000010
00000000
00000000
00000000
00000000
00023000
00000000
00000000
00000000
00130000
00000000
00001000
00000000
,
00000010
00000000
00000100
00001000
00000000
00010000
00000000
01000000
00000000
10000000
00000000
01000000
00000000
00010000
00000000
00000100
,
00001000
00000000
00000000
00000001
00000000
00000000
00000100
00000000
00000010
00000000
00000000
00001000
00000000
00000000
00000100
00000000
00000000
00000000
00000001
00000000
00000000
00000000
00000100
00000000
00000000
00000000
00010000
00000000
00001000
00000000
01000000
00000000
,
00100000
00000000
00000000
10000000
00000000
00000000
00010000
00000000
00000000
00000000
00100000
00001000
00000000
00000000
00010000
00000000
00000010
00000000
00000000
00000100
00000000
00000000
00000001
00000000
00000000
00000010
00000100
00000000
00000000
00001000
00000010
00001000
,
00000010
00000000
00000000
00000100
00000000
00000000
00001000
00000000
00010000
00000000
00000000
00100000
00000000
00000000
01000000
00000000
10000000
00000000
00000000
01000000
00000000
00000000
00010000
00000000
10000000
00010000
10000000
00010000
00000000
00000000
00000000
00000000
,
01000000
00000000
00010000
20000000
00000000
00000000
01000000
00000000
00000000
00000000
30010000
01000000
00100000
01000000
00001000
00010000
,
00000100
00000000
00000010
00000002
00000000
00000000
00001000
00000000
00000000
00000000
00000103
00000010
00010000
00001000
00100000
01000000
,
10000000
00000000
00010000
02000000
00000000
00000000
10000000
00000000
00000000
00000000
03100000
00010000
00001000
00000100
00000010
00001000
,
00000001
00000000
00000010
00000200
00000000
00000000
00000001
00000000
00000000
00000000
00000310
00001000
00010000
01000000
00100000
00010000
,
10000000
00000000
00100000
00020000
00000000
00000000
00000010
00000000
00000000
00000000
00031000
00010000
00000010
00001000
00000001
00000010
,
00000100
00000000
00000010
00002000
00000000
00000000
00010000
00000000
00000000
00000000
00003010
00000001
00001000
00000010
00010000
00001000
,
00100000
00000000
01000000
20000000
00000000
00000000
00100000
00000000
00000000
00000000
30010000
01000000
00100000
00010000
00001000
00010000
,
00000010
00000000
00000100
00001000
00000000
00010000
00100000
00000000
01000000
00100000
00010000
00001000
00010000
00000000
00000100
00010000
,
00000100
00000000
00001000
00000002
00000000
00000000
00000100
00000000
00000000
00000000
00001003
00000100
00000010
00000100
00010000
00001000
,
01000000
00000000
00100000
20000000
00000000
00000000
00010000
00000000
00000000
00000000
31000000
00100000
00001000
00010000
00000010
00000100
,
00000001
00000000
00001000
00000200
00000000
00000000
00000001
00000000
00000000
00000000
00000310
00001000
00010000
01000000
00100000
00010000
,
10000000
00000000
00000000
00000000
00000000
00000000
00100000
00000000
00000000
02000000
00000000
00000000
00000000
00000000
00000000
00000000
00000000
00000000
10000000
00000000
00000000
00000000
00000000
00000000
03100000
00000000
00000000
00000000
10000000
00000000
00000000
00000000
01000000
00000000
00000000
00000000
00010000
00000000
00000000
00001000
00000000
00000000
00000010
00000000
00000000
00000100
00000000
00000000
,
00001000
00000000
00000010
00002000
00000000
00000000
00100000
00000000
00000000
00000000
00003010
00001000
00000010
00010000
00001000
00100000
,
01000000
00000000
10000000
00200000
00000000
00000000
00010000
00000000
00000000
00000000
01300000
00100000
01000000
00001000
00010000
00000100
,
00001000
00000000
00000001
00000200
00000000
00000000
00000010
00000000
00000000
00000000
00000301
00000010
00001000
00010000
00001000
00100000
,
00010000
00000000
01000000
10000000
00000000
01000000
00010000
00000000
00100000
01000000
00000000
00010000
00001000
00000000
00000010
00000000
,
00000100
00000000
00000001
00000100
00000000
00000000
00002000
00000000
00000000
00000000
00003100
00000010
00001000
00000000
00000000
00000000
,
00000100
00000000
00010000
00001000
00000000
00000000
00200000
00000000
00000000
00000000
01300000
10000000
00010000
00000000
00000000
00000000
,
01000000
00000000
00010000
01000000
00000000
00000000
20000000
00000000
00000000
00000000
31000000
00100000
10000000
00000000
00000000
00000000
,
01000000
00000000
00100000
00002000
00000000
00000000
00010000
00000000
00000000
00000000
00013000
00000010
00001000
00000000
00000000
00000000
,
00000001
00000000
00000000
00000001
00000000
00000000
00000200
00000000
00000000
00000000
00001000
00000000
00000000
00000000
00000310
00000000
,
00010000
00000000
00000000
00010000
00000000
00000000
00002000
00000000
00000000
00000000
00100000
00000000
00000000
00000000
01003000
00010000
,
10000000
00000000
00000000
10000000
00000000
00000000
00200000
00000000
00000000
00000000
00001000
00000000
00000000
00000000
02000000
00000000
,
00300000
00000000
00000000
00000000
,
03000000
00000000
00000000
00000000
;
