#VERSION:0.83;
#TITLE:TURBO RAVE;
#SUBTITLE:;
#ARTIST:BOZO;
#TITLETRANSLIT:;
#SUBTITLETRANSLIT:;
#ARTISTTRANSLIT:;
#GENRE:SPEEDCORE;
#ORIGIN:G2R2018 -Climax- (Team "XTREMESPEED ~VERY fast notes falling at incredible hihg speed~");
#TAGS:;
#CREDIT:skeleton made by d0omsday;
#BANNER:TURBO RAVE-bn.png;
#BACKGROUND:TURBO RAVE-bg.png;
#PREVIEWVID:;
#JACKET:TURBO RAVE-jacket.png;
#CDIMAGE:;
#DISCIMAGE:;
#LYRICSPATH:;
#CDTITLE:../_YSD cdtitles/ysd sale1 cdtitle.png;
#MUSIC:TURBO RAVE.ogg;
#OFFSET:-0.026000;
#SAMPLESTART:11.845000;
#SAMPLELENGTH:17.723000;
#SELECTABLE:YES;
#BPMS:0.000000=162.500000
,32.000000=325.000000
,96.000000=162.500000
,112.000000=325.000000
,272.000000=162.500000
,320.000000=325.000000
,352.000000=162.500000
,368.000000=325.000000
;
#STOPS:;
#DELAYS:;
#WARPS:;
#TIMESIGNATURES:0.000000=4=4
;
#TICKCOUNTS:0.000000=4
;
#COMBOS:0.000000=1
;
#SPEEDS:0.000000=1.000000=0.000000=0
;
#SCROLLS:0.000000=1.000000
,270.000000=0.900000
,270.250000=0.800000
,270.500000=0.700000
,270.750000=0.600000
,271.000000=0.500000
,271.250000=0.400000
,271.500000=0.300000
,271.750000=0.200000
,272.000000=1.000000
;
#FAKES:;
#LABELS:0.000000=Song Start
;
#BGCHANGES:;
#KEYSOUNDS:;
#ATTACKS:
;

//---------------dance-single - ----------------
#NOTEDATA:;
#CHARTNAME:;
#CHARTHASH:4198047950;
#STEPSTYPE:dance-single;
#BANNER:;
#DESCRIPTION:;
#CHARTSTYLE:;
#DIFFICULTY:Beginner;
#METER:6;
#METERF:0.000000;
#LASTSECONDHINT:119.472153;
#RADARVALUES:0.204800,0.387922,0.190595,0.033147,0.000000,173.000000,150.000000,23.000000,4.000000,0.000000,0.000000,0.000000,0.000000,0.000000,0.204800,0.387922,0.190595,0.033147,0.000000,173.000000,150.000000,23.000000,4.000000,0.000000,0.000000,0.000000,0.000000,0.000000;
#CREDIT:YOSEFU;
#NOTES:
// measure 0
0000
0000
0000
0000
,  // measure 1
0000
0000
0000
0000
,  // measure 2
0000
0000
0000
0000
,  // measure 3
0000
0000
0000
0000
,  // measure 4
1000
0000
0000
0000
,  // measure 5
0001
0000
0000
0000
,  // measure 6
0100
0000
0000
0000
,  // measure 7
0010
0000
0010
0000
,  // measure 8
1001
0000
0000
0000
,  // measure 9
1000
0000
0000
0000
,  // measure 10
0001
0000
0000
0000
,  // measure 11
0010
0000
0000
0000
,  // measure 12
0100
0000
0000
0000
,  // measure 13
1000
0000
0000
0000
,  // measure 14
0001
0000
0000
0000
,  // measure 15
0100
0000
0000
0000
,  // measure 16
1001
0000
0000
0000
,  // measure 17
0001
0000
0000
0000
,  // measure 18
0010
0000
0000
0000
,  // measure 19
0100
0000
0000
0000
,  // measure 20
1000
0000
0000
0000
,  // measure 21
0001
0000
0000
0000
,  // measure 22
0100
0000
0100
0000
,  // measure 23
0100
0000
0000
0000
,  // measure 24
0010
0000
0000
0000
,  // measure 25
0010
0000
0000
0000
,  // measure 26
1000
0000
0000
0000
,  // measure 27
1000
0000
0000
0000
,  // measure 28
1001
0000
0000
0000
,  // measure 29
0001
0000
0000
0000
,  // measure 30
1000
0000
0000
0000
,  // measure 31
1000
0000
0000
0000
,  // measure 32
0100
0000
0000
0000
,  // measure 33
0100
0000
0000
0000
,  // measure 34
0010
0000
0010
0000
,  // measure 35
0010
0000
0000
0000
,  // measure 36
0001
0000
0000
0000
,  // measure 37
1000
0000
0000
0000
,  // measure 38
0010
0000
0000
0000
,  // measure 39
0100
0000
0000
0000
,  // measure 40
0001
0000
0000
0000
,  // measure 41
0010
0000
0000
0000
,  // measure 42
0100
0000
0000
0000
,  // measure 43
1000
0000
0000
0000
,  // measure 44
1001
0000
0000
0000
,  // measure 45
0001
0000
0000
0000
,  // measure 46
0100
0000
0000
0000
,  // measure 47
0010
0000
0000
0000
,  // measure 48
1000
0000
0000
0000
,  // measure 49
0100
0000
0000
0000
,  // measure 50
0010
0000
0010
0000
,  // measure 51
0010
0000
0000
0000
,  // measure 52
1001
0000
0000
0000
,  // measure 53
0001
0000
0000
0000
,  // measure 54
0100
0000
0000
0000
,  // measure 55
0010
0000
0000
0000
,  // measure 56
1001
0000
0000
0000
,  // measure 57
1000
0000
0000
0000
,  // measure 58
0010
0000
0000
0000
,  // measure 59
0100
0000
0000
0000
,  // measure 60
1001
0000
0000
0000
,  // measure 61
0001
0000
0000
0000
,  // measure 62
0110
0000
0000
0000
,  // measure 63
1000
0000
0000
0000
,  // measure 64
1001
0000
0000
0000
,  // measure 65
0110
0000
0000
0000
,  // measure 66
1001
0000
0001
0000
,  // measure 67
2002
0000
3003
0000
,  // measure 68
1000
0000
0000
0000
,  // measure 69
0001
0000
0000
0000
,  // measure 70
1000
0000
0000
0000
,  // measure 71
0100
0000
0000
0000
,  // measure 72
0010
0000
0000
0000
,  // measure 73
0001
0000
0000
0000
,  // measure 74
1000
0000
0000
0000
,  // measure 75
0010
0000
0000
0000
,  // measure 76
0100
0100
0100
0000
,  // measure 77
0010
0010
0010
0000
,  // measure 78
1000
1000
1000
0000
,  // measure 79
0001
0001
0001
0000
,  // measure 80
0010
0000
0000
0000
,  // measure 81
0010
0000
0000
0000
,  // measure 82
0100
0000
0000
0000
,  // measure 83
0100
0000
0000
0000
,  // measure 84
1000
0000
0000
0000
,  // measure 85
1000
0000
0000
0000
,  // measure 86
0001
0000
0000
0000
,  // measure 87
0101
0000
0000
0000
,  // measure 88
0001
0000
0001
0000
,  // measure 89
1000
1000
1000
0000
,  // measure 90
0010
0000
0010
0000
,  // measure 91
0100
0100
0100
0000
,  // measure 92
0001
0000
0000
0000
,  // measure 93
0010
0000
0000
0000
,  // measure 94
0100
0000
0000
0000
,  // measure 95
1000
0000
0000
0000
,  // measure 96
0001
0000
0000
0000
,  // measure 97
0100
0000
0000
0000
,  // measure 98
0010
0000
0010
0000
,  // measure 99
0010
0000
0000
0000
,  // measure 100
0110
0000
0000
0000
,  // measure 101
1000
0000
0000
0000
,  // measure 102
0100
0000
0000
0000
,  // measure 103
0010
0000
0000
0000
,  // measure 104
0001
0000
0000
0000
,  // measure 105
0100
0000
0000
0000
,  // measure 106
0010
0000
0000
0000
,  // measure 107
1000
0000
0000
0000
,  // measure 108
0100
0000
0000
0000
,  // measure 109
0010
0000
0000
0000
,  // measure 110
0100
0000
0000
0000
,  // measure 111
1000
0000
0000
0000
,  // measure 112
0010
0000
0000
0000
,  // measure 113
0100
0000
0000
0000
,  // measure 114
0001
0000
0001
0000
,  // measure 115
1001
0000
0000
0000
,  // measure 116
1000
0000
0000
0000
,  // measure 117
0100
0000
0000
0000
,  // measure 118
0010
0000
0000
0000
,  // measure 119
0001
0000
0000
0000
,  // measure 120
0110
0000
0000
0000
,  // measure 121
0010
0000
0000
0000
,  // measure 122
1000
0000
0000
0000
,  // measure 123
0100
0000
0000
0000
,  // measure 124
0110
0000
0000
0000
,  // measure 125
0001
0000
0000
0000
,  // measure 126
1001
0000
0000
0000
,  // measure 127
1000
0000
0000
0000
,  // measure 128
1001
0000
0000
0000
,  // measure 129
0110
0000
0000
0000
,  // measure 130
1001
0000
0000
0000
,  // measure 131
0110
0000
0000
0000
,  // measure 132
2002
0000
0000
0000
,  // measure 133
0000
0000
0000
3003
;

//---------------dance-single - ----------------
#NOTEDATA:;
#CHARTNAME:;
#CHARTHASH:2898739909;
#STEPSTYPE:dance-single;
#BANNER:;
#DESCRIPTION:;
#CHARTSTYLE:;
#DIFFICULTY:Easy;
#METER:12;
#METERF:0.000000;
#LASTSECONDHINT:119.472153;
#RADARVALUES:0.550475,0.942097,0.049720,0.207168,0.000000,465.000000,459.000000,6.000000,25.000000,0.000000,0.000000,0.000000,0.000000,0.000000,0.550475,0.942097,0.049720,0.207168,0.000000,465.000000,459.000000,6.000000,25.000000,0.000000,0.000000,0.000000,0.000000,0.000000;
#CREDIT:YOSEFU;
#NOTES:
0000
0000
0000
0000
,
0000
0000
0000
0000
,
0000
0000
0000
0000
,
0000
0000
0000
0000
,
0000
1000
0000
1000
1000
0000
0001
0100
,
0000
0001
0010
0100
0000
0000
1000
0000
,
0000
0001
0000
0001
0001
0000
0010
0100
,
0000
1000
0001
0100
0000
0000
0020
0000
,
1030
0001
0000
0001
,
0001
0000
0010
0100
,
0000
1000
0001
0100
,
0000
0000
0010
1000
,
0001
0010
0000
0000
,
0100
0001
0100
1000
,
0000
0001
0100
0010
,
0000
0000
1000
0000
,
0100
0010
0000
0010
,
0010
0000
0001
0100
,
0000
0010
1000
0100
,
0000
0000
0010
0000
,
0001
0000
0100
0000
0000
1000
0000
0000
,
0100
0000
0001
0010
,
0100
1000
0001
0100
,
0010
1000
0002
0000
,
0013
0100
0000
0100
0000
0100
0000
0100
,
0000
1000
0000
1000
1000
1000
0001
0100
,
0000
0010
0000
0010
0010
0000
1000
0001
,
0000
0100
0010
1000
0000
0000
0002
0000
,
1003
0100
1000
0100
,
0010
0001
0010
0001
,
1000
0010
1000
0010
,
0100
0001
0200
0000
,
0301
0010
0001
0010
,
0100
1000
0100
1000
,
0001
0100
0001
0100
,
0020
0000
2030
0000
,
3100
0010
0000
0001
,
0001
0000
0100
0010
,
0000
1000
0100
0010
,
0000
0000
0001
0000
,
0100
0010
0000
0000
,
0001
0010
1000
0100
,
0000
0010
0001
1000
,
0020
0000
0230
0000
,
0301
1000
0000
1000
,
1000
0000
0100
0010
,
0000
0001
0100
0010
,
0000
1000
0001
0000
,
0010
0000
0100
0000
0000
0001
0000
0000
,
0100
0000
1000
0001
,
0100
0010
1000
0100
,
0010
0001
1000
0000
,
0001
0100
0001
0100
,
0010
1000
0010
1000
,
0001
0010
0001
0010
,
0100
1000
0200
0000
,
1300
0001
0000
0000
,
0100
1000
0100
0001
,
0000
0010
0100
1000
,
0001
0100
0010
0000
,
1000
0100
0000
0010
,
0001
0000
0100
0010
,
0000
1000
0100
0010
,
0000
0000
0001
0000
,
0100
0000
0010
0000
0000
0001
0000
0000
,
0010
0000
1000
0100
,
0010
0001
0100
0010
,
2000
0000
3002
0000
,
0003
0000
0000
0010
0000
0100
0000
0100
,
0000
1000
1000
1000
0001
0000
0001
0000
,
0000
0000
0000
0100
0000
0010
0000
0010
,
0000
1000
1000
1000
0100
0000
0100
0000
,
0010
0001
0000
0001
0001
0000
1000
0010
,
0000
0100
0001
0010
0000
0000
0100
0000
,
0000
1000
0000
1000
1000
0000
0001
0100
,
0000
0010
1000
0001
0000
0000
0020
0000
,
0130
1000
0001
0100
1000
0100
0001
0010
,
0100
1000
0001
0100
1000
0001
0010
1000
,
0100
0010
0001
1000
0010
0001
1000
0100
,
0001
0010
1000
0001
0100
1000
0001
0000
,
0100
0001
0000
1000
,
0100
0000
0010
0001
,
0000
0100
1000
0100
,
0001
0010
0100
0000
,
0010
0000
0001
0000
0000
0100
0000
0000
,
1000
0000
0100
0010
,
0100
0001
0100
0010
,
1000
0000
2002
3003
,
0001
0010
0100
0010
0001
1000
0010
0000
,
1000
0100
0001
1000
0010
0001
1000
0000
,
0001
0100
0010
0100
0001
1000
0100
0000
,
0010
1000
0001
0100
1000
0001
0200
0000
,
0301
0010
0001
0010
,
0100
1000
0100
1000
,
0001
0100
0001
0100
,
0010
1000
0020
0000
,
1030
0100
1000
0100
,
0010
0001
0010
0001
,
1000
0010
1000
0010
,
2000
0000
3002
0000
,
1003
0010
0000
0100
,
0001
0000
0010
0100
,
0000
0001
0100
1000
,
0001
0100
0020
0000
,
1030
0001
0000
0000
,
0100
1000
0001
0010
,
1000
0100
0010
0001
,
1000
0010
0200
0000
,
0301
0010
0000
0100
,
1000
0000
0001
0100
,
0000
1000
0100
0001
,
0010
1000
0020
0000
,
0031
0000
0100
0000
0000
1000
0000
0000
,
0100
0000
0001
0010
,
0100
0001
0100
1000
,
0001
0000
0101
0000
,
0100
0010
1000
0010
,
0100
0001
0010
0100
,
1000
0100
0010
0001
,
1000
0010
0200
0000
,
0301
0010
0001
0001
,
0100
1000
0100
0001
,
0010
1000
0001
0100
,
1000
0010
0002
0000
,
0013
0100
0001
0010
,
0100
1000
0001
0000
,
0101
0100
0010
1000
,
0100
0010
0001
0000
,
0101
0100
0010
0000
,
1100
0100
0010
0000
,
0101
0001
0100
1000
,
0100
0001
0020
0000
,
0230
0000
0000
0000
,
0000
0000
0000
0300
;

//---------------dance-single - ----------------
#NOTEDATA:;
#CHARTNAME:;
#CHARTHASH:592008991;
#STEPSTYPE:dance-single;
#BANNER:;
#DESCRIPTION:;
#CHARTSTYLE:;
#DIFFICULTY:Medium;
#METER:14;
#METERF:0.000000;
#LASTSECONDHINT:119.472153;
#RADARVALUES:0.705555,1.108349,0.165734,0.331469,0.041434,596.000000,576.000000,20.000000,40.000000,0.000000,0.000000,0.000000,0.000000,0.000000,0.705555,1.108349,0.165734,0.331469,0.041434,596.000000,576.000000,20.000000,40.000000,0.000000,0.000000,0.000000,0.000000,0.000000;
#CREDIT:YOSEFU;
#NOTES:
0000
0000
0000
0000
,
0000
0000
0000
0000
,
0000
0000
0000
0000
,
0000
0000
0000
0000
,
0000
1000
0000
1000
1000
0000
0001
0100
,
0000
0010
1000
0100
0000
0000
0010
0000
,
0000
0001
0000
0001
0001
0000
1000
0010
,
0100
0001
0010
0100
1000
0001
0200
0000
,
0301
0010
0100
1000
,
0001
0000
0100
0000
0010
0000
1000
0010
,
1000
0100
0010
0001
,
1000
0000
0010
0000
0100
0001
0200
0000
,
0301
0010
0100
1000
,
0001
0100
1000
0100
,
0001
0010
0100
1000
,
0001
0000
0100
0001
0100
0000
0001
0100
,
0001
0010
0100
1000
,
0001
0000
0100
0000
0010
0000
1000
0001
,
1000
0100
0010
0001
,
1000
0000
0010
0000
0100
0001
0200
0000
,
0310
0000
0002
0000
0003
0010
0000
0100
,
0001
1000
0100
0001
,
0100
1000
0001
0100
,
0010
0000
1000
0001
2000
0000
0000
0000
,
3001
0100
0000
0100
0000
0100
0000
0100
,
0000
0010
0000
0010
0010
0010
1000
0100
,
0000
0010
0000
0010
0010
0000
0001
0010
,
0001
1000
0000
0001
2000
0000
3020
0000
,
0130
0001
0010
0100
,
1000
0001
0100
0010
,
1000
0100
0010
0001
,
1000
0010
0100
1000
,
0100
0001
0010
0100
,
1000
0001
0100
0010
,
0100
0001
1000
0100
,
0010
0000
0001
1000
0001
0000
1000
0100
,
1000
0001
0100
0010
,
1000
0000
0100
0000
0010
0000
0001
1000
,
0001
0100
0010
1000
,
0100
0000
0010
0000
0001
1000
0002
0000
,
0103
0010
1000
0001
,
1000
0100
0001
0100
,
1000
0001
0100
0010
,
1000
0000
0001
0010
0001
0000
1000
0010
,
1000
0001
0010
0100
,
1000
0000
0001
0000
0100
0000
0010
1000
,
0010
0100
0001
0010
,
0100
0000
1000
0000
0001
0100
0001
0000
,
0010
0000
2000
0000
3000
0010
0000
0100
,
1000
0001
0100
0010
,
1000
0100
0001
0100
,
1000
0000
0001
0100
0001
0000
1000
0100
,
1000
0001
0100
1000
,
0100
0001
0010
0100
,
1000
0100
0010
0001
,
1000
0010
0001
0010
,
1000
0100
0010
0001
,
1000
0010
0001
1000
,
0100
0001
0010
0100
,
1000
0000
0001
0100
0001
0000
1000
0100
,
0010
0001
0100
0010
,
1000
0000
0100
0000
0010
0000
0001
1000
,
0010
0100
0001
0010
,
0100
0000
1000
0000
0001
0100
0010
0000
,
1000
0000
0200
0000
0300
0001
0000
0100
,
0010
0001
1000
0010
,
0100
1000
0100
0001
,
0020
0000
0230
0000
,
1300
0000
0000
0001
0000
0100
0000
0100
,
0000
0010
0010
0010
1000
0000
1000
0000
,
0000
0000
0000
0100
0000
0010
0000
0010
,
0000
0001
0001
0001
1000
0000
1000
0000
,
0000
0010
0000
0010
0010
0000
0100
0001
,
0000
0010
0100
1000
0000
0000
0001
0000
,
0000
0100
0000
0100
0100
0000
0010
0100
,
0000
1000
0100
0001
0000
0010
0200
0000
,
1300
0000
0001
0000
0100
0000
0001
0000
1000
0100
0000
0010
0000
0100
1000
0000
,
0000
0001
0100
0000
0010
0000
0100
0001
0000
1000
0100
0000
0010
0000
0001
1000
,
0010
0100
0001
0010
1000
0010
0001
1000
,
0010
0100
0001
0010
1000
0010
0002
0000
,
0103
0010
1000
0100
,
0010
0000
0001
0000
1000
0000
0001
0100
,
0010
1000
0001
0010
,
0100
0000
2002
3003
,
1000
0000
0020
0000
0030
0001
0000
0010
,
0100
0001
1000
0100
,
0010
1000
0010
0001
,
2002
3003
2020
3030
,
1000
0000
0100
0000
0001
0000
0100
0000
1000
0001
1000
0000
0100
0000
0010
0000
,
0001
1000
0001
0000
0100
0000
0010
0000
1000
0000
0000
1000
0000
0000
1000
0000
,
0001
0010
1000
0010
0001
0100
0010
1000
,
0100
0010
0000
0001
0200
0000
0320
0000
,
1030
0001
0010
0100
,
0010
0000
0001
0000
1000
0000
0010
0100
,
0001
1000
1000
1000
,
0100
0010
0001
1000
,
0010
0100
0001
0010
,
0100
0000
1000
0000
0001
1000
0010
0000
,
0100
0001
0010
0100
,
1000
0000
0001
0100
0010
0000
1000
0010
,
0100
0001
0010
0100
,
1000
0000
0001
0000
1000
0000
0010
0100
,
0001
0010
0100
1000
,
0001
0100
0220
0330
,
0010
1000
0100
0010
,
0001
0100
1000
0100
,
0001
0010
0100
1000
,
0001
0100
2020
3030
,
1000
0100
0010
0001
,
0100
0000
0010
0000
1000
0000
0001
0010
,
0100
0010
0001
1000
,
0010
0100
0202
0303
,
0001
0000
0010
0000
0000
1000
0000
0010
,
0100
1000
0001
0100
,
0010
0100
0001
0010
,
2200
3300
2002
3003
,
0101
0001
0010
0100
,
1000
0001
1000
0010
,
0100
0001
1000
0000
0100
0000
0010
0000
,
0001
0100
0220
0330
,
1001
0001
0010
0010
,
0001
0100
1000
0001
,
0010
0000
1000
0000
0100
0000
0010
0100
,
1000
0100
0010
0000
0022
0000
0033
0000
,
1001
0001
0100
0010
,
1000
0100
0010
0001
,
0101
0100
0010
0001
,
0010
1000
2002
3003
,
1100
0000
0100
0000
0001
0100
0000
1000
,
0001
0100
0010
1000
,
1001
0100
1001
0010
,
1001
0100
0011
1000
,
0200
0000
0000
0000
,
0000
0000
0000
0300
;

//---------------dance-single - ----------------
#NOTEDATA:;
#CHARTNAME:am speed;
#CHARTHASH:1464688964;
#STEPSTYPE:dance-single;
#BANNER:;
#DESCRIPTION:;
#CHARTSTYLE:;
#DIFFICULTY:Hard;
#METER:17;
#METERF:0.000000;
#LASTSECONDHINT:119.472153;
#RADARVALUES:0.840510,1.385436,0.273462,0.497203,0.082867,710.000000,677.000000,33.000000,60.000000,0.000000,0.000000,0.000000,0.000000,0.000000,0.840510,1.385436,0.273462,0.497203,0.082867,710.000000,677.000000,33.000000,60.000000,0.000000,0.000000,0.000000,0.000000,0.000000;
#CREDIT:Yosefu @ 325 kmh;
#NOTES:
0000
0000
0000
0000
,
0000
0000
0000
0000
,
0000
0000
0000
0000
,
0000
0000
0000
0000
,
1000
0010
0000
0010
0010
0000
1000
0010
,
0000
0100
1000
0100
0000
0001
0100
0000
,
0001
0010
0000
0010
0010
0000
0100
0010
,
0001
0100
1000
0100
0002
0000
0100
0000
,
1003
0001
1000
0000
0001
0000
1000
0010
,
1000
0000
0100
0000
0010
0001
0010
0000
,
0100
0000
0010
0100
0001
0000
0200
0000
,
0310
0001
1000
0000
0001
0000
0200
0000
,
0310
1000
0010
0000
0100
0000
0100
0000
,
0101
1001
1100
1001
,
0001
0000
0100
0010
0001
0000
0020
0000
,
0100
1030
0002
0000
,
0013
0100
0010
0000
0001
0000
1000
0010
,
1000
0000
0001
0000
0010
0100
0010
0000
,
0001
0000
0100
0010
0001
0000
0020
0000
,
1030
0001
0010
0000
0001
0000
0200
0000
,
0301
0000
1000
0000
0100
0001
0000
0100
,
1000
0000
0010
0000
0100
0001
1000
0000
,
0100
0010
0100
1000
0001
0000
0200
0000
,
0320
0100
2030
0000
,
3001
0010
0000
0010
0000
0010
0000
0010
,
0000
0100
0000
0100
0100
0100
0001
0100
,
1000
0001
0000
0001
0000
0001
0000
0001
,
0010
0100
0000
1000
0010
0100
0002
0000
,
0103
0010
0100
1000
,
0100
0000
0001
0000
0010
0000
0100
1000
,
0001
0100
0100
0100
,
0010
0000
1000
0000
0001
0010
0200
0000
,
1300
0001
0010
1000
,
0010
0100
2000
3001
,
0100
0010
1000
0010
0100
0001
1000
0100
,
0020
1000
0100
0001
,
0130
1000
0001
0000
0100
0000
0010
1000
,
0001
0000
0010
0000
0100
1000
0001
0000
,
1000
0000
0010
0100
1000
0000
0200
0000
,
0310
1000
0001
0000
1000
0000
0200
0000
,
1300
0001
0100
0000
0010
0000
0010
0000
,
1010
0101
0011
1100
,
1000
0000
0001
0100
0010
0000
0200
0000
,
0010
0301
2000
0000
,
3100
0010
0001
0000
0100
0000
0010
1000
,
0001
0000
0010
0000
0100
1000
0001
0000
,
1000
0000
0001
0100
1000
0000
0200
0000
,
0310
0100
0001
0000
1000
0000
0200
0000
,
0310
0000
0001
0000
1000
0010
0000
0001
,
0010
0000
0100
0000
0001
1000
0100
0000
,
0010
0001
0010
0100
1000
0000
0001
0000
,
0200
0010
1000
0010
,
0301
0100
1000
0100
,
0001
0000
0010
0000
1000
0000
0010
0100
,
1000
0010
0100
0001
,
0010
1000
0020
0032
,
1003
0010
0100
0000
0001
0000
0001
0000
,
0011
1100
1010
0101
,
0001
0000
0100
0010
0001
0000
0020
0000
,
1000
0130
0002
0000
,
0013
0100
1000
0000
0001
0000
0100
0010
,
1000
0000
0100
0000
0010
0001
0100
0000
,
0010
0000
1000
0010
0001
0000
0020
0000
,
0130
0001
1000
0000
0100
0000
0020
0000
,
0031
0000
1000
0000
0001
0010
0000
1000
,
0010
0001
0100
0010
,
1000
0010
1000
0100
0010
0001
0100
0001
,
2000
3200
0320
0000
,
0031
0000
0000
0010
0000
0001
0000
0001
,
0000
0100
0100
0100
0010
0000
0010
0000
,
0000
0000
0000
1000
0000
0100
0000
0100
,
0000
0010
0010
0010
0001
0000
0001
0000
,
0100
0010
0000
0010
0010
0000
1000
0010
,
0000
0100
1000
0100
0001
0010
0100
1000
,
0001
0010
0000
0001
0001
0000
1000
0010
,
0100
0001
0010
0100
1000
0000
0001
0000
,
1000
0000
0001
0000
1000
0010
0100
0000
1000
0100
0010
1000
0000
0001
0100
0000
,
0000
0001
0100
0001
0010
0000
0100
0000
1000
0010
0100
0000
0101
0000
0001
0010
,
0100
1000
0001
0000
0010
0000
0100
0000
0001
0000
0100
0000
1000
0000
0010
0000
,
0100
0000
0001
1000
0100
0000
0001
0000
0100
0000
0010
0000
0011
0000
0000
0000
,
0001
1000
0010
0000
0100
0000
0001
1000
,
0100
0000
0010
0000
0001
0100
0010
0000
,
1000
0000
0001
0010
1000
0000
0020
0000
,
0130
1000
0001
0000
2002
0000
3003
0000
,
1000
0000
0001
0000
0100
1000
0000
0100
,
0001
0000
0010
0000
0100
1000
0001
0000
,
0100
0010
1000
0100
0010
0000
0011
0000
,
2200
3300
2002
3003
,
0001
0000
0100
0000
1000
0000
0100
0000
0010
0100
0010
0000
0100
0001
0100
0000
,
0001
0010
0100
1000
0100
0010
0001
0000
1000
0000
0001
1000
0000
0001
0100
0000
,
0001
0000
0010
0000
1000
0000
0010
0000
0001
1000
0001
0000
1000
0010
1000
0010
,
0100
0001
0000
1000
0200
0000
2300
0000
,
3001
1000
0010
0100
,
0001
0000
0010
0000
0100
0000
1000
0010
,
0100
0001
0001
0001
,
0010
0000
0100
0000
1000
0010
0200
0000
,
0301
0010
0100
0001
,
0100
1000
0002
0103
,
0010
0100
0001
1000
0100
0010
0100
1000
,
0020
1000
0100
0001
,
0130
0001
1000
0000
0100
0000
0010
0001
,
0100
0000
0010
0000
1000
0100
0010
0000
,
0001
0000
1000
0010
0001
0000
0020
0000
,
0130
0001
1000
0000
2002
0000
3003
0000
,
0001
0100
0010
0000
1000
0000
1000
0000
,
1010
0101
1100
0011
,
0001
0000
1000
0010
0001
0000
0020
0000
,
0100
1030
0202
0303
,
0001
0010
0100
0000
1000
0000
0010
0100
,
0001
0000
1000
0000
0100
1000
0010
0000
,
0100
0000
0001
0100
1000
0000
0200
0000
,
0301
0010
0100
0000
2200
0000
3300
0000
,
1000
0001
0010
0000
0001
0100
0000
1000
,
0100
0000
0001
0000
0010
0100
1000
0000
,
0001
1000
0010
1000
0100
0010
1000
0010
,
0100
1000
2002
3003
,
0001
0100
0010
0000
1000
0000
0001
0000
,
0010
0000
1000
0000
0010
0000
0001
1000
,
0010
0100
0001
0000
0010
0000
0100
1000
,
0010
0100
0202
0303
,
0001
0010
0100
0000
1000
0000
1000
0000
,
1010
0011
1100
0101
,
0001
0100
1000
0100
0010
0000
0100
0010
,
1000
0100
0010
0001
0200
0000
0000
0000
,
0301
0010
0100
0000
0010
0000
0001
1000
,
0010
0000
0100
0000
0001
0010
0100
0000
,
1100
0000
1000
0100
0001
0000
0200
0000
,
1300
0001
0100
0000
2020
0000
3030
0000
,
1000
0001
0010
0000
1000
0010
0000
0001
,
0100
0000
1000
0000
0100
0001
1000
0000
,
0001
1000
0100
1000
0001
0100
1000
0100
,
0001
1000
0100
0010
1000
0010
0100
1000
,
0002
0000
0000
0000
,
0000
0000
0000
0003
;

//---------------dance-double - ----------------
#NOTEDATA:;
#CHARTNAME:;
#CHARTHASH:1351489795;
#STEPSTYPE:dance-double;
#BANNER:;
#DESCRIPTION:;
#CHARTSTYLE:;
#DIFFICULTY:Beginner;
#METER:6;
#METERF:0.000000;
#LASTSECONDHINT:119.472153;
#RADARVALUES:0.187043,0.332505,0.190595,0.024860,0.000000,158.000000,135.000000,23.000000,3.000000,0.000000,0.000000,0.000000,0.000000,0.000000,0.187043,0.332505,0.190595,0.024860,0.000000,158.000000,135.000000,23.000000,3.000000,0.000000,0.000000,0.000000,0.000000,0.000000;
#CREDIT:YOSEFU;
#NOTES:
00000000
00000000
00000000
00000000
,
00000000
00000000
00000000
00000000
,
00000000
00000000
00000000
00000000
,
00000000
00000000
00000000
00000000
,
00010000
00000000
00000000
00000000
,
00001000
00000000
00000000
00000000
,
01000000
00000000
00000000
00000000
,
00010000
00000000
00000000
00000000
,
10010000
00000000
00000000
00000000
,
10000000
00000000
00000000
00000000
,
00100000
00000000
00000000
00000000
,
01000000
00000000
00000000
00000000
,
00001000
00000000
00000000
00000000
,
00010000
00000000
00000000
00000000
,
00000100
00000000
00000000
00000000
,
00000010
00000000
00000000
00000000
,
00000110
00000000
00000000
00000000
,
00001000
00000000
00000000
00000000
,
00000001
00000000
00000000
00000000
,
00000100
00000000
00000000
00000000
,
00000010
00000000
00000000
00000000
,
00001000
00000000
00000000
00000000
,
00000010
00000000
00000000
00000000
,
00010000
00000000
00000000
00000000
,
00001000
00000000
00000000
00000000
,
00010000
00000000
00000000
00000000
,
00100000
00000000
00000000
00000000
,
01000000
00000000
00000000
00000000
,
01100000
00000000
00000000
00000000
,
00010000
00000000
00000000
00000000
,
10000000
00000000
00000000
00000000
,
01000000
00000000
00000000
00000000
,
00100000
00000000
00000000
00000000
,
00001000
00000000
00000000
00000000
,
00010000
00000000
00000000
00000000
,
00000010
00000000
00000000
00000000
,
00001000
00000000
00000000
00000000
,
00000001
00000000
00000000
00000000
,
00000100
00000000
00000000
00000000
,
00000010
00000000
00000000
00000000
,
00001000
00000000
00000000
00000000
,
00000001
00000000
00000000
00000000
,
00000010
00000000
00000000
00000000
,
00000100
00000000
00000000
00000000
,
00001100
00000000
00000000
00000000
,
00010000
00000000
00000000
00000000
,
00001000
00000000
00000000
00000000
,
01000000
00000000
00000000
00000000
,
00010000
00000000
00000000
00000000
,
10000000
00000000
00000000
00000000
,
01000000
00000000
00000000
00000000
,
00100000
00000000
00000000
00000000
,
01100000
00000000
00000000
00000000
,
10000000
00000000
00000000
00000000
,
00010000
00000000
00000000
00000000
,
01000000
00000000
00000000
00000000
,
01100000
00000000
00000000
00000000
,
01000000
00000000
00000000
00000000
,
00001000
00000000
00000000
00000000
,
00010000
00000000
00000000
00000000
,
00011000
00000000
00000000
00000000
,
00010000
00000000
00000000
00000000
,
00010100
00000000
00000000
00000000
,
00000100
00000000
00000000
00000000
,
00001100
00000000
00000000
00000000
,
00001100
00000000
00000000
00000000
,
00001000
00000000
00001000
00000000
,
00002000
00000000
00003000
00000000
,
00001000
00000000
00000000
00000000
,
00000001
00000000
00000000
00000000
,
00000100
00000000
00000000
00000000
,
00000010
00000000
00000000
00000000
,
00010000
00000000
00000000
00000000
,
00001000
00000000
00000000
00000000
,
00100000
00000000
00000000
00000000
,
01000000
00000000
00000000
00000000
,
01100000
00000000
00000000
00000000
,
10000000
00000000
00000000
00000000
,
00010000
00000000
00000000
00000000
,
01000000
00000000
00000000
00000000
,
00011000
00000000
00000000
00000000
,
00010000
00000000
00000000
00000000
,
00000100
00000000
00000000
00000000
,
00001000
00000000
00000000
00000000
,
00000001
00000000
00000000
00000000
,
00000100
00000000
00000000
00000000
,
00000010
00000000
00000000
00000000
,
00010000
00000000
00000000
00000000
,
00001000
00000000
00100000
00000000
,
01000000
00000000
00100000
00000000
,
00001000
00000000
00010000
00000000
,
00000010
00000000
00000100
00000000
,
00000110
00000000
00000000
00000000
,
00000001
00000000
00000000
00000000
,
00001000
00000000
00000000
00000000
,
00000100
00000000
00000000
00000000
,
00000010
00000000
00000000
00000000
,
00000001
00000000
00000000
00000000
,
00000100
00000000
00000000
00000000
,
00000010
00000000
00000000
00000000
,
00001010
00000000
00000000
00000000
,
00001000
00000000
00000000
00000000
,
00000010
00000000
00000000
00000000
,
00010000
00000000
00000000
00000000
,
00001000
00000000
00000000
00000000
,
00100000
00000000
00000000
00000000
,
01000000
00000000
00000000
00000000
,
10000000
00000000
00000000
00000000
,
10010000
00000000
00000000
00000000
,
00010000
00000000
00000000
00000000
,
01000000
00000000
00000000
00000000
,
00001000
00000000
00000000
00000000
,
00010000
00000000
00000000
00000000
,
00000100
00000000
00000000
00000000
,
00001000
00000000
00000000
00000000
,
00000001
00000000
00000000
00000000
,
00001001
00000000
00000000
00000000
,
00001000
00000000
00000000
00000000
,
00000010
00000000
00000000
00000000
,
00000100
00000000
00000000
00000000
,
00000110
00000000
00000000
00000000
,
00000100
00000000
00000000
00000000
,
00000010
00000000
00000000
00000000
,
00010000
00000000
00000000
00000000
,
00011000
00000000
00000000
00000000
,
00001000
00000000
00000000
00000000
,
00101000
00000000
00000000
00000000
,
00100000
00000000
00000000
00000000
,
01100000
00000000
00000000
00000000
,
01100000
00000000
00000000
00000000
,
01000000
00000000
00100000
00000000
,
01100000
00000000
00000000
00000000
,
20020000
00000000
00000000
00000000
,
00000000
00000000
00000000
30030000
;

//---------------dance-double - ----------------
#NOTEDATA:;
#CHARTNAME:;
#CHARTHASH:3431066463;
#STEPSTYPE:dance-double;
#BANNER:;
#DESCRIPTION:;
#CHARTSTYLE:;
#DIFFICULTY:Easy;
#METER:12;
#METERF:0.000000;
#LASTSECONDHINT:119.472153;
#RADARVALUES:0.509041,0.775844,0.074580,0.281749,0.004143,430.000000,421.000000,9.000000,34.000000,0.000000,0.000000,0.000000,0.000000,0.000000,0.509041,0.775844,0.074580,0.281749,0.004143,430.000000,421.000000,9.000000,34.000000,0.000000,0.000000,0.000000,0.000000,0.000000;
#CREDIT:YOSEFU;
#NOTES:
00000000
00000000
00000000
00000000
,
00000000
00000000
00000000
00000000
,
00000000
00000000
00000000
00000000
,
00000000
00000000
00000000
00000000
,
00000000
00010000
00000000
00001000
00001000
00000000
00100000
00001000
,
00000000
00010000
00000010
00001000
00000000
00000000
00000010
00000000
,
00000000
00000100
00000000
00000100
00000100
00000000
00000001
00001000
,
00000000
00000100
00000010
00000001
00000000
00000000
00002000
00000000
,
00003010
00001000
00000000
00001000
,
00001000
00000000
00000010
00010000
,
00000000
00001000
00100000
00010000
,
00000000
00000000
10000000
00000000
,
01000000
00100000
00000000
00000000
,
00001000
00010000
00100000
00010000
,
00000000
00001000
00010000
00000100
,
00000000
00000000
00001000
00000000
,
00000001
00000100
00000000
00000100
,
00000100
00000000
00000010
00001000
,
00000000
00000100
00010000
00001000
,
00000000
00000000
01000000
00000000
,
00100000
10000000
00000000
00010000
,
01000000
00000000
00001000
00010000
,
00000100
00010000
00000000
00000001
,
00001000
00000000
00000020
00000000
,
00000130
00000100
00000100
00000100
,
00000010
00000010
00000010
00000010
,
00010000
00010000
00010000
00010000
,
00001000
00001000
00001000
00002000
,
00103000
00001000
00100000
00001000
,
00100000
00001000
00200000
00000000
,
00310000
01000000
00010000
01000000
,
00010000
01000000
00020000
00000000
,
10030000
01000000
10000000
01000000
,
10000000
01000000
20000000
00000000
,
30010000
01000000
00001000
00010000
,
00002000
00000000
00023000
00000000
,
00031000
00010000
00000000
00010000
,
00010000
00000000
00000100
00001000
,
00000000
00000001
00000100
00000010
,
00000000
00000000
00001000
00000000
,
00000100
00010000
00000000
00000000
,
00001000
00010000
00100000
01000000
,
00000000
00010000
10000000
01000000
,
00000000
00000000
00100000
00000000
,
00001000
00010000
00000000
00010000
,
00010000
00000000
00000100
00001000
,
00000000
00000001
00000100
00000010
,
00000000
00000000
00010000
00000000
,
00001000
00100000
00000000
00010000
,
10000000
00000000
01000000
00100000
,
00010000
00100000
01000000
00000000
,
20000000
00000000
30020000
00000000
,
01030000
00010000
01000000
00010000
,
01000000
00010000
02000000
00000000
,
03001000
00010000
00001000
00010000
,
00001000
00010000
00002000
00000000
,
00013000
00000100
00000000
00000000
,
00010000
00001000
00000010
00000100
,
00000000
00001000
00000001
00000100
,
00000000
00000000
00000010
00000000
,
00010000
00001000
00000000
00001000
,
00001000
00000000
00100000
00010000
,
10000000
00100000
01000000
00010000
,
00000000
00000000
00100000
00000000
,
01000000
10000000
00000000
00010000
,
01000000
00000000
10000000
01000000
,
00010000
00100000
00001000
00010000
,
00002000
00000000
00023000
00000000
,
00030000
00000000
00000000
00001000
00000000
00010000
00000000
00010000
,
00000000
00000100
00000100
00000100
00001000
00000000
00001000
00000000
,
00000000
00000000
00000000
00000001
00000000
00000010
00000000
00000010
,
00000000
00000100
00000100
00000100
00001000
00000000
00001000
00000000
,
00000000
00000100
00000000
00010000
00010000
00000000
00001000
01000000
,
00000000
00010000
10000000
01000000
00000000
00000000
00100000
00000000
,
00000000
00001000
00000000
00010000
00010000
00000000
00000010
00000010
,
00000000
00001000
00000001
00000010
00000000
00000000
00000100
00000000
,
00001000
00000100
00000010
00000100
00010000
00000000
00001000
00000000
,
00010000
00100000
10000000
00100000
00010000
00000000
00001000
00000000
,
00000010
00000001
00000100
00001000
00010000
00100000
10000000
01000000
,
00000000
00100000
00010000
01000000
00000000
00001000
00010000
00000000
,
00000100
00001000
00000000
00001000
,
00001000
00000000
00000001
00000100
,
00000000
00000010
00010000
00001000
,
00000000
00000000
00202000
00303000
,
00001000
01000000
00000000
10000000
,
01000000
00000000
00001000
00010000
,
00000100
00000010
00000001
00000000
,
00000202
00000303
00002020
00003030
,
00001000
00000010
00001000
00000000
00000010
00010000
00000010
00000000
,
00010000
00000000
00001000
00000000
00010000
00000000
00001000
00000000
01000000
00000000
00000000
01000000
00000000
00000000
01000000
00000000
,
00100000
10000000
00100000
00000000
01000000
00010000
01000000
00000000
,
00001000
00010000
00000010
00000100
,
00000001
00000010
00000001
00000010
,
00000100
00001000
00000100
00001000
,
00000100
00010000
00000100
00010000
,
00001000
00010000
00002000
00000000
,
00103000
00001000
00100000
00001000
,
01000000
00010000
01000000
00010000
,
10000000
00100000
10000000
00100000
,
02000000
00000000
03020000
00000000
,
00130000
00001000
00000000
00001000
,
00001000
00000000
00010000
00000010
,
00000000
00000100
00000001
00000010
,
00000000
00000100
00002000
00000000
,
00003100
00010000
00000000
00000000
,
00001000
00010000
00100000
10000000
,
00000000
01000000
00100000
00001000
,
00000000
00010000
00001000
00000000
,
00010000
00000010
00000000
00000010
,
00000010
00000000
00001000
00000001
,
00000000
00000010
00000100
00001000
,
00000000
00000000
00022000
00033000
,
00001000
00010000
00000000
00100000
,
10000000
00000000
01000000
00100000
,
00001000
00010000
00001000
00010000
,
00000100
00000000
00002200
00003300
,
00001000
00000100
00001000
00000100
,
00000010
00000001
00000010
00000001
,
00000100
00000001
00000100
00000001
,
00001000
00000010
00020000
00000000
,
00031000
00100000
00010000
00010000
,
10000000
01000000
00010000
00001000
,
00010000
00100000
10000000
01000000
,
00010000
00001000
00000020
00000000
,
00000130
00001000
00000000
00000001
,
00000100
00000000
00001000
00010000
,
00011000
00000000
00001000
01000000
,
00010000
10000000
02000000
03000000
,
11000000
10000000
00100000
00000000
,
01010000
01000000
00001000
00000000
,
00011000
00010000
00001000
00000010
,
00000002
00000000
00000203
00000000
,
00000320
00000000
00000000
00000000
,
00000000
00000000
00000000
00000030
;

//---------------dance-double - ----------------
#NOTEDATA:;
#CHARTNAME:;
#CHARTHASH:418146198;
#STEPSTYPE:dance-double;
#BANNER:;
#DESCRIPTION:;
#CHARTSTYLE:;
#DIFFICULTY:Medium;
#METER:15;
#METERF:0.000000;
#LASTSECONDHINT:119.472153;
#RADARVALUES:0.668857,1.052931,0.091154,0.381189,0.012430,565.000000,554.000000,11.000000,46.000000,0.000000,0.000000,0.000000,0.000000,0.000000,0.668857,1.052931,0.091154,0.381189,0.012430,565.000000,554.000000,11.000000,46.000000,0.000000,0.000000,0.000000,0.000000,0.000000;
#CREDIT:YOSEFU;
#NOTES:
00000000
00000000
00000000
00000000
,
00000000
00000000
00000000
00000000
,
00000000
00000000
00000000
00000000
,
00000000
00000000
00000000
00000000
,
00000000
00001000
00000000
00001000
00001000
00000000
00010000
00001000
,
00000000
00100000
00010000
00100000
00000000
00000000
00010000
00000000
,
00000000
10000000
00000000
10000000
10000000
00000000
00100000
01000000
,
00000000
00010000
01000000
00010000
00000000
00000000
00200000
00000000
,
00301000
00010000
00000010
00001000
,
00000001
00000010
00000100
00001000
,
00000010
00010000
00001000
00000010
,
00001000
00000000
00010000
00000000
00001000
00010000
00002000
00000000
,
00103000
00010000
10000000
10000000
,
10000000
01000000
00010000
01000000
,
10000000
00010000
01000000
00100000
,
10000000
00000000
00010000
00000000
00100000
00000000
00001000
00100000
,
00001000
00010000
00001000
00010000
,
00000100
00000010
00000001
00000100
,
00001000
00010000
00100000
01000000
,
00010000
00000000
10000000
00000000
01000000
00100000
02000000
00000000
,
13000000
00000000
00200000
00000000
00300000
00010000
00000000
00100000
,
01000000
00001000
00010000
00000100
,
00001000
00000100
00000001
00000100
,
00001000
00000000
00000001
00000100
00000002
00000000
00000000
00000000
,
00001003
00000010
00000000
00000010
00000000
00000010
00000000
00000010
,
00000000
00010000
00000000
00010000
00010000
00010000
00001000
00100000
,
00000000
01000000
00000000
01000000
00000000
01000000
00000000
01000000
,
10000000
00010000
00000000
01000000
00002000
00000000
00023000
00000000
,
00031000
00010000
00000010
00001000
,
00000001
00000010
00000100
00010000
,
00001000
00100000
01000000
10000000
,
00100000
00010000
00001000
00010000
,
00100000
10000000
01000000
00100000
,
00001000
00010000
00000010
00001000
,
00000001
00000100
00001000
00010000
,
00001000
00000000
00100000
00000000
01000000
10000000
02000000
00000000
,
13000000
00100000
01000000
00001000
,
00010000
00000100
00000010
00000001
,
00000100
00001000
00010000
00100000
,
00010000
00000000
00001000
00000000
01000000
00010000
02000000
00000000
,
03100000
10000000
01000000
00100000
,
10000000
00100000
00010000
01000000
,
00001000
00010000
00100000
00010000
,
00001000
00000000
00010000
00000000
00000100
00010000
00000200
00000000
,
00001300
00000010
00000100
00000001
,
00000010
00000100
00001000
00000010
,
00000100
00001000
00010000
00001000
,
01000000
00000000
00010000
00000000
10000000
01000000
20000000
00000000
,
31000000
00000000
00200000
00000000
00300000
10000000
00000000
00100000
,
00010000
00100000
00001000
00010000
,
00000010
00000100
00001000
00010000
,
00001000
00000000
00000100
00000000
00000010
00001000
00000020
00000000
,
00000130
00000001
00000010
00000100
,
00010000
00001000
00000010
00001000
,
00010000
00100000
01000000
00010000
,
00100000
01000000
10000000
00010000
,
01000000
00100000
10000000
01000000
,
00010000
00001000
00000010
00000001
,
00000100
00000010
00000100
00001000
,
00010000
00000000
00000100
00000000
00001000
00000001
00000200
00000000
,
00000310
00001000
00000100
00000010
,
00000001
00001000
00000010
00010000
,
00001000
00000010
00000001
00000100
,
00001000
00010000
00100000
01000000
,
10000000
00000000
02000000
00000000
03000000
00010000
00000000
00100000
,
01000000
10000000
01000000
00010000
,
00001000
00010000
01000000
10000000
,
00200000
00000000
02300000
00000000
,
03000000
00000000
00000000
00001000
00000000
00010000
00000000
00010000
,
00000000
00000100
00000100
00000100
00000010
00000000
00000010
00000000
,
00000000
00000000
00000000
00000001
00000000
00001000
00000000
00001000
,
00000000
00000010
00000010
00000010
00010000
00000000
00010000
00000000
,
00000000
00001000
00000000
00001000
00001000
00000000
00100000
00010000
,
00000000
10000000
00100000
01000000
00000000
00000000
00010000
00000000
,
00000000
00100000
00000000
00100000
00100000
00000000
00001000
00010000
,
00000000
00000010
00000100
00000001
00000000
00000000
00002000
00000000
,
00003001
00000100
00001000
00010000
01000000
10000000
00100000
01000000
,
00010000
01000000
00010000
00000000
00100000
00000000
01000000
00000000
00010000
00000000
00001000
00000000
00000010
00000000
00000001
00000000
,
00001000
00000010
00001000
00000000
00000001
00000000
00000010
00000000
00001000
00000000
00010000
00000000
00001000
00000000
00000010
00000000
,
00000001
00000100
00001000
00010000
00100000
10000000
01000000
00000000
,
00100000
00010000
01000000
00001000
,
00010000
00000100
00001000
00000001
,
00000100
00001000
00010000
00000010
,
00001000
00000001
00000101
00000000
,
00000001
00000000
00000200
00000000
00000300
00001000
00000000
00010000
,
00001000
01000000
00100000
10000000
,
01000000
00010000
00001000
00010000
,
02000000
03000000
22000000
33000000
,
10000000
00100000
00010000
00001000
00000010
00000001
00000100
00000010
,
00001000
00000000
00000001
00000000
00000010
00000000
00000100
00000000
00010000
00000000
00000000
00010000
00000000
00000000
00010000
00000000
,
00001000
00010000
00100000
10000000
00100000
00010000
00001000
00010000
,
01000000
10000000
00000000
00010000
02000000
00000000
03200000
00000000
,
10300000
01000000
00100000
00001000
,
00010000
00000000
00100000
00000000
00010000
00000000
00001000
00010000
,
00001000
00010000
00010000
00010000
,
00000100
00000000
00001000
00000000
00000001
00000100
00000002
00000000
,
00000013
00000100
00001000
00000010
,
00010000
00000000
00001000
00000000
00010000
00001000
00100000
00000000
,
00001000
00010000
00100000
01000000
,
00010000
00000000
01000000
00000000
00010000
10000000
00010000
00000000
,
00100000
01000000
10000000
00100000
,
01000000
00000000
00001000
00000000
00010000
00000000
00000100
00010000
,
00000100
00001000
00000010
00000001
,
00000010
00001000
00002020
00003030
,
00000010
00000100
00000001
00000010
,
00001000
00010000
00100000
01000000
,
00010000
00100000
01000000
10000000
,
00010000
01000000
02020000
03030000
,
00010000
00100000
01000000
10000000
,
00010000
00000000
01000000
00000000
00001000
00000000
00010000
00001000
,
00010000
00000100
00000010
00001000
,
00010000
00001000
00202000
00303000
,
00100000
00000000
00020000
00000000
00030000
01000000
00000000
10000000
,
01000000
00010000
00100000
01000000
,
00010000
00001000
00100000
00010000
,
02000000
03000000
00022000
00033000
,
00000100
00010000
00000100
00001000
,
00000010
00000100
00001000
00010000
,
00001000
00010000
00000010
00000000
00001000
00000000
00000100
00000000
,
00000001
00000100
00002200
00003300
,
00001000
00000001
00000100
00000010
,
00000100
00001000
00010000
00100000
,
01000000
10000000
01000000
00010000
,
10000000
01000000
00100000
00000000
00220000
00000000
00330000
00000000
,
00001000
00010000
00100000
10000000
,
01000000
00010000
00001000
00000100
,
00000001
00000010
00001000
00010000
,
00100000
10000000
20020000
30030000
,
10000000
01000000
00010000
00001000
,
00010000
00100000
10000000
01000000
,
00100000
00001000
00100000
00001000
00100000
00000000
00001000
00000000
,
00022000
00033000
00002020
00003030
,
00000200
00000000
00000000
00000000
,
00000000
00000000
00000000
00000300
;

//---------------dance-double - ----------------
#NOTEDATA:;
#CHARTNAME:''you wanna see some reeeeeal speeeed'';
#CHARTHASH:8740031;
#STEPSTYPE:dance-double;
#BANNER:;
#DESCRIPTION:;
#CHARTSTYLE:;
#DIFFICULTY:Hard;
#METER:17;
#METERF:0.000000;
#LASTSECONDHINT:119.472153;
#RADARVALUES:0.795525,1.330019,0.281749,0.488916,0.074580,672.000000,638.000000,34.000000,59.000000,0.000000,0.000000,0.000000,0.000000,0.000000,0.795525,1.330019,0.281749,0.488916,0.074580,672.000000,638.000000,34.000000,59.000000,0.000000,0.000000,0.000000,0.000000,0.000000;
#CREDIT:Yosefu @ 650 kph;
#NOTES:
00000000
00000000
00000000
00000000
,
00000000
00000000
00000000
00000000
,
00000000
00000000
00000000
00000000
,
00000000
00000000
00000000
00000000
,
00010000
00001000
00000000
00001000
00001000
00000000
00010000
00000010
,
00000000
00000100
00001000
00010000
00000000
00001000
01000000
00000000
,
00010000
10000000
00000000
01000000
01000000
00000000
00100000
00010000
,
00100000
00001000
00010000
00000010
00001000
00000000
00000001
00000000
,
00000100
00000000
00000010
00000000
00001000
00000000
00000010
00010000
,
00000010
00000000
00010000
00000000
00001000
00100000
00001000
00000000
,
00100000
00000000
01000000
00010000
00001000
00000000
00020000
00000000
,
00001000
01030000
20000000
00000000
,
30010000
01000000
00001000
00001000
,
00011000
00101000
00011000
00010010
,
00010000
00000000
00001000
00000010
00001000
00000000
00020000
00000000
,
00000010
00031000
00020000
00000000
,
00030100
00000000
00001000
00000000
00000001
00000000
00000100
00000001
,
00000100
00000000
00000010
00000000
00001000
00000010
00001000
00000000
,
00000100
00000000
00000010
00001000
00010000
00000000
00002000
00000000
,
00010000
00103000
00002000
00000000
,
00013000
00000000
00100000
00000000
01000000
10000000
00000000
01000000
,
00100000
00000000
01000000
00000000
00001000
00010000
00001000
00000000
,
00010000
00000100
00010000
00000100
00001000
00000000
00000020
00000000
,
00000230
00000001
00000320
00000000
,
00001030
00000010
00000000
00000010
00000000
00000010
00000000
00000010
,
00000000
00010000
00000000
00010000
00010000
00010000
00001000
01000000
,
00000000
00100000
00000000
00100000
00000000
00100000
00000000
00100000
,
10000000
01000000
00000000
00010000
00001000
00000000
00020000
00000000
,
00031000
00000010
00000001
00000100
,
00001000
00000000
00010000
00000000
00100000
00000000
00010000
00001000
,
00100000
00010000
00010000
00010000
,
01000000
00000000
00100000
00000000
10000000
00010000
00200000
00000000
,
00301000
00010000
00001000
00000010
,
00000001
00000010
00001000
00010000
,
00000010
00010000
00000010
00001000
00000010
00000000
00000100
00000000
,
00000002
00000010
00001000
00000100
,
00001003
00000000
00000010
00000000
00010000
00000000
00001000
00100000
,
00001000
00000000
00010000
00000000
00001000
01000000
00001000
00000000
,
00100000
00000000
01000000
00010000
00001000
00000000
00020000
00000000
,
00001000
00100000
00032000
00000000
,
00010000
00003000
00000000
00000000
00000000
00000000
00000000
00000000
00000000
00000000
00000000
00000000
00000000
00000000
00000000
00000000
00000000
00000000
00000000
00000000
00000000
00000000
00000000
00000000
00100000
00000000
00000000
00000000
00000000
00000000
00000000
00000000
00000000
00000000
00000000
00000000
00000000
00000000
00000000
00000000
00000000
00000000
00000000
00000000
00000000
00000000
00000000
00000000
01000000
00000000
00000000
00000000
00000000
00000000
00000000
00000000
00000000
00000000
00000000
00000000
00000000
00000000
00000000
00000000
00000000
00000000
00000000
00000000
00000000
00000000
00000000
00000000
01000000
00000000
00000000
00000000
00000000
00000000
00000000
00000000
00000000
00000000
00000000
00000000
00000000
00000000
00000000
00000000
00000000
00000000
00000000
00000000
00000000
00000000
00000000
00000000
,
01100000
01010000
01001000
00011000
,
00010000
00000000
00000100
00001000
00000010
00000000
00000200
00000000
,
00000010
00000301
00002000
00000000
,
00003100
00000000
00000010
00000000
00000001
00000000
00001000
00000010
,
00001000
00000000
00000010
00000000
00010000
00001000
00010000
00000000
,
00000100
00000000
00000010
00001000
00010000
00000000
00200000
00000000
,
01000000
10300000
00020000
00000000
,
10030000
00000000
01000000
00000000
00010000
00001000
00000000
01000000
,
00010000
00000000
00100000
00000000
01000000
00100000
00001000
00000000
,
00010000
00000010
00001000
00000001
00000010
00000000
00001000
00000000
,
00020000
00100000
00032000
00000000
,
00013000
00100000
10000000
00100000
,
00010000
00000000
00001000
00000000
00000010
00000000
00000001
00000010
,
00000100
00001000
00000001
00000100
,
00001000
00000000
00010000
00000000
00001000
00000010
00000200
00000000
,
00001300
00000100
00010000
00010000
,
00011000
01010000
01100000
10100000
,
10000000
00000000
01000000
00010000
00001000
00000000
00020000
00000000
,
00001000
00030100
00020000
00000000
,
00030100
00000000
00001000
00000000
00000010
00000000
00000100
00000001
,
00000010
00000000
00000100
00000000
00010000
00001000
00010000
00000000
,
00001000
00000000
01000000
00100000
00010000
00000000
00100000
00000000
,
10000000
00000000
01000000
00000000
00100000
00001000
00020000
00000000
,
00031000
00000000
00000010
00000000
00000001
00001000
00000000
00000010
,
00000100
00000000
00001000
00000000
00010000
00000100
00001000
00000000
,
00000001
00000100
00000010
00000100
00001000
00000000
00010000
00000000
,
00200000
00000000
02300000
00000000
,
03010000
00000000
00000000
10000000
00000000
01000000
00000000
01000000
,
00000000
00100000
00100000
00100000
00001000
00000000
00001000
00000000
,
00000000
00000000
00000000
00010000
00000000
00000100
00000000
00000100
,
00000000
00000010
00000010
00000010
00000001
00000000
00001000
00000000
,
00000000
00000010
00000000
00000010
00000010
00000000
00000100
00000001
,
00000000
00000010
00001000
00010000
00000000
00100000
10000000
01000000
,
00000000
00100000
00000000
00001000
00001000
00000000
00010000
00000010
,
00000100
00001000
00010000
00100000
10000000
01000000
00200000
00000000
,
00310000
00000000
01000000
00000000
00100000
01000000
00010000
00000000
00100000
01000000
10000000
00010000
00000000
01000000
00100000
00000000
,
00000000
00010000
00001000
00100000
00001000
00000000
00010000
00000000
00000010
00000000
00000100
00000000
00000101
00000000
00000001
00000010
,
00001000
00010000
00001000
00000000
00000010
00000000
00000001
00000000
00000100
00000000
00001000
00000000
00010000
00000000
00100000
00000000
,
01000000
00100000
10000000
00000000
01000000
00000000
00010000
00000000
00001000
00000000
00100000
00000000
00110000
00000000
00000000
00000000
,
00010000
10000000
00100000
00000000
01000000
00000000
00001000
01000000
,
00001000
00000000
00010000
00000000
00001000
00010000
00000100
00000000
,
00001000
00000000
00000001
00000100
00001000
00000000
00020000
00000000
,
00031000
01000000
00010000
00000000
02020000
00000000
03030000
00000000
,
01000000
00000000
00001000
00000000
00010000
00100000
00000000
01000000
,
10000000
00000000
01000000
00000000
00010000
01000000
00001000
00000000
,
00010000
00000100
00001000
00000001
00000100
00000000
00000101
00000000
,
00002002
00003003
00022000
00033000
,
00001000
00000000
00100000
00000000
01000000
00000000
10000000
00000000
01000000
00100000
01000000
00000000
10000000
00010000
10000000
00000000
,
01000000
00010000
00001000
00100000
00001000
00000000
00010000
00000000
00000010
00000000
00001000
00000010
00000000
00001000
00000001
00000000
,
00000010
00000000
00001000
00000000
00010000
00000000
01000000
00000000
10000000
00010000
01000000
00000000
00100000
10000000
00010000
00000000
,
00100000
01000000
00000000
00010000
00002000
00000000
00023000
00000000
,
00031000
00000010
00000001
00000010
,
00001000
00000000
00010000
00000000
00100000
00000000
10000000
01000000
,
00100000
00010000
00010000
00010000
,
00100000
00000000
00001000
00000000
00010000
00000010
00002000
00000000
,
00003010
00000100
00001000
00010000
,
00100000
10000000
01000000
00010000
,
00001000
00010000
01000000
10000000
00100000
00000000
01000000
00000000
,
00002000
00010000
00000010
00010000
,
00103000
00001000
00010000
00000000
00000100
00000000
00001000
00000001
,
00000100
00000000
00000010
00000000
00001000
00000100
00000010
00000000
,
00000001
00000000
00000100
00001000
00010000
00000000
00100000
00000000
,
01000000
00100000
10000000
00000000
20020000
00000000
30030000
00000000
,
00010000
00100000
01000000
00000000
10000000
00000000
10000000
00000000
,
10100000
01010000
00011000
00001100
,
00001000
00000000
00000001
00000100
00001000
00000000
00020000
00000000
,
00031000
00100000
00220000
00330000
,
00010000
01000000
00100000
00000000
10000000
00000000
01000000
00100000
,
00010000
00000000
01000000
00000000
00001000
00010000
00000100
00000000
,
00000010
00000000
00000001
00000100
00001000
00000000
00020000
00000000
,
00031000
00100000
01000000
00000000
22000000
00000000
33000000
00000000
,
10000000
00010000
01000000
00000000
10000000
01000000
00000000
00001000
,
00010000
00000000
00000100
00000000
00000010
00001000
00010000
00000000
,
00000010
00000100
00001000
00010000
00001000
00000000
00010000
00000000
,
02002000
03003000
02020000
03030000
,
00010000
10000000
01000000
00010000
,
00001000
00000000
00010000
00000000
00100000
00000000
10000000
01000000
,
00100000
00001000
00010000
00000000
00100000
00000000
00010000
00001000
,
00000010
00000001
00002002
00003003
,
00001000
00000001
00000100
00000000
00000010
00000000
00000010
00000000
,
00001010
00011000
00110000
10010000
,
10000000
01000000
00010000
01000000
00100000
00000000
10000000
00100000
,
00010000
01000000
00001000
00000000
02002000
00000000
03003000
00000000
,
01000000
00001000
00010000
00000000
00000100
00000000
00001000
00000001
,
00000100
00000000
00000010
00000000
00001000
00000100
00000010
00000000
,
00000001
00000000
00000100
00001000
00010000
00000000
00200000
00000000
,
01300000
00010000
02020000
03030000
,
01000000
00001000
00010000
00000000
00001000
00000010
00000000
00000001
,
00000100
00000000
00001000
00000000
00010000
00100000
10000000
00000000
,
01000000
00100000
00010000
01000000
00001000
00010000
00100000
00000000
,
00010000
00001000
00010000
00000100
00000020
00000000
00000000
00000000
,
00000230
00000000
00000000
00000000
,
00000000
00000000
00000000
00000300
;
