#VERSION:0.83;
#TITLE:Swelling;
#SUBTITLE:;
#ARTIST:PSYQUI feat. Sennzai;
#TITLETRANSLIT:;
#SUBTITLETRANSLIT:;
#ARTISTTRANSLIT:;
#GENRE:J-Rock;
#ORIGIN:Fleurix [SECD-003];
#TAGS:;
#CREDIT:skeleton made by chrononical;
#BANNER:Swelling.png;
#BACKGROUND:Swelling-bg.png;
#PREVIEWVID:;
#JACKET:Swelling-jacket.png;
#CDIMAGE:;
#DISCIMAGE:;
#LYRICSPATH:;
#CDTITLE:../_YSD cdtitles/ysd sale1 cdtitle.png;
#MUSIC:Swelling.ogg;
#OFFSET:0.002000;
#SAMPLESTART:44.188000;
#SAMPLELENGTH:21.818001;
#SELECTABLE:YES;
#BPMS:0.000000=176.000000
;
#STOPS:;
#DELAYS:;
#WARPS:;
#TIMESIGNATURES:0.000000=4=4
;
#TICKCOUNTS:0.000000=4
;
#COMBOS:0.000000=1
;
#SPEEDS:0.000000=1.000000=0.000000=0
;
#SCROLLS:0.000000=1.000000
;
#FAKES:;
#LABELS:0.000000=Song Start
;
#BGCHANGES:;
#KEYSOUNDS:;
#ATTACKS:
;

//---------------dance-single - ----------------
#NOTEDATA:;
#CHARTNAME:;
#CHARTHASH:3394030008;
#STEPSTYPE:dance-single;
#BANNER:;
#DESCRIPTION:;
#CHARTSTYLE:;
#DIFFICULTY:Beginner;
#METER:3;
#METERF:0.000000;
#LASTSECONDHINT:134.998001;
#RADARVALUES:0.142103,0.215644,0.014521,0.000000,0.000000,137.000000,135.000000,2.000000,0.000000,0.000000,0.000000,0.000000,0.000000,0.000000,0.142103,0.215644,0.014521,0.000000,0.000000,137.000000,135.000000,2.000000,0.000000,0.000000,0.000000,0.000000,0.000000,0.000000;
#CREDIT:YOSEFU;
#NOTES:
// measure 0
0000
0000
0000
0000
,  // measure 1
0000
0000
0000
0000
,  // measure 2
0000
0000
0000
0000
,  // measure 3
0000
0000
0000
0000
,  // measure 4
0000
0000
0000
0000
,  // measure 5
1000
0000
0000
0000
,  // measure 6
0001
0000
0000
0000
,  // measure 7
0100
0000
0000
0000
,  // measure 8
0010
0000
0000
0000
,  // measure 9
0100
0000
0000
0000
,  // measure 10
0001
0000
0000
0000
,  // measure 11
0010
0000
0000
0000
,  // measure 12
0100
0000
0000
0000
,  // measure 13
1000
0000
0000
0000
,  // measure 14
0010
0000
0000
0000
,  // measure 15
0100
0000
0000
0000
,  // measure 16
0001
0000
0000
0000
,  // measure 17
1001
0000
0000
0000
,  // measure 18
1000
0000
0000
0000
,  // measure 19
0100
0000
0000
0000
,  // measure 20
0010
0000
0000
0000
,  // measure 21
0100
0000
0000
0000
,  // measure 22
1000
0000
0000
0000
,  // measure 23
0001
0000
0000
0000
,  // measure 24
0100
0000
0000
0000
,  // measure 25
0010
0000
0000
0000
,  // measure 26
0100
0000
0000
0000
,  // measure 27
0001
0000
0000
0000
,  // measure 28
1000
0000
0000
0000
,  // measure 29
0100
0000
0000
0000
,  // measure 30
0010
0000
0000
0000
,  // measure 31
0100
0000
0000
0000
,  // measure 32
0000
0000
0000
0000
,  // measure 33
1000
0000
0001
0000
,  // measure 34
0100
0000
0001
0000
,  // measure 35
1000
0000
0100
0000
,  // measure 36
1000
0000
0001
0000
,  // measure 37
0100
0000
0001
0000
,  // measure 38
1000
0000
0100
0000
,  // measure 39
0010
0000
0100
0000
,  // measure 40
1000
0000
0001
0000
,  // measure 41
0100
0000
0100
0000
,  // measure 42
0010
0000
0010
0000
,  // measure 43
0100
0000
0100
0000
,  // measure 44
0001
0000
0001
0000
,  // measure 45
1000
0000
0100
0000
,  // measure 46
0010
0000
0001
0000
,  // measure 47
0100
0000
0010
0000
,  // measure 48
1000
0000
0001
0000
,  // measure 49
0010
0000
0100
0000
,  // measure 50
1000
0000
0001
0000
,  // measure 51
1001
0000
0000
0000
,  // measure 52
0000
0000
0000
0000
,  // measure 53
1000
0000
0000
0000
,  // measure 54
0000
0000
0000
0000
,  // measure 55
0010
0000
0000
0000
,  // measure 56
0100
0000
0000
0000
,  // measure 57
0010
0000
0000
0000
,  // measure 58
0100
0000
0000
0000
,  // measure 59
0001
0000
0000
0000
,  // measure 60
1000
0000
0000
0000
,  // measure 61
0100
0000
0000
0000
,  // measure 62
0010
0000
0000
0000
,  // measure 63
0001
0000
0000
0000
,  // measure 64
1000
0000
0000
0000
,  // measure 65
0010
0000
0000
0000
,  // measure 66
0100
0000
0000
0000
,  // measure 67
0001
0000
0000
0000
,  // measure 68
1000
0000
0000
0000
,  // measure 69
0100
0000
0000
0000
,  // measure 70
0010
0000
0000
0000
,  // measure 71
0001
0000
0010
0000
,  // measure 72
0001
0000
0010
0000
,  // measure 73
0100
0000
1000
0000
,  // measure 74
0100
0000
1000
0000
,  // measure 75
0001
0000
0100
0000
,  // measure 76
0010
0000
0100
0000
,  // measure 77
0010
0000
1000
0000
,  // measure 78
0001
0000
0010
0000
,  // measure 79
0100
0000
1000
0000
,  // measure 80
0100
0000
1000
0000
,  // measure 81
0100
0000
0010
0000
,  // measure 82
0001
0000
0010
0000
,  // measure 83
0100
0000
1000
0000
,  // measure 84
0100
0000
0001
0000
,  // measure 85
0100
0000
1000
0000
,  // measure 86
0001
0000
0100
0000
,  // measure 87
0010
0000
0001
0000
,  // measure 88
0010
0000
0100
0000
,  // measure 89
0001
0000
1000
0000
,  // measure 90
0100
0000
0001
0000
,  // measure 91
0100
0000
1000
0000
,  // measure 92
0001
0000
0100
0000
,  // measure 93
0010
0000
1000
0000
,  // measure 94
0001
0000
0010
0000
,  // measure 95
0100
0000
1000
0000
,  // measure 96
0100
0000
0010
0000
,  // measure 97
0001
0000
0000
0000
,  // measure 98
0000
0000
0000
0000
,  // measure 99
0100
0000
0000
0000
;

//---------------dance-single - ----------------
#NOTEDATA:;
#CHARTNAME:;
#CHARTHASH:2004648314;
#STEPSTYPE:dance-single;
#BANNER:;
#DESCRIPTION:;
#CHARTSTYLE:;
#DIFFICULTY:Easy;
#METER:7;
#METERF:0.000000;
#LASTSECONDHINT:137.043457;
#RADARVALUES:0.291467,0.364852,0.029043,0.065347,0.007261,281.000000,277.000000,4.000000,9.000000,0.000000,0.000000,0.000000,0.000000,0.000000,0.291467,0.364852,0.029043,0.065347,0.007261,281.000000,277.000000,4.000000,9.000000,0.000000,0.000000,0.000000,0.000000,0.000000;
#CREDIT:YOSEFU;
#NOTES:
0000
0000
0000
0000
,
0000
0000
0000
0000
,
0000
0000
0000
0000
,
0000
0000
0000
0000
,
0000
0000
0000
0000
,
1000
0000
0001
0000
,
1000
0000
0001
0000
,
0100
0000
0010
0000
,
0100
0000
0001
0000
,
1000
0000
0100
0000
,
0010
0000
0100
0000
,
0010
0000
0001
0000
,
1000
0000
0010
0000
,
0100
0000
1000
0000
,
0100
0000
0001
0000
,
0010
0000
0100
0000
,
1000
0000
0001
0000
,
1001
0000
1000
0000
,
0010
0000
0100
0000
,
1000
0000
0100
0000
,
0001
0000
0010
0000
,
0100
0000
0002
0000
,
0203
0000
2300
0000
,
3001
0000
0100
0000
,
0020
0000
0230
0000
,
0301
0000
0010
0000
,
0100
0000
1000
0000
,
0010
0000
0100
0000
,
0001
0000
0010
0000
,
0100
0000
1000
0000
,
0001
0000
0100
0000
,
0000
0110
0000
0000
0101
0000
0000
1001
,
0000
0001
0000
0000
0000
0000
0000
0000
,
1000
0010
1000
0010
,
0100
0001
0100
0001
,
0010
0100
0010
0100
,
1000
0010
0100
0001
,
0010
0100
1000
0001
,
0100
0010
0100
0001
,
1000
0100
0010
0001
,
1000
0010
0100
0001
,
1000
0100
0001
0100
,
1000
0010
0001
0010
,
1000
0100
0010
0001
,
0100
0010
0001
0010
,
1000
0100
0010
0001
,
1000
0010
0100
1000
,
0100
0001
0010
0100
,
0001
0100
1000
0001
,
0200
0010
0010
0310
,
2000
0100
0100
0100
,
3001
0000
0000
0000
,
0100
0000
0000
0000
,
0010
0000
0000
0000
,
1000
0000
0000
0000
,
0001
0000
0100
0000
,
0010
0000
1000
0000
,
0100
0000
0010
0000
,
0001
0000
0100
0000
,
0010
0000
1000
0000
,
0100
0000
0010
0000
,
0001
0000
0100
0000
,
0010
0000
1000
0000
,
0100
0000
0010
0000
,
0001
0000
0100
0000
,
0010
0000
1000
0000
,
0100
0000
0010
0000
,
0100
0000
1000
0000
,
0001
0000
0100
0000
,
0010
0000
0000
0000
,
1000
0000
0000
1000
0000
0000
1000
0000
0000
0000
0000
0000
0000
0000
0000
0000
,
0001
0100
0001
1000
,
0100
0010
0001
0010
,
1000
0010
0001
0100
,
0010
0001
0010
1000
,
0100
0000
0000
0000
0010
0000
0000
0000
0000
0001
0000
0000
0100
0000
0000
0000
,
0010
0001
0010
1000
,
0100
0001
0100
1000
,
0001
0100
1000
0100
,
0001
0010
0100
1000
,
0001
0000
0100
0000
0010
0000
1000
0010
,
1000
0010
0100
0001
,
1000
0000
0100
0000
0010
0000
0001
1000
,
0001
0100
0010
1000
,
0100
0000
0010
0000
0001
0000
1000
0001
,
1000
0010
0100
0001
,
1000
0000
0100
0000
0010
0000
0001
1000
,
0001
0100
0010
0100
,
0001
0000
1000
0000
0100
0000
0010
0001
,
0010
0100
1000
0001
,
0100
0000
0010
0000
1000
0000
0001
1000
,
0001
0100
0010
1000
,
0100
0000
0010
0000
0001
0000
1000
0001
,
1000
0001
0100
1000
,
0100
0000
0001
0000
0010
0000
0100
1000
,
0100
0010
0001
0100
,
1000
0000
0100
0000
,
0002
0000
0000
0000
,
0000
0000
0000
0013
,
0200
0000
0000
0000
,
0000
0000
0300
0000
;

//---------------dance-single - ----------------
#NOTEDATA:;
#CHARTNAME:;
#CHARTHASH:1549724726;
#STEPSTYPE:dance-single;
#BANNER:;
#DESCRIPTION:;
#CHARTSTYLE:;
#DIFFICULTY:Medium;
#METER:10;
#METERF:0.000000;
#LASTSECONDHINT:137.043457;
#RADARVALUES:0.418011,0.474308,0.014521,0.123433,0.032673,403.000000,401.000000,2.000000,17.000000,0.000000,0.000000,0.000000,0.000000,0.000000,0.418011,0.474308,0.014521,0.123433,0.032673,403.000000,401.000000,2.000000,17.000000,0.000000,0.000000,0.000000,0.000000,0.000000;
#CREDIT:YOSEFU;
#NOTES:
0000
0000
0000
0000
,
0000
0000
0000
0000
,
0000
0000
0000
0000
,
0000
0000
0000
0000
,
0000
0000
0000
0000
,
1000
0000
0000
0000
0001
0000
0100
0001
,
0000
0000
1000
0100
0000
0000
0010
0100
,
0000
0000
1000
0001
0000
0000
0100
0010
,
0000
0000
0100
0000
,
0001
0000
0000
0000
1000
0000
0100
0010
,
0000
0000
0100
1000
0000
0000
0001
0100
,
0000
0000
0010
1000
0000
0100
0010
0000
,
0000
0000
0001
0100
,
0010
0000
0000
0000
1000
0000
0100
0010
,
0000
0001
0100
0010
,
1000
0100
0010
0000
0001
0000
0100
0001
,
0000
1000
2100
0000
,
3020
0000
0000
0000
0130
0000
0001
0100
,
0000
0001
0020
0000
,
0130
0000
0000
0000
1000
0000
0001
0100
,
0000
0010
1000
0100
,
0010
0000
2000
0000
,
3020
0000
0000
0000
0032
0000
0003
0100
,
0010
0000
1000
0001
0000
0000
0010
0000
,
0100
1000
0010
0100
,
0001
0000
0000
0000
1000
0000
0100
0010
,
0000
0001
1000
0010
,
0200
0000
0302
0000
,
0023
0000
0230
0000
,
1300
0000
0000
0000
0010
0000
0100
0001
,
0200
0302
2003
3200
,
0300
0010
0010
0000
0001
0001
0000
0010
,
0000
0100
0100
0000
0000
0000
0000
0000
,
1000
0001
0100
0001
,
1000
0100
1000
0000
0001
0000
0100
0000
,
0010
0000
0100
0000
0001
0000
1000
0100
,
0010
0100
1000
0001
,
0100
0000
0010
0100
0010
0000
1000
0000
,
0001
0000
0010
0100
0010
0000
0001
0000
,
1000
0000
0001
0100
0001
0000
0010
0000
,
0100
1000
0100
0010
,
0001
0000
0100
0000
0010
0000
0100
0001
,
0100
0000
0001
0000
0010
0000
0100
1000
,
0100
0000
0010
0000
0001
0000
1000
0010
,
1000
0000
0001
0000
0100
0000
0001
1000
,
0001
0000
1000
0000
0100
0000
0010
0001
,
0010
0000
0100
0000
1000
0000
0001
0100
,
0001
0000
0010
0000
0100
0000
1000
0100
,
1000
0000
0001
0000
0100
0001
0100
0000
,
0020
0001
0100
1000
,
0130
0001
0100
0000
0001
1000
0001
0000
,
0010
0000
0000
0000
,
0100
0000
0000
0000
,
1000
0000
0000
0000
,
0010
0000
0000
0000
,
0100
0000
0000
0000
0100
0000
0000
0000
0001
0000
0000
0001
0000
0000
0001
0000
,
0000
0000
0000
0000
0010
0000
0000
0000
0100
0000
0000
0100
0000
0000
0100
0000
,
0000
0000
0000
0000
1000
0000
0000
0000
0001
0000
0000
0001
0000
0000
0001
0000
,
0000
0000
0000
0000
0100
0000
0000
0000
0010
0000
0000
0010
0000
0000
0010
0000
,
0000
0000
0000
0000
1000
0000
0000
0000
0100
0000
0000
0100
0000
0000
0100
0000
,
0000
0000
0000
0000
1000
0000
0000
0000
0010
0000
0000
0010
0000
0000
0010
0000
,
0000
0000
0000
0000
0100
0000
0000
0000
0001
0000
0000
0001
0000
0000
0001
0000
,
0000
0000
0000
0000
0010
0000
0000
0000
0100
0000
0000
0100
0000
0000
0100
0000
,
0000
1000
0001
0100
,
0001
0010
0100
1000
,
0010
0100
1000
0100
,
0001
0010
0100
0001
,
0100
1000
0010
0001
,
0010
0000
0100
0001
0000
0100
0001
0000
,
1000
0000
0000
0000
0001
0000
1000
0001
,
1000
0000
0000
0001
0000
0000
1001
0000
0000
0000
0000
0000
0000
0000
0000
0000
,
1000
0000
0100
0000
0010
0000
0001
0010
,
0001
0000
1000
0000
0010
0000
0100
0001
,
0100
0000
0010
0000
1000
0000
0100
0010
,
0100
0000
1000
0000
0001
0000
0100
0010
,
0100
0000
0001
0000
1000
0000
0100
0010
,
0100
0000
1000
0000
0010
0000
0100
0001
,
0100
0000
0001
0000
1000
0000
0100
0010
,
0100
0000
1000
0000
0001
0000
0100
0010
,
1000
0000
0001
0010
0100
0000
0010
0001
,
1000
0000
0010
0100
0001
0000
1000
0100
,
0010
0000
0100
1000
0001
0000
0100
0010
,
1000
0000
0001
0010
0100
0000
0010
0001
,
1000
0000
0001
0100
0001
0000
0010
0100
,
1000
0000
0010
0100
0001
0000
1000
0100
,
0010
0000
0001
0010
0100
0000
1000
0001
,
0100
0000
0010
1000
0001
0000
0010
0100
,
1000
0000
0100
0010
0001
0000
1000
0001
,
0100
0000
0010
1000
0001
0000
0010
0100
,
1000
0000
0100
0010
0001
0000
1000
0010
,
0100
0000
0001
0010
0100
0000
0010
0001
,
1000
0000
0010
0100
0001
0000
1000
0100
,
0010
0000
0100
1000
0001
0000
0100
0010
,
0001
0000
0010
0100
0001
0000
1000
0100
,
0001
0000
0100
1000
0001
0000
0100
0010
,
1000
0000
0100
0010
0001
0000
0100
0010
,
1000
0000
0001
0000
0010
0100
1000
0001
,
0200
0000
0000
0000
,
0000
0000
0000
0000
0000
0000
0310
1000
,
0200
0000
0000
0000
,
0000
0000
0300
0000
;

//---------------dance-single - ----------------
#NOTEDATA:;
#CHARTNAME:;
#CHARTHASH:2301399868;
#STEPSTYPE:dance-single;
#BANNER:;
#DESCRIPTION:;
#CHARTSTYLE:;
#DIFFICULTY:Hard;
#METER:13;
#METERF:0.000000;
#LASTSECONDHINT:137.043457;
#RADARVALUES:0.593306,0.656734,0.043564,0.225083,0.061716,572.000000,566.000000,6.000000,31.000000,0.000000,0.000000,0.000000,0.000000,0.000000,0.593306,0.656734,0.043564,0.225083,0.061716,572.000000,566.000000,6.000000,31.000000,0.000000,0.000000,0.000000,0.000000,0.000000;
#CREDIT:YOSEFU;
#NOTES:
0000
0000
0000
0000
,
0000
0000
0000
0000
,
0000
0000
0000
0000
,
0000
0000
0000
0000
,
0000
0000
0000
0000
,
1000
1000
0000
0001
0010
0000
0100
0100
,
0000
1000
0001
0100
0010
0000
1000
0001
,
0010
0010
0000
0100
1000
0000
0001
0001
,
0000
0100
0010
0100
0002
0000
0000
0000
,
0013
0010
0000
0100
1000
0000
0001
0001
,
0000
0100
0010
1000
0001
0000
0010
0100
,
1000
1000
0000
0001
0100
0000
0010
0010
,
0000
1000
0001
0010
0200
0000
1000
0000
,
0310
0010
0000
0001
0100
0000
0010
0010
,
0000
1000
0001
0010
0200
0000
0320
0000
,
0031
0001
0100
1000
0100
0000
0001
0001
,
0010
0100
0010
0001
0200
0000
0000
0000
,
0310
0010
0000
1000
0100
0010
0100
0200
,
0000
2300
0000
3002
0000
0203
0000
0310
,
1000
1000
0000
0100
0010
0001
0001
0100
,
1000
0100
0001
0010
0100
0000
1000
0000
,
0010
0010
0000
0100
0020
0000
0001
0000
,
1030
1000
0100
0000
0020
0000
0100
0000
,
0031
0001
0100
0010
0000
1000
0100
0010
,
0001
0001
0000
0100
0010
0010
0000
1000
,
0001
0001
0000
0010
0100
0000
1000
1000
,
0010
0000
0100
0001
1000
0000
0100
0000
,
0010
0010
0000
0001
0100
0100
0000
0010
,
1000
1000
0000
0100
0010
0010
0000
0001
,
0100
0100
0000
0001
1000
0000
0100
0100
,
0000
0010
0001
0010
0100
1000
0001
0000
,
0000
1010
1000
0000
0101
0001
0000
1100
,
0000
0011
0001
0000
0000
0000
0000
0000
,
1000
0000
0001
0100
0010
0000
1000
0100
,
0010
0100
1000
0001
0100
0000
0010
0000
,
1000
0000
0100
0010
0001
0000
0100
0010
,
0001
0010
0100
0001
1000
0100
0010
0000
,
0100
1000
0001
0100
0000
0010
0100
0001
,
0000
0010
0100
1000
0000
0001
0100
0010
,
0100
0001
1000
0100
0010
0000
0100
1000
,
0001
0100
0010
2000
0000
3200
0000
0310
,
0001
0100
0001
0010
0001
0100
0001
0010
,
0100
1000
0010
1000
0200
0000
0320
0000
,
0032
0000
0103
0010
0001
0010
0100
0002
,
0000
0023
0000
0230
0000
1300
0001
0100
,
0010
0000
0100
0001
0010
0000
0100
1000
,
0001
0000
0100
0010
1000
0100
0010
0001
,
0100
0010
2000
0000
3100
0000
0001
0200
,
0000
2300
0000
3000
0100
0002
0000
0000
,
0103
1000
0020
0000
0001
0000
0100
0000
,
1030
0001
0010
1000
0010
0001
0100
0010
,
1000
0000
0000
0000
0000
0100
0010
0001
,
0000
0100
0001
1000
0000
0100
0010
0000
,
0001
0000
0000
0000
0000
0000
0000
0000
0000
0100
0000
0000
0010
0000
0000
0000
0001
0000
0000
0000
0010
0000
0000
0000
,
2000
0000
0000
3200
0000
0000
0320
0000
,
0031
0000
0000
0000
0100
0000
0000
0000
0010
0000
0000
0100
0000
0000
0001
0000
,
0000
0000
1000
0000
0100
0000
0000
0000
0010
0000
0000
0100
0000
0000
1000
0000
,
0001
0000
0000
0000
0100
0000
0000
0000
0010
0000
0000
1000
0000
0000
0100
0000
,
0000
0000
0010
0000
0001
0000
0000
0000
0100
0000
0000
0001
0000
0000
0010
0000
,
0100
0000
0000
0000
1000
0000
0000
0000
0001
0000
0000
0100
0000
0000
0010
0000
,
0000
0000
1000
0000
0100
0000
0000
0000
0010
0000
0000
0001
0000
0000
0100
0000
,
0010
0000
0000
0000
1000
0000
0000
0000
0100
0000
0000
0001
0000
0000
0100
0000
,
0000
0000
1000
0000
0001
0000
0000
0000
0100
0000
0000
0001
0000
0000
0010
0000
,
0100
0000
0000
0000
0001
0000
0000
0000
0100
0000
0000
1000
0000
0000
0001
0000
,
0000
0000
0100
0000
0010
0000
0000
0000
0001
0000
0000
0010
0000
0000
1000
0000
,
0100
0000
0000
0000
0010
0000
0000
0000
1000
0000
0000
0010
0000
0000
0001
0000
,
0000
0000
0100
0000
0010
0000
0000
0000
1000
0000
0000
0001
0000
0000
0010
0000
,
1000
0010
0001
0100
,
0010
1000
0100
0010
0001
0100
0010
1000
,
0001
0000
0000
0100
0010
0100
0010
0100
,
0010
0000
0000
0100
0000
0000
1001
0000
0000
0000
0000
0000
0000
0000
0000
0000
,
1000
0000
0100
0010
0100
0000
1000
0001
,
0100
0000
1000
0000
0100
0001
0010
0100
,
1000
0000
0001
0100
0010
0000
0001
0010
,
0100
0001
1000
0100
0010
0001
0100
0010
,
1000
0000
0001
0010
0000
0001
0100
0010
,
1000
0000
0100
0020
0000
1030
0010
0001
,
1000
0010
0200
0000
1000
0000
0301
0010
,
0100
0000
1000
0001
1000
0000
0000
0000
0001
0000
0000
0100
0000
0000
0010
0000
,
1000
0100
1000
0010
1000
0001
1000
0100
,
0010
0001
0100
0001
0010
0001
0010
0100
,
1000
0100
0010
0001
0100
0010
1000
0001
,
0010
0100
0010
0001
1000
0010
0100
0001
,
0010
0100
1000
0001
0100
0010
0100
0001
,
1000
0100
0010
0001
0100
0010
1000
0100
,
0010
0001
0010
0100
0001
0100
1000
0001
,
0100
0010
0001
0010
1000
0001
0010
0100
,
1000
0100
0010
0001
1000
0010
0100
1000
,
0100
0001
0010
0100
1000
0010
0001
1000
,
0100
0001
0010
0100
1000
0100
0001
1000
,
0010
0001
0100
0010
0001
0010
0100
0001
,
0010
0100
1000
0010
0100
1000
0100
0001
,
1000
0100
0010
0100
1000
0001
0100
0010
,
0001
0010
0100
0001
1000
0100
0010
0001
,
0010
1000
0001
0100
1000
0001
0100
0010
,
0001
0010
1000
0100
0010
0001
0100
0010
,
1000
0001
0010
0100
1000
0010
0100
0001
,
2001
0000
0000
0000
,
0000
0000
0000
0000
0000
0000
3010
0100
,
0002
0000
0000
0000
,
0000
0000
0003
0000
;

//---------------dance-double - ----------------
#NOTEDATA:;
#CHARTNAME:;
#CHARTHASH:944024154;
#STEPSTYPE:dance-double;
#BANNER:;
#DESCRIPTION:;
#CHARTSTYLE:;
#DIFFICULTY:Beginner;
#METER:4;
#METERF:0.000000;
#LASTSECONDHINT:134.998001;
#RADARVALUES:0.146252,0.215644,0.029043,0.000000,0.000000,141.000000,137.000000,4.000000,0.000000,0.000000,0.000000,0.000000,0.000000,0.000000,0.146252,0.215644,0.029043,0.000000,0.000000,141.000000,137.000000,4.000000,0.000000,0.000000,0.000000,0.000000,0.000000,0.000000;
#CREDIT:YOSEFU;
#NOTES:
00000000
00000000
00000000
00000000
,
00000000
00000000
00000000
00000000
,
00000000
00000000
00000000
00000000
,
00000000
00000000
00000000
00000000
,
00000000
00000000
00000000
00000000
,
00010000
00000000
00000000
00000000
,
00001000
00000000
00000000
00000000
,
01000000
00000000
00000000
00000000
,
00010000
00000000
00000000
00000000
,
10000000
00000000
00000000
00000000
,
01000000
00000000
00000000
00000000
,
00100000
00000000
00000000
00000000
,
00001000
00000000
00000000
00000000
,
00010000
00000000
00000000
00000000
,
00000010
00000000
00000000
00000000
,
00001000
00000000
00000000
00000000
,
00000001
00000000
00000000
00000000
,
00001001
00000000
00000000
00000000
,
00000100
00000000
00000000
00000000
,
00000010
00000000
00000000
00000000
,
00000001
00000000
00000000
00000000
,
00001000
00000000
00000000
00000000
,
00000010
00000000
00000000
00000000
,
00000100
00000000
00000000
00000000
,
00000001
00000000
00000000
00000000
,
00001000
00000000
00000000
00000000
,
00000100
00000000
00000000
00000000
,
00010000
00000000
00000000
00000000
,
00001000
00000000
00000000
00000000
,
01000000
00000000
00000000
00000000
,
00010000
00000000
00000000
00000000
,
10000000
00000000
00000000
00000000
,
00000000
00000000
00000000
00000000
,
00010000
00000000
01000000
00000000
,
00001000
00000000
00010000
00000000
,
00001000
00000000
00010000
00000000
,
00000100
00000000
00001000
00000000
,
00000100
00000000
00000010
00000000
,
00000100
00000000
00001000
00000000
,
00000001
00000000
00001000
00000000
,
00000001
00000000
00000100
00000000
,
00000010
00000000
00001000
00000000
,
00000010
00000000
00001000
00000000
,
00000010
00000000
00010000
00000000
,
00001000
00000000
00010000
00000000
,
00001000
00000000
00100000
00000000
,
00001000
00000000
00100000
00000000
,
00010000
00000000
10000000
00000000
,
00100000
00000000
01000000
00000000
,
00100000
00000000
10000000
00000000
,
00010000
00000000
00100000
00000000
,
00110000
00000000
00000000
00000000
,
00001000
00000000
00000000
00000000
,
00010000
00000000
00000000
00000000
,
00000010
00000000
00000000
00000000
,
00001010
00000000
00000000
00000000
,
00001000
00000000
00000000
00000000
,
00000001
00000000
00000000
00000000
,
00000010
00000000
00000000
00000000
,
00000100
00000000
00000000
00000000
,
00001000
00000000
00000000
00000000
,
00000100
00000000
00000000
00000000
,
00010000
00000000
00000000
00000000
,
00011000
00000000
00000000
00000000
,
00001000
00000000
00000000
00000000
,
01000000
00000000
00000000
00000000
,
00010000
00000000
00000000
00000000
,
10000000
00000000
00000000
00000000
,
00100000
00000000
00000000
00000000
,
01000000
00000000
00000000
00000000
,
00001000
00000000
00000000
00000000
,
00010000
00000000
00000100
00000000
,
00010000
00000000
00000010
00000000
,
00001000
00000000
00000010
00000000
,
00000100
00000000
00000001
00000000
,
00001000
00000000
00000100
00000000
,
00000010
00000000
00000001
00000000
,
00000100
00000000
00000010
00000000
,
00010000
00000000
00001000
00000000
,
00100000
00000000
00010000
00000000
,
10000000
00000000
00100000
00000000
,
01000000
00000000
00010000
00000000
,
10000000
00000000
01000000
00000000
,
00100000
00000000
00001000
00000000
,
00010000
00000000
00001000
00000000
,
00010000
00000000
00000010
00000000
,
00010000
00000000
00000100
00000000
,
00001000
00000000
00000100
00000000
,
00000010
00000000
00000001
00000000
,
00001000
00000000
00000010
00000000
,
00000100
00000000
00000010
00000000
,
00001000
00000000
00000001
00000000
,
00000010
00000000
00000100
00000000
,
00010000
00000000
00001000
00000000
,
01000000
00000000
00010000
00000000
,
10000000
00000000
01000000
00000000
,
00100000
00000000
00010000
00000000
,
10000000
00000000
00000000
00000000
,
00000000
00000000
00000000
00000000
,
00100000
00000000
00000000
00000000
;

//---------------dance-double - ----------------
#NOTEDATA:;
#CHARTNAME:;
#CHARTHASH:3291782343;
#STEPSTYPE:dance-double;
#BANNER:;
#DESCRIPTION:;
#CHARTSTYLE:;
#DIFFICULTY:Easy;
#METER:8;
#METERF:0.000000;
#LASTSECONDHINT:137.043457;
#RADARVALUES:0.291467,0.364852,0.029043,0.065347,0.007261,281.000000,277.000000,4.000000,9.000000,0.000000,0.000000,0.000000,0.000000,0.000000,0.291467,0.364852,0.029043,0.065347,0.007261,281.000000,277.000000,4.000000,9.000000,0.000000,0.000000,0.000000,0.000000,0.000000;
#CREDIT:YOSEFU;
#NOTES:
00000000
00000000
00000000
00000000
,
00000000
00000000
00000000
00000000
,
00000000
00000000
00000000
00000000
,
00000000
00000000
00000000
00000000
,
00000000
00000000
00000000
00000000
,
00010000
00000000
00001000
00000000
,
00010000
00000000
00001000
00000000
,
01000000
00000000
00100000
00000000
,
01000000
00000000
00010000
00000000
,
00100000
00000000
00001000
00000000
,
00010000
00000000
00001000
00000000
,
00010000
00000000
00000100
00000000
,
00000010
00000000
00000001
00000000
,
00000100
00000000
00001000
00000000
,
00000100
00000000
00000001
00000000
,
00001000
00000000
00000010
00000000
,
00010000
00000000
00000100
00000000
,
00010100
00000000
00010000
00000000
,
00000010
00000000
00000100
00000000
,
00001000
00000000
00000100
00000000
,
00000010
00000000
00001000
00000000
,
00000100
00000000
00000002
00000000
,
00000203
00000000
00002300
00000000
,
00003010
00000000
00010000
00000000
,
00000200
00000000
00020300
00000000
,
00031000
00000000
01000000
00000000
,
00100000
00000000
10000000
00000000
,
01000000
00000000
00100000
00000000
,
00001000
00000000
01000000
00000000
,
00010000
00000000
00100000
00000000
,
01000000
00000000
10000000
00000000
,
00000000
10100000
00000000
00000000
10010000
00000000
00000000
01010000
,
00000000
00010000
00000000
00000000
00000000
00000000
00000000
00000000
,
01000000
00001000
01000000
00001000
,
00010000
00000010
00010000
00000010
,
00001000
00000001
00001000
00000001
,
00000010
00000100
00010000
00001000
,
00100000
01000000
10000000
00010000
,
00100000
00001000
00100000
00010000
,
01000000
00001000
00010000
00000100
,
00001000
00000010
00010000
00001000
,
00100000
01000000
00010000
01000000
,
10000000
00100000
00010000
00100000
,
01000000
00001000
00010000
00000100
,
00001000
00000010
00000001
00000010
,
00001000
00000100
00010000
00000010
,
00001000
00000001
00000100
00001000
,
00000100
00000001
00001000
00000100
,
00000001
00000100
00001000
00000010
,
00020000
00001000
00001000
00031000
,
00200000
00010000
00010000
00010000
,
01300000
00000000
00000000
00000000
,
10000000
00000000
00000000
00000000
,
00010000
00000000
00000000
00000000
,
01000000
00000000
00000000
00000000
,
00001000
00000000
00100000
00000000
,
01000000
00000000
10000000
00000000
,
00010000
00000000
00100000
00000000
,
00001000
00000000
00010000
00000000
,
00000010
00000000
00001000
00000000
,
00000001
00000000
00000010
00000000
,
00000100
00000000
00010000
00000000
,
00001000
00000000
01000000
00000000
,
00010000
00000000
10000000
00000000
,
01000000
00000000
00100000
00000000
,
00001000
00000000
01000000
00000000
,
00010000
00000000
10000000
00000000
,
00010000
00000000
00100000
00000000
,
00001000
00000000
00010000
00000000
,
00000100
00000000
00000000
00000000
,
00001000
00000000
00000000
00001000
00000000
00000000
00001000
00000000
00000000
00000000
00000000
00000000
00000000
00000000
00000000
00000000
,
00000010
00010000
00000010
00001000
,
00000100
00010000
00001000
00010000
,
01000000
00010000
00001000
01000000
,
00100000
00010000
00100000
01000000
,
00001000
00000000
00000000
00000000
00010000
00000000
00000000
00000000
00000000
00000100
00000000
00000000
00001000
00000000
00000000
00000000
,
00000010
00000001
00000010
00001000
,
00000100
00000001
00000100
00001000
,
00000010
00000100
00001000
00000100
,
00000010
00010000
00001000
01000000
,
00100000
00000000
10000000
00000000
00010000
00000000
01000000
00010000
,
01000000
00010000
10000000
01000000
,
00100000
00000000
00010000
00000000
10000000
00000000
00100000
01000000
,
00100000
10000000
00010000
00100000
,
00001000
00000000
00010000
00000000
00000010
00000000
00001000
00000010
,
00001000
00000001
00000100
00000010
,
00010000
00000000
00000100
00000000
00001000
00000000
00000010
00010000
,
00000010
00001000
00000001
00001000
,
00000100
00000000
00010000
00000000
00001000
00000000
01000000
00010000
,
01000000
00100000
10000000
00010000
,
01000000
00000000
00001000
00000000
00010000
00000000
00000100
00010000
,
00000100
00001000
00000001
00000100
,
00000010
00000000
00010000
00000000
00001000
00000000
00100000
00001000
,
00100000
00001000
00010000
00100000
,
00010000
00000000
00001000
00000000
00100000
00000000
01000000
10000000
,
01000000
00100000
00010000
01000000
,
10000000
00000000
01000000
00000000
,
00020000
00000000
00000000
00000000
,
00000000
00000000
00000000
00130000
,
00002000
00000000
00000000
00000000
,
00000000
00000000
00003000
00000000
;

//---------------dance-double - ----------------
#NOTEDATA:;
#CHARTNAME:;
#CHARTHASH:397538483;
#STEPSTYPE:dance-double;
#BANNER:;
#DESCRIPTION:;
#CHARTSTYLE:;
#DIFFICULTY:Medium;
#METER:11;
#METERF:0.000000;
#LASTSECONDHINT:137.043457;
#RADARVALUES:0.418011,0.474308,0.014521,0.123433,0.032673,403.000000,401.000000,2.000000,17.000000,0.000000,0.000000,0.000000,0.000000,0.000000,0.418011,0.474308,0.014521,0.123433,0.032673,403.000000,401.000000,2.000000,17.000000,0.000000,0.000000,0.000000,0.000000,0.000000;
#CREDIT:YOSEFU;
#NOTES:
00000000
00000000
00000000
00000000
,
00000000
00000000
00000000
00000000
,
00000000
00000000
00000000
00000000
,
00000000
00000000
00000000
00000000
,
00000000
00000000
00000000
00000000
,
00010000
00000000
00000000
00000000
00001000
00000000
01000000
00001000
,
00000000
00000000
00010000
00000100
00000000
00000000
00000010
00000100
,
00000000
00000000
00010000
00001000
00000000
00000000
00100000
01000000
,
00000000
00000000
00100000
00000000
,
00001000
00000000
00000000
00000000
01000000
00000000
00010000
10000000
,
00000000
00000000
00010000
00100000
00000000
00000000
00001000
00010000
,
00000000
00000000
00000100
00000010
00000000
00000001
00001000
00000000
,
00000000
00000000
00000010
00000100
,
00000001
00000000
00000000
00000000
00001000
00000000
00000010
00010000
,
00000000
00001000
01000000
00010000
,
10000000
00100000
01000000
00000000
00001000
00000000
00100000
00001000
,
00000000
00010000
00020100
00000000
,
00030020
00000000
00000000
00000000
00001030
00000000
00000100
00001000
,
00000000
00000100
00020000
00000000
,
00031000
00000000
00000000
00000000
01000000
00000000
00010000
10000000
,
00000000
00100000
01000000
00010000
,
00100000
00000000
20000000
00000000
,
30200000
00000000
00000000
00000000
00320000
00000000
00030000
01000000
,
00001000
00000000
00010000
00000100
00000000
00000000
00000010
00000000
,
00000001
00001000
00000100
00010000
,
00000010
00000000
00000000
00000000
00001000
00000000
00000001
00000010
,
00000000
00000100
00010000
00001000
,
02000000
00000000
03020000
00000000
,
20030000
00000000
32000000
00000000
,
03100000
00000000
00000000
00000000
00010000
00000000
01000000
00001000
,
02000000
03002000
00023000
00030020
,
00000030
00001000
00001000
00000000
00000001
00000001
00000000
00001000
,
00000000
00000100
00000100
00000000
00000000
00000000
00000000
00000000
,
00010000
00001000
00100000
00001000
,
00010000
00000010
00010000
00000000
00000100
00000000
00000010
00000000
,
00000001
00000000
00000010
00000000
00000100
00000000
00010000
00001000
,
01000000
00001000
00100000
01000000
,
10000000
00000000
00010000
10000000
00010000
00000000
00100000
00000000
,
00001000
00000000
00010000
00000100
00010000
00000000
00001000
00000000
,
01000000
00000000
00001000
00100000
00001000
00000000
01000000
00000000
,
00010000
10000000
00010000
00100000
,
00001000
00000000
00010000
00000000
00000100
00000000
00010000
00000010
,
00010000
00000000
00000010
00000000
00001000
00000000
00000001
00000100
,
00000001
00000000
00000010
00000000
00000100
00000000
00010000
00000010
,
00010000
00000000
00001000
00000000
00100000
00000000
00001000
01000000
,
00001000
00000000
01000000
00000000
00100000
00000000
10000000
01000000
,
10000000
00000000
00100000
00000000
01000000
00000000
00010000
00100000
,
00010000
00000000
01000000
00000000
00001000
00000000
00010000
00001000
,
00010000
00000000
00000100
00000000
00001000
00000100
00001000
00000000
,
00000020
00000001
00000100
00010000
,
00001030
00000001
00001000
00000000
00000001
00000010
00000001
00000000
,
00000100
00000000
00000000
00000000
,
00000010
00000000
00000000
00000000
,
00010000
00000000
00000000
00000000
,
00001000
00000000
00000000
00000000
,
00100000
00000000
00000000
00000000
00100000
00000000
00000000
00000000
01000000
00000000
00000000
01000000
00000000
00000000
01000000
00000000
,
00000000
00000000
00000000
00000000
10000000
00000000
00000000
00000000
00010000
00000000
00000000
00010000
00000000
00000000
00010000
00000000
,
00000000
00000000
00000000
00000000
01000000
00000000
00000000
00000000
00001000
00000000
00000000
00001000
00000000
00000000
00001000
00000000
,
00000000
00000000
00000000
00000000
00010000
00000000
00000000
00000000
00000100
00000000
00000000
00000100
00000000
00000000
00000100
00000000
,
00000000
00000000
00000000
00000000
00001000
00000000
00000000
00000000
00000010
00000000
00000000
00000010
00000000
00000000
00000010
00000000
,
00000000
00000000
00000000
00000000
00001000
00000000
00000000
00000000
00000100
00000000
00000000
00000100
00000000
00000000
00000100
00000000
,
00000000
00000000
00000000
00000000
00010000
00000000
00000000
00000000
00001000
00000000
00000000
00001000
00000000
00000000
00001000
00000000
,
00000000
00000000
00000000
00000000
00100000
00000000
00000000
00000000
00010000
00000000
00000000
00010000
00000000
00000000
00010000
00000000
,
00000000
10000000
01000000
00100000
,
01000000
10000000
00010000
00100000
,
00001000
00010000
00100000
00010000
,
00001000
00100000
01000000
00010000
,
01000000
10000000
00100000
00010000
,
00100000
00000000
01000000
00001000
00000000
01000000
00001000
00000000
,
00010000
00000000
00000000
00000000
00001000
00000000
00010000
00001000
,
00010000
00000000
00000000
00001000
00000000
00000000
00011000
00000000
00000000
00000000
00000000
00000000
00000000
00000000
00000000
00000000
,
00010000
00000000
00000010
00000000
00000100
00000000
00000001
00000100
,
00000001
00000000
00001000
00000000
00000100
00000000
00000010
00000001
,
00000010
00000000
00000100
00000000
00010000
00000000
00000010
00000100
,
00000010
00000000
00010000
00000000
00001000
00000000
00100000
01000000
,
00100000
00000000
00001000
00000000
01000000
00000000
00010000
10000000
,
00010000
00000000
01000000
00000000
00001000
00000000
00010000
00000010
,
00010000
00000000
00000010
00000000
00000100
00000000
00000001
00001000
,
00000001
00000000
00000100
00000000
00000010
00000000
00010000
00001000
,
01000000
00000000
00100000
10000000
01000000
00000000
10000000
00100000
,
01000000
00000000
00001000
00010000
00000100
00000000
00001000
00000010
,
00000100
00000000
00000010
00001000
00000100
00000000
00010000
00001000
,
01000000
00000000
00010000
10000000
00100000
00000000
10000000
00010000
,
01000000
00000000
00010000
10000000
00010000
00000000
00100000
00001000
,
00010000
00000000
00000100
00001000
00000001
00000000
00000010
00000100
,
00001000
00000000
00000001
00001000
00000010
00000000
00010000
00001000
,
01000000
00000000
00100000
10000000
00010000
00000000
00100000
00001000
,
01000000
00000000
00001000
00010000
00000100
00000000
00001000
00000100
,
00000010
00000000
00000001
00001000
00000100
00000000
00010000
00001000
,
01000000
00000000
00001000
00100000
01000000
00000000
10000000
00010000
,
01000000
00000000
00001000
00010000
00000010
00000000
00010000
00000100
,
00000010
00000000
00000001
00001000
00000100
00000000
00010000
00001000
,
00100000
00000000
00001000
01000000
00010000
00000000
10000000
00100000
,
00010000
00000000
00100000
01000000
00001000
00000000
00100000
01000000
,
00010000
00000000
01000000
00100000
00001000
00000000
00010000
00000010
,
00000100
00000000
00000001
00001000
00000100
00000000
00000010
00000001
,
00001000
00000000
00000100
00000000
00010000
00000010
00001000
00000100
,
00020000
00000000
00000000
00000000
,
00000000
00000000
00000000
00000000
00000000
00000000
00031000
01000000
,
00020000
00000000
00000000
00000000
,
00000000
00000000
00030000
00000000
;

//---------------dance-double - ----------------
#NOTEDATA:;
#CHARTNAME:;
#CHARTHASH:3588860947;
#STEPSTYPE:dance-double;
#BANNER:;
#DESCRIPTION:;
#CHARTSTYLE:;
#DIFFICULTY:Hard;
#METER:13;
#METERF:0.000000;
#LASTSECONDHINT:137.043457;
#RADARVALUES:0.593306,0.656734,0.043564,0.225083,0.061716,572.000000,566.000000,6.000000,31.000000,0.000000,0.000000,0.000000,0.000000,0.000000,0.593306,0.656734,0.043564,0.225083,0.061716,572.000000,566.000000,6.000000,31.000000,0.000000,0.000000,0.000000,0.000000,0.000000;
#CREDIT:YOSEFU;
#NOTES:
00000000
00000000
00000000
00000000
,
00000000
00000000
00000000
00000000
,
00000000
00000000
00000000
00000000
,
00000000
00000000
00000000
00000000
,
00000000
00000000
00000000
00000000
,
00010000
00010000
00000000
00001000
01000000
00000000
00100000
00100000
,
00000000
10000000
01000000
00100000
00001000
00000000
00010000
00000010
,
00000100
00000100
00000000
00000001
00001000
00000000
00000010
00000010
,
00000000
00010000
00001000
00010000
00000200
00000000
00000000
00000000
,
00001300
00001000
00000000
00000001
00000010
00000000
00000100
00000100
,
00000000
00010000
00001000
01000000
00010000
00000000
00100000
01000000
,
10000000
10000000
00000000
00010000
01000000
00000000
00001000
00001000
,
00000000
00100000
00010000
01000000
00002000
00000000
00100000
00000000
,
00013000
00010000
00000000
00000100
00000010
00000000
00000001
00000001
,
00000000
00001000
00000100
00010000
00002000
00000000
00023000
00000000
,
00030010
00000010
00000100
00001000
00000100
00000000
00000001
00000001
,
00001000
00000010
00001000
00000100
00020000
00000000
00000000
00000000
,
00031000
00001000
00000000
01000000
00010000
10000000
00010000
00020000
,
00000000
02030000
00000000
03002000
00000000
00203000
00000000
00310000
,
01000000
01000000
00000000
00100000
10000000
00010000
00010000
01000000
,
10000000
01000000
00010000
00100000
00001000
00000000
00010000
00000000
,
00000010
00000010
00000000
00001000
00000020
00000000
00000001
00000000
,
00001030
00001000
00000100
00000000
00020000
00000000
00000100
00000000
,
00031000
00001000
00100000
01000000
00000000
10000000
00100000
01000000
,
00010000
00010000
00000000
00100000
00001000
00001000
00000000
00010000
,
00000100
00000100
00000000
00001000
00000001
00000000
00000010
00000010
,
00000100
00000000
00010000
00001000
01000000
00000000
00010000
00000000
,
10000000
10000000
00000000
01000000
00100000
00100000
00000000
00001000
,
00010000
00010000
00000000
00000010
00001000
00001000
00000000
00000100
,
00010000
00010000
00000000
00000100
00000010
00000000
00000001
00000001
,
00000000
00001000
00000010
00001000
00000100
00010000
00001000
00000000
,
00000000
00110000
00010000
00000000
00001100
00000100
00000000
01010000
,
00000000
00001100
00001000
00000000
00000000
00000000
00000000
00000000
,
01000000
00000000
00001000
00100000
01000000
00000000
10000000
00010000
,
01000000
00010000
10000000
01000000
00100000
00000000
00001000
00000000
,
00010000
00000000
00000010
00001000
00000001
00000000
00000100
00000010
,
00000001
00000010
00001000
00000100
00010000
00000010
00001000
00000000
,
00000010
00010000
00001000
00100000
00000000
00010000
00100000
01000000
,
00000000
10000000
00010000
01000000
00000000
00001000
00010000
00000100
,
00010000
00001000
01000000
00100000
10000000
00000000
00100000
01000000
,
00001000
00010000
00000100
00002000
00000000
00003002
00000000
00000013
,
00000100
00010000
00000100
00001000
00000100
00000010
00000100
00010000
,
00001000
01000000
00100000
01000000
00002000
00000000
00203000
00000000
,
00320000
00000000
01030000
00100000
00010000
00100000
10000000
00020000
,
00000000
02030000
00000000
03002000
00000000
00013000
00000010
00001000
,
00000001
00000000
00001000
00000010
00010000
00000000
00001000
00100000
,
00010000
00000000
01000000
00001000
00010000
00000100
00001000
00000001
,
00000100
00000010
00020000
00000000
00030100
00000000
00000001
00000200
,
00000000
00002300
00000000
00003000
00000010
00000200
00000000
00000000
,
00001300
00010000
00200000
00000000
00010000
00000000
10000000
00000000
,
01300000
00001000
00010000
01000000
00010000
00001000
00100000
01000000
,
10000000
00000000
00000000
00000000
00000000
00010000
01000000
00001000
,
00000000
00100000
00001000
00010000
00000000
00000010
00000100
00000000
,
00000001
00000000
00000000
00000000
00000000
00000000
00000000
00000000
00000000
00001000
00000000
00000000
00000010
00000000
00000000
00000000
00000001
00000000
00000000
00000000
00000010
00000000
00000000
00000000
,
00002000
00000000
00000000
00003200
00000000
00000000
00020300
00000000
,
00031000
00000000
00000000
00000000
01000000
00000000
00000000
00000000
00010000
00000000
00000000
01000000
00000000
00000000
00001000
00000000
,
00000000
00000000
00100000
00000000
00010000
00000000
00000000
00000000
10000000
00000000
00000000
00010000
00000000
00000000
00100000
00000000
,
00001000
00000000
00000000
00000000
00010000
00000000
00000000
00000000
00000010
00000000
00000000
00000100
00000000
00000000
00000001
00000000
,
00000000
00000000
00001000
00000000
00000010
00000000
00000000
00000000
00010000
00000000
00000000
00000010
00000000
00000000
00001000
00000000
,
00000100
00000000
00000000
00000000
00010000
00000000
00000000
00000000
00001000
00000000
00000000
00100000
00000000
00000000
01000000
00000000
,
00000000
00000000
10000000
00000000
00010000
00000000
00000000
00000000
01000000
00000000
00000000
00001000
00000000
00000000
00100000
00000000
,
00010000
00000000
00000000
00000000
10000000
00000000
00000000
00000000
01000000
00000000
00000000
00010000
00000000
00000000
01000000
00000000
,
00000000
00000000
00100000
00000000
00001000
00000000
00000000
00000000
00010000
00000000
00000000
00001000
00000000
00000000
00100000
00000000
,
01000000
00000000
00000000
00000000
00010000
00000000
00000000
00000000
01000000
00000000
00000000
10000000
00000000
00000000
00010000
00000000
,
00000000
00000000
01000000
00000000
00100000
00000000
00000000
00000000
00010000
00000000
00000000
00100000
00000000
00000000
10000000
00000000
,
01000000
00000000
00000000
00000000
00100000
00000000
00000000
00000000
10000000
00000000
00000000
00100000
00000000
00000000
00010000
00000000
,
00000000
00000000
01000000
00000000
00001000
00000000
00000000
00000000
00010000
00000000
00000000
00000100
00000000
00000000
00000010
00000000
,
00001000
00000010
00000100
00001000
,
00000001
00000100
00000010
00010000
00000100
00001000
00000001
00000100
,
00000010
00000000
00000000
00010000
00001000
00010000
00001000
00010000
,
00001000
00000000
00000000
00010000
00000000
00000000
00001100
00000000
00000000
00000000
00000000
00000000
00000000
00000000
00000000
00000000
,
00001000
00000000
00000001
00000100
00000001
00000000
00001000
00000010
,
00000100
00000000
00001000
00000000
00000100
00000010
00010000
00001000
,
01000000
00000000
00010000
10000000
00100000
00000000
00010000
00100000
,
01000000
00001000
00010000
00000100
00001000
00000010
00010000
00001000
,
01000000
00000000
00010000
10000000
00000000
00010000
01000000
00001000
,
00010000
00000000
00000100
00000020
00000000
00001030
00000010
00000100
,
00001000
00000001
00000200
00000000
00001000
00000000
00000301
00001000
,
00000010
00000000
00010000
00001000
00010000
00000000
00000000
00000000
00001000
00000000
00000000
01000000
00000000
00000000
00100000
00000000
,
10000000
00010000
10000000
00100000
10000000
00010000
10000000
01000000
,
00100000
00001000
01000000
00001000
00010000
00001000
00010000
00000100
,
00000010
00000100
00001000
00000001
00000100
00000010
00010000
00001000
,
01000000
00100000
01000000
00010000
00100000
00001000
00010000
00000010
,
00000100
00000001
00001000
00000100
00010000
00000010
00010000
00001000
,
01000000
00010000
10000000
01000000
00100000
00001000
00010000
00000100
,
00001000
00000001
00001000
00000100
00000001
00000100
00000010
00000001
,
00001000
00000010
00000001
00000010
00001000
00000100
00010000
00001000
,
00100000
00001000
01000000
00010000
00100000
00001000
00010000
00100000
,
00010000
00001000
01000000
00010000
10000000
00100000
00010000
10000000
,
01000000
00010000
10000000
01000000
00100000
01000000
00010000
10000000
,
00100000
00010000
01000000
00100000
00010000
00100000
01000000
00001000
,
00010000
00000100
00001000
00000010
00000100
00001000
00000100
00000001
,
00001000
00000010
00010000
00000010
00001000
00000100
00010000
00001000
,
00000100
00001000
00010000
00000010
00001000
00000100
00000010
00000001
,
00000010
00001000
00000001
00000100
00001000
00000010
00010000
00001000
,
00000100
00001000
00010000
00000010
00001000
00000100
00010000
00001000
,
01000000
00010000
00100000
01000000
10000000
00100000
01000000
00010000
,
00210000
00000000
00000000
00000000
,
00000000
00000000
00000000
00000000
00000000
00000000
01300000
10000000
,
00020000
00000000
00000000
00000000
,
00000000
00000000
00030000
00000000
;
