#VERSION:0.83;
#TITLE:Spacecats;
#SUBTITLE:;
#ARTIST:Ummet Ozcan;
#TITLETRANSLIT:;
#SUBTITLETRANSLIT:;
#ARTISTTRANSLIT:;
#GENRE:House;
#ORIGIN:Single Release (2016);
#TAGS:;
#CREDIT:skeleton made by Pilgrimsito;
#BANNER:Spacecats.png;
#BACKGROUND:Spacecats-bg.png;
#PREVIEWVID:;
#JACKET:Spacecats-jacket.png;
#CDIMAGE:;
#DISCIMAGE:;
#LYRICSPATH:;
#CDTITLE:../_YSD cdtitles/ysd sale2 cdtitle.png;
#MUSIC:Spacecats.ogg;
#OFFSET:-0.004000;
#SAMPLESTART:78.765999;
#SAMPLELENGTH:15.000000;
#SELECTABLE:YES;
#BPMS:0.000000=128.000000
,104.000000=64.000000
,120.000000=128.000000
;
#STOPS:;
#DELAYS:;
#WARPS:;
#TIMESIGNATURES:0.000000=4=4
;
#TICKCOUNTS:0.000000=4
;
#COMBOS:0.000000=1
;
#SPEEDS:0.000000=1.000000=0.000000=0
;
#SCROLLS:0.000000=1.000000
,95.000000=0.944000
,95.500000=0.889000
,96.000000=0.833000
,96.500000=0.778000
,97.000000=0.722000
,97.500000=0.667000
,98.000000=0.611000
,98.500000=0.556000
,99.000000=0.500000
,99.500000=0.444000
,100.000000=0.389000
,100.500000=0.333000
,101.000000=0.278000
,101.500000=0.222000
,102.000000=0.167000
,102.500000=0.111000
,103.000000=0.056000
,103.500000=0.000000
,103.750000=0.500000
,104.000000=1.000000
,248.000000=0.000000
,248.250000=1.000000
;
#FAKES:;
#LABELS:0.000000=Song Start
;
#BGCHANGES:;
#KEYSOUNDS:;
#ATTACKS:
;

//---------------dance-single - ----------------
#NOTEDATA:;
#CHARTNAME:;
#CHARTHASH:1606012332;
#STEPSTYPE:dance-single;
#BANNER:;
#DESCRIPTION:;
#CHARTSTYLE:;
#DIFFICULTY:Beginner;
#METER:1;
#METERF:0.000000;
#LASTSECONDHINT:124.222748;
#RADARVALUES:0.103771,0.142794,0.068816,0.000000,0.000000,95.000000,86.000000,9.000000,0.000000,0.000000,0.000000,0.000000,0.000000,0.000000,0.103771,0.142794,0.068816,0.000000,0.000000,95.000000,86.000000,9.000000,0.000000,0.000000,0.000000,0.000000,0.000000,0.000000;
#CREDIT:YOSEFU;
#NOTES:
// measure 0
0000
0000
0000
0000
,  // measure 1
0000
0000
0000
0000
,  // measure 2
0000
0000
0000
0000
,  // measure 3
0000
0000
0000
0000
,  // measure 4
1000
0000
0001
0000
,  // measure 5
1000
0000
0001
0000
,  // measure 6
0100
0000
0010
0000
,  // measure 7
0100
0000
0000
0000
,  // measure 8
0010
0000
0000
0000
,  // measure 9
1000
0000
0000
0000
,  // measure 10
0001
0000
0000
0000
,  // measure 11
0010
0000
0000
0000
,  // measure 12
0100
0000
0000
0000
,  // measure 13
1000
0000
0000
0000
,  // measure 14
0001
0000
0000
0000
,  // measure 15
0100
0000
0000
0000
,  // measure 16
0010
0000
0000
0000
,  // measure 17
0100
0000
0001
0000
,  // measure 18
0001
0000
0000
0000
,  // measure 19
1000
0000
0100
0000
,  // measure 20
0100
0000
0000
0000
,  // measure 21
0010
0000
0001
0000
,  // measure 22
0001
0000
0000
0000
,  // measure 23
1000
0000
0010
0000
,  // measure 24
0010
0000
0000
0000
,  // measure 25
0000
0000
0000
0000
,  // measure 26
1000
0000
0010
0000
,  // measure 27
0100
0100
0001
0000
,  // measure 28
1000
0000
0100
0000
,  // measure 29
0010
0010
0001
0000
,  // measure 30
1000
0000
0000
0000
,  // measure 31
0010
0000
0000
0000
,  // measure 32
0100
0000
0000
0000
,  // measure 33
0001
0000
0000
0000
,  // measure 34
1000
0000
0000
0000
,  // measure 35
0100
0000
0000
0000
,  // measure 36
0010
0000
0000
0000
,  // measure 37
0001
0000
0000
0000
,  // measure 38
1000
0000
1000
0000
,  // measure 39
0010
0000
0010
0000
,  // measure 40
0110
0000
0000
0000
,  // measure 41
0101
0000
0000
0000
,  // measure 42
1000
0000
1000
0000
,  // measure 43
0100
0000
0100
0000
,  // measure 44
0110
0000
0000
0000
,  // measure 45
1001
0000
0000
0000
,  // measure 46
0001
0000
0001
0000
,  // measure 47
0100
0000
0100
0000
,  // measure 48
0110
0000
0000
0000
,  // measure 49
1001
0000
0000
0000
,  // measure 50
1000
0000
1000
0000
,  // measure 51
0100
0000
0100
0000
,  // measure 52
0110
0000
0000
0000
,  // measure 53
1001
0000
0000
0000
,  // measure 54
0001
0000
0001
0000
,  // measure 55
0100
0000
0100
0000
,  // measure 56
0010
0000
0010
0000
,  // measure 57
1000
0000
1000
0000
,  // measure 58
0100
0000
0100
0000
,  // measure 59
0010
0000
0010
0000
,  // measure 60
0001
0000
0001
0000
,  // measure 61
1000
0000
0000
0000
,  // measure 62
0000
1001
0000
0000
;

//---------------dance-single - ----------------
#NOTEDATA:;
#CHARTNAME:;
#CHARTHASH:4189630236;
#STEPSTYPE:dance-single;
#BANNER:;
#DESCRIPTION:;
#CHARTSTYLE:;
#DIFFICULTY:Easy;
#METER:4;
#METERF:0.000000;
#LASTSECONDHINT:124.222748;
#RADARVALUES:0.204264,0.356984,0.129986,0.007646,0.000000,187.000000,170.000000,17.000000,1.000000,0.000000,0.000000,0.000000,0.000000,0.000000,0.204264,0.356984,0.129986,0.007646,0.000000,187.000000,170.000000,17.000000,1.000000,0.000000,0.000000,0.000000,0.000000,0.000000;
#CREDIT:YOSEFU;
#NOTES:
0000
0000
0000
0000
,
0000
0000
0000
0000
,
0000
0000
0000
0000
,
0000
0000
0000
0000
,
1000
0010
1000
0010
,
0100
0001
0100
0001
,
1000
0100
1000
0100
,
0020
0000
0000
0030
,
0001
0000
1000
0000
,
0001
0000
0100
0000
,
0010
0000
1000
0000
,
0001
0000
0010
0000
,
0100
0000
1000
0000
,
0100
0000
0010
0000
,
0001
0000
1000
0000
,
0010
0100
0010
1000
,
0001
0010
0100
0000
,
1000
0010
0100
0100
,
0001
1000
0100
0000
,
0010
0001
1000
1000
,
0010
0100
0001
0000
,
0010
0100
1000
1000
,
0001
0100
0010
0000
,
1000
0100
0010
0010
,
0000
0000
0000
0000
,
0000
0000
0000
0000
,
0001
1000
0010
0000
0100
0001
1000
0000
,
0100
0010
0001
0100
0010
1000
0001
0010
,
0100
1000
0001
0000
0100
0010
1000
0000
,
0001
0010
0100
0010
0001
1000
0010
0100
,
0001
0000
0001
0000
,
1000
0000
1000
0000
,
0100
0000
0100
0000
,
0010
0000
0010
0000
,
0001
0000
1000
0000
,
0001
0000
1000
0000
,
0010
0000
0100
0000
,
0010
0000
1000
0000
,
1001
0000
0001
0001
,
1000
0000
0100
0100
,
0010
0000
0011
0000
,
1010
0000
0011
1010
,
0001
0000
1000
0010
,
0010
0000
0100
0001
,
1000
0000
1010
0000
,
0101
0000
0011
1000
,
1010
0000
0010
0010
,
0100
0000
0001
0001
,
1000
0000
1100
0000
,
0101
0000
1100
0101
,
1001
0000
1000
1000
,
0010
0000
0100
0001
,
1000
0000
1010
0000
,
0101
0001
0010
0100
,
1000
0000
0001
0000
,
0100
0000
0010
1000
,
0001
0000
0010
0000
,
0100
0000
1000
0001
,
0100
0000
0010
0000
,
0100
0000
0001
1000
,
0100
0000
0010
0000
,
0001
0010
0100
1000
,
0000
1001
0000
0000
;

//---------------dance-single - ----------------
#NOTEDATA:;
#CHARTNAME:;
#CHARTHASH:3119224494;
#STEPSTYPE:dance-single;
#BANNER:;
#DESCRIPTION:;
#CHARTSTYLE:;
#DIFFICULTY:Medium;
#METER:7;
#METERF:0.000000;
#LASTSECONDHINT:124.222748;
#RADARVALUES:0.323327,0.499778,0.084109,0.076463,0.030585,296.000000,285.000000,11.000000,10.000000,0.000000,0.000000,0.000000,0.000000,0.000000,0.323327,0.499778,0.084109,0.076463,0.030585,296.000000,285.000000,11.000000,10.000000,0.000000,0.000000,0.000000,0.000000,0.000000;
#CREDIT:YOSEFU;
#NOTES:
0000
0000
0000
0000
,
0000
0000
0000
0000
,
0000
0000
0000
0000
,
0000
0000
0000
0000
,
1000
0010
0100
0001
,
1000
0100
0010
0001
,
1000
0010
0100
0001
,
2000
0000
0000
0000
,
3100
0010
0100
1000
,
0001
0100
0010
1000
,
0100
0010
0001
1000
,
0010
0100
0001
1000
,
0100
0010
0001
0100
,
0010
1000
0001
1000
,
0100
0010
0001
1000
,
0020
0032
0023
2030
,
3100
0000
0010
0000
0001
1000
0001
0000
,
0100
0010
1000
1000
,
0100
0000
0010
0000
0001
0100
0001
0000
,
0010
0100
1000
1000
,
0001
0000
0100
0000
0010
1000
0010
0000
,
0100
0001
0010
0010
,
0100
0000
1000
0000
0001
0100
0001
0000
,
1000
0100
0010
0020
,
0000
0000
0000
0000
,
0000
0000
0000
0000
0000
0000
0000
0030
,
0001
0000
1000
0000
0010
0100
0001
0000
1000
0000
0100
0000
0010
0100
1000
0000
,
0001
0000
0100
0000
0010
1000
0001
0000
1000
0000
0100
0000
0010
0100
1000
0000
,
0001
0000
0100
0000
0010
1000
0001
0000
0010
0000
0100
0000
1000
0001
0100
0000
,
0010
0000
1000
0000
0100
0010
0001
0000
0100
0000
0010
0000
1000
0001
0010
0000
,
0100
0100
1000
1000
,
0010
0010
0100
0100
,
0001
0010
0100
0010
,
0001
1000
0010
0100
,
0001
0000
1000
0100
1000
0000
0001
0100
,
0001
0000
1000
0010
1000
0000
0001
0010
,
0001
0000
1000
0100
1000
0000
0001
0100
,
0001
0000
1000
1000
,
1100
0000
0100
0010
0100
0000
1000
0001
,
1000
0000
0001
0100
0001
0000
1000
0010
,
1000
1100
0001
0011
,
1000
1010
0011
1010
,
0001
0000
0100
0001
0100
0000
0010
1000
,
0010
0000
1000
0100
1000
0000
0001
0000
,
0100
0010
1000
0000
0010
0100
0001
0000
,
1000
0100
0010
0000
0001
0000
0100
0000
,
0010
0000
1000
0010
1000
0000
0001
0010
,
0001
0000
1000
0100
1000
0000
0001
0100
,
0001
1100
0001
1010
,
0001
0110
1000
0101
,
0001
0000
1000
0100
1000
0000
0001
0100
,
0001
0000
1000
0100
1000
0000
0010
0100
,
0001
0000
0010
0100
1000
0000
0001
0100
,
0020
0032
0023
2030
,
3100
0000
0010
0001
0010
0000
0100
0000
,
1000
0000
0001
0100
0001
0000
1000
0000
,
0100
0000
0010
0001
0010
0000
0001
0000
,
0100
0000
0010
1000
0010
0100
0001
0000
,
1000
0000
0100
0010
0001
0000
1000
0000
,
0010
0000
0100
0001
1000
0000
0100
0000
,
0010
0000
0100
1000
0001
0000
0100
0000
,
0010
1000
0010
0000
0100
0001
0100
0000
,
0000
1001
0000
0000
;

//---------------dance-single - ----------------
#NOTEDATA:;
#CHARTNAME:SPAAAAAAAAAACE;
#CHARTHASH:2187107911;
#STEPSTYPE:dance-single;
#BANNER:;
#DESCRIPTION:;
#CHARTSTYLE:;
#DIFFICULTY:Hard;
#METER:12;
#METERF:0.000000;
#LASTSECONDHINT:124.222748;
#RADARVALUES:0.462052,0.690170,0.068816,0.206449,0.221741,423.000000,414.000000,9.000000,27.000000,0.000000,0.000000,0.000000,0.000000,0.000000,0.462052,0.690170,0.068816,0.206449,0.221741,423.000000,414.000000,9.000000,27.000000,0.000000,0.000000,0.000000,0.000000,0.000000;
#CREDIT:Yosefu... in Spaaaaaaaaaace;
#NOTES:
0000
0000
0000
0000
,
0000
0000
0000
0000
,
0000
0000
0000
0000
,
0000
0000
0000
0000
,
1000
0000
0010
0000
0100
0000
0001
1000
,
0100
0000
0010
0000
0001
0000
1000
0001
,
0100
0000
0010
0000
1000
0000
0100
0010
,
0002
0000
0000
0000
,
0103
0000
0000
0000
0000
0000
0000
0000
0000
0000
0000
0000
0000
0000
0000
0000
0000
0000
0000
0000
0000
0000
0000
0000
0001
0000
0000
0000
0000
0000
0000
0000
0000
0000
0000
0000
0000
0000
0000
0000
0000
0000
0000
1000
0000
0000
0000
0000
0001
0000
0000
0000
0000
0000
0000
0000
0000
0000
0000
0000
0000
0000
0000
0000
0000
0000
0000
0000
0000
0000
0000
0000
0010
0000
0000
0000
0000
0000
0000
0000
0000
0000
0000
0000
0000
0000
0000
0000
0000
0000
0000
0000
0000
0000
0000
0000
,
0100
0000
0000
0000
0000
0000
0000
0000
0000
0000
0000
0000
0000
0000
0000
0000
0000
0000
0000
0000
0000
0000
0000
0000
1000
0000
0000
0000
0000
0000
0000
0000
0000
0000
0000
0000
0000
0000
0000
0000
0000
0000
0000
0001
0000
0000
0000
0000
0100
0000
0000
0000
0000
0000
0000
0001
0000
0000
0000
0000
0000
0000
0000
0000
0000
0000
0000
0000
0000
0000
0000
0000
1000
0000
0000
0000
0000
0000
0000
0000
0000
0000
0000
0000
0000
0000
0000
0000
0000
0000
0000
0000
0000
0000
0000
0000
,
0100
0000
0000
0000
0000
0000
0000
0000
0000
0000
0000
0000
0000
0000
0000
0000
0000
0000
0000
0000
0000
0000
0000
0000
0010
0000
0000
0000
0000
0000
0000
0000
0000
0000
0000
0000
0000
0000
0000
0000
0000
0000
0000
0001
0000
0000
0000
0000
1000
0000
0000
0000
0000
0000
0000
0000
0000
0000
0000
0000
0000
0000
0000
0000
0000
0000
0000
0000
0000
0000
0000
0000
0010
0000
0000
0000
0000
0000
0000
0000
0000
0000
0000
0000
0000
0000
0000
0000
0000
0000
0000
0000
0000
0000
0000
0000
,
0100
0000
0000
0000
0000
0000
0000
0000
0000
0000
0000
0000
0000
0000
0000
0000
0000
0000
0000
0000
0000
0000
0000
0000
0001
0000
0000
0000
0000
0000
0000
0000
0000
0000
0000
0000
0000
0000
0000
0000
0000
0000
0000
1000
0000
0000
0000
0000
0100
0000
0000
0000
0000
0000
0000
1000
0000
0000
0000
0000
0000
0000
0000
0000
0000
0000
0000
0000
0000
0000
0000
0000
0001
0000
0000
0000
0000
0000
0000
0000
0000
0000
0000
0000
0000
0000
0000
0000
0000
0000
0000
0000
0000
0000
0000
0000
,
0100
0000
0000
0000
0000
0000
0000
0000
0000
0000
0000
0000
0000
0000
0000
0000
0000
0000
0000
0000
0000
0000
0000
0000
0010
0000
0000
0000
0000
0000
0000
0000
0000
0000
0000
0000
0000
0000
0000
0000
0000
0000
0000
1000
0000
0000
0000
0000
0001
0000
0000
0000
0000
0000
0000
0000
0000
0000
0000
0000
0000
0000
0000
0000
0000
0000
0000
0000
0000
0000
0000
0000
0010
0000
0000
0000
0000
0000
0000
0000
0000
0000
0000
0000
0000
0000
0000
0000
0000
0000
0000
0000
0000
0000
0000
0000
,
0100
0000
0000
0000
0000
0000
0000
0000
0000
0000
0000
0000
0000
0000
0000
0000
0000
0000
0000
0000
0000
0000
0000
0000
1000
0000
0000
0000
0000
0000
0000
0000
0000
0000
0000
0000
0000
0000
0000
0000
0000
0000
0000
0001
0000
0000
0000
0000
0100
0000
0000
0000
0000
0000
0000
0001
0000
0000
0000
0000
0000
0000
0000
0000
0000
0000
0000
0000
0000
0000
0000
0000
0010
0000
0000
0000
0000
0000
0000
0000
0000
0000
0000
0000
0000
0000
0000
0000
0000
0000
0000
0000
0000
0000
0000
0000
,
0001
0000
0000
0000
0000
0000
0000
0000
0000
0000
0000
0000
0000
0000
0000
0000
0000
0000
0000
0000
0000
0000
0000
0000
0100
0000
0000
0000
0000
0000
0000
0000
0000
0000
0000
0000
0000
0000
0000
0000
0000
0000
0000
0010
0000
0000
0000
0000
1000
0000
0000
0000
0000
0000
0000
0000
0000
0000
0000
0000
0000
0000
0000
0000
0000
0000
0000
0000
0000
0000
0000
0000
0100
0000
0000
0000
0000
0000
0000
0000
0000
0000
0000
0000
0000
0000
0000
0000
0000
0000
0000
0000
0000
0000
0000
0000
,
0020
0000
2030
0000
3020
0000
0032
2003
,
3100
0000
0000
0000
0000
0000
0000
0000
0000
0000
0000
0000
0000
0000
0000
0000
0000
0000
0000
0000
0000
0000
0000
0000
0010
0000
0000
0000
0000
0000
0000
0000
0000
0000
0000
0000
0000
0000
0000
0000
0000
0000
0000
0001
0000
0000
0000
0000
1000
0000
0000
0000
0000
0000
0000
0000
0000
0000
0000
0000
1000
0000
0000
0000
0000
0000
0000
0000
0000
0000
0000
0000
1000
0000
0000
0000
0000
0000
0000
0000
0000
0000
0000
0000
1000
0000
0000
0000
0000
0000
0000
0000
0000
0000
0000
0000
,
0100
0000
0000
0000
0000
0000
0000
0000
0000
0000
0000
0000
0000
0000
0000
0000
0000
0000
0000
0000
0000
0000
0000
0000
1000
0000
0000
0000
0000
0000
0000
0000
0000
0000
0000
0000
0000
0000
0000
0000
0000
0000
0000
0010
0000
0000
0000
0000
0100
0000
0000
0000
0000
0000
0000
0010
0000
0000
0000
0000
0000
0000
0000
0000
0000
0000
0000
0000
0000
0000
0000
0000
0100
0000
0000
0000
0000
0000
0000
0000
0000
0000
0000
0000
0000
0000
0000
0000
0000
0000
0000
0000
0000
0000
0000
0000
,
0001
0000
0000
0000
0000
0000
0000
0000
0000
0000
0000
0000
0000
0000
0000
0000
0000
0000
0000
0000
0000
0000
0000
0000
0010
0000
0000
0000
0000
0000
0000
0000
0000
0000
0000
0000
0000
0000
0000
0000
0000
0000
0000
0100
0000
0000
0000
0000
0001
0000
0000
0000
0000
0000
0000
0000
0000
0000
0000
0000
0001
0000
0000
0000
0000
0000
0000
0000
0000
0000
0000
0000
0001
0000
0000
0000
0000
0000
0000
0000
0000
0000
0000
0000
0001
0000
0000
0000
0000
0000
0000
0000
0000
0000
0000
0000
,
0100
0000
0000
0000
0000
0000
0000
0000
0000
0000
0000
0000
0000
0000
0000
0000
0000
0000
0000
0000
0000
0000
0000
0000
1000
0000
0000
0000
0000
0000
0000
0000
0000
0000
0000
0000
0000
0000
0000
0000
0000
0000
0000
0001
0000
0000
0000
0000
0100
0000
0000
0000
0000
0000
0000
0001
0000
0000
0000
0000
0000
0000
0000
0000
0000
0000
0000
0000
0000
0000
0000
0000
0100
0000
0000
0000
0000
0000
0000
0000
0000
0000
0000
0000
0000
0000
0000
0000
0000
0000
0000
0000
0000
0000
0000
0000
,
0010
0000
0000
0000
0000
0000
0000
0000
0000
0000
0000
0000
0000
0000
0000
0000
0000
0000
0000
0000
0000
0000
0000
0000
0100
0000
0000
0000
0000
0000
0000
0000
0000
0000
0000
0000
0000
0000
0000
0000
0000
0000
0000
0001
0000
0000
0000
0000
1000
0000
0000
0000
0000
0000
0000
0000
0000
0000
0000
0000
1000
0000
0000
0000
0000
0000
0000
0000
0000
0000
0000
0000
1000
0000
0000
0000
0000
0000
0000
0000
0000
0000
0000
0000
1000
0000
0000
0000
0000
0000
0000
0000
0000
0000
0000
0000
,
0010
0000
0000
0000
0000
0000
0000
0000
0000
0000
0000
0000
0000
0000
0000
0000
0000
0000
0000
0000
0000
0000
0000
0000
1000
0000
0000
0000
0000
0000
0000
0000
0000
0000
0000
0000
0000
0000
0000
0000
0000
0000
0000
0100
0000
0000
0000
0000
0010
0000
0000
0000
0000
0000
0000
0100
0000
0000
0000
0000
0000
0000
0000
0000
0000
0000
0000
0000
0000
0000
0000
0000
0010
0000
0000
0000
0000
0000
0000
0000
0000
0000
0000
0000
0000
0000
0000
0000
0000
0000
0000
0000
0000
0000
0000
0000
,
0001
0000
0000
0000
0000
0000
0000
0000
0000
0000
0000
0000
0000
0000
0000
0000
0000
0000
0000
0000
0000
0000
0000
0000
0100
0000
0000
0000
0000
0000
0000
0000
0000
0000
0000
0000
0000
0000
0000
0000
0000
0000
0000
0010
0000
0000
0000
0000
0001
0000
0000
0000
0000
0000
0000
0000
0000
0000
0000
0000
0001
0000
0000
0000
0000
0000
0000
0000
0000
0000
0000
0000
0001
0000
0000
0000
0000
0000
0000
0000
0000
0000
0000
0000
0001
0000
0000
0000
0000
0000
0000
0000
0000
0000
0000
0000
,
0010
0000
0000
0000
0000
0000
0000
0000
0000
0000
0000
0000
0000
0000
0000
0000
0000
0000
0000
0000
0000
0000
0000
0000
1000
0000
0000
0000
0000
0000
0000
0000
0000
0000
0000
0000
0000
0000
0000
0000
0000
0000
0000
0001
0000
0000
0000
0000
0010
0000
0000
0000
0000
0000
0000
0001
0000
0000
0000
0000
0000
0000
0000
0000
0000
0000
0000
0000
0000
0000
0000
0000
0200
0000
0000
0000
0000
0000
0000
0000
0000
0000
0000
0000
0000
0000
0000
0000
0000
0000
0000
0000
0000
0000
0000
0000
,
0000
0000
0000
0000
,
0000
0000
0000
0000
0000
0000
0000
0300
,
0001
0100
0010
1000
0100
0010
0001
0000
1000
0010
0100
0001
0010
1000
0010
0000
,
0001
0100
1000
0100
0001
0010
0100
0000
1000
0010
0100
0001
0100
0010
1000
0000
,
0001
0010
0100
1000
0010
0100
0001
0000
1000
0100
0010
0001
0100
1000
0100
0000
,
0001
0010
1000
0010
0001
0100
0010
0000
1000
0100
0010
0001
0010
0100
1000
0000
,
0001
0000
0100
0010
0100
0000
0001
1000
,
0001
0000
1000
0100
1000
0000
0001
0100
,
0001
0000
1000
0010
1000
0000
0001
0010
,
0001
0000
1000
0100
0010
0000
0001
0100
,
0010
1000
0010
1000
0001
0010
0001
0010
,
0100
1000
0100
1000
0001
0100
0001
0100
,
0010
1000
0001
0010
0100
1000
0010
0100
,
0001
0000
0100
0000
0001
0001
0100
0010
,
1010
0000
1000
1000
1000
0100
0100
0100
,
1000
1000
1000
1000
1000
0010
0010
0100
,
0202
0303
0001
0010
2200
3300
1000
0010
,
0202
0303
0001
0010
0100
0010
2000
0000
,
3010
0000
0000
0000
0000
0000
0000
0000
0000
0000
0000
0000
0100
0000
0000
0000
0000
0000
0000
0000
0000
0000
0000
0000
0100
0000
0000
0000
0000
0000
0000
1000
0000
0000
0000
0000
0100
0000
0000
0000
0000
0000
0000
0000
0000
0000
0000
0000
0100
0000
0000
0000
0000
0000
0000
0000
0000
0000
0000
0000
0001
0000
0000
0000
0000
0000
0000
0000
0000
0000
0000
0000
0001
0000
0000
0000
0000
0000
0000
0000
0000
0000
0000
0000
0001
0000
0000
0000
0000
0000
0000
0000
0000
0000
0000
0000
,
0100
0100
0100
0100
1000
0010
0100
0001
,
1000
0000
0000
0000
0000
0000
0000
0000
0000
0000
0000
0000
0100
0000
0000
0000
0000
0000
0000
0000
0000
0000
0000
0000
0010
0000
0000
0000
0000
0000
0000
0001
0000
0000
0000
0000
0010
0000
0000
0000
0000
0000
0000
0001
0000
0000
0000
0000
0100
0000
0000
0000
0000
0000
0000
0000
0000
0000
0000
0000
0010
0000
0000
0000
0000
0000
0000
0000
0000
0000
0000
0000
1000
0000
0000
0000
0000
0000
0000
0001
0000
0000
0000
0000
1000
0000
0000
0000
0000
0000
0000
0001
0000
0000
0000
0000
,
1000
0000
0000
0000
0000
0000
0000
0000
0000
0000
0000
0000
0100
0000
0000
0000
0000
0000
0000
0000
0000
0000
0000
0000
0010
0000
0000
0000
0000
0000
0000
0001
0000
0000
0000
0000
0010
0000
0000
0000
0000
0000
0000
0001
0000
0000
0000
0000
2000
0000
0000
0000
0000
0000
0000
0000
0000
0000
0000
0000
0000
0000
0000
0000
0000
0000
0000
0000
0000
0000
0000
0000
3010
0000
0000
0000
0000
0000
0000
0000
0000
0000
0000
0000
0100
0000
0000
0000
0000
0000
0000
0000
0000
0000
0000
0000
,
1001
0000
0001
0001
0001
0100
0100
0100
,
0001
0001
0001
0001
0001
0010
0010
0100
,
2200
3300
1000
0010
0202
0303
0001
0010
,
2200
3300
1000
0010
0100
0010
0002
0000
,
0013
0000
0000
0000
0000
0000
0000
0000
0000
0000
0000
0000
0100
0000
0000
0000
0000
0000
0000
0000
0000
0000
0000
0000
0100
0000
0000
0000
0000
0000
0000
0001
0000
0000
0000
0000
0100
0000
0000
0000
0000
0000
0000
0000
0000
0000
0000
0000
0100
0000
0000
0000
0000
0000
0000
0000
0000
0000
0000
0000
1000
0000
0000
0000
0000
0000
0000
0000
0000
0000
0000
0000
1000
0000
0000
0000
0000
0000
0000
0000
0000
0000
0000
0000
1000
0000
0000
0000
0000
0000
0000
0000
0000
0000
0000
0000
,
0100
0100
0100
0100
0001
0010
0100
1000
,
0001
0000
0000
0000
0000
0000
0000
0000
0000
0000
0000
0000
0100
0000
0000
0000
0000
0000
0000
0000
0000
0000
0000
0000
0010
0000
0000
0000
0000
0000
0000
1000
0000
0000
0000
0000
0010
0000
0000
0000
0000
0000
0000
1000
0000
0000
0000
0000
0100
0000
0000
0000
0000
0000
0000
0000
0000
0000
0000
0000
0010
0000
0000
0000
0000
0000
0000
0000
0000
0000
0000
0000
0001
0000
0000
0000
0000
0000
0000
1000
0000
0000
0000
0000
0001
0000
0000
0000
0000
0000
0000
1000
0000
0000
0000
0000
,
0200
0000
0302
0000
0203
0000
2300
3002
,
0103
0001
0010
0001
0100
0010
1000
0100
,
1000
0010
0100
0001
1000
0100
0010
0001
,
1000
0100
1000
0010
0100
0001
0010
0001
,
0100
0010
1000
0100
0001
0100
1000
0001
,
0100
0001
0010
0001
0100
0010
1000
0100
,
1000
0010
1000
0001
1000
0100
0010
0001
,
0100
0001
0010
0100
1000
0010
1000
0001
,
0100
1000
0100
0001
0010
0100
1000
0100
,
0010
0100
1001
0000
0000
0000
0000
0000
;

//---------------dance-double - ----------------
#NOTEDATA:;
#CHARTNAME:;
#CHARTHASH:1644743318;
#STEPSTYPE:dance-double;
#BANNER:;
#DESCRIPTION:;
#CHARTSTYLE:;
#DIFFICULTY:Beginner;
#METER:1;
#METERF:0.000000;
#LASTSECONDHINT:124.222748;
#RADARVALUES:0.067724,0.118995,0.007646,0.000000,0.000000,62.000000,61.000000,1.000000,0.000000,0.000000,0.000000,0.000000,0.000000,0.000000,0.067724,0.118995,0.007646,0.000000,0.000000,62.000000,61.000000,1.000000,0.000000,0.000000,0.000000,0.000000,0.000000,0.000000;
#CREDIT:YOSEFU;
#NOTES:
00000000
00000000
00000000
00000000
,
00000000
00000000
00000000
00000000
,
00000000
00000000
00000000
00000000
,
00000000
00000000
00000000
00000000
,
00010000
00000000
00000000
00000000
,
00001000
00000000
00000000
00000000
,
01000000
00000000
00000000
00000000
,
00010000
00000000
00000000
00000000
,
10000000
00000000
00000000
00000000
,
01000000
00000000
00000000
00000000
,
00100000
00000000
00000000
00000000
,
01000000
00000000
00000000
00000000
,
00100000
00000000
00000000
00000000
,
00001000
00000000
00000000
00000000
,
00010000
00000000
00000000
00000000
,
00000010
00000000
00000000
00000000
,
00001000
00000000
00000000
00000000
,
00000001
00000000
00000000
00000000
,
00000010
00000000
00000000
00000000
,
00000100
00000000
00000000
00000000
,
00010000
00000000
00000000
00000000
,
00001000
00000000
00000000
00000000
,
01000000
00000000
00000000
00000000
,
00010000
00000000
00000000
00000000
,
00000000
00000000
00000000
00000000
,
00000000
00000000
00000000
00000000
,
10000000
00000000
00010000
00000000
,
00100000
00000000
01000000
00000000
,
00100000
00000000
00001000
00000000
,
00010000
00000000
00000010
00000000
,
00001000
00000000
00000000
00000000
,
00000001
00000000
00000000
00000000
,
00000010
00000000
00000000
00000000
,
00000100
00000000
00000000
00000000
,
00000010
00000000
00000000
00000000
,
00000001
00000000
00000000
00000000
,
00001000
00000000
00000000
00000000
,
00000010
00000000
00000000
00000000
,
00010000
00000000
00000000
00000000
,
00001000
00000000
00000000
00000000
,
00100000
00000000
00000000
00000000
,
01000000
00000000
00000000
00000000
,
00100000
00000000
00000000
00000000
,
00010000
00000000
00000000
00000000
,
10000000
00000000
00000000
00000000
,
00100000
00000000
00000000
00000000
,
01000000
00000000
00000000
00000000
,
00001000
00000000
00000000
00000000
,
00010000
00000000
00000000
00000000
,
00000100
00000000
00000000
00000000
,
00001000
00000000
00000000
00000000
,
00000001
00000000
00000000
00000000
,
00000100
00000000
00000000
00000000
,
00000010
00000000
00000000
00000000
,
00001000
00000000
00000000
00000000
,
00000100
00000000
00000000
00000000
,
00010000
00000000
00000000
00000000
,
00001000
00000000
00000000
00000000
,
01000000
00000000
00000000
00000000
,
00010000
00000000
00000000
00000000
,
10000000
00000000
00000000
00000000
,
01000000
00000000
00000000
00000000
,
00000000
01100000
00000000
00000000
;

//---------------dance-double - ----------------
#NOTEDATA:;
#CHARTNAME:;
#CHARTHASH:2754560636;
#STEPSTYPE:dance-double;
#BANNER:;
#DESCRIPTION:;
#CHARTSTYLE:;
#DIFFICULTY:Easy;
#METER:4;
#METERF:0.000000;
#LASTSECONDHINT:124.222748;
#RADARVALUES:0.180233,0.309387,0.038231,0.007646,0.000000,165.000000,160.000000,5.000000,1.000000,0.000000,0.000000,0.000000,0.000000,0.000000,0.180233,0.309387,0.038231,0.007646,0.000000,165.000000,160.000000,5.000000,1.000000,0.000000,0.000000,0.000000,0.000000,0.000000;
#CREDIT:YOSEFU;
#NOTES:
00000000
00000000
00000000
00000000
,
00000000
00000000
00000000
00000000
,
00000000
00000000
00000000
00000000
,
00000000
00000000
00000000
00000000
,
00010000
00001000
00010000
00001000
,
00100000
00001000
00100000
00001000
,
00100000
00010000
00100000
00010000
,
20000000
00000000
00000000
30000000
,
00100000
00000000
01000000
00000000
,
00010000
00000000
10000000
00000000
,
01000000
00000000
00100000
00000000
,
00001000
00000000
00010000
00000000
,
00000010
00000000
00000100
00000000
,
00000001
00000000
00000010
00000000
,
00000100
00000000
00010000
00000000
,
00001000
00100000
00010000
00000000
,
10000000
00100000
01000000
00000000
,
00010000
00100000
01000000
00000000
,
00100000
00001000
00010000
00000000
,
00000010
00001000
00000100
00000000
,
00000010
00000001
00001000
00000000
,
00000010
00000100
00000001
00000000
,
00000100
00000010
00010000
00000000
,
00001000
00100000
01000000
01000000
,
00000000
00000000
00000000
00000000
,
00000000
00000000
00000000
00000000
,
10000000
00100000
01000000
00000000
00010000
00100000
01000000
00000000
,
00100000
00001000
00010000
00000000
00000010
00001000
00000100
00000000
,
00000010
00000001
00001000
00000000
00000010
00000100
00000001
00000000
,
00000010
00000100
00010000
00000000
00001000
00100000
00010000
00000000
,
01000000
00000000
00100000
00000000
,
10000000
00000000
01000000
00000000
,
00100000
00000000
00001000
00000000
,
00010000
00000000
00000100
00000000
,
00001000
00000000
00000010
00000000
,
00000100
00000000
00000001
00000000
,
00000010
00000000
00000100
00000000
,
00010000
00000000
00001000
00000000
,
00011000
00000000
00010000
00010000
,
00001000
00000000
00100000
00100000
,
00001000
00000000
01000000
00000000
,
00001000
00000000
01000000
00100000
,
10100000
00000000
10000000
10000000
,
01000000
00000000
00100000
00100000
,
00001000
00000000
00010000
00000000
,
00000010
00000000
00000100
00000001
,
00001001
00000000
00001000
00001000
,
00000100
00000000
00010000
00010000
,
00001000
00000000
00100000
00000000
,
00010000
00000000
01000000
00100000
,
10100000
00000000
10000000
10000000
,
01000000
00000000
00100000
00100000
,
00001000
00000000
00010000
00000000
,
00000010
00000100
00000001
00000000
,
00000010
00000000
00000100
00000000
,
00010000
00000000
00001000
00100000
,
00010000
00000000
10000000
00000000
,
00100000
00000000
01000000
00001000
,
00010000
00000000
00000100
00000000
,
00001000
00000000
00000001
00000100
,
00000010
00000000
00001000
00000000
,
00000010
00000000
00010000
00001000
,
00000000
00011000
00000000
00000000
;

//---------------dance-double - ----------------
#NOTEDATA:;
#CHARTNAME:;
#CHARTHASH:876564670;
#STEPSTYPE:dance-double;
#BANNER:;
#DESCRIPTION:;
#CHARTSTYLE:;
#DIFFICULTY:Medium;
#METER:7;
#METERF:0.000000;
#LASTSECONDHINT:124.222748;
#RADARVALUES:0.322235,0.499778,0.076463,0.076463,0.030585,295.000000,285.000000,10.000000,10.000000,0.000000,0.000000,0.000000,0.000000,0.000000,0.322235,0.499778,0.076463,0.076463,0.030585,295.000000,285.000000,10.000000,10.000000,0.000000,0.000000,0.000000,0.000000,0.000000;
#CREDIT:YOSEFU;
#NOTES:
00000000
00000000
00000000
00000000
,
00000000
00000000
00000000
00000000
,
00000000
00000000
00000000
00000000
,
00000000
00000000
00000000
00000000
,
00010000
00001000
00100000
00001000
,
00100000
00010000
10000000
00100000
,
01000000
00001000
00010000
00000100
,
00002000
00000000
00000000
00000000
,
00003001
00000100
00000010
00010000
,
00001000
00100000
00001000
01000000
,
00010000
10000000
01000000
00100000
,
00001000
00010000
00000010
00001000
,
00000001
00000010
00000100
00001000
,
00000001
00000100
00000010
00001000
,
00000010
00010000
00001000
00100000
,
02000000
03020000
02030000
23000000
,
30010000
00000000
01000000
00000000
00001000
00010000
00000100
00000000
,
00001000
00000001
00000010
00000010
,
00000100
00000000
00001000
00000000
00000010
00010000
00001000
00000000
,
00100000
01000000
10000000
10000000
,
00100000
00000000
01000000
00000000
00001000
00010000
00000100
00000000
,
00001000
00000010
00000100
00000100
,
00000001
00000000
00000010
00000000
00000100
00010000
00001000
00000000
,
01000000
00100000
10000000
20000000
,
00000000
00000000
00000000
00000000
,
00000000
00000000
00000000
00000000
00000000
00000000
00000000
30000000
,
01000000
00000000
00100000
00000000
00010000
10000000
00100000
00000000
01000000
00000000
00001000
00000000
00010000
00000100
00001000
00000000
,
00000100
00000000
00000010
00000000
00000001
00000100
00000010
00000000
00001000
00000000
00000010
00000000
00010000
00001000
00100000
00000000
,
00001000
00000000
00100000
00000000
01000000
10000000
00010000
00000000
01000000
00000000
00100000
00000000
10000000
00010000
00100000
00000000
,
00001000
00000000
00010000
00000000
00000010
00001000
00000001
00000000
00000010
00000000
00000100
00000000
00010000
00001000
01000000
00000000
,
00100000
10000000
00010000
00100000
,
00001000
00010000
00000010
00000100
,
00000001
00000010
00000100
00001000
,
00000010
00010000
00001000
00100000
,
00010000
00000000
10000000
00100000
10000000
00000000
00010000
00100000
,
00010000
00000000
00100000
00001000
00100000
00000000
00000010
00010000
,
00000010
00000000
00001000
00000010
00001000
00000000
00000001
00000010
,
00000001
00001000
00000010
00001000
,
00001100
00000000
00000100
00000010
00000100
00000000
00001000
00000001
,
00001000
00000000
00000010
00001000
00000010
00000000
00010000
00001000
,
00010000
00011000
00001000
00110000
,
10000000
10100000
00010000
01010000
,
01000000
00000000
00001000
00010000
00001000
00000000
00010000
00000010
,
00010000
00000000
00000100
00001000
00000100
00000000
00000010
00000000
,
00000001
00000100
00000010
00000000
00010000
00001000
01000000
00000000
,
00100000
10000000
01000000
00000000
00100000
00000000
00001000
00000000
,
00010000
00000000
00000010
00001000
00000010
00000000
00000100
00000001
,
00000100
00000000
00000001
00000010
00000001
00000000
00001000
00000010
,
00001000
00001100
00010000
00011000
,
00100000
00110000
10000000
10100000
,
00100000
00000000
01000000
00010000
01000000
00000000
00001000
00010000
,
00001000
00000000
00010000
00000100
00010000
00000000
00000100
00000000
,
00000010
00000001
00000100
00000000
00000010
00001000
00000100
00000000
,
00000020
00002030
00023000
00032000
,
00103000
00000000
00010000
10000000
00010000
00000000
01000000
00000000
,
00100000
00000000
10000000
00010000
10000000
00000000
01000000
00000000
,
00010000
00000000
00001000
00010000
00001000
00000000
00100000
00000000
,
00001000
00000000
00010000
00000010
00010000
00000010
00001000
00000000
,
00000001
00000000
00000010
00000100
00000010
00000000
00000001
00000000
,
00000100
00000000
00000010
00001000
00000010
00000000
00000100
00000000
,
00001000
00000000
00010000
00001000
00010000
00000000
00001000
00000000
,
00100000
00000000
01000000
10000000
01000000
00000000
00100000
00000000
,
00010000
00011000
00000000
00000000
;

//---------------dance-double - ----------------
#NOTEDATA:;
#CHARTNAME:MOAR SPAAAAAAAAAACE;
#CHARTHASH:3965966396;
#STEPSTYPE:dance-double;
#BANNER:;
#DESCRIPTION:;
#CHARTSTYLE:;
#DIFFICULTY:Hard;
#METER:12;
#METERF:0.000000;
#LASTSECONDHINT:124.222748;
#RADARVALUES:0.454406,0.690170,0.068816,0.114694,0.221741,416.000000,407.000000,9.000000,15.000000,0.000000,0.000000,0.000000,0.000000,0.000000,0.454406,0.690170,0.068816,0.114694,0.221741,416.000000,407.000000,9.000000,15.000000,0.000000,0.000000,0.000000,0.000000,0.000000;
#CREDIT:YOSEFU;
#NOTES:
00000000
00000000
00000000
00000000
,
00000000
00000000
00000000
00000000
,
00000000
00000000
00000000
00000000
,
00000000
00000000
00000000
00000000
,
00010000
00000000
00001000
00000000
00100000
00000000
00010000
10000000
,
00100000
00000000
10000000
00000000
00010000
00000000
00100000
00001000
,
00010000
00000000
00000010
00000000
00000100
00000000
00000001
00001000
,
00000200
00000000
00000000
00000000
,
00000310
00000000
00000000
00000000
00000000
00000000
00000000
00000000
00000000
00000000
00000000
00000000
00000000
00000000
00000000
00000000
00000000
00000000
00000000
00000000
00000000
00000000
00000000
00000000
00000001
00000000
00000000
00000000
00000000
00000000
00000000
00000000
00000000
00000000
00000000
00000000
00000000
00000000
00000000
00000000
00000000
00000000
00000000
00001000
00000000
00000000
00000000
00000000
00000010
00000000
00000000
00000000
00000000
00000000
00000000
00000000
00000000
00000000
00000000
00000000
00000000
00000000
00000000
00000000
00000000
00000000
00000000
00000000
00000000
00000000
00000000
00000000
00000100
00000000
00000000
00000000
00000000
00000000
00000000
00000000
00000000
00000000
00000000
00000000
00000000
00000000
00000000
00000000
00000000
00000000
00000000
00000000
00000000
00000000
00000000
00000000
,
00001000
00000000
00000000
00000000
00000000
00000000
00000000
00000000
00000000
00000000
00000000
00000000
00000000
00000000
00000000
00000000
00000000
00000000
00000000
00000000
00000000
00000000
00000000
00000000
00010000
00000000
00000000
00000000
00000000
00000000
00000000
00000000
00000000
00000000
00000000
00000000
00000000
00000000
00000000
00000000
00000000
00000000
00000000
00001000
00000000
00000000
00000000
00000000
00100000
00000000
00000000
00000000
00000000
00000000
00000000
00001000
00000000
00000000
00000000
00000000
00000000
00000000
00000000
00000000
00000000
00000000
00000000
00000000
00000000
00000000
00000000
00000000
00010000
00000000
00000000
00000000
00000000
00000000
00000000
00000000
00000000
00000000
00000000
00000000
00000000
00000000
00000000
00000000
00000000
00000000
00000000
00000000
00000000
00000000
00000000
00000000
,
00001000
00000000
00000000
00000000
00000000
00000000
00000000
00000000
00000000
00000000
00000000
00000000
00000000
00000000
00000000
00000000
00000000
00000000
00000000
00000000
00000000
00000000
00000000
00000000
01000000
00000000
00000000
00000000
00000000
00000000
00000000
00000000
00000000
00000000
00000000
00000000
00000000
00000000
00000000
00000000
00000000
00000000
00000000
00010000
00000000
00000000
00000000
00000000
01000000
00000000
00000000
00000000
00000000
00000000
00000000
00000000
00000000
00000000
00000000
00000000
00000000
00000000
00000000
00000000
00000000
00000000
00000000
00000000
00000000
00000000
00000000
00000000
00100000
00000000
00000000
00000000
00000000
00000000
00000000
00000000
00000000
00000000
00000000
00000000
00000000
00000000
00000000
00000000
00000000
00000000
00000000
00000000
00000000
00000000
00000000
00000000
,
10000000
00000000
00000000
00000000
00000000
00000000
00000000
00000000
00000000
00000000
00000000
00000000
00000000
00000000
00000000
00000000
00000000
00000000
00000000
00000000
00000000
00000000
00000000
00000000
01000000
00000000
00000000
00000000
00000000
00000000
00000000
00000000
00000000
00000000
00000000
00000000
00000000
00000000
00000000
00000000
00000000
00000000
00000000
00100000
00000000
00000000
00000000
00000000
00001000
00000000
00000000
00000000
00000000
00000000
00000000
00100000
00000000
00000000
00000000
00000000
00000000
00000000
00000000
00000000
00000000
00000000
00000000
00000000
00000000
00000000
00000000
00000000
00010000
00000000
00000000
00000000
00000000
00000000
00000000
00000000
00000000
00000000
00000000
00000000
00000000
00000000
00000000
00000000
00000000
00000000
00000000
00000000
00000000
00000000
00000000
00000000
,
00100000
00000000
00000000
00000000
00000000
00000000
00000000
00000000
00000000
00000000
00000000
00000000
00000000
00000000
00000000
00000000
00000000
00000000
00000000
00000000
00000000
00000000
00000000
00000000
01000000
00000000
00000000
00000000
00000000
00000000
00000000
00000000
00000000
00000000
00000000
00000000
00000000
00000000
00000000
00000000
00000000
00000000
00000000
00010000
00000000
00000000
00000000
00000000
00001000
00000000
00000000
00000000
00000000
00000000
00000000
00000000
00000000
00000000
00000000
00000000
00000000
00000000
00000000
00000000
00000000
00000000
00000000
00000000
00000000
00000000
00000000
00000000
00010000
00000000
00000000
00000000
00000000
00000000
00000000
00000000
00000000
00000000
00000000
00000000
00000000
00000000
00000000
00000000
00000000
00000000
00000000
00000000
00000000
00000000
00000000
00000000
,
00000010
00000000
00000000
00000000
00000000
00000000
00000000
00000000
00000000
00000000
00000000
00000000
00000000
00000000
00000000
00000000
00000000
00000000
00000000
00000000
00000000
00000000
00000000
00000000
00000100
00000000
00000000
00000000
00000000
00000000
00000000
00000000
00000000
00000000
00000000
00000000
00000000
00000000
00000000
00000000
00000000
00000000
00000000
00001000
00000000
00000000
00000000
00000000
00010000
00000000
00000000
00000000
00000000
00000000
00000000
00001000
00000000
00000000
00000000
00000000
00000000
00000000
00000000
00000000
00000000
00000000
00000000
00000000
00000000
00000000
00000000
00000000
00100000
00000000
00000000
00000000
00000000
00000000
00000000
00000000
00000000
00000000
00000000
00000000
00000000
00000000
00000000
00000000
00000000
00000000
00000000
00000000
00000000
00000000
00000000
00000000
,
01000000
00000000
00000000
00000000
00000000
00000000
00000000
00000000
00000000
00000000
00000000
00000000
00000000
00000000
00000000
00000000
00000000
00000000
00000000
00000000
00000000
00000000
00000000
00000000
10000000
00000000
00000000
00000000
00000000
00000000
00000000
00000000
00000000
00000000
00000000
00000000
00000000
00000000
00000000
00000000
00000000
00000000
00000000
00100000
00000000
00000000
00000000
00000000
10000000
00000000
00000000
00000000
00000000
00000000
00000000
00000000
00000000
00000000
00000000
00000000
00000000
00000000
00000000
00000000
00000000
00000000
00000000
00000000
00000000
00000000
00000000
00000000
01000000
00000000
00000000
00000000
00000000
00000000
00000000
00000000
00000000
00000000
00000000
00000000
00000000
00000000
00000000
00000000
00000000
00000000
00000000
00000000
00000000
00000000
00000000
00000000
,
00200000
00000000
20300000
00000000
30200000
00000000
00302000
00023000
,
00030010
00000000
00000000
00000000
00000000
00000000
00000000
00000000
00000000
00000000
00000000
00000000
00000000
00000000
00000000
00000000
00000000
00000000
00000000
00000000
00000000
00000000
00000000
00000000
00000100
00000000
00000000
00000000
00000000
00000000
00000000
00000000
00000000
00000000
00000000
00000000
00000000
00000000
00000000
00000000
00000000
00000000
00000000
00000001
00000000
00000000
00000000
00000000
00001000
00000000
00000000
00000000
00000000
00000000
00000000
00000000
00000000
00000000
00000000
00000000
00001000
00000000
00000000
00000000
00000000
00000000
00000000
00000000
00000000
00000000
00000000
00000000
00001000
00000000
00000000
00000000
00000000
00000000
00000000
00000000
00000000
00000000
00000000
00000000
00001000
00000000
00000000
00000000
00000000
00000000
00000000
00000000
00000000
00000000
00000000
00000000
,
00000100
00000000
00000000
00000000
00000000
00000000
00000000
00000000
00000000
00000000
00000000
00000000
00000000
00000000
00000000
00000000
00000000
00000000
00000000
00000000
00000000
00000000
00000000
00000000
00000010
00000000
00000000
00000000
00000000
00000000
00000000
00000000
00000000
00000000
00000000
00000000
00000000
00000000
00000000
00000000
00000000
00000000
00000000
00000001
00000000
00000000
00000000
00000000
00001000
00000000
00000000
00000000
00000000
00000000
00000000
00000001
00000000
00000000
00000000
00000000
00000000
00000000
00000000
00000000
00000000
00000000
00000000
00000000
00000000
00000000
00000000
00000000
00001000
00000000
00000000
00000000
00000000
00000000
00000000
00000000
00000000
00000000
00000000
00000000
00000000
00000000
00000000
00000000
00000000
00000000
00000000
00000000
00000000
00000000
00000000
00000000
,
00000010
00000000
00000000
00000000
00000000
00000000
00000000
00000000
00000000
00000000
00000000
00000000
00000000
00000000
00000000
00000000
00000000
00000000
00000000
00000000
00000000
00000000
00000000
00000000
00000100
00000000
00000000
00000000
00000000
00000000
00000000
00000000
00000000
00000000
00000000
00000000
00000000
00000000
00000000
00000000
00000000
00000000
00000000
00001000
00000000
00000000
00000000
00000000
00010000
00000000
00000000
00000000
00000000
00000000
00000000
00000000
00000000
00000000
00000000
00000000
00010000
00000000
00000000
00000000
00000000
00000000
00000000
00000000
00000000
00000000
00000000
00000000
00010000
00000000
00000000
00000000
00000000
00000000
00000000
00000000
00000000
00000000
00000000
00000000
00010000
00000000
00000000
00000000
00000000
00000000
00000000
00000000
00000000
00000000
00000000
00000000
,
00100000
00000000
00000000
00000000
00000000
00000000
00000000
00000000
00000000
00000000
00000000
00000000
00000000
00000000
00000000
00000000
00000000
00000000
00000000
00000000
00000000
00000000
00000000
00000000
01000000
00000000
00000000
00000000
00000000
00000000
00000000
00000000
00000000
00000000
00000000
00000000
00000000
00000000
00000000
00000000
00000000
00000000
00000000
00010000
00000000
00000000
00000000
00000000
10000000
00000000
00000000
00000000
00000000
00000000
00000000
00010000
00000000
00000000
00000000
00000000
00000000
00000000
00000000
00000000
00000000
00000000
00000000
00000000
00000000
00000000
00000000
00000000
10000000
00000000
00000000
00000000
00000000
00000000
00000000
00000000
00000000
00000000
00000000
00000000
00000000
00000000
00000000
00000000
00000000
00000000
00000000
00000000
00000000
00000000
00000000
00000000
,
01000000
00000000
00000000
00000000
00000000
00000000
00000000
00000000
00000000
00000000
00000000
00000000
00000000
00000000
00000000
00000000
00000000
00000000
00000000
00000000
00000000
00000000
00000000
00000000
00100000
00000000
00000000
00000000
00000000
00000000
00000000
00000000
00000000
00000000
00000000
00000000
00000000
00000000
00000000
00000000
00000000
00000000
00000000
00001000
00000000
00000000
00000000
00000000
00010000
00000000
00000000
00000000
00000000
00000000
00000000
00000000
00000000
00000000
00000000
00000000
00010000
00000000
00000000
00000000
00000000
00000000
00000000
00000000
00000000
00000000
00000000
00000000
00010000
00000000
00000000
00000000
00000000
00000000
00000000
00000000
00000000
00000000
00000000
00000000
00010000
00000000
00000000
00000000
00000000
00000000
00000000
00000000
00000000
00000000
00000000
00000000
,
00000100
00000000
00000000
00000000
00000000
00000000
00000000
00000000
00000000
00000000
00000000
00000000
00000000
00000000
00000000
00000000
00000000
00000000
00000000
00000000
00000000
00000000
00000000
00000000
00001000
00000000
00000000
00000000
00000000
00000000
00000000
00000000
00000000
00000000
00000000
00000000
00000000
00000000
00000000
00000000
00000000
00000000
00000000
00000010
00000000
00000000
00000000
00000000
00000100
00000000
00000000
00000000
00000000
00000000
00000000
00000010
00000000
00000000
00000000
00000000
00000000
00000000
00000000
00000000
00000000
00000000
00000000
00000000
00000000
00000000
00000000
00000000
00000100
00000000
00000000
00000000
00000000
00000000
00000000
00000000
00000000
00000000
00000000
00000000
00000000
00000000
00000000
00000000
00000000
00000000
00000000
00000000
00000000
00000000
00000000
00000000
,
00000001
00000000
00000000
00000000
00000000
00000000
00000000
00000000
00000000
00000000
00000000
00000000
00000000
00000000
00000000
00000000
00000000
00000000
00000000
00000000
00000000
00000000
00000000
00000000
00000010
00000000
00000000
00000000
00000000
00000000
00000000
00000000
00000000
00000000
00000000
00000000
00000000
00000000
00000000
00000000
00000000
00000000
00000000
00001000
00000000
00000000
00000000
00000000
00010000
00000000
00000000
00000000
00000000
00000000
00000000
00000000
00000000
00000000
00000000
00000000
00010000
00000000
00000000
00000000
00000000
00000000
00000000
00000000
00000000
00000000
00000000
00000000
00010000
00000000
00000000
00000000
00000000
00000000
00000000
00000000
00000000
00000000
00000000
00000000
00010000
00000000
00000000
00000000
00000000
00000000
00000000
00000000
00000000
00000000
00000000
00000000
,
00100000
00000000
00000000
00000000
00000000
00000000
00000000
00000000
00000000
00000000
00000000
00000000
00000000
00000000
00000000
00000000
00000000
00000000
00000000
00000000
00000000
00000000
00000000
00000000
01000000
00000000
00000000
00000000
00000000
00000000
00000000
00000000
00000000
00000000
00000000
00000000
00000000
00000000
00000000
00000000
00000000
00000000
00000000
00100000
00000000
00000000
00000000
00000000
10000000
00000000
00000000
00000000
00000000
00000000
00000000
00100000
00000000
00000000
00000000
00000000
00000000
00000000
00000000
00000000
00000000
00000000
00000000
00000000
00000000
00000000
00000000
00000000
20000000
00000000
00000000
00000000
00000000
00000000
00000000
00000000
00000000
00000000
00000000
00000000
00000000
00000000
00000000
00000000
00000000
00000000
00000000
00000000
00000000
00000000
00000000
00000000
,
00000000
00000000
00000000
00000000
,
00000000
00000000
00000000
00000000
,
31000000
00100000
00010000
00100000
01000000
10000000
00010000
00000000
01000000
00100000
10000000
01000000
00100000
00001000
00010000
00000000
,
00000100
00000010
00001000
00010000
00100000
01000000
00010000
00000000
10000000
01000000
00100000
00010000
01000000
00100000
10000000
00000000
,
01000000
00100000
00001000
00010000
00001000
00100000
01000000
00000000
10000000
00100000
01000000
00001000
00010000
00000100
00001000
00000000
,
00000010
00000100
00001000
00010000
00100000
01000000
00010000
00000000
10000000
01000000
00010000
00001000
00000100
00000001
00001000
00000000
,
00000001
00000100
00001000
00010000
,
00100000
01000000
00010000
10000000
,
01000000
00010000
00001000
00000100
,
00000001
00000010
00001000
00010000
,
00100000
01000000
00100000
01000000
00010000
10000000
00010000
10000000
,
01000000
00100000
01000000
00100000
00001000
01000000
00001000
01000000
,
00100000
00010000
00001000
00000010
00000001
00000100
00001000
00010000
,
00100000
00000000
01000000
00010000
10000000
10000000
01000000
00100000
,
00110000
00000000
00001000
00001000
00001000
00010000
00010000
00010000
,
00001000
00001000
00001000
00001000
00001000
00100000
00100000
00001000
,
00011000
00000000
00010000
00000010
00000110
00000000
00000100
00000001
,
00001001
00000000
00001000
00000100
00000010
00001000
00020000
00000000
,
00031000
00000000
00000000
00000000
00000000
00000000
00000000
00000000
00000000
00000000
00000000
00000000
01000000
00000000
00000000
00000000
00000000
00000000
00000000
00000000
00000000
00000000
00000000
00000000
01000000
00000000
00000000
00000000
00000000
00000000
00000000
00010000
00000000
00000000
00000000
00000000
01000000
00000000
00000000
00000000
00000000
00000000
00000000
00000000
00000000
00000000
00000000
00000000
01000000
00000000
00000000
00000000
00000000
00000000
00000000
00000000
00000000
00000000
00000000
00000000
10000000
00000000
00000000
00000000
00000000
00000000
00000000
00000000
00000000
00000000
00000000
00000000
10000000
00000000
00000000
00000000
00000000
00000000
00000000
00000000
00000000
00000000
00000000
00000000
10000000
00000000
00000000
00000000
00000000
00000000
00000000
00000000
00000000
00000000
00000000
00000000
,
01000000
01000000
01000000
01000000
00010000
00100000
01000000
10000000
,
00010000
00000000
00000000
00000000
00000000
00000000
00000000
00000000
00000000
00000000
00000000
00000000
01000000
00000000
00000000
00000000
00000000
00000000
00000000
00000000
00000000
00000000
00000000
00000000
00100000
00000000
00000000
00000000
00000000
00000000
00000000
10000000
00000000
00000000
00000000
00000000
00100000
00000000
00000000
00000000
00000000
00000000
00000000
10000000
00000000
00000000
00000000
00000000
00010000
00000000
00000000
00000000
00000000
00000000
00000000
00000000
00000000
00000000
00000000
00000000
00100000
00000000
00000000
00000000
00000000
00000000
00000000
00000000
00000000
00000000
00000000
00000000
00001000
00000000
00000000
00000000
00000000
00000000
00000000
00010000
00000000
00000000
00000000
00000000
00001000
00000000
00000000
00000000
00000000
00000000
00000000
00010000
00000000
00000000
00000000
00000000
,
00000010
00000000
00000000
00000000
00000000
00000000
00000000
00000000
00000000
00000000
00000000
00000000
00000100
00000000
00000000
00000000
00000000
00000000
00000000
00000000
00000000
00000000
00000000
00000000
00000001
00000000
00000000
00000000
00000000
00000000
00000000
00001000
00000000
00000000
00000000
00000000
00000001
00000000
00000000
00000000
00000000
00000000
00000000
00001000
00000000
00000000
00000000
00000000
00000002
00000000
00000000
00000000
00000000
00000000
00000000
00000000
00000000
00000000
00000000
00000000
00000000
00000000
00000000
00000000
00000000
00000000
00000000
00000000
00000000
00000000
00000000
00000000
00000013
00000000
00000000
00000000
00000000
00000000
00000000
00000000
00000000
00000000
00000000
00000000
00000100
00000000
00000000
00000000
00000000
00000000
00000000
00000000
00000000
00000000
00000000
00000000
,
00001001
00000000
00001000
00001000
00001000
00000010
00000010
00000010
,
00001000
00001000
00001000
00001000
00001000
00000100
00000100
00010000
,
00011000
00000000
00001000
01000000
01100000
00000000
00100000
10000000
,
10010000
00000000
00010000
00100000
01000000
00010000
00002000
00000000
,
00003010
00000000
00000000
00000000
00000000
00000000
00000000
00000000
00000000
00000000
00000000
00000000
00000100
00000000
00000000
00000000
00000000
00000000
00000000
00000000
00000000
00000000
00000000
00000000
00000100
00000000
00000000
00000000
00000000
00000000
00000000
00001000
00000000
00000000
00000000
00000000
00000100
00000000
00000000
00000000
00000000
00000000
00000000
00000000
00000000
00000000
00000000
00000000
00000100
00000000
00000000
00000000
00000000
00000000
00000000
00000000
00000000
00000000
00000000
00000000
00000001
00000000
00000000
00000000
00000000
00000000
00000000
00000000
00000000
00000000
00000000
00000000
00000001
00000000
00000000
00000000
00000000
00000000
00000000
00000000
00000000
00000000
00000000
00000000
00000001
00000000
00000000
00000000
00000000
00000000
00000000
00000000
00000000
00000000
00000000
00000000
,
00000100
00000100
00000100
00000100
00001000
00000010
00000100
00000001
,
00000010
00000000
00000000
00000000
00000000
00000000
00000000
00000000
00000000
00000000
00000000
00000000
00000100
00000000
00000000
00000000
00000000
00000000
00000000
00000000
00000000
00000000
00000000
00000000
00010000
00000000
00000000
00000000
00000000
00000000
00000000
00001000
00000000
00000000
00000000
00000000
00010000
00000000
00000000
00000000
00000000
00000000
00000000
00001000
00000000
00000000
00000000
00000000
01000000
00000000
00000000
00000000
00000000
00000000
00000000
00000000
00000000
00000000
00000000
00000000
00100000
00000000
00000000
00000000
00000000
00000000
00000000
00000000
00000000
00000000
00000000
00000000
10000000
00000000
00000000
00000000
00000000
00000000
00000000
00010000
00000000
00000000
00000000
00000000
10000000
00000000
00000000
00000000
00000000
00000000
00000000
00010000
00000000
00000000
00000000
00000000
,
00200000
00000000
20300000
00000000
30200000
00000000
00302000
00023000
,
00030010
00000100
00000001
00000100
00000010
00001000
00000100
00010000
,
00001000
00100000
00010000
10000000
00100000
01000000
00010000
10000000
,
01000000
00100000
01000000
10000000
00010000
01000000
00100000
01000000
,
00001000
00010000
00000100
00001000
00000010
00000001
00000010
00000100
,
00001000
00010000
00100000
01000000
00010000
00100000
01000000
10000000
,
00010000
01000000
00001000
00010000
00000100
00000010
00000001
00000100
,
00000010
00000001
00000010
00000100
00001000
00010000
00000010
00000100
,
00001000
00010000
00000100
00000010
00001000
00010000
00100000
01000000
,
00010000
10000000
10010000
00000000
00000000
00000000
00000000
00000000
;
