#TITLE:Somnidiscotheque;
#SUBTITLE:;
#ARTIST:夢路 歩;
#TITLETRANSLIT:;
#SUBTITLETRANSLIT:;
#ARTISTTRANSLIT:Ayumu Yumeji;
#GENRE:SUBCONSCIOUS FRAGMENT;
#CREDIT:;
#BANNER:Somnidiscotheque.png;
#BACKGROUND:Somnidiscotheque-bg.png;
#LYRICSPATH:;
#CDTITLE:../_YSD cdtitles/ysd br2024 cdtitle.png;
#MUSIC:Somnidiscotheque.ogg;
#OFFSET:0.000000;
#SAMPLESTART:38.608479;
#SAMPLELENGTH:16.695999;
#SELECTABLE:YES;
#BPMS:0.000000=115.000000
;
#STOPS:
;
#BGCHANGES:2.000000=Somnidiscotheque.avi=1.000000=1=0=0=StretchNoLoop==CrossFade==,
99999=-nosongbg-=1.000=0=0=0 // don't automatically add -songbackground-
;
#KEYSOUNDS:;
#ATTACKS:;

//---------------dance-single - ----------------
#NOTES:
     dance-single:
     :
     Beginner:
     5:
     0.160254,0.274958,0.186963,0.048773,0.032515,138.000000,115.000000,23.000000,6.000000,0.000000,0.000000,0.160254,0.274958,0.186963,0.048773,0.032515,138.000000,115.000000,23.000000,6.000000,0.000000,0.000000:
// measure 0
0000
0000
0000
0000
,  // measure 1
0000
0000
0000
0000
,  // measure 2
0000
0000
0000
0000
1000
0000
0000
1000
,  // measure 3
0000
0000
0000
0000
,  // measure 4
0000
0000
0000
0000
0001
0000
0000
0001
,  // measure 5
0000
0000
0000
0000
,  // measure 6
0000
0000
0010
0000
1001
0000
0000
1001
,  // measure 7
0000
0000
0000
0000
,  // measure 8
0000
0000
0000
0000
1001
0000
0000
1001
,  // measure 9
0000
0000
0110
0000
,  // measure 10
0000
0000
1001
1000
,  // measure 11
0000
0000
0000
0000
1000
0000
0000
0000
0000
0000
0001
0000
0000
0001
0000
0000
,  // measure 12
0000
0100
0100
0010
,  // measure 13
0010
0000
1001
0000
,  // measure 14
0110
0000
1001
1000
,  // measure 15
0000
0100
0100
0010
,  // measure 16
0010
0000
0000
0000
1001
0000
0000
1001
,  // measure 17
0000
0000
0000
0000
0000
0000
0000
0000
0000
1000
0000
0000
0000
0000
0000
0000
,  // measure 18
0000
0000
0000
0000
1001
0000
0000
1000
,  // measure 19
0000
0000
0100
0000
0000
0010
0000
0000
,  // measure 20
0001
0000
0100
0000
0010
0000
0000
1000
,  // measure 21
0000
0100
0010
0100
,  // measure 22
1000
0000
0001
0000
1000
0000
0000
0010
,  // measure 23
0000
0000
0100
0000
0000
0001
0000
0000
,  // measure 24
0010
0000
0100
0000
1000
0000
0000
0010
,  // measure 25
0000
0100
0001
0000
,  // measure 26
0100
0001
2000
0000
,  // measure 27
0000
0000
0000
0000
,  // measure 28
3000
0000
0002
0000
,  // measure 29
0000
0003
0020
0000
,  // measure 30
0000
0030
0100
0000
,  // measure 31
0100
0000
1000
0000
,  // measure 32
0001
0000
0100
0000
,  // measure 33
0010
0000
0000
0000
0000
0000
0000
0000
0000
1000
0000
0000
0000
0000
0000
0000
,  // measure 34
0000
0001
0000
0000
0000
0000
0000
0000
0000
0000
0000
0000
0000
0000
0000
0000
,  // measure 35
0000
0000
0000
0000
,  // measure 36
0000
0000
1001
0000
,  // measure 37
0010
0000
0100
0000
,  // measure 38
0001
0001
1001
1001
,  // measure 39
0000
0010
0000
0000
0100
0000
0000
0000
,  // measure 40
0010
0000
1001
0000
,  // measure 41
1000
0000
0100
0000
,  // measure 42
0010
0000
0010
0000
0001
0000
0000
0001
,  // measure 43
0000
0000
2000
0000
,  // measure 44
0000
3000
0020
0000
,  // measure 45
0000
0000
0000
0000
,  // measure 46
0000
0000
0000
0000
,  // measure 47
0000
0000
0030
0000
1001
0000
0000
1001
,  // measure 48
0000
0000
0000
0000
1001
0000
0000
0100
,  // measure 49
0000
0000
0010
0000
0000
0010
0000
0000
0010
0000
0000
0000
0010
0000
0000
0000
,  // measure 50
0100
0000
0000
0000
1001
0000
0000
1000
,  // measure 51
0000
1000
0000
0000
1000
0000
0000
0000
1000
0000
0000
0000
1001
0000
0000
0000
,  // measure 52
0000
1001
0000
0000
1001
0000
0001
0000
,  // measure 53
0100
0000
0010
1000
,  // measure 54
0100
0010
0001
0200
,  // measure 55
0000
0000
0000
0000
0300
0000
0000
0000
0001
0000
0000
0001
0000
0000
0000
0000
,  // measure 56
1000
0000
0000
1000
0000
0000
1000
0000
0000
0000
0000
0000
0000
0000
0000
0000
;

//---------------dance-single - ----------------
#NOTES:
     dance-single:
     :
     Easy:
     10:
     0.301928,0.458263,0.251994,0.317024,0.130061,260.000000,229.000000,31.000000,39.000000,0.000000,0.000000,0.301928,0.458263,0.251994,0.317024,0.130061,260.000000,229.000000,31.000000,39.000000,0.000000,0.000000:
0000
0000
0000
0000
,
0000
0000
0000
0000
,
0000
0000
0000
0000
0000
0000
0000
0000
0100
0000
0000
0100
0000
0000
0100
0000
,
0000
0000
0000
0000
,
0000
0000
0000
0000
0000
0000
0000
0000
0010
0000
0000
0010
0000
0000
0010
0000
,
0000
0000
0000
0000
,
0000
0000
0000
0000
1001
0000
0000
0000
0110
0000
0000
0110
0000
0000
0110
0000
,
0000
0000
0000
0000
,
0000
0000
0000
0000
0000
0000
0000
0000
1001
0000
0000
1001
0000
0000
1001
0000
,
0000
0000
0000
0000
1001
1000
0100
0010
,
0000
0000
0000
0000
1001
0000
0001
0100
,
0010
0100
0001
1000
0100
0010
0001
0100
,
1000
0100
0001
0010
0110
0000
1000
0001
,
0100
1000
0100
0010
2000
0000
3200
0000
,
0310
0000
0001
0000
0000
1000
0000
0000
1001
0000
0000
0000
0001
0000
0100
0000
,
0000
0010
1000
0100
0010
0001
0100
1000
,
0100
0000
0010
0000
1000
0000
0100
0000
0010
0000
0000
0011
0000
0000
0011
0000
,
0001
2000
0000
0000
0000
0000
0000
0000
0000
3020
0000
0000
0000
0000
0000
0000
,
0030
0000
0000
0000
1001
0000
1000
0100
,
0001
0100
1000
0001
0100
0010
0001
0010
,
1000
0100
0010
0001
1000
0010
0100
1000
,
0100
0001
0010
0100
1000
1000
0001
0100
,
0010
0000
0010
0000
0000
0010
0000
0000
1001
0000
0000
0000
0001
0000
0010
0000
,
2000
0000
0000
0000
0000
0000
3010
0100
1000
0001
0100
0010
,
1000
0000
0100
0000
0010
0000
0001
0000
0000
0100
0000
0000
0010
0000
0000
0001
0000
0000
1000
0000
0000
0100
0000
0000
,
0010
1000
0100
0010
0001
0100
0010
1000
,
0100
0010
0001
0000
2000
0000
0000
0000
,
0000
0000
0000
0000
,
0000
0000
3020
0000
,
0000
0000
0230
0000
,
0000
0000
0302
0023
,
0230
2300
3002
0203
,
0320
2030
3002
0023
,
0230
0000
0000
0000
2300
0000
0000
0000
0000
3002
0000
0000
0203
0000
0000
0000
,
0000
0001
0000
0000
0320
0000
0000
0000
0000
0000
0000
0000
0000
0000
0000
0000
,
0000
0000
0000
0000
,
0030
0000
0000
0000
0000
0000
0000
0000
1001
0000
0000
1001
0000
0000
1000
0000
,
0002
0000
0000
0000
0000
0000
0103
0010
2000
0000
0000
0000
0000
0000
0000
0000
,
3200
0000
0000
0000
0320
0000
0000
0000
0032
0000
0000
0103
0000
0000
0020
0000
,
0000
0000
0000
1030
0002
0000
0000
0000
,
0023
0000
0000
0000
0000
0000
0000
0000
0130
0000
0000
1000
0000
0000
0010
0000
,
0002
0000
0023
0230
,
0301
0000
0000
0000
1000
0000
0000
0000
0100
0000
0000
0000
0010
0000
0000
0000
0002
0000
0000
0000
0000
0000
0103
0000
0000
0000
0000
0020
0000
0000
0000
0000
,
0000
0000
0000
0000
0000
0000
1030
0100
0020
0000
0000
0000
0000
0000
0000
0000
,
0000
0000
0032
0000
,
0000
0000
0000
0000
,
0000
0000
0000
0000
,
0000
0000
0000
0000
0000
0000
0000
0000
1003
0000
0000
1010
0000
0000
1010
0000
,
0000
0000
0000
0000
1001
0000
0001
0100
,
0000
0000
0000
0000
0010
0000
0000
0010
0000
0000
0010
0000
0000
0010
0000
0000
1000
0000
0000
0000
1001
0000
0000
0000
0001
0000
0000
0000
0010
0000
0000
0000
,
1000
0010
0000
0011
0001
0100
1000
0100
,
0010
0000
0001
0000
0010
0000
1000
0000
0100
0000
0000
0000
0110
0000
0000
0110
,
0000
0000
0011
0000
0000
0011
0000
0000
1001
0000
0000
0000
1000
0000
0010
0000
,
0100
1000
0100
0010
0001
0010
1000
0100
,
0001
0100
0010
1000
0010
0001
0200
0000
,
0000
0000
0000
0000
0000
0000
0300
0000
1010
0000
0000
1010
0000
0000
0001
0000
,
0010
0000
0000
0110
0000
0000
1001
0000
0000
0000
0000
0000
0000
0000
0000
0000
;

//---------------dance-single - XO+, AMEN-----------------
#NOTES:
     dance-single:
     :
     Medium:
     15:
     0.510955,0.733220,0.300767,0.284509,0.678757,440.000000,403.000000,37.000000,35.000000,0.000000,0.000000,0.510955,0.733220,0.300767,0.284509,0.678757,440.000000,403.000000,37.000000,35.000000,0.000000,0.000000:
0000
0000
0000
0000
,
0000
0000
0000
0000
,
0000
0000
0000
0000
0000
0000
0000
0000
1000
0000
0000
1000
0000
0000
1000
0000
,
0000
0000
0001
0000
1000
0100
0001
0100
,
1000
0000
0001
0000
0100
0000
0000
0000
0001
0000
0000
0001
0000
0000
0001
0000
,
0000
0000
0000
0000
1000
0001
0000
0000
1000
0000
0100
0000
0001
0000
0100
0000
,
1000
0000
0001
0000
0101
0000
0000
0000
1010
0000
0000
1010
0000
0000
1010
0000
,
2000
0000
0000
0000
,
0000
0000
0000
0000
3000
0000
0000
0000
0011
0000
0000
0011
0000
0000
0011
0000
,
0000
0000
0000
0000
0001
0000
0000
0000
1000
0010
1000
0010
0100
0001
0100
0001
,
0000
0000
0000
0000
0000
0000
0000
0000
1001
0000
0000
1000
0100
0010
1000
0010
,
0000
0001
0100
1000
0100
0010
1000
0000
0001
0010
1000
0001
0100
1000
0001
0000
,
0100
0000
0000
0010
0000
0000
1000
0000
0000
0000
0000
0000
0100
0000
0000
0000
0000
0000
0010
0000
0000
0000
0000
0000
0011
0000
0000
0000
0000
0000
0000
0000
0000
0001
0000
0000
0100
0000
0000
0000
0000
0000
0010
0000
1000
0000
0010
0000
,
0100
0000
1000
0000
0100
0000
0001
0010
1000
0010
0000
0001
1000
0000
0000
0010
,
0100
0000
0101
0000
0000
0010
0000
0000
1001
0000
0000
1000
0100
0001
0100
0000
,
1000
0010
0100
0001
0010
1000
0010
0000
0001
0000
0100
0000
0010
0001
0010
0000
,
1000
0000
0001
0001
0000
0010
0100
1000
0001
0000
0000
0101
0000
0000
1100
0000
,
1000
0002
0000
0000
0000
0000
0000
0000
0000
0103
0010
1000
0100
0010
0001
1000
,
0000
0000
0000
0000
0000
0000
0000
0000
1001
0000
0000
0001
0100
1000
0100
0001
,
1000
0100
0010
1000
0001
0100
0010
0001
1000
1000
1000
0010
0100
1000
0100
0001
,
0010
0100
1000
0001
0100
0000
0010
0000
1000
0000
0000
0100
0001
0000
0100
0000
,
1000
0000
0000
0010
0000
0000
0001
0000
0010
0000
1000
0000
0100
0000
0000
0000
0010
0000
0010
0000
0001
0000
0100
0000
1000
0000
0100
0000
0001
0000
0010
0000
,
0100
0000
0000
0000
1000
0000
0000
1000
0000
0000
0001
0000
0000
0001
0000
0000
0100
0000
0010
0000
0000
0000
1000
0000
0010
0000
0000
0000
0100
0000
0001
0000
,
0020
0000
0000
0000
0000
0000
0100
0000
0000
0100
0000
0000
0032
0000
0000
0000
0000
0000
0000
0000
0000
0000
0000
0000
0103
0000
0010
0000
1000
0000
0001
0000
0010
0000
0000
0000
1000
0000
0000
0000
0010
0000
0000
0000
0001
0000
1000
0000
,
0001
0000
0100
0000
0010
0000
1000
0000
0100
0000
0010
0000
0001
0000
0000
1000
0000
0000
0000
0000
0000
0000
0000
0000
0001
0000
0000
0100
0000
0000
0000
0000
0000
0010
0000
0000
1000
0000
0000
0100
0000
0000
0010
0000
0000
0001
0000
0000
,
0100
0000
0000
0100
0000
0000
0100
0000
0010
0000
0000
0000
0000
0000
0000
0000
1000
0000
0100
0000
0001
0000
0100
0000
1000
0000
0000
0000
1001
0000
0000
0000
,
0001
0100
0010
0100
1000
0100
0001
1000
0200
0000
0000
0000
0000
0000
0000
0000
,
0000
0000
0000
0000
,
0000
0000
0320
0000
,
0000
0000
0032
0000
,
0000
0000
0203
0320
,
0230
0302
0023
0032
,
0203
0320
2030
3002
,
0023
0000
0000
0000
2030
0000
0000
0000
0000
3020
0000
0000
0032
0000
0000
0000
,
0000
0203
0000
0000
,
0000
0000
0000
0000
,
0300
0000
0000
0000
0000
0000
0000
0000
1010
0000
0000
0101
0000
0000
0011
0000
,
0020
0000
0000
0000
0000
0000
1030
0010
0002
0000
0000
0000
0000
0000
0000
0000
,
0203
0000
0000
0000
0310
0001
0010
1000
0002
0000
0003
0000
2002
0000
3003
0000
,
1000
0000
0000
0100
0000
0000
0010
0000
0000
0000
0000
0000
0001
0000
1000
0000
0001
0000
0000
0000
0000
0000
0000
0000
0100
0000
0000
0001
0000
0000
0100
0000
0000
1000
0000
0000
0100
0000
0000
0000
0000
0000
0000
0000
0000
0010
0000
0000
,
2000
0000
0000
0000
0000
0000
0000
0000
0100
0000
0000
0000
0000
0000
0000
0000
3001
0000
0000
0100
0000
0000
0110
0000
0000
0000
0000
0000
1000
0000
0100
0000
,
0002
0000
0000
0000
0000
0000
0103
1000
0002
0000
0000
0000
0000
0000
0000
0000
,
0103
0000
0010
0000
1000
0000
0000
0000
0100
0000
0010
0000
0000
0010
0000
0000
0001
0000
0000
0000
0000
0000
0000
0000
0100
0000
0000
0100
0000
0000
0100
0000
,
0010
0000
1000
0000
0100
0000
0001
0100
1000
0000
0000
0000
0001
0100
0000
0000
,
1000
0100
0001
0010
0100
0000
0000
0000
2200
0000
0000
0000
0000
0000
0000
0000
,
0000
0000
0000
0000
,
0000
0000
0000
0000
3300
0000
0000
0000
1000
0100
0010
0001
0100
0010
1000
0001
,
0010
0100
1000
0010
0001
1000
0100
0001
0010
0000
0000
1100
0000
0000
1001
0000
,
0000
0000
0000
0000
0000
0000
0000
0000
1001
0000
0000
0001
0100
1000
0200
0000
,
0000
0000
0000
0000
0000
0000
0000
0000
0000
0000
0000
0000
0301
0000
0000
0000
0000
0000
0000
0000
0000
0101
0000
0000
0000
0000
0000
0000
0000
0000
1001
0000
0000
0000
0000
0000
0000
0000
0000
1100
0000
0000
0000
0000
0000
0000
0000
0000
0100
0000
0000
0000
0000
0000
0010
0000
0000
0000
0000
0000
0001
0000
0000
0000
0000
0000
0000
0000
0000
0000
0000
0000
0100
0000
0000
0000
0001
0000
0000
0000
0010
0000
0000
0000
0100
0000
0000
0000
0000
0000
0100
0000
0000
0000
0000
0000
,
1000
0000
0001
0100
1000
0001
0010
1000
0100
0001
1000
0001
0100
1000
0001
0100
,
1000
0000
0100
0000
0000
0001
0000
0000
0010
0000
1000
0000
0001
0000
0100
0000
1000
0000
0000
0000
0000
0000
0000
0000
1010
0000
0000
0000
0000
0000
0101
0000
,
0000
0000
0000
0000
0011
0000
0000
0000
0000
0000
1100
0000
0000
0000
0000
0000
1000
0000
0000
0010
0000
0000
0100
0000
0001
0000
0010
0000
1000
0000
0010
0000
,
0100
0001
0100
1000
0001
0100
0010
0001
1000
0100
0010
1000
0100
0010
1000
0001
,
0100
0010
0001
1000
0010
0001
0010
1000
0100
0000
0010
0001
0200
0000
0000
0000
,
0000
0000
0000
0000
0000
0000
0300
0000
0110
0000
0000
0101
0000
0000
1100
0000
,
1100
0000
0000
1001
0000
0000
0110
0000
0000
0000
0000
0000
0000
0000
0000
0000
;

//---------------dance-single - BU (32nd), JU, XO, AMEN----------------
#NOTES:
     dance-single:
     :
     Hard:
     17:
     0.629403,0.939438,0.325153,0.365797,0.995781,542.000000,502.000000,40.000000,45.000000,0.000000,0.000000,0.629403,0.939438,0.325153,0.365797,0.995781,542.000000,502.000000,40.000000,45.000000,0.000000,0.000000:
0000
0000
0000
0000
,
0000
0000
0000
0000
,
0000
0000
0000
0000
0000
0000
0000
0000
1000
0000
0000
1000
0000
0000
1000
0000
,
0000
0000
0000
0000
0001
0000
0000
0000
1000
0000
0010
0000
0001
0000
0000
0010
,
0100
0000
0001
0000
2000
0000
0000
0000
3001
0000
0000
0001
0000
0000
0001
0000
,
0000
0000
0000
0000
0010
0100
0000
0000
1000
0000
0010
0000
0100
0000
1000
0100
,
0001
0000
0010
0000
1000
0000
0010
0000
0011
0000
0000
0110
0000
0000
1100
0000
,
2000
0000
0100
0001
,
0010
0000
0000
0000
0000
0000
0000
0000
0000
0000
0000
0000
0000
0000
3001
0100
0001
0000
0000
0000
0000
0000
0101
0000
0000
0000
0000
0000
1001
0000
0000
0000
,
1000
0001
0100
0000
0001
0000
0000
0000
1000
0010
0001
0010
0100
0001
1000
0001
,
0000
0000
0000
0000
0010
0000
0100
0000
0010
0000
0100
0000
0010
0000
0100
0000
2002
0000
0000
0000
3003
0000
1000
0000
0010
0000
0100
0001
0000
0100
0001
0000
,
0000
0000
1000
0100
1000
0000
0001
0000
0100
0000
0010
0000
2000
0000
0000
0000
3001
0000
0100
0000
1000
0000
0100
0000
0001
0000
1000
0000
0100
0000
0010
0000
,
0001
0000
0000
0000
0000
0000
0100
0000
0000
0000
0000
0000
0010
0000
0000
0000
0000
0000
0000
0000
0000
0000
0000
0000
2000
0000
0000
0000
0000
0000
0000
0000
0000
0000
0000
0000
0100
0000
0000
0000
0000
0000
0000
0000
0000
0000
0000
0000
3001
0000
0000
0000
0000
0000
0000
0000
0000
0000
0000
0000
0100
0000
0000
0001
0000
0000
0100
0000
0000
0000
0000
0000
0010
0000
0000
0000
0000
0000
0000
0000
0000
0000
0000
0000
0001
0000
0000
0000
0010
0000
0000
0000
0100
0000
0000
0000
,
0001
0000
0000
0000
0201
0000
0000
0000
0010
0000
0000
0000
0301
1000
0001
1000
0002
0000
0000
0000
0000
0000
0203
0000
0010
0000
0000
0000
0301
0000
0000
0000
,
1000
0000
1001
0000
0000
0100
0000
0000
2002
0000
3003
0001
0100
1000
0100
0000
,
0001
0000
0000
1000
0000
0000
0001
0000
0000
0000
0000
0000
0010
0000
0000
0000
0000
0000
0100
0000
0000
0000
0000
0000
1000
0000
0000
0001
0000
0000
1000
0000
0000
0000
0000
0000
0010
0000
0000
0000
0000
0000
0000
0000
0000
0000
0000
0000
0100
0000
0000
0001
0000
0000
0000
0100
0000
0000
0000
0000
0010
0000
0000
0000
0000
0000
0001
0000
0000
0000
0000
0000
0010
0000
0000
0000
0000
0000
1000
0000
0000
0000
0000
0000
0100
0000
0000
0000
0010
0000
0000
0000
0001
0000
0000
0000
,
1000
0000
0000
0000
1010
0000
0010
0000
0000
0000
0100
0000
0001
0100
0001
0000
1000
0000
0000
0000
0000
0000
1100
0000
0000
0000
0000
0000
0101
0000
0000
0000
,
0001
0000
2000
0000
0000
0000
0000
0000
0000
0000
0100
0000
0000
0000
0000
0000
0000
0000
3001
0100
0001
0100
0001
0000
1000
0000
0100
1000
0100
1000
0100
0010
,
0000
0000
0000
0000
0001
0000
1000
0000
0001
0000
1000
0000
0001
0000
1000
0000
1001
0000
0000
0000
0000
0000
0001
0000
0100
0000
0001
0010
0100
1000
0100
0010
,
0001
1000
0000
0001
1000
0001
0000
0000
0100
0000
0010
0000
1000
0000
0000
0000
0100
0000
0100
0000
0100
0000
0010
0000
0001
1000
0001
0000
0100
0000
0000
0000
,
0010
0000
1000
0000
0001
1000
0000
0000
0100
0000
0000
0000
0010
0000
0000
0000
0001
0000
0000
0000
0000
1000
0010
1000
0010
0000
0000
0000
0100
0000
0000
0000
,
0001
1000
0001
0100
0000
0001
1000
0000
0100
0000
0010
0000
0001
0000
0000
0000
0100
0000
0100
0000
0010
1000
0010
1000
0010
0000
0000
0100
0001
0000
0010
0000
,
0100
0000
0000
0000
1100
0000
0000
0001
0000
0000
0101
0000
0000
1000
0000
0000
0001
1000
0001
0000
0000
0000
1000
0000
0001
0000
0000
0000
1000
0000
1000
0000
,
0020
0000
0000
0000
0000
0000
0100
0000
0000
0100
0000
0000
2030
0000
0000
0001
0000
0000
0000
0000
0000
0000
0000
0000
3100
0000
0001
0000
0100
0000
1000
0000
0001
0000
0000
0000
0100
0000
0000
0000
1000
0000
0000
0000
0100
0000
0010
0000
,
0100
0000
0000
0000
0001
0000
0000
0000
1000
0000
0000
0000
0100
0000
0000
0000
0010
0000
0000
0000
0100
0000
0000
0000
0001
0000
0000
0000
0000
0000
0100
0000
0000
0000
0000
0000
1000
0000
0000
0000
0000
0000
0000
0000
0000
0000
0000
0000
0001
0000
0000
0000
0000
0000
0100
0000
0000
0000
0000
0000
0000
0000
0000
0000
0000
0000
0001
0000
0000
0000
0000
0000
1000
0000
0000
0000
0000
0000
0000
0000
0000
0000
0000
0000
0100
0000
0000
0010
0000
0000
0001
0000
0000
0010
0000
0000
,
0100
0000
0000
1100
0000
0000
1001
0000
0000
0000
0000
0000
0000
0000
0000
0000
0001
0100
0001
0100
0001
0000
0000
0000
1000
0001
0000
1000
0001
0000
0000
0000
,
0010
0000
0100
0000
1000
0000
0001
0000
0100
0000
1000
0000
0100
0000
0001
0000
2000
0000
0000
0000
0000
0000
0000
0000
0000
0000
0000
0000
0000
3010
0000
0000
,
0200
0000
0000
0000
0000
0000
0000
0000
0000
0000
0000
0000
0000
0000
0000
0000
0000
0000
0000
0000
0000
0000
0000
0000
0000
0000
0000
0000
0000
0301
0000
0000
,
2000
0000
0000
0000
0000
0000
0000
0000
0000
0000
0000
0000
0000
0000
0000
0000
3200
0000
0000
0000
0000
0000
0000
0000
0000
0000
0301
0000
0000
0100
0000
0000
,
0020
0000
0000
0000
0000
0000
0000
0000
0000
0000
0000
0000
0000
0000
0000
0000
0032
0000
0000
0000
0000
0000
0000
0000
0000
0000
0000
0000
0000
1003
0000
0000
,
0020
0000
0230
0010
,
1000
0010
0302
0010
,
1000
0100
0023
1000
,
0100
0000
0000
0000
0001
0000
0000
0000
0000
0230
0000
0000
2300
0000
0000
0000
,
0000
0100
0000
0000
3002
0000
0000
0000
0000
0000
0000
0000
0000
0000
0000
0000
,
0000
0000
0000
0000
,
0003
0000
1000
0001
1000
0001
1000
0001
1001
0000
0000
1100
0000
0000
0011
0000
,
0020
0000
0000
0000
0000
0000
1030
0010
0002
0000
0000
0000
0000
0000
0000
0000
,
0203
0000
0000
0000
1300
0100
0001
1000
2200
0000
3300
0000
0202
0000
0303
0000
,
0001
0000
0000
0000
0000
0000
0010
0000
0000
0000
0000
0000
0100
0000
0000
0000
0000
0000
0000
0000
0000
0000
0000
0000
1000
0000
0000
0000
0001
0000
0000
0000
1000
0000
0000
0000
0000
0000
0000
0000
0000
0000
0000
0000
0000
0000
0000
0000
0001
0000
0000
0000
0000
0000
1000
0000
0000
0100
0000
0000
1000
0000
0000
0000
0000
0000
0001
0000
0000
0100
0000
0000
0001
0000
0000
0000
0000
0000
0000
0000
0000
0000
0000
0000
0000
0000
0000
0000
0000
0000
1000
0000
0000
0000
0000
0000
,
0200
0000
0010
0000
0000
0000
0000
0000
0301
0000
0100
0000
1000
0000
0001
0000
0100
0001
0000
0001
0000
0000
1000
0000
0000
0000
0000
0000
0001
0000
0010
0000
,
2000
0000
0000
0000
0000
0000
3010
0001
1000
0000
0000
0000
0010
0001
0010
1000
,
0100
0000
0010
0000
1000
0000
0010
0000
0001
0000
1000
0000
0000
1000
0000
0000
0020
0000
0000
0000
0000
0000
0230
0000
0000
0000
0000
0000
0302
0000
0000
0000
,
0013
0000
1000
0010
0001
0000
1000
0010
0200
0000
0000
0000
0301
0010
0000
0000
,
0100
0100
1000
0001
0100
0000
0010
0000
2002
0000
0000
0000
0000
0000
0000
0000
,
0000
0000
0000
0000
,
0000
0000
0000
0000
,
3003
0000
0000
0000
0000
0000
0000
0000
1000
0100
0010
0001
1000
0001
0100
0010
1000
0000
0000
0000
0000
0000
1010
0000
0000
0000
0000
0000
0101
0000
0000
0000
,
0000
0000
0000
0000
0100
0000
0010
0000
0100
0000
0010
0000
0100
0000
0010
0000
1001
0000
0000
0000
0000
0000
1000
0010
0100
0000
1000
0000
0200
0000
0000
0000
,
0000
0000
0000
0000
0000
0000
0000
0000
0000
0000
0000
0000
0301
0000
0000
0000
0000
0000
1000
0000
0000
0001
0000
0000
0000
0000
0000
1000
0000
0000
0100
0000
0000
0000
0000
0000
0010
0000
0000
0001
0000
0000
0000
0000
0000
0000
0000
0000
1010
0000
0000
0000
0000
0000
0000
0000
0000
0000
0000
0000
0101
0000
0000
0000
0000
0000
0000
0000
0000
0000
0000
0000
0001
0000
0000
0000
0010
0000
0000
0000
0100
0000
0000
0000
1000
0000
0000
0001
0000
0000
0000
0000
0000
0100
0000
0000
,
0002
0000
0000
0000
0013
0000
0001
0000
0000
0000
1000
0000
0001
0000
0000
0000
0100
0000
0100
0000
0010
0000
0010
0000
1000
0000
1000
0000
0100
0010
0001
1000
,
0010
0000
0100
0000
0000
0100
0000
0000
0001
0010
0100
1000
0001
0000
0000
0000
0100
0000
0000
0000
0000
0000
0000
0000
0101
0000
0000
0000
0000
0000
1010
0000
,
0000
0000
0000
0000
0101
0000
0000
0000
0000
0000
1001
0000
0000
0000
0000
0000
1000
0100
0000
1000
0100
0000
1000
0001
0100
0000
0001
1000
0000
0001
1000
0000
,
0010
0000
0100
0000
1000
0000
0100
0000
0001
1000
0000
0010
0100
0000
0000
0000
0001
1000
0001
1000
0001
0000
0000
0000
1000
0010
0100
0000
0001
0100
0010
0000
,
1000
0100
0010
0000
1000
0000
0010
0000
0001
0000
1000
0001
1000
0000
0000
0000
1010
0000
0000
0000
0101
0000
0001
0000
2000
0000
0000
0000
0000
0000
0000
0000
,
0000
0000
0000
0000
0000
0000
3100
0000
1100
0000
0000
0011
0000
0000
0101
0000
,
0101
0000
0000
1010
0000
0000
1100
0000
0000
0000
0000
0000
0000
0000
0000
0000
;

//---------------dance-single - BU-- (48th), JU, XO-, AMEN+----------------
#NOTES:
     dance-single:
     Are We Dreaming...:
     Challenge:
     18:
     0.834947,1.122743,0.398312,0.463343,1.568863,719.000000,670.000000,49.000000,57.000000,0.000000,0.000000,0.834947,1.122743,0.398312,0.463343,1.568863,719.000000,670.000000,49.000000,57.000000,0.000000,0.000000:
0000
0000
0000
0000
,
0000
0000
0000
0000
,
0000
0000
0000
0000
0000
0000
0000
0000
0001
0000
0000
0001
0000
0000
0001
0000
,
0000
0000
0000
0000
1000
0010
0100
0000
0001
0010
0100
0000
0010
0000
1000
0010
,
0100
1000
0002
0000
0000
0000
0000
0000
0103
0000
0000
0100
0000
0000
0100
0000
,
0010
0000
0000
0100
0010
1000
0001
0100
0001
0000
0010
0100
1000
0000
0010
0100
,
0001
0010
0001
0100
1000
0000
0100
0000
0110
0000
0000
0101
0000
0000
1001
0000
,
2000
0000
0000
0000
0100
0001
0100
0010
,
0001
0000
0000
0000
0000
0000
0001
0000
3000
0000
0000
0000
0000
0000
0001
0100
0001
0000
0000
0000
0000
0000
0110
0000
0000
0000
0000
0000
1010
0000
0000
0000
,
1000
0000
0100
0000
0010
0000
0001
0000
1000
0000
0010
0000
0100
0000
0001
0000
1000
0100
1000
0100
0010
0001
0010
0001
1000
0010
1000
0010
0100
0001
0100
0001
,
0000
0000
0000
0000
0100
0000
0100
0000
0100
0000
0100
0000
0100
0000
0040
0030
2002
0000
0000
0000
3003
0000
1000
0000
0100
0000
1000
0001
0000
0100
0010
1000
,
0010
0100
0001
1000
0100
0000
0010
0100
1000
0000
0010
0000
0220
0000
0330
0000
0001
1000
0010
0000
0001
0000
0010
0000
1000
0000
0100
0000
0010
0000
0001
0000
,
0100
0000
0000
0000
0000
0000
0001
0000
1000
0000
0001
0000
1000
0000
0000
0000
0000
0000
0000
0000
0000
0000
0000
0000
0100
0000
0000
1000
0000
0000
0100
0000
0000
0010
0000
0000
0001
0000
0000
0000
0000
0000
0000
0000
0000
0000
0000
0000
0101
0000
0000
0000
0000
0000
0000
0000
0000
0000
0000
0000
1000
0000
0000
0010
0000
0000
0100
0000
0000
0000
0000
0000
0001
0000
0000
0000
0000
0000
0000
0000
1000
0000
0001
0000
1000
0000
0000
0000
0100
0000
0000
0000
0010
0000
0000
0000
,
0001
0000
0000
0000
0201
0000
0000
0000
1000
0000
0000
0000
0301
0010
0100
1000
0200
0000
1000
0000
0000
0000
0310
0000
0002
0000
0000
0000
0000
0000
0103
0010
,
1000
0000
1010
0010
0000
0100
0001
0000
2002
0000
3003
1000
0010
0001
0020
0000
,
1030
0000
0000
0001
0000
0000
1000
0000
0000
0010
0000
0000
0100
0000
0000
0000
0000
0000
0001
0000
0000
0000
0000
0000
1000
0000
0000
0100
0000
0000
0010
0000
0000
0001
0000
0000
0200
0000
0000
0000
0000
0000
0300
0000
0000
0000
0000
0000
0010
0000
0000
0100
0000
0000
0000
0001
0000
0000
0000
0000
0010
0000
0000
0000
0000
0000
0100
0000
0000
0000
0000
0000
1000
0000
0000
0000
0000
0000
0010
0000
0000
0000
0000
0000
1000
0000
0100
0000
1000
0000
0100
0000
0000
0010
0000
0000
,
0001
0000
0000
0000
0000
0000
0101
0000
0000
0101
0000
0000
0000
0000
0000
0100
0000
0000
0001
1000
0001
1000
0000
0000
0100
0000
0000
0000
0000
0000
0010
0000
0000
0011
0000
0000
0000
0000
0000
0001
0000
0000
1001
0000
0000
0000
0000
0000
,
1000
0000
0001
0000
1000
0000
0002
0000
0000
0000
0000
0000
0000
0000
0000
0000
0000
0000
0000
0000
0000
0000
0000
0000
0000
0000
0000
0000
0000
0000
0100
0000
0000
0000
0000
0000
0000
0000
0000
0000
0000
0000
0000
0000
0000
0000
0000
0000
0000
0000
0000
0000
0000
0000
1003
0000
0000
0100
0000
0000
1000
0000
0000
0100
0000
0000
0010
0000
0000
0001
0000
0000
0010
0000
0000
0001
0000
0000
1000
0000
0000
0010
0000
0000
1000
0000
0000
0010
0000
0000
0100
0000
0000
0001
0000
0000
,
0000
0000
0000
0000
0100
0000
0100
0000
0100
0000
0100
0000
0100
0000
0040
0030
1001
0000
0000
0000
1000
0010
0100
0001
1000
0000
0100
0010
0001
1000
0001
1000
,
0010
0000
0000
0100
0000
0000
0001
0000
0000
1000
0000
0000
0001
0000
0000
0010
0000
0000
0100
0000
0000
1000
0000
0000
0010
0000
0000
0000
0000
0000
1000
0000
0001
0000
1000
0000
0002
0000
0000
0000
0000
0000
0000
0000
0000
0000
0000
0000
1003
0000
0000
0000
0000
0000
1000
0000
0000
0000
0000
0000
1000
0000
0000
0000
0000
0000
0010
0000
0000
0000
0000
0000
0100
0000
0000
0001
0000
0000
1000
0000
0000
0000
0000
0000
0100
0000
0000
0000
0000
0000
0010
0000
0000
0001
0000
0000
,
1000
0000
0010
0000
1000
0010
0100
0001
1000
0100
0010
0001
1000
0000
0000
0000
1010
0000
0000
0000
0010
1000
0001
0010
0100
0000
0000
0000
1000
0000
0000
0000
,
0100
0010
0001
1000
0000
0010
0100
0000
0001
0010
0100
1000
0002
0000
0000
0000
0103
0000
0100
0000
0001
0010
0100
1000
0010
1000
0100
0010
0001
1000
0010
0100
,
0001
0000
0000
0000
0101
0000
0000
1001
0000
0000
1100
0000
0000
1001
0000
0000
1000
0100
1000
0000
0000
0000
0001
0000
0102
0000
0000
0000
0010
0000
0010
0000
,
2003
0000
0000
0000
0000
0000
0100
0000
0000
0100
0000
0000
3001
0000
0000
0200
0000
0000
0000
0000
0000
0000
0000
0000
0300
0000
0001
0000
0100
0010
0100
0000
1000
0000
0000
0000
0100
0000
0000
0000
0001
0000
0000
0000
1000
0000
0100
0000
,
0001
0000
0000
0000
0100
0000
0000
0000
0010
0000
0000
0000
0100
0000
0000
0000
0001
0000
0000
0000
0100
0000
0000
0000
1000
0000
0000
0100
0000
0000
0010
0000
0000
0001
0000
0000
1000
0000
0000
0000
0000
0000
0000
0000
0000
0000
0000
0000
0010
0000
0000
0000
0000
0000
0010
0000
0000
0000
0000
0000
0100
0000
0000
0000
0000
0000
0100
0000
0000
0000
0000
0000
0001
0000
0000
0000
0000
0000
1000
0000
0000
0100
0000
0000
1000
0000
0000
0010
0000
0000
0100
0000
0000
0001
0000
0000
,
0010
0000
0000
0101
0000
0000
1010
0000
0020
0000
0000
0000
0000
0000
0000
0000
0130
0001
0010
0100
1000
0000
0000
0000
0010
0100
0001
1000
0100
0000
0010
0000
,
0001
0000
0000
0000
0000
0000
0001
0000
0000
0000
0000
0000
0100
0000
0000
0010
0000
0000
0100
0000
0000
0001
0000
0000
1000
0000
0000
0000
0000
0000
0100
0000
0000
0000
0000
0000
0010
0000
0000
0000
0000
0000
0001
0000
0000
0000
0000
0000
1000
0000
0000
0000
0001
0000
0000
0000
0100
0000
0000
0000
0010
0000
0000
0000
0100
0000
0000
0000
2000
0000
0000
0000
0000
0000
0000
0000
0000
0000
0000
0000
0000
0000
0000
0000
0000
0000
0000
3100
0000
0000
0000
0000
0000
0000
0000
0000
,
0020
0000
0000
0000
0000
0000
0000
0000
0000
0000
0000
0000
0000
0000
0000
0000
0000
0000
0000
0000
0000
0000
0000
0000
0000
0000
0000
0000
0000
1030
0000
0000
,
0002
0000
0000
0000
0000
0000
0000
0000
0000
0000
0000
0000
0000
0000
0000
0000
0000
0000
0000
0000
0000
0000
0000
0000
0000
0000
0000
0000
0000
0000
0000
0000
0000
0000
0000
0000
0000
0000
0000
0000
0000
0000
0000
0000
0000
0000
0000
0000
0023
0000
0000
0000
0000
0000
0000
0000
0000
0000
0000
0000
0000
0000
0000
0000
0000
0000
0000
0000
0000
0000
0000
0000
0000
0000
0000
0000
0000
0000
1000
0000
0030
0000
0000
0000
0000
0000
0000
0010
0000
0000
0000
0000
0000
0000
0000
0000
,
0200
0000
0000
0000
0000
0000
0000
0000
0000
0000
0000
0000
0000
0000
0000
0000
0320
0000
0000
0000
0000
0000
0000
0000
0000
0000
0000
0000
0000
0031
0000
0000
,
0200
0000
0320
1000
,
0100
0001
0230
1000
,
0010
0001
0320
1000
,
0100
0000
0000
0000
0001
0000
0000
0000
0000
2030
0000
0000
3002
0000
0000
0000
,
0000
0100
0000
0000
0023
0000
0000
0000
0000
0000
0000
0000
0000
0000
0000
0000
,
0000
0000
0000
0000
0000
0000
0000
0000
0130
0001
0100
1000
0100
0010
0001
1000
,
0000
0000
0100
0100
0100
0100
0100
0040
0031
0000
0100
0101
0000
1000
1010
0000
,
0020
0000
0000
0000
0000
0000
0031
0010
2000
0000
0000
0000
0100
0100
0100
0100
,
3100
1000
0100
1000
0001
0100
0001
0100
0010
0000
0001
0000
0010
0100
0001
0000
2002
0000
0000
0000
3003
0000
0000
0000
0220
0000
0000
0000
0330
0000
0000
0000
,
1000
0010
0100
0001
2000
0000
0000
0000
0100
0000
0000
0000
3001
1000
0000
0000
1010
0000
0010
0100
0001
0000
1000
0100
0010
0000
0000
0000
0000
0000
0100
0000
,
1000
0000
0000
0000
0000
0000
0010
0000
0000
0100
0000
0000
0002
0000
0000
0000
0000
0000
0000
0000
0000
0000
0000
0000
0000
0000
0000
0000
0000
0000
0000
0000
0000
0000
0000
0000
0013
0000
0000
0000
0100
0000
0000
0000
1000
0000
0000
0000
0001
0000
0000
0010
0000
0000
0000
0000
0000
0100
0000
0000
0000
0000
0000
0000
0000
0000
0210
0000
0000
0000
0000
0000
0000
0000
0000
0000
0000
0000
0000
0000
0000
0000
0000
0000
0301
0000
0000
0000
0000
0000
0100
0000
0000
0000
0000
0000
,
2000
0000
0000
0000
0100
0000
0100
0000
3002
0000
0000
0000
0000
0000
0103
0010
2000
0000
0000
0000
0000
0000
0000
0000
0100
0000
0001
0000
0010
0000
0000
0000
,
3100
0000
0010
0001
0000
1000
0010
0000
0100
0000
0001
0000
0000
0001
0000
0000
1000
0000
0001
0100
0010
1000
0100
0010
0001
0000
0000
1001
0000
0000
1000
0010
,
0100
0000
0000
0000
0001
0010
0100
1000
0020
0000
0000
0000
0031
0000
0010
0000
2000
0000
0000
0000
0000
0000
0000
0000
3100
0000
0002
0000
0000
0000
0000
0000
,
1003
0001
0100
1000
0002
0000
1003
0000
0220
0000
0000
0000
0000
0000
0000
0000
,
0000
0000
0000
0000
,
0000
0000
0000
0000
0000
0000
0330
0000
1000
0100
0001
0100
1000
0010
0001
0010
,
1000
0010
0100
0001
1000
0100
0010
0001
1000
0001
0100
0010
1000
0001
0010
0100
1000
0000
0000
0000
0000
0000
0101
0000
0000
0000
0000
0000
1100
0000
0000
0000
,
0000
0000
0000
0000
0100
0000
0100
0000
0100
0000
0100
0000
0100
0000
0100
0000
2002
0000
0000
0000
3003
0000
0001
0100
0010
0000
0001
0000
0010
0200
0000
0000
,
0000
0000
0000
0000
0000
0000
0000
0000
0000
0000
0000
0000
0301
0000
0000
0010
0000
0000
0100
0000
0000
1000
0000
0000
0010
0000
0000
0100
0000
0000
0001
0000
0000
0010
0000
0000
0100
0000
0000
1000
0000
0000
0010
0000
0000
0100
0000
0000
0001
0000
0000
0000
0000
0000
1000
0000
0000
0000
0000
0000
1100
0000
0000
0000
0000
0000
0000
0000
0000
0000
0000
0000
0100
0000
0000
0000
0010
0000
0000
0000
1000
0000
0000
0000
0010
0000
0000
0100
0000
0000
1000
0000
0000
0001
0000
0000
,
0100
0010
0000
0000
0100
0001
0010
0100
1000
0000
0001
0000
0100
0000
0000
0000
0010
0000
1000
0100
1000
0010
0100
0000
0001
0000
0001
0000
1000
0100
0010
0001
,
1000
0000
1010
0000
0000
0101
0000
0000
0001
0100
0001
0010
0100
0000
0000
0000
1000
0000
0000
0000
0000
0000
0000
0000
0101
0000
0000
0000
0000
0000
1010
0000
,
0000
0000
0000
0000
1100
0000
0000
0000
0000
0000
0011
0000
0000
0000
0000
0000
1000
0100
0010
0001
0100
0010
1000
0000
0000
0000
0001
0000
0010
0100
0000
0000
,
0001
0000
0100
0000
1000
0000
0010
0000
0100
0001
0000
1000
0100
0000
0000
0000
1000
0001
0100
0010
2000
0000
0100
0000
3001
0000
0010
0100
1000
0000
0010
0000
,
0100
0001
0010
0100
1000
0010
0100
0000
0001
1000
0100
1000
0010
0000
0000
0000
0110
0000
0000
0000
0101
0000
0001
0000
2000
0000
0000
0000
0100
0000
0100
0000
,
0000
0000
0001
0000
0000
0000
0000
0000
0000
0000
0010
0000
0000
0000
0000
0000
0000
0000
0000
0000
0000
0000
0000
0000
3200
0000
0000
0000
0000
0000
0000
0000
0000
0000
0000
0000
1300
0000
0000
0010
0000
0000
0100
0000
0000
0001
0000
0000
1000
0000
0000
0000
0000
0000
0000
0000
0000
0000
0000
0000
0000
0000
0000
0000
0000
0000
1001
0000
0000
0000
0000
0000
0000
0000
0000
0000
0000
0000
0000
0000
0000
0000
0000
0000
0011
0000
0000
0000
0000
0000
0000
0000
0000
0000
0000
0000
,
0101
0000
0000
1010
0000
0000
1100
0000
0000
0000
0000
0000
0000
0000
0000
0000
;

//---------------dance-double - ----------------
#NOTES:
     dance-double:
     :
     Beginner:
     5:
     0.152125,0.229131,0.178834,0.073159,0.032515,131.000000,109.000000,22.000000,9.000000,0.000000,0.000000,0.152125,0.229131,0.178834,0.073159,0.032515,131.000000,109.000000,22.000000,9.000000,0.000000,0.000000:
00000000
00000000
00000000
00000000
,
00000000
00000000
00000000
00000000
,
00000000
00000000
00000000
00000000
00010000
00000000
00000000
00010000
,
00000000
00000000
00000000
00000000
,
00000000
00000000
00000000
00000000
00001000
00000000
00000000
00001000
,
00000000
00000000
00000000
00000000
,
00000000
00000000
00100000
00000000
01100000
00000000
00000000
01100000
,
00000000
00000000
00000000
00000000
,
00000000
00000000
00000000
00000000
10010000
00000000
00000000
10010000
,
00000000
00000000
01100000
00000000
,
00000000
00000000
00011000
00010000
,
00000000
00000000
00000000
00000000
00000100
00000000
00000000
00000000
00000000
00000000
00001000
00000000
00000000
00001000
00000000
00000000
,
00000000
00000001
00000000
00000000
00001001
00000000
00001000
00000000
,
00000000
00001000
00000000
00000000
00001001
00000000
00000000
00000000
,
00000000
00000000
00000110
00000001
,
00000000
00000000
00001000
00000000
00000000
00001000
00000000
00000000
,
00001000
00000000
00000000
00000000
00001001
00000000
00000000
00001001
,
00000000
00000000
00000000
00000000
00000000
00000000
00000000
00000000
00000000
00000110
00000000
00000000
00000000
00000000
00000000
00000000
,
00000000
00000000
00000000
00000000
00011000
00000000
00000000
00001000
,
00000000
00000000
01000000
00000000
00000000
00010000
00000000
00000000
,
10000000
00000000
01000000
00000000
00100000
00000000
00000000
00001000
,
00000000
00000000
00010000
00001000
,
00010000
00000000
00000000
00000000
00000010
00000000
00000000
00001000
,
00000000
00000000
00000100
00000000
00000000
00000010
00000000
00000000
,
00000001
00000000
00001000
00000000
00000010
00000000
00000000
00000100
,
00000000
00000001
00001000
00000100
,
00000010
00000001
00002000
00000000
,
00003000
00000000
00000020
00000000
,
00000030
00000000
00000200
00000000
,
00000300
00000000
00000002
00000000
,
00000003
00000000
00001000
00000000
,
00001000
00000000
00000100
00000000
,
00000100
00000000
00010000
00000000
,
00010000
00000000
00000000
00000000
00000000
00000000
00000000
00000000
00000000
00001000
00000000
00000000
00000000
00000000
00000000
00000000
,
00000000
00001000
00000000
00000000
00000000
00000000
00000000
00000000
00000000
00000000
00000000
00000000
00000000
00000000
00000000
00000000
,
00000000
00000000
00000000
00000000
,
00000000
00000000
00011000
00000000
,
00100000
00000000
01000000
00000000
,
01000000
10000000
10010000
10010000
,
00000000
00100000
00000000
00000000
01000000
00000000
00000000
00000000
,
00100000
00000000
10010000
00000000
,
10000000
00000000
01000000
00000000
,
00100000
00000000
00001000
00000000
,
00010000
00000000
00000020
00000000
,
00000000
00000030
00002000
00000000
,
00000000
00000000
00000000
00000000
,
00003000
00000000
00000002
00000000
,
00000000
00000000
00000003
00000000
00001001
00000000
00000000
00001001
,
00000000
00000000
00001000
00000100
,
00000000
00000000
00000010
00000000
00000000
00000010
00000000
00000000
00000010
00000000
00000000
00000000
00000100
00000000
00000000
00000000
,
00000000
00010000
00001000
01000000
,
00000000
00010000
00000000
00000000
00000000
00000000
00000000
00000000
10000000
00000000
00000000
00000000
10010000
00000000
00000000
00000000
,
00000000
10010000
00000000
00000000
10010000
00000000
10000000
00000000
,
00020000
00000000
00000000
00000000
,
00030000
01000000
00001000
00020000
,
00000000
00000000
00000000
00000000
00030000
00000000
00000000
00000000
00001000
00000000
00000000
00001000
00000000
00000000
00000000
00000000
,
00010000
00000000
00000000
00010000
00000000
00000000
00010000
00000000
00000000
00000000
00000000
00000000
00000000
00000000
00000000
00000000
;

//---------------dance-double - ----------------
#NOTES:
     dance-double:
     :
     Easy:
     11:
     0.290315,0.435349,0.276380,0.195092,0.130061,250.000000,216.000000,34.000000,24.000000,0.000000,0.000000,0.290315,0.435349,0.276380,0.195092,0.130061,250.000000,216.000000,34.000000,24.000000,0.000000,0.000000:
00000000
00000000
00000000
00000000
,
00000000
00000000
00000000
00000000
,
00000000
00000000
00000000
00000000
00000000
00000000
00000000
00000000
10000000
00000000
00000000
10000000
00000000
00000000
10000000
00000000
,
00000000
00000000
00000000
00000000
,
00000000
00000000
00000000
00000000
00000000
00000000
00000000
00000000
00010000
00000000
00000000
00010000
00000000
00000000
00010000
00000000
,
00000000
00000000
00000000
00000000
,
00000000
00000000
00000000
00000000
00011000
00000000
00000000
00000000
00001001
00000000
00000000
00001001
00000000
00000000
00001001
00000000
,
00000000
00000000
00000000
00000000
,
00000000
00000000
00000000
00000000
00000000
00000000
00000000
00000000
00011000
00000000
00000000
00011000
00000000
00000000
00011000
00000000
,
00000000
00000000
00000000
00000000
00000000
00000000
00000000
00000000
20020000
00000000
00000000
00000000
00000000
00000000
00000000
30030000
,
00000000
00000000
00000000
00000000
10010000
00000000
10000000
01000000
,
00100000
00010000
01000000
00001000
00010000
00000100
00000001
00000100
,
00001000
00000010
00010000
00001000
00100000
00000000
01000000
10000000
,
00010000
01000000
00000000
00001000
00020000
00000000
00030200
00000000
,
00001300
00000000
00000010
00000000
00000000
00000100
00000000
00000000
00001001
00000000
00000000
00000000
00000001
00000000
00000010
00000000
,
00001000
00010000
00100000
10000000
01000000
00010000
00001000
00000100
,
00000001
00000000
00000010
00000000
00000000
00000100
00000000
00000000
00001000
00000000
00000000
00001100
00000000
00000000
00000100
00000000
,
00010000
00000000
00000000
00000000
00000000
00000000
00000000
00000000
00000000
00002000
00000000
00000000
00000000
00000000
00000000
00003000
,
00000000
00000000
00000000
00000000
01001000
00000000
00000000
01010000
,
00000000
00000000
10100000
00000000
00000000
11000000
00000000
00000000
,
00110000
00000000
01001000
00000000
00011000
00000000
00000000
00001100
,
00000000
00000000
00001000
00000100
00000001
00000100
00001000
00000010
,
00000100
00001000
00010000
00100000
10000000
00000000
00000000
10010000
,
00000000
00000000
00000000
01001000
00000000
00000000
00000000
00001000
00010000
00000100
00001000
00000001
,
00000100
00000000
00001000
00000000
00010000
00000000
01000000
00000000
00000000
10000000
00000000
00000000
01000000
00000000
00000000
00010000
00000000
00000000
00001000
00000000
00000000
00000010
00000000
00000000
,
00000001
00000100
00001000
00000000
00010000
00001000
00100000
01000000
,
10000000
00100000
00010000
00001000
00020000
00000000
00000000
00000000
,
00000000
00000000
00000000
00000000
,
00000000
00000000
00030200
00000000
,
00000000
00000000
00000320
00000000
,
00000000
00000000
00000031
00000100
,
00000010
00001000
00000100
00010000
,
00001000
00100000
00010000
01000000
,
00100000
00000000
00000000
00000000
10000000
00000000
00000000
00000000
00000000
01000000
00000000
00000000
00100000
00000000
00000000
00000000
,
00000000
00010000
00000000
00000000
02000000
00000000
00000000
00000000
00000000
00000000
00000000
00000000
00000000
00000000
00000000
00000000
,
00000000
00000000
00000000
00000000
00000000
00000000
00000000
00000000
00000000
00000000
00000000
00000000
00000000
00000000
00000000
03000000
,
00000000
00000000
00000000
00000000
00000000
00000000
00000000
00000000
01010000
00000000
00000000
01010000
00000000
00000000
00010000
00000000
,
00200000
00000000
00000000
00301000
00010000
00000000
00000000
00000000
,
00000010
00000000
00001000
00000000
00002200
00003300
00000022
00000033
,
00000001
00000100
00000000
00000000
00000010
00001000
00000100
00010000
,
00001000
00000000
00100000
00000000
00020000
00000000
00000000
00000000
01030000
00000000
00000000
01000000
00000000
00000000
00100000
00000000
,
20000000
00000000
00000000
00000000
00000000
00000000
31000000
00100000
00020000
00000000
00000000
00000000
00000000
00000000
00000000
00000000
,
00230000
00000000
00000000
00000000
00302000
00000000
00000000
00000000
00023000
00000000
00000000
00030100
00000000
00000000
00002000
00000000
,
00000000
00000000
00000000
00000000
00000000
00000000
00003001
00000100
00000020
00000000
00000000
00000000
00000000
00000000
00000000
00000000
,
00000000
00000000
00020030
00000000
,
00000000
00000000
00000000
00000000
,
00000000
00000000
00000000
00000000
,
00000000
00000000
00000000
00000000
00000000
00000000
00000000
00000000
00031000
00000000
00000000
00101000
00000000
00000000
00110000
00000000
,
00000000
00000000
00000000
00000000
00010000
00000000
01000000
00100000
,
00000000
00000000
00000000
00000000
10000000
00000000
00000000
10000000
00000000
00000000
10000000
00000000
00000000
10000000
00000000
00000000
10000000
00000000
00000000
00000000
00010000
00000000
00000000
00000000
00100000
00000000
00000000
00000000
00001000
00000000
00000000
00000000
,
00010000
00000010
00000100
00000001
00000010
00000100
00001000
00000001
,
00000100
00000000
00001000
00000000
00010000
00000000
00100000
00000000
10000000
00000000
00000000
00000000
11000000
00000000
00000000
11000000
,
00000000
00000000
10010000
00000000
00000000
10010000
00000000
00000000
00010000
00000000
01000000
00000000
00100000
00000000
10000000
00000000
,
01000000
00010000
00001000
00000010
00000001
00000100
00001000
00010000
,
00000010
00000100
00001000
00010000
00100000
01000000
20000000
00000000
,
00000000
00000000
00000000
00000000
00000000
00000000
31000000
00000000
00010000
00000000
00000000
01010000
00000000
00000000
00001000
00000000
,
00010000
00000000
00000000
00011000
00000000
00000000
00010100
00000000
00000000
00000000
00000000
00000000
00000000
00000000
00000000
00000000
;

//---------------dance-double - XO, AMEN-----------------
#NOTES:
     dance-double:
     :
     Medium:
     15:
     0.462182,0.664481,0.284509,0.227607,0.544631,398.000000,363.000000,35.000000,28.000000,0.000000,0.000000,0.462182,0.664481,0.284509,0.227607,0.544631,398.000000,363.000000,35.000000,28.000000,0.000000,0.000000:
00000000
00000000
00000000
00000000
,
00000000
00000000
00000000
00000000
,
00000000
00000000
00000000
00000000
00000000
00000000
00000000
00000000
00001000
00000000
00000000
00001000
00000000
00000000
00001000
00000000
,
00000000
00000000
00010000
00000000
00001000
00010000
01000000
10000000
,
00100000
00000000
01000000
00000000
00010000
00000000
00000000
00000000
00100000
00000000
00000000
00100000
00000000
00000000
00100000
00000000
,
00000000
00000000
00000000
00000000
00001000
00010000
00000000
00000000
00000010
00000000
00001000
00000000
00000100
00000000
00000010
00000000
,
00000001
00000000
00000100
00000000
00000010
00000000
00000000
00000000
00001010
00000000
00000000
00001010
00000000
00000000
00001010
00000000
,
00020000
00000000
00000000
00000000
,
00000000
00000000
00000000
00000000
00030000
00000000
00000000
00000000
00011000
00000000
00000000
00011000
00000000
00000000
00011000
00000000
,
00001000
00000000
00000000
00000000
00000000
00000000
00000000
00000000
00100000
00001000
00100000
00000000
00010000
10000000
00010000
00000000
,
00000000
00000000
00000000
00000000
00000000
00000000
00000000
00000000
01010000
00000000
00000000
00000000
01000000
00000000
00100000
10000000
,
01000000
00000000
00010000
00001000
00100000
00000000
00001000
00000000
00010000
00000010
00001000
00000100
00000001
00000100
00001000
00000000
,
00000100
00000000
00000000
00010000
00000000
00000000
00001000
00000000
00000000
00000000
00000000
00000000
01000000
00000000
00000000
00000000
00000000
00000000
00000000
00000000
00000000
00000000
00000000
00000000
01010000
00000000
00000000
00000000
00000000
00000000
00010000
00000000
00000000
00100000
00000000
00000000
01000000
00000000
00000000
00000000
00000000
00000000
10000000
00000000
00000000
00000000
00010000
00000000
,
01000000
00000000
10200000
00000000
01000000
00000000
10300000
01000000
00020000
00000000
00000000
00032000
00000000
00000000
00000000
00000000
,
00023000
00000000
00030020
00000000
00000030
00001000
00000000
00000000
00001001
00000000
00000000
00000001
00000100
00001000
00010000
00000000
,
00100000
01000000
00010000
10000000
01000000
00010000
00001000
00000000
01000000
00000000
01010000
00000000
00010000
00100000
01000000
00010000
,
00001000
00000000
01000000
01000000
00000000
00010000
00100000
00001000
00010000
00000000
00000000
00010100
00000000
00000000
00001001
00000000
,
00000001
00000200
00000000
00000000
00000000
00000000
00000000
00000000
00000000
00000301
00000010
00001000
00010000
00000010
00001000
00000001
,
00000000
00000000
00000000
00000000
00000000
00000000
00000000
00000000
00001100
00000000
00010000
00001000
00100000
00010000
10000000
01000000
,
00010000
00001000
00100000
01000000
10000000
00010000
01000000
00000000
00001000
00001000
00001000
00010000
00100000
00010000
00001000
00000000
,
00000010
00001000
00010000
00000000
00000100
00000000
00000000
00000000
00001000
00000000
00000000
00000001
00000100
00000000
00000010
00000000
,
00000100
00001000
00010000
00100000
00010000
00000000
00001000
00000000
00100000
00100000
00010000
01000000
10000000
01000000
00100000
10000000
,
00010000
00000000
00000000
00000000
00100000
00000000
00000000
00100000
00000000
00000000
00001000
00000000
00000000
00001000
00000000
00000000
00010000
00000000
00000010
00000000
00000000
00000000
00001000
00000000
00000001
00000000
00000000
00000000
00000010
00000000
00001000
00000000
,
00020000
00000000
00000000
00000000
00000000
00000000
00001000
00000000
00000000
00031000
00000000
00000000
00200000
00000000
00000000
00000000
00000000
00000000
00000000
00000000
00000000
00000000
00000000
00000000
01300000
00000000
10000000
00000000
01000000
00000000
00100000
00000000
00010000
00000000
00000000
00000000
01000000
00000000
00000000
00000000
00001000
00000000
00000000
00000000
00010000
00000000
00000000
00000000
,
00000100
00000000
00001000
00000000
00000100
00000000
00000010
00000000
00000001
00000000
00001000
00000000
00000010
00000000
00000000
00000100
00000000
00000000
00000001
00000000
00000000
00000000
00000000
00000000
00000010
00000000
00000000
00000100
00000000
00000000
00000000
00000000
00000000
00000100
00000000
00000000
00001000
00000000
00000000
00000100
00000000
00000000
00010000
00000000
00000000
00001000
00000000
00000000
,
01000000
00000000
00000000
01000000
00000000
00000000
01000000
00000000
00100000
00000000
00000000
00000000
00000000
00000000
00000000
00000000
10000000
00000000
01000000
00000000
00010000
00000000
00000000
00000000
00001000
00000000
00000010
00000000
00000001
00000000
00000000
00000000
,
00000100
00001000
00010000
00000000
00100000
00010000
00001000
00000100
00000002
00000000
00000000
00000000
00000000
00000000
00000000
00000000
,
00000000
00000000
00000000
00000000
,
00000000
00000000
00000203
00000000
,
00000000
00000000
00000320
00000000
,
00000000
00000000
00010030
00001000
,
00100000
00001000
01000000
00010000
,
00100000
01000000
10000000
00100000
,
01000000
00000000
00000000
00000000
00010000
00000000
00000000
00000000
00000000
00100000
00000000
00000000
00002000
00000000
00000000
00000000
,
00003000
00010000
00000000
00000000
00000020
00000000
00000000
00000000
00000000
00000000
00000000
00000000
00000000
00000000
00000000
00000000
,
00000000
00000000
00000000
00000000
00000000
00000000
00000000
00000000
00000000
00000000
00000000
00000000
00000000
00000000
00000000
00000030
,
00000000
00000000
00000000
00000000
00000000
00000000
00000000
00000000
00000101
00000000
00000000
00001010
00000000
00000000
00011000
00000000
,
00020000
00000000
00000000
00000000
00000000
00000000
00130000
00010000
00002000
00000000
00000000
00000000
00000000
00000000
00000000
00000000
,
00203000
00000000
00000000
00000000
01300000
00010000
01000000
10000000
02000000
00000000
03000000
00000000
00220000
00000000
00330000
00000000
,
10000000
00000000
10100000
00000000
00010000
00000000
00100000
00000000
00001000
00010000
00000010
00000000
00001000
00000001
00000100
00000000
,
00000001
00000010
00000100
00000000
00020000
00000000
00000000
00000000
00031000
00000000
00000000
00101000
00000000
00000000
00100000
01000000
,
00020000
00000000
00000000
00000000
00000000
00000000
01030000
10000000
00020000
00000000
00000000
00000000
00130000
00000000
00001000
00000000
,
00010000
00000000
00000000
00000000
00000010
00000000
00000000
00000000
00001000
00000000
00000100
00000000
00000000
00000100
00000000
00000000
00000010
00000000
00000000
00000000
00000000
00000000
00000000
00000000
00000001
00000000
00000000
00000001
00000000
00000000
00000001
00000000
,
00000100
00000000
00000000
00000000
00000010
00000000
00000100
00001000
00020000
00000000
00000000
00000000
00031000
02000000
00000000
00000000
,
03010000
00010000
10000000
00000000
02000000
00000000
00000000
00000000
03200000
00000000
00000000
00000000
00000000
00000000
00000000
00000000
,
00000000
00000000
00000000
00000000
,
00000000
00000000
00000000
00000000
,
00000000
00000000
00000000
00000000
00000000
00000000
00000000
00000000
00310000
00000000
00000000
00011000
00000000
00000000
00001100
00000000
,
00000000
00000000
00000000
00000000
00000000
00000000
00000000
00000000
00001001
00000000
00000000
00000000
00000001
00000100
00000010
00000000
,
00000000
00000000
00000000
00000000
00000000
00000000
00000000
00000000
00000000
00000000
00000000
00000000
00001000
00000000
00000000
00000000
00000000
00000000
00000000
00000000
00000000
00001000
00000000
00000000
00000000
00000000
00000000
00000000
00000000
00000000
00001000
00000000
00000000
00000000
00000000
00000000
00000000
00000000
00000000
00001000
00000000
00000000
00000000
00000000
00000000
00000000
00000000
00000000
00000100
00000000
00000000
00000000
00000000
00000000
00000000
00000000
00000000
00000000
00000000
00000000
00010100
00000000
00000000
00000000
00000000
00000000
00000000
00000000
00000000
00000000
00000000
00000000
00010000
00000000
00000000
00000000
00001000
00000000
00000000
00000000
01000000
00000000
00000000
00000000
00001000
00000000
00000000
00000000
00000000
00000000
01000000
00000000
00000000
00000000
00000000
00000000
,
00000000
00000000
10010000
00000000
00000000
10000000
01000000
00000000
00010000
00001000
00000010
00000100
00001000
00001000
00000001
00000000
,
00000100
00000000
00001000
00000000
00000000
00010000
00000000
00000000
00001000
00000000
00100000
00000000
00010000
00000000
00000000
00000000
01000000
00000000
00000000
00000000
00000000
00000000
00000000
00000000
10100000
00000000
00000000
00000000
00000000
00000000
01010000
00000000
,
00000000
00000000
00000000
00000000
00011000
00000000
00000000
00000000
00000000
00000000
00001100
00000000
00000000
00000000
00000000
00000000
00001000
00000000
00000000
00000001
00000000
00000000
00000100
00000000
00000010
00000000
00000100
00000000
00000000
00001000
00000000
00000000
,
00010000
00000000
00001000
00000000
00000000
00000000
00100000
00000000
00010000
00000000
00000000
10000000
00000000
00000000
10000000
00000000
01000000
00000000
00010000
00000000
00001000
00000000
00000000
00000000
00100000
00000000
00001000
00000000
00010000
00000000
00000010
00000000
,
00000100
00001000
00010000
00100000
01000000
00001000
00010000
00100000
01000000
00000000
00001000
00010000
00000200
00000000
00000000
00000000
,
00000000
00000000
00000000
00000000
00000000
00000000
00000310
00000000
00000011
00000000
00000000
00001001
00000000
00000000
00001010
00000000
,
00001010
00000000
00000000
00011000
00000000
00000000
00110000
00000000
00000000
00000000
00000000
00000000
00000000
00000000
00000000
00000000
;

//---------------dance-double - BU (32nd), JU, XO, AMEN----------------
#NOTES:
     dance-double:
     :
     Hard:
     17:
     0.595727,0.847786,0.284509,0.292638,0.906364,513.000000,478.000000,35.000000,36.000000,0.000000,0.000000,0.595727,0.847786,0.284509,0.292638,0.906364,513.000000,478.000000,35.000000,36.000000,0.000000,0.000000:
00000000
00000000
00000000
00000000
,
00000000
00000000
00000000
00000000
,
00000000
00000000
00000000
00000000
00000000
00000000
00000000
00000000
00010000
00000000
00000000
00010000
00000000
00000000
00010000
00000000
,
00000000
00000000
00000000
00000000
00001000
00000000
00000000
00000000
00010000
00000000
00000010
00000000
00000100
00000000
00000000
00000001
,
00001000
00000000
00000100
00000000
00000020
00000000
00000000
00000000
00000031
00000000
00000000
00000001
00000000
00000000
00000001
00000000
,
00000000
00000000
00000000
00000000
00000100
00000010
00000000
00000000
00001000
00000000
00000010
00000000
00010000
00000000
00001000
00100000
,
00010000
10000000
00100000
01000000
00010000
00000000
00100000
00000000
00101000
00000000
00000000
00011000
00000000
00000000
00010010
00000000
,
00000020
00000000
00001000
00000100
,
00000001
00000000
00000000
00000000
00000000
00000000
00000000
00000000
00000000
00000000
00000000
00000000
00000000
00000000
00001030
00000001
00001000
00000000
00000000
00000000
00000000
00000000
00001100
00000000
00000000
00000000
00000000
00000000
00011000
00000000
00000000
00000000
,
00010000
00000000
00001000
00000000
01000000
00000000
00010000
00000000
10000000
01000000
00010000
00001000
00100000
00001000
00010000
00000010
,
00000000
00000000
00000000
00000000
00001000
00000000
00000001
00000000
00001000
00000000
00000001
00000000
00001000
00000000
00000001
00000000
00002002
00000000
00000000
00000000
00003003
00000000
00000001
00000000
00000100
00000000
00000010
00001000
00000000
00000010
00001000
00000000
,
00000000
00000000
00000010
00010000
00000010
00000000
00010000
00000000
00001000
00000000
00100000
00000000
00010000
00000000
00000000
00000000
10000000
00000000
01000000
00000000
00010000
00000000
00001000
00000000
00000010
00000000
00000001
00000000
00001000
00000000
00000000
00000000
,
00000010
00000000
00000000
00000100
00000000
00000000
00001000
00000000
00000000
00010000
00000000
00000000
00100000
00000000
00000000
00000000
00000000
00000000
00010000
00000000
00000000
00000000
00000000
00000000
00011000
00000000
00000000
00000000
00000000
00000000
00001000
00000000
00000000
00010000
00000000
00000000
00000010
00000000
00000000
00000000
00000000
00000000
00000100
00000000
00000001
00000000
00000010
00000000
,
00000100
00000000
00000000
00000000
00001200
00000000
00000000
00000000
00000010
00000000
00000000
00000000
00010300
00001000
00010000
00001000
00010000
00000000
00000000
00000000
00000000
00000000
00001000
00000000
00100000
00000000
00000000
00000000
00000000
00000000
00010000
00000000
,
01000000
00000000
00100000
10000000
00000000
01000000
00000000
00000000
00220000
00000000
00330000
00001000
00010000
00100000
10000000
00000000
,
01000000
00000000
00000000
00000000
00000000
00000000
00010000
00000000
00000000
00000000
00000000
00000000
00001000
00000000
00000000
00000000
00000000
00000000
00010000
00000000
00000000
00000000
00000000
00000000
00000010
00000000
00000000
00010000
00000000
00000000
00001000
00000000
00000000
00000000
00000000
00000000
01000000
00000000
00000000
00000000
00000000
00000000
00000000
00000000
00000000
00000000
00000000
00000000
00100000
00000000
00000000
00010000
00000000
00000000
00000000
00001000
00000000
00000000
00000000
00000000
00010000
00000000
00000000
00000000
00000000
00000000
00000000
00000000
00000000
00000000
00000000
00000000
00000100
00000000
00000000
00000000
00000000
00000000
00000010
00000000
00000000
00000000
00000000
00000000
00000001
00000000
00000000
00000000
00001000
00000000
00000000
00000000
00000010
00000000
00000000
00000000
,
00001000
00000000
00010010
00010000
00000000
00001000
00100000
01000000
10000000
00000000
00000000
00110000
00000000
00000000
00011000
00000000
,
00010000
00000200
00000000
00000000
00000000
00000000
00000000
00000000
00000000
00000310
00000001
00000100
00001000
00010000
00100000
01000000
,
00000000
00000000
00010000
10000000
00010000
10000000
00010000
10000000
10010000
00000000
00010000
01000000
00001000
00010000
00100000
00010000
,
00001000
00000000
00000010
00000000
00000100
00000000
00001000
00000000
00000010
00000000
00000100
00000000
00001000
00000000
00010000
00000000
00000010
00000000
00000010
00000000
00000010
00000000
00001000
00000000
00000010
00010000
00000010
00000000
00001000
00000000
00000000
00000000
,
00000100
00000000
00010000
00000000
00001000
00000000
01000000
00000000
00010000
00000000
00000000
00000000
00100000
00000000
00000000
00000000
01000000
00000000
00000000
00000000
00000000
00000000
10000000
00010000
01000000
00000000
00000000
00000000
00100000
00000000
00000000
00000000
,
00010000
00000000
00001000
00010000
00000000
00001000
00010000
00000000
00000100
00000000
00001000
00000000
00000010
00000000
00000000
00000000
00000100
00000000
00000100
00000000
00001000
00010000
00001000
00000000
00100000
00000000
01000000
00000000
00010000
00000000
00001000
00000000
,
01000000
00000000
00000000
00000000
00100000
00000000
00000000
00100000
00000000
00000000
00010000
00000000
00000000
00010000
00000000
00000000
00001000
00010000
00001000
00000000
00000000
00000000
00010000
00000000
00000100
00000000
00000000
00000000
00001000
00000000
00000010
00000000
,
00000200
00000000
00000000
00000000
00000000
00000000
00001000
00000000
00000000
00001000
00000000
00000000
00000320
00000000
00000000
00001000
00000000
00000000
00000000
00000000
00000000
00000000
00000000
00000000
00000130
00000000
00001000
00000000
00010000
00000000
00100000
00000000
00010000
00000000
00000000
00000000
00001000
00000000
00000000
00000000
01000000
00000000
00000000
00000000
00100000
00000000
00000000
00000000
,
00010000
00000000
00000000
00000000
01000000
00000000
00000000
00000000
00001000
00000000
00000000
00000000
00010000
00000000
00000000
00000000
00000100
00000000
00000000
00000000
00001000
00000000
00000000
00000000
00000001
00000000
00000000
00001000
00000000
00000000
00000001
00000000
00000000
00001000
00000000
00000000
00000100
00000000
00000000
00000000
00000000
00000000
00000000
00000000
00000000
00000000
00000000
00000000
00000010
00000000
00000000
00000000
00000000
00000000
00000001
00000000
00000000
00000000
00000000
00000000
00000100
00000000
00000000
00000000
00000000
00000000
00001000
00000000
00000000
00000000
00000000
00000000
00010000
00000000
00000000
00000000
00000000
00000000
00001000
00000000
00000000
00100000
00000000
00000000
00000000
00000000
00000000
00000000
00000000
00000000
00000000
00000000
00000000
00000000
00000000
00000000
,
00110000
00000000
00000000
00110000
00000000
00000000
10010000
00000000
00000000
00000000
00000000
00000000
00000000
00000000
00000000
00000000
10000000
00010000
10000000
00000000
01000000
00000000
00000000
00000000
00010000
00000000
00001000
00010000
00000100
00000000
00000000
00000000
,
00010000
00000000
00010000
00000000
00001000
00000000
00000000
00000000
00000010
00000000
00001000
00000000
00010000
00000000
01000000
00000000
00200000
00000000
00000000
00000000
00000000
00000000
00000000
00000000
00000000
00000000
00000000
00000000
00000000
00301000
00000000
00000000
,
00020000
00000000
00000000
00000000
00000000
00000000
00000000
00000000
00000000
00000000
00000000
00000000
00000000
00000000
00000000
00000000
00000000
00000000
00000000
00000000
00000000
00000000
00000000
00000000
00000000
00000000
00000000
00000000
00000000
00030010
00000000
00000000
,
00002000
00000000
00000000
00000000
00000000
00000000
00000000
00000000
00000000
00000000
00000000
00000000
00000000
00000000
00000000
00000000
00003002
00000000
00000000
00000000
00000000
00000000
00000000
00000000
00000000
00000000
00000013
00000000
00000000
00000100
00000000
00000000
,
00002000
00000000
00000000
00000000
00000000
00000000
00000000
00000000
00000000
00000000
00000000
00000000
00000000
00000000
00000000
00000000
00003020
00000000
00000000
00000000
00000000
00000000
00000000
00000000
00000000
00000000
00000000
00000000
00000000
00010030
00000000
00000000
,
00002000
00000000
00203000
01000000
,
10000000
01000000
00302000
00010000
,
00000010
00010000
00203000
00001000
,
00010000
00000000
00000000
00000000
01000000
00000000
00000000
00000000
00000000
00302000
00000000
00000000
00023000
00000000
00000000
00000000
,
00000000
00000010
00000000
00000000
00032000
00000000
00000000
00000000
00000000
00000000
00000000
00000000
00000000
00000000
00000000
00000000
,
00000000
00000000
00000000
00000000
00000000
00000000
00000000
00000000
00000000
00000000
00000000
00000000
00000000
00000000
00000000
00003000
,
00000000
00000000
00000001
00001000
00000001
00001000
00000001
00001000
00001001
00000000
00000000
00001010
00000000
00000000
00011000
00000000
,
00200000
00000000
00000000
00000000
00000000
00000000
00310000
10000000
00200000
00000000
00000000
00000000
00000000
00000000
00000000
00000000
,
02300000
00000000
00000000
00000000
13000000
01000000
00010000
00000000
02020000
00000000
03030000
00000000
00022000
00000000
00033000
00000000
,
00010000
00001000
00000010
00000000
00000001
00000000
00001000
00000000
00000010
00000100
00001000
00010000
00000010
00000000
00000000
00010000
,
00002000
00000000
00000000
00000000
00000000
00000000
00000000
00000000
00000000
00000000
00000000
00000000
00000000
00000000
00000000
00000000
01003000
00010000
00000000
00010000
00000000
00000000
00010000
00000000
00000000
00000000
00000000
00000000
00100000
00000000
01000000
00000000
,
20000000
00000000
00000000
00000000
00000000
00000000
30100000
01000000
00010000
00000000
00000000
00000000
10000000
01000000
00010000
00001000
,
00100000
00000000
00001000
00000000
00010000
00000000
00000010
00000000
00001000
00000000
00000100
00000000
00000000
00000100
00000000
00000000
00000010
00000000
00000000
00000000
00000000
00000000
00000001
00000000
00001000
00000000
00000000
00001000
00000000
00000000
00001000
00000010
,
00010000
00000000
00000000
00000000
00000000
00000000
00000000
00001000
00100000
00000000
00000000
00000000
01000000
00000000
10000000
00000000
00020000
00000000
00000000
00000000
00000000
00000000
00000000
00000000
01030000
00000000
00010000
00000000
00000000
00000000
00000000
00000000
,
00100000
00100000
01000000
01000000
10000000
00000000
00000000
00000000
00020000
00000000
00000000
00000000
00000000
00000000
00000000
00000000
,
00000000
00000000
00000000
00000000
,
00000000
00000000
00000000
00000000
,
10030000
00100000
00010000
00001000
01000000
00100000
00010000
00001000
00000010
00000000
00000000
00011000
00000000
00000000
00101000
00000000
,
00000000
00000000
00001000
00010000
00001000
00010000
00001000
00010000
00011000
00000000
00000000
00001000
00000010
00000001
00000200
00000000
,
00000000
00000000
00000000
00000000
00000000
00000000
00000000
00000000
00000000
00000000
00000000
00000000
00000310
00000000
00000000
00001000
00000000
00000000
00000000
00000000
00000000
00000010
00000000
00000000
00010000
00000000
00000000
00000000
00000000
00000000
00001000
00000000
00000000
00010000
00000000
00000000
00000000
00000000
00000000
00001000
00000000
00000000
00100000
00000000
00000000
00000000
00000000
00000000
00010000
00000000
00000000
00000000
00000000
00000000
10000000
00000000
00000000
00000000
00000000
00000000
00100000
00000000
00000000
00000000
00000000
00000000
00000000
00000000
00000000
00000000
00000000
00000000
01000000
00000000
00000000
00000000
00001000
00000000
00000000
00000000
00010000
00000000
00000000
00000000
00001000
00000000
00000000
00010000
00000000
00000000
00000000
00000000
00000000
00000100
00000000
00000000
,
00000000
00000000
00000000
00000000
00001000
00000000
00000001
00000000
00000100
00000000
00000010
00000000
00001000
00000000
00000000
00000000
00000100
00000000
00000100
00000000
00010000
00000000
00001000
00000000
01000000
00000000
01000000
00000000
00010000
10000000
01000000
00000000
,
00100000
00010000
00100000
00000000
00000000
00100000
00000000
00000000
00001000
00010000
00000010
00000000
00001000
00000000
00000000
00000000
00000001
00000000
00000000
00000000
00000000
00000000
00000000
00000000
00000110
00000000
00000000
00000000
00000000
00000000
00001100
00000000
,
00000000
00000000
00000000
00000000
00011000
00000000
00000000
00000000
00000000
00000000
01010000
00000000
00000000
00000000
00000000
00000000
10010000
00000000
00000000
10000000
00000000
00000000
00100000
00000000
01000000
00000000
00010000
10000000
00000000
01000000
00100000
00000000
,
00001000
00000000
00010000
00000000
00100000
00000000
00010000
00000000
00001000
00010000
00000000
00000010
00010000
00000000
00000000
00000000
00001000
00000000
00000010
00000000
00000100
00000000
00001000
00000000
00000010
00000000
00000100
00000000
00001000
00000000
00010000
00000000
,
00100000
01000000
00010000
00000000
10000000
00000000
01000000
00000000
00100000
00010000
00100000
00010000
00100000
00000000
00000000
00000000
00101000
00000000
00000000
00000000
00001000
00000000
00010000
00000000
00000200
00000000
00000000
00000000
00000000
00000000
00000000
00000000
,
00000000
00000000
00000000
00000000
00000000
00000000
00000000
00000000
00000000
00000000
00000000
00000000
00010300
00001000
00010000
00001000
00010000
00000000
00000000
00000000
00000000
00000000
00010100
00000000
00000000
00000000
00000000
00000000
00001100
00000000
00000000
00000000
,
00001001
00000000
00000000
00000101
00000000
00000000
00001010
00000000
00000000
00000000
00000000
00000000
00000000
00000000
00000000
00000000
;

//---------------dance-double - BU-- (48th), JU, XO, AMEN+----------------
#NOTES:
     dance-double:
     :
     Challenge:
     18:
     0.778045,1.122743,0.414570,0.455214,1.434738,670.000000,619.000000,51.000000,56.000000,0.000000,0.000000,0.778045,1.122743,0.414570,0.455214,1.434738,670.000000,619.000000,51.000000,56.000000,0.000000,0.000000:
00000000
00000000
00000000
00000000
,
00000000
00000000
00000000
00000000
,
00000000
00000000
00000000
00000000
00000000
00000000
00000000
00000000
00010000
00000000
00000000
00010000
00000000
00000000
00010000
00000000
,
00000000
00000000
00000000
00000000
00001000
00010000
00000010
00000000
00000100
00000001
00000010
00000000
00000100
00000000
00010000
00001000
,
00100000
00010000
02000000
00000000
00000000
00000000
00000000
00000000
03100000
00000000
00000000
00100000
00000000
00000000
00100000
00000000
,
10000000
00000000
01000000
00100000
00010000
01000000
00001000
00000000
00010000
00000000
00000100
00001000
00000010
00000100
00000001
00000100
,
00001000
00010000
00100000
01000000
00001000
00000000
00010000
00000000
00011000
00000000
00000000
00110000
00000000
00000000
01100000
00000000
,
00020000
00000000
00000000
00000000
00001000
00100000
10000000
00100000
,
10000000
00000000
00000000
00000000
00000000
00000000
10030000
00000000
00000000
00000000
00000000
00000000
00000000
00000000
00010000
01000000
00010000
00000000
00000000
00000000
00000000
00000000
00011000
00000000
00000000
00000000
00000000
00000000
00001100
00000000
00000000
00000000
,
00001000
00000000
00000100
00000000
00000010
00000000
00000001
00000000
00000100
00000000
00000010
00000000
00010000
00000000
00001000
00000000
00100000
00001000
00100000
00001000
00100000
00010000
00100000
00010000
10000000
00010000
10000000
00010000
10000000
00100000
10000000
00100000
,
00000000
00000000
00000000
00000000
00000000
00000000
00000000
00000000
00000000
00000000
00000000
00000000
00000000
00000000
00000000
00000000
20020000
00000000
00000000
00000000
30030000
00000000
10000000
00000000
01000000
00000000
00100000
00010000
00000000
01000000
00010000
01000000
,
00001000
00010000
00000100
00001000
00000001
00000000
00001000
00000010
00000100
00000000
00000010
00000000
00000220
00000000
00000330
00000000
00000001
00000100
00000010
00000000
00000001
00000000
00000010
00000000
00001000
00000000
00000100
00000000
00010000
00000000
00001000
00000000
,
01000000
00000000
00000000
00000000
00000000
00000000
00010000
00000000
01000000
00000000
00010000
00000000
01000000
00000000
00000000
00000000
00000000
00000000
00000000
00000000
00000000
00000000
00000000
00000000
00100000
00000000
00000000
10000000
00000000
00000000
01000000
00000000
00000000
00100000
00000000
00000000
00010000
00000000
00000000
00000000
00000000
00000000
00000000
00000000
00000000
00000000
00000000
00000000
00101000
00000000
00000000
00000000
00000000
00000000
00000000
00000000
00000000
00000000
00000000
00000000
00100000
00000000
00000000
00001000
00000000
00000000
00010000
00000000
00000000
00000000
00000000
00000000
00000010
00000000
00000000
00000000
00000000
00000000
00000000
00000000
00001000
00000000
00000010
00000000
00001000
00000000
00000000
00000000
00000001
00000000
00000000
00000000
00000010
00000000
00000000
00000000
,
00000100
00000000
00000000
00000000
00002100
00000000
00000000
00000000
00010000
00000000
00000000
00000000
00003100
00010000
00001000
01000000
00020000
00000000
00100000
00000000
00000000
00000000
01030000
00000000
00200000
00000000
00000000
00000000
00000000
00000000
10300000
00010000
,
00100000
00000000
00000000
00000000
11000000
00000000
10000000
00000000
00000000
00000000
00010000
00000000
01000000
00000000
00000000
00000000
00022000
00000000
00000000
00033000
00000000
00000000
00001000
00000000
00000010
00000000
00000001
00000000
00000200
00000000
00000000
00000000
,
00000310
00000000
00000000
00001000
00000000
00000000
00000010
00000000
00000000
00010000
00000000
00000000
00001000
00000000
00000000
00000000
00000000
00000000
00100000
00000000
00000000
00000000
00000000
00000000
00010000
00000000
00000000
10000000
00000000
00000000
00100000
00000000
00000000
01000000
00000000
00000000
00020000
00000000
00000000
00000000
00000000
00000000
00000000
00000000
00000000
00000000
00000000
00000000
00130000
00000000
00000000
01000000
00000000
00000000
00000000
10000000
00000000
00000000
00000000
00000000
00100000
00000000
00000000
00000000
00000000
00000000
00010000
00000000
00000000
00000000
00000000
00000000
00001000
00000000
00000000
00000000
00000000
00000000
00000010
00000000
00000000
00000000
00000000
00000000
00001000
00000000
00010000
00000000
00001000
00000000
00010000
00000000
00000000
00000010
00000000
00000000
,
00010000
00000000
00000000
00000000
00000000
00000000
00001001
00000000
00000000
00001001
00000000
00000000
00000000
00000000
00000000
00001000
00000000
00000000
00000010
00010000
00000010
00010000
00000000
00000000
00001000
00000000
00000000
00000000
00000000
00000000
00100000
00000000
00000000
00101000
00000000
00000000
00000000
00000000
00000000
00010000
00000000
00000000
10010000
00000000
00000000
00000000
00000000
00000000
,
10000000
00000000
00010000
00000000
10000000
00000000
00020000
00000000
00000000
00000000
00000000
00000000
00000000
00000000
00000000
00000000
00000000
00000000
00000000
00000000
00000000
00000000
00000000
00000000
00000000
00000000
00000000
00000000
00000000
00000000
01000000
00000000
00000000
00000000
00000000
00000000
00000000
00000000
00000000
00000000
00000000
00000000
00000000
00000000
00000000
00000000
00000000
00000000
10030000
00000000
00000000
00000000
00000000
00000000
00010000
00000000
00000000
01000000
00000000
00000000
00010000
00000000
00000000
01000000
00000000
00000000
00001000
00000000
00000000
00010000
00000000
00000000
00001000
00000000
00000000
00010000
00000000
00000000
00000100
00000000
00000000
00001000
00000000
00000000
00000100
00000000
00000000
00001000
00000000
00000000
00000001
00000000
00000000
00001000
00000000
00000000
,
00000000
00000000
00000000
00000000
00000000
00000000
00000000
00000000
00000000
00000000
00000000
00000000
00000000
00000000
00000000
00000000
00001001
00000000
00000000
00000000
00001000
00000010
00000100
00000010
00010000
00000000
00001000
00010000
00001000
01000000
00010000
10000000
,
01000000
00000000
00000000
00100000
00000000
00000000
00001000
00000000
00000000
00010000
00000000
00000000
00000010
00000000
00000000
00001000
00000000
00000000
00000001
00000000
00000000
00000100
00000000
00000000
00000010
00000000
00000000
00000000
00000000
00000000
00001000
00000000
00000010
00000000
00001000
00000000
00000020
00000000
00000000
00000000
00000000
00000000
00000000
00000000
00000000
00000000
00000000
00000000
00010030
00000000
00000000
00000000
00000000
00000000
00010000
00000000
00000000
00000000
00000000
00000000
00010000
00000000
00000000
00000000
00000000
00000000
00001000
00000000
00000000
00000000
00000000
00000000
00100000
00000000
00000000
00001000
00000000
00000000
00010000
00000000
00000000
00000000
00000000
00000000
00001000
00000000
00000000
00000000
00100000
00000000
00000000
00000000
01000000
00000000
00000000
00000000
,
10000000
00000000
00100000
00000000
01000000
00001000
00010000
00000100
00001000
00000001
00000100
00000010
00001000
00000000
00000000
00000000
00001010
00000000
00000000
00000000
00000010
00010000
00001000
00100000
00010000
00000000
00000000
00000000
00100000
00000000
00000000
00000000
,
01000000
10000000
00010000
01000000
00000000
00100000
10000000
00000000
01000000
00100000
00010000
01000000
00002000
00000000
00000000
00000000
00013000
00000000
00010000
00000000
00000100
00001000
00000010
00001000
00000001
00000100
00000010
00000100
00001000
00010000
00001000
00000100
,
00000010
00000000
00000000
00000000
00001010
00000000
00000000
00010010
00000000
00000000
00011000
00000000
00000000
00101000
00000000
00000000
00001000
00100000
00001000
00000000
00000000
00000000
01000000
00000000
02010000
00000000
00000000
00000000
00100000
00000000
00100000
00000000
,
03002000
00000000
00000000
00000000
00000000
00000000
00010000
00000000
00000000
00013000
00000000
00000000
00000020
00000000
00000000
00000000
00000000
00000000
00000000
00000000
00000000
00000000
00000000
00000000
00000030
00000000
00000100
00000000
00000001
00001000
00000001
00000000
00000100
00000000
00000000
00000000
00001000
00000000
00000000
00000000
00010000
00000000
00000000
00000000
00100000
01000000
00100000
00000000
,
01000000
00000000
00000000
00000000
00010000
00000000
00000000
00000000
10000000
00000000
00000000
00000000
01000000
00000000
00000000
00000000
00100000
00000000
00000000
00000000
00010000
00000000
00000000
00000000
10000000
00000000
00000000
00100000
00000000
00000000
01000000
00000000
00000000
00010000
00000000
00000000
10000000
00000000
00000000
00000000
00000000
00000000
00000000
00000000
00000000
00000000
00000000
00000000
01000000
00000000
00000000
00000000
00000000
00000000
01000000
00000000
00000000
00000000
00000000
00000000
00100000
00000000
00000000
00000000
00000000
00000000
00100000
00000000
00000000
00000000
00000000
00000000
00001000
00000000
00000000
00000000
00000000
00000000
00010000
00000000
00000000
00000100
00000000
00000000
00001000
00000000
00000000
00000001
00000000
00000000
00000100
00000000
00000000
00000001
00000000
00000000
,
00000010
00000000
00000000
00001100
00000000
00000000
00011000
00000000
00002000
00000000
00000000
00000000
00000000
00000000
00000000
00000000
01003000
00010000
10000000
01000000
00100000
00000000
00000000
00000000
00001000
00000000
01000000
00100000
10000000
00000000
00010000
00000000
,
00100000
00000000
00000000
00000000
00000000
00000000
00100000
00000000
00000000
00000000
00000000
00000000
01000000
00000000
00000000
00000000
00000000
00000000
01000000
00000000
00000000
00000000
00000000
00000000
00010000
00000000
00000000
00000000
00000000
00000000
00001000
00000000
00000000
00000000
00000000
00000000
00000010
00000000
00000000
00000000
00000000
00000000
00000001
00000000
00000000
00000000
00000000
00000000
00000100
00000000
00000000
00000000
00000010
00000000
00000000
00000000
00000001
00000000
00000000
00000000
00000010
00000000
00000000
00000000
00000100
00000000
00000000
00000000
00000010
00000000
00000000
00000000
00002000
00000000
00000000
00000000
00000000
00000000
00000000
00000000
00000000
00000000
00000000
00000000
00000000
00000000
00000000
00003010
00000000
00000000
00000000
00000000
00000000
00000000
00000000
00000000
,
00020000
00000000
00000000
00000000
00000000
00000000
00000000
00000000
00000000
00000000
00000000
00000000
00000000
00000000
00000000
00000000
00000000
00000000
00000000
00000000
00000000
00000000
00000000
00000000
00000000
00000000
00000000
00000000
00000000
00031000
00000000
00000000
,
00020000
00000000
00000000
00000000
00000000
00000000
00000000
00000000
00000000
00000000
00000000
00000000
00000000
00000000
00000000
00000000
00032000
00000000
00000000
00000000
00000000
00000000
00000000
00000000
00000000
00000000
00013000
00000000
00000000
00100000
00000000
00000000
,
02000000
00000000
00000000
00000000
00000000
00000000
00000000
00000000
00000000
00000000
00000000
00000000
00000000
00000000
00000000
00000000
03200000
00000000
00000000
00000000
00000000
00000000
00000000
00000000
00000000
00000000
00000000
00000000
00000000
10300000
00000000
00000000
,
02000000
00000000
03200000
10000000
,
01000000
00001000
00320000
01000000
,
00100000
00001000
00230000
01000000
,
00010000
00000000
00000000
00000000
00001000
00000000
00000000
00000000
00000000
00300020
00000000
00000000
00010000
00000000
00000000
00000000
,
00000000
00000100
00000000
00000000
00002030
00000000
00000000
00000000
00000000
00000000
00000000
00000000
00000000
00000000
00000000
00000000
,
00000000
00000000
00000000
00000000
,
00003000
00000000
00000000
00000000
00000000
00000000
00000000
00000000
00001001
00000000
00000001
00000101
00000000
00001000
00001010
00000000
,
00000020
00000000
00000000
00000000
00000000
00000000
00000031
00000010
00002000
00000000
00000000
00000000
00000000
00000000
00000000
00000000
,
00003010
00010000
00000010
00010000
00001000
00010000
00001000
00100000
00010000
00000000
01000000
00000000
00010000
00100000
01000000
00000000
22000000
00000000
00000000
00000000
33000000
00000000
00000000
00000000
02020000
00000000
00000000
00000000
03030000
00000000
00000000
00000000
,
00010000
01000000
00001000
00000000
01002000
00000000
00000000
00000000
00010000
00000000
00000000
00000000
00103000
00000000
00000000
00000000
00010000
00000000
00100000
00001000
00010000
00000000
00000010
00010000
00002000
00000000
00000000
00000000
00000000
00000000
00013000
00000000
,
00000010
00000000
00000000
00000000
00000000
00000000
00001000
00000000
00000000
00000010
00000000
00000000
00000200
00000000
00000000
00000000
00000000
00000000
00000000
00000000
00000000
00000000
00000000
00000000
00000000
00000000
00000000
00000000
00000000
00000000
00000000
00000000
00000000
00000000
00000000
00000000
00000301
00000000
00000000
00000000
00000010
00000000
00000000
00000000
00000100
00000000
00000000
00000000
00001000
00000000
00000000
00000100
00000000
00000000
00000000
00000000
00000000
00010000
00000000
00000000
00000000
00000000
00000000
00000000
00000000
00000000
00021000
00000000
00000000
00000000
00000000
00000000
00000000
00000000
00000000
00000000
00000000
00000000
00000000
00000000
00000000
00000000
00000000
00000000
00130000
00000000
00000000
00000000
00000000
00000000
01000000
00000000
00000000
00000000
00000000
00000000
,
00020000
00000000
00000000
00000000
01000000
00000000
01000000
00000000
00230000
00000000
00000000
00000000
00000000
00000000
00301000
00010000
00000020
00000000
00000000
00000000
00000000
00000000
00000000
00000000
00000230
00000000
00000000
00000000
00000000
00000000
00000000
00000000
,
00001300
00000000
00000100
00001000
00000000
00010000
00001000
00000000
00010000
00000000
00001000
00000000
00000000
01010000
00000000
00000000
00010000
00000000
10000000
00000000
01000000
00100000
00010000
10000000
00100000
00000000
00000000
01010000
00000000
00000000
00010000
00100000
,
00001000
00000000
00000000
00000000
00010000
00000010
00001000
00000001
00001000
00000000
00000000
00000000
00000100
00000000
00000010
00000000
00000002
00000000
00000000
00000000
00000000
00000000
00000000
00000000
00000103
00000000
00000020
00000000
00000000
00000000
00000000
00000000
,
00000130
00001000
00010000
00100000
20000000
00000000
30010000
00000000
20020000
00000000
00000000
00000000
00000000
00000000
00000000
00000000
,
00000000
00000000
00000000
00000000
,
00000000
00000000
00000000
30030000
,
10000000
00100000
10000000
00100000
01000000
00010000
01000000
00010000
10000000
00010000
01000000
00100000
00010000
00001000
01000000
00001000
00010000
00000000
00000000
00000000
00000000
00000000
00001100
00000000
00000000
00000000
00000000
00000000
00000011
00000000
00000000
00000000
,
00000000
00000000
00000000
00000000
00000000
00000000
00000000
00000000
00000000
00000000
00000000
00000000
00000000
00000000
00000000
00000000
00002002
00000000
00000000
00003003
00000000
00000000
00000001
00000010
00000100
00000000
00000001
00000000
00000100
00000020
00000000
00000000
,
00000000
00000000
00000000
00000000
00000000
00000000
00000000
00000000
00000000
00000000
00000000
00000000
00000031
00000000
00000000
00001000
00000000
00000000
00000010
00000000
00000000
00000100
00000000
00000000
00001000
00000000
00000000
00010000
00000000
00000000
00001000
00000000
00000000
00000100
00000000
00000000
00001000
00000000
00000000
00010000
00000000
00000000
00100000
00000000
00000000
00010000
00000000
00000000
00001000
00000000
00000000
00000000
00000000
00000000
00000000
00000000
00000000
00000000
00000000
00000000
01010000
00000000
00000000
00000000
00000000
00000000
00000000
00000000
00000000
00000000
00000000
00000000
01000000
00000000
00000000
00000000
00010000
00000000
00000000
00000000
00100000
00000000
00000000
00000000
01000000
00000000
00000000
10000000
00000000
00000000
00010000
00000000
00000000
01000000
00000000
00000000
,
00100000
10000000
00000000
00000000
01000000
00100000
00001000
00010000
00001000
00000000
00000010
00000000
00000001
00000000
00000000
00000000
00000100
00000000
00000001
00000000
00000100
00001000
00010000
00000000
00001000
00000000
00001000
00000000
00100000
01000000
10000000
01000000
,
00100000
00000000
00110000
00000000
00000000
00011000
00000000
00000000
00001000
00010000
00000100
00001000
00000001
00000000
00000000
00000000
00001000
00000000
00000000
00000000
00000000
00000000
00000000
00000000
00100010
00000000
00000000
00000000
00000000
00000000
00011000
00000000
,
00000000
00000000
00000000
00000000
01000100
00000000
00000000
00000000
00000000
00000000
00011000
00000000
00000000
00000000
00000000
00000000
00010000
00001000
00100000
01000000
10000000
00010000
01000000
00000000
00000000
00000000
10000000
00000000
01000000
00100000
00000000
00000000
,
01000000
00000000
00100000
00000000
00010000
00000000
00001000
00000000
00000010
00001000
00000000
00010000
00001000
00000000
00000000
00000000
00010000
00001000
00010000
00000010
00002000
00000000
00000100
00000000
00003001
00000000
00000010
00000100
00010000
00000000
00001000
00000000
,
00010000
00100000
01000000
00100000
00010000
00100000
01000000
00000000
00010000
00100000
00001000
00010000
00001000
00000000
00000000
00000000
00010100
00000000
00000000
00000000
00001001
00000000
00000001
00000000
00000200
00000000
00000000
00000000
00000010
00000000
00000010
00000000
,
00000000
00000000
00001000
00000000
00000000
00000000
00000000
00000000
00000000
00000000
00010000
00000000
00000000
00000000
00000000
00000000
00000000
00000000
00000000
00000000
00000000
00000000
00000000
00000000
00001300
00000000
00000000
00000000
00000000
00000000
00000000
00000000
00000000
00000000
00000000
00000000
00010000
00000000
00000000
00100000
00000000
00000000
01000000
00000000
00000000
00010000
00000000
00000000
10000000
00000000
00000000
00000000
00000000
00000000
00000000
00000000
00000000
00000000
00000000
00000000
00000000
00000000
00000000
00000000
00000000
00000000
11000000
00000000
00000000
00000000
00000000
00000000
00000000
00000000
00000000
00000000
00000000
00000000
00000000
00000000
00000000
00000000
00000000
00000000
00011000
00000000
00000000
00000000
00000000
00000000
00000000
00000000
00000000
00000000
00000000
00000000
,
00100010
00000000
00000000
00011000
00000000
00000000
01000100
00000000
00000000
00000000
00000000
00000000
00000000
00000000
00000000
00000000
;
