#VERSION:0.83;
#TITLE:Signals;
#SUBTITLE:;
#ARTIST:Maozon;
#TITLETRANSLIT:;
#SUBTITLETRANSLIT:;
#ARTISTTRANSLIT:;
#GENRE:Drum and Bass;
#ORIGIN:RUNABOUT [DVSP-0229];
#TAGS:;
#CREDIT:skeleton made by Pandemonium X;
#BANNER:Signals.png;
#BACKGROUND:Signals-bg.png;
#PREVIEWVID:;
#JACKET:Signals-jacket.png;
#CDIMAGE:;
#DISCIMAGE:;
#LYRICSPATH:;
#CDTITLE:../_YSD cdtitles/ysd sale2 cdtitle.png;
#MUSIC:Signals.ogg;
#OFFSET:-0.294000;
#SAMPLESTART:88.915001;
#SAMPLELENGTH:22.069000;
#SELECTABLE:YES;
#BPMS:0.000000=174.000000
,57.000000=87.000000
,74.000000=174.000000
;
#STOPS:57.000000=2.069000
;
#DELAYS:;
#WARPS:;
#TIMESIGNATURES:0.000000=1=4
,1.000000=4=4
,57.000000=1=4
,58.000000=2=4
,74.000000=4=4
;
#TICKCOUNTS:0.000000=4
;
#COMBOS:0.000000=1
;
#SPEEDS:0.000000=1.000000=0.000000=0
;
#SCROLLS:0.000000=1.000000
;
#FAKES:;
#LABELS:0.000000=Song Start
;
#BGCHANGES:;
#KEYSOUNDS:;
#ATTACKS:
;

//---------------dance-single - ----------------
#NOTEDATA:;
#CHARTNAME:;
#CHARTHASH:3486642070;
#STEPSTYPE:dance-single;
#BANNER:;
#DESCRIPTION:;
#CHARTSTYLE:;
#DIFFICULTY:Beginner;
#METER:5;
#METERF:5.000000;
#LASTSECONDHINT:133.052643;
#RADARVALUES:0.173695,0.265147,0.087894,0.000000,0.000000,166.000000,154.000000,12.000000,0.000000,0.000000,0.000000,0.000000,0.000000,0.000000,0.173695,0.265147,0.087894,0.000000,0.000000,166.000000,154.000000,12.000000,0.000000,0.000000,0.000000,0.000000,0.000000,0.000000;
#CREDIT:YOSEFU;
#NOTES:
// measure 0
0000
0000
0000
0000
,  // measure 1
0000
0000
0000
0000
,  // measure 2
0000
0000
0000
0000
,  // measure 3
0000
0000
0000
0000
,  // measure 4
0000
1000
0000
0000
,  // measure 5
1000
0000
0000
1000
,  // measure 6
0000
0010
0000
0000
,  // measure 7
0100
0000
0000
0010
,  // measure 8
0000
0100
0000
0000
,  // measure 9
0100
0000
0000
0100
,  // measure 10
0000
0001
0000
0000
,  // measure 11
0010
0000
0000
0100
,  // measure 12
0000
1000
0000
0000
,  // measure 13
0010
0000
0000
0100
,  // measure 14
0000
0001
1000
0000
,  // measure 15
0010
0000
0100
0000
,  // measure 16
0001
0000
1000
0000
,  // measure 17
0100
0000
0010
0000
,  // measure 18
0001
0000
1000
0000
,  // measure 19
0000
0000
0010
0000
,  // measure 20
0000
0000
0100
0000
,  // measure 21
0000
0000
0001
0000
,  // measure 22
0000
0000
0010
0000
,  // measure 23
0000
0000
0100
0000
,  // measure 24
0000
0000
1000
0000
,  // measure 25
0000
0000
0001
0000
,  // measure 26
0000
0000
1001
0000
,  // measure 27
1000
0000
0001
0000
,  // measure 28
0001
0000
0100
0000
,  // measure 29
0100
0000
0010
0000
,  // measure 30
0010
0000
1000
0000
,  // measure 31
1000
0000
0001
0000
,  // measure 32
0001
0000
0010
0000
,  // measure 33
0010
0000
0100
0000
,  // measure 34
0100
0000
1000
0000
,  // measure 35
1000
0000
0001
0000
,  // measure 36
0001
0000
0100
0000
,  // measure 37
0100
0000
0001
0000
,  // measure 38
0001
0000
0010
0000
,  // measure 39
0010
0000
0100
0000
,  // measure 40
0100
0000
1001
0000
,  // measure 41
0000
0000
0110
0000
,  // measure 42
1001
0000
1001
0000
,  // measure 43
0001
0000
0100
0000
,  // measure 44
0010
0000
0100
0000
,  // measure 45
0001
0000
1000
0000
,  // measure 46
0100
0000
1000
0000
,  // measure 47
0001
0000
1000
0000
,  // measure 48
0010
0000
0100
0000
,  // measure 49
0001
0000
1000
0000
,  // measure 50
0100
0000
0010
0000
,  // measure 51
0001
0000
1000
0000
,  // measure 52
0001
0000
0100
0000
,  // measure 53
0010
0000
1000
0000
,  // measure 54
0001
0000
0010
0000
,  // measure 55
0100
0000
1000
0000
,  // measure 56
0001
0000
0100
0000
,  // measure 57
0000
0000
0010
0000
,  // measure 58
0000
0000
1001
0000
,  // measure 59
0001
0000
1000
0000
,  // measure 60
0001
0000
0100
0000
,  // measure 61
0010
0000
1000
0000
,  // measure 62
0001
0000
1000
0000
,  // measure 63
0100
0000
0010
0000
,  // measure 64
0100
0000
1000
0000
,  // measure 65
0001
0000
0100
0000
,  // measure 66
0010
0000
1001
0000
,  // measure 67
1000
0000
0100
0000
,  // measure 68
0010
0000
0001
0000
,  // measure 69
1000
0000
0010
0000
,  // measure 70
0100
0000
0001
0000
,  // measure 71
0010
0000
0100
0000
,  // measure 72
1000
0000
1001
0000
,  // measure 73
0000
0000
0110
0000
,  // measure 74
0000
0000
1001
0000
,  // measure 75
1000
0000
0001
0000
,  // measure 76
0100
0000
0010
0000
,  // measure 77
1000
0000
0001
0000
,  // measure 78
1000
0000
0100
0000
,  // measure 79
0010
0000
0001
0000
,  // measure 80
1000
0000
0010
0000
,  // measure 81
0100
0000
0001
0000
,  // measure 82
0010
0000
0110
0000
,  // measure 83
0100
0000
1000
0000
,  // measure 84
0001
0000
0100
0000
,  // measure 85
0010
0000
1000
0000
,  // measure 86
0100
0000
0010
0000
,  // measure 87
0001
0000
1000
0000
,  // measure 88
0001
0000
1001
0000
,  // measure 89
0000
0000
0000
0010
0000
0000
0000
0000
,  // measure 90
0000
0000
0100
0000
;

//---------------dance-single - ----------------
#NOTEDATA:;
#CHARTNAME:;
#CHARTHASH:3846607986;
#STEPSTYPE:dance-single;
#BANNER:;
#DESCRIPTION:;
#CHARTSTYLE:;
#DIFFICULTY:Easy;
#METER:9;
#METERF:9.000000;
#LASTSECONDHINT:133.052643;
#RADARVALUES:0.380874,0.430864,0.036623,0.014649,0.000000,364.000000,359.000000,5.000000,2.000000,0.000000,0.000000,0.000000,0.000000,0.000000,0.380874,0.430864,0.036623,0.014649,0.000000,364.000000,359.000000,5.000000,2.000000,0.000000,0.000000,0.000000,0.000000,0.000000;
#CREDIT:YOSEFU;
#NOTES:
0000
0000
0000
0000
,
0000
0000
0000
0000
,
0000
0000
0000
0000
,
0000
0000
0000
0000
,
0000
0000
1000
0000
0000
0001
0000
0000
,
1000
0000
0000
0001
0000
0000
0100
0000
,
0010
0000
1000
0000
0000
0001
0000
0000
,
0010
0000
0000
0100
0000
0000
1000
0000
,
0000
0000
0100
0000
0000
0010
0000
0000
,
0100
0000
0000
0010
0000
0000
0001
0000
,
0000
0000
1000
0000
0000
0010
0000
0000
,
0100
0000
0000
0001
0000
0000
1000
0000
,
0100
0000
0010
0000
0000
0100
0000
0000
,
0010
0000
0000
0001
0000
0000
1000
0000
,
0010
0200
0301
1000
,
0001
1000
0010
0100
,
0010
0100
0001
1000
,
0100
0010
0001
1000
,
0010
0100
0001
1000
,
0000
0100
0000
0000
1000
0000
0001
0000
,
0000
0100
0000
0000
0010
0000
1000
0000
,
0000
0001
0000
0010
0000
0100
0000
0000
,
1000
0001
0100
0010
,
0100
0001
1000
0100
,
0010
0000
0001
0000
1000
0001
1000
0000
,
0010
0000
0100
0001
0100
0000
0000
0000
,
0000
0000
0001
1000
,
0000
0001
0100
0000
0001
0000
1000
0000
,
0000
0100
1000
0000
0001
0000
0100
0000
,
0000
0010
1000
0000
0001
0000
0010
0000
,
0000
0001
1000
0000
0001
0000
0100
0000
,
0000
0001
1000
0000
0001
0000
1000
0000
,
0000
0100
1000
0000
0001
0000
0010
0000
,
0000
0001
1000
0000
0010
0000
1000
0000
,
0000
0001
0100
0000
0010
0000
1000
0000
,
0000
0001
0010
0000
0100
0000
1000
0000
,
0000
0001
0100
0000
0010
0000
1000
0000
,
0000
0100
0010
0000
0001
0000
1000
0000
,
0000
0010
0100
0000
0001
0000
1000
0000
,
0000
0100
0010
0000
0100
0000
1000
0000
,
0000
0001
0100
0000
0010
0000
0000
0110
,
0000
0000
0101
0000
,
1010
0000
1000
0001
,
0000
1000
0100
0000
1000
0000
0001
0000
,
0000
0100
0010
0000
0100
0000
0001
0000
,
0000
1000
0100
0000
0010
0000
0001
0000
,
0000
1000
0010
0000
0100
0000
0010
0000
,
0000
1000
0001
0000
0010
0000
0100
0000
,
0000
1000
0100
0000
0010
0000
0001
0000
,
0000
1000
0010
0000
0100
0000
0001
0000
,
0000
1000
0001
0000
0010
0000
0100
0000
,
0000
1000
0100
0000
0010
0000
0001
0000
,
0000
0100
0010
0000
1000
0000
0001
0000
,
0000
0010
0100
0000
1000
0000
0001
0000
,
0000
0100
0001
0000
1000
0000
0100
0000
,
0000
0010
0100
0000
1000
0000
0001
0000
,
0000
0100
0010
0000
1000
0000
0000
0000
,
0001
0000
0010
0001
,
0000
0001
0000
0000
0100
0001
1000
0001
,
0000
0100
0000
0001
0000
1000
0100
0000
,
0010
0001
0010
0000
0100
0000
1000
0001
,
0000
0100
0010
1000
0000
0010
0100
0000
,
0001
1000
0100
0000
0010
0000
0100
1000
,
0000
0001
0100
0010
0000
1000
0001
0000
,
0010
0000
0100
0000
1000
0000
0100
0010
,
0001
0000
0100
0000
0010
1000
0001
0000
,
0010
0100
1000
0000
0100
1000
0001
1000
,
0000
0100
0000
1000
0000
0001
0100
0000
,
0010
1000
0010
0000
0100
0000
0001
1000
,
0000
0100
0010
0001
0000
0010
0100
0000
,
1000
0001
0100
0000
0010
0000
0100
0001
,
0000
1000
0100
0010
0000
0001
1000
0000
,
0010
0000
0100
0000
0101
0000
0000
1010
,
0000
0000
1000
0001
0000
0010
0100
0000
,
1000
0001
0100
0000
0001
0000
0100
0001
,
0000
1000
0001
0000
0100
0001
0000
1000
,
0000
0100
0010
0000
0001
0000
1000
0001
,
0000
1000
0010
0000
1000
0001
0000
1000
,
0000
0100
0010
0000
0001
0000
0100
0001
,
0000
0010
0001
0000
0100
0001
0000
0010
,
0000
0100
1000
0000
0001
0000
0100
0010
,
0000
0100
0001
0000
0100
0010
0000
1000
,
0000
0100
0010
0001
1000
0000
0010
1000
,
0000
0100
1000
0000
0010
1000
0000
0100
,
0000
0010
0001
1000
0010
0000
0100
0010
,
0000
1000
0100
0000
0010
0100
0000
1000
,
0000
0001
0100
0010
1000
0000
0001
0010
,
0000
0100
0010
0000
0001
0010
0000
0100
,
0000
1000
0001
0100
0010
0000
1000
0001
,
0000
0010
0100
2000
0000
0000
0000
0000
,
0000
0000
3010
0000
;

//---------------dance-single - ----------------
#NOTEDATA:;
#CHARTNAME:;
#CHARTHASH:1901395582;
#STEPSTYPE:dance-single;
#BANNER:;
#DESCRIPTION:;
#CHARTSTYLE:;
#DIFFICULTY:Medium;
#METER:13;
#METERF:13.000000;
#LASTSECONDHINT:133.052643;
#RADARVALUES:0.567126,0.530294,0.029298,0.080570,0.051272,542.000000,538.000000,4.000000,11.000000,0.000000,0.000000,0.000000,0.000000,0.000000,0.567126,0.530294,0.029298,0.080570,0.051272,542.000000,538.000000,4.000000,11.000000,0.000000,0.000000,0.000000,0.000000,0.000000;
#CREDIT:YOSEFU;
#NOTES:
0000
0000
0000
0000
,
0000
0000
0000
0000
,
0000
0000
0000
0000
,
0000
0000
0000
0000
,
0000
0000
1000
0000
0010
0100
0000
0001
,
0100
0000
0010
0100
0000
0001
0100
0000
,
0010
1000
0001
0000
0010
0100
0000
1000
,
0001
0000
1000
0010
0000
0100
0001
1000
,
0001
0000
1000
0000
0100
0010
0000
0001
,
0010
0000
0100
0010
0000
0001
1000
0000
,
0010
0100
0001
0000
1000
0100
0000
0010
,
0001
0000
0100
0010
0000
1000
0001
0010
,
0001
0000
1000
0000
0010
0100
0000
0001
,
1000
0000
0100
0010
0000
0001
1000
0010
,
0100
0001
2000
0000
3100
0000
0010
0000
,
0100
1000
0100
0010
,
0001
0000
0000
1000
0000
0000
0010
0000
0100
0000
0000
0000
0001
0000
0000
0000
,
0100
0000
0000
0010
0000
0000
1000
0000
0001
0000
0000
0000
0010
0000
0000
0000
,
0100
0000
0000
0000
1000
0000
0000
0000
0001
0000
0000
0000
0100
0000
0000
0100
,
0000
0000
0010
0000
0000
0010
0000
0000
1000
0000
0000
0000
0100
0000
0000
0100
,
0000
0000
0010
0000
0000
0010
0000
0000
0001
0000
0000
0000
1000
0000
0000
1000
,
0000
0000
0010
0000
0000
0010
0000
0000
0000
0100
0000
0000
0100
0000
0000
0001
,
0000
0000
0001
0000
1000
0000
0000
0000
0100
0000
0000
0000
0010
0000
0000
0010
,
0000
0000
0001
0000
0000
0001
0000
0000
1000
0000
0000
0000
0010
0000
0000
0010
,
0000
0000
0100
0000
0000
0100
0000
0000
0001
0000
1000
0000
0001
0000
1000
0000
,
0010
0100
0010
0100
0001
0000
0000
0000
,
0000
0000
0000
0000
1000
0100
0010
0001
,
0000
1000
0001
0000
0100
0010
1000
0001
,
0000
1000
0100
0000
0010
0100
1000
0001
,
0000
0100
0010
0000
1000
0100
0010
0001
,
0000
1000
0001
0000
0100
0001
0010
0100
,
0000
1000
0001
0000
0100
0010
1000
0001
,
0000
1000
0100
0000
0010
0001
1000
0010
,
0000
0100
0001
0000
1000
0100
0010
0001
,
0000
0010
0100
0000
1000
0001
0100
0010
,
0000
1000
0100
0000
0010
0001
0100
1000
,
0000
0100
0010
0000
1000
0100
0010
0001
,
0000
0100
0010
0000
0001
0010
1000
0100
,
0000
0010
0001
0000
1000
0010
0100
0001
,
0000
0010
0100
0000
0001
0100
1000
0001
,
0000
0100
0010
0000
2020
3030
0000
0202
,
0000
0303
0022
0033
,
2200
0000
3300
0000
1000
0100
1000
0010
,
1000
0001
0100
0000
0001
0010
0001
1000
,
0001
0100
0010
0000
1000
0001
0010
0100
,
0010
0001
1000
0000
0001
0100
0001
0010
,
0001
1000
0100
0000
0010
0100
1000
0100
,
0010
0001
1000
0000
0010
0100
0001
0100
,
0010
1000
0001
0000
0010
0100
1000
0010
,
0100
0001
1000
0000
0100
0010
0001
0100
,
0010
1000
0001
0000
1000
0100
1000
0010
,
1000
0001
0100
0000
0010
1000
0001
1000
,
0100
0010
0001
0000
0100
0001
0010
0001
,
0100
0001
1000
0000
0100
0010
0100
1000
,
0010
0100
0010
0000
0100
0001
0100
0010
,
0100
0001
1000
0000
0100
0010
0001
0010
,
0100
1000
0001
0000
0100
0010
0100
0001
,
1000
0100
0010
0001
2000
0000
0000
0000
,
0000
0000
0000
0000
3001
0100
0001
0010
,
0001
1000
0100
0010
0100
1000
0010
0100
,
0001
1000
0100
0000
0010
0100
1000
0010
,
1000
0001
1000
0100
0010
0100
1000
0001
,
0100
0001
0010
0000
0100
1000
0010
1000
,
0001
1000
0100
0010
0001
0100
0001
1000
,
0001
0010
0100
0000
1000
0001
0100
0001
,
0010
0001
1000
0010
1000
0100
1000
0100
,
0010
0001
0100
0000
0001
1000
0100
0010
,
0001
0100
0010
1000
0001
0010
0100
1000
,
0001
0100
0010
0000
0100
0001
1000
0100
,
0010
0001
0100
0010
1000
0001
0010
0100
,
1000
0001
0100
0000
0001
1000
0100
0010
,
0100
1000
0001
0100
0010
1000
0100
0010
,
0001
1000
0010
0000
0100
0000
0001
0100
,
0000
0001
1000
0100
0000
0010
0001
0000
,
1000
0001
0100
0010
1000
0100
1000
0001
,
0100
0001
1000
0100
1000
0001
0100
0001
,
0000
1000
0100
0010
0001
0010
0001
1000
,
0010
1000
0001
0010
0001
1000
0010
1000
,
0000
0001
0010
0100
1000
0100
1000
0001
,
0100
0001
1000
0010
1000
0001
0010
0001
,
0000
1000
0100
0010
0001
0010
0001
1000
,
0010
1000
0001
0100
0001
1000
0100
1000
,
0000
0001
0100
0010
1000
0100
0010
0001
,
0100
0010
1000
0100
0010
0001
0100
0010
,
0000
1000
0001
0010
0100
1000
0010
0100
,
0001
1000
0100
0010
0001
0100
0010
1000
,
0000
0001
1000
0100
0010
0001
0100
0010
,
1000
0001
0010
0100
1000
0010
0100
0001
,
0000
0010
0100
1000
0001
0000
0100
0010
,
0000
1000
0100
0020
0000
0000
0000
0000
,
0000
0000
0031
0000
;

//---------------dance-single - ----------------
#NOTEDATA:;
#CHARTNAME:;
#CHARTHASH:159319656;
#STEPSTYPE:dance-single;
#BANNER:;
#DESCRIPTION:;
#CHARTSTYLE:;
#DIFFICULTY:Hard;
#METER:16;
#METERF:16.000000;
#LASTSECONDHINT:133.052643;
#RADARVALUES:0.753378,0.795441,0.234384,0.131841,0.428484,720.000000,688.000000,32.000000,18.000000,0.000000,0.000000,0.000000,0.000000,0.000000,0.753378,0.795441,0.234384,0.131841,0.428484,720.000000,688.000000,32.000000,18.000000,0.000000,0.000000,0.000000,0.000000,0.000000;
#CREDIT:Yosefu Sends a Signal;
#NOTES:
0000
0000
0000
0000
,
0000
0000
0000
0000
,
0000
0000
0000
0000
,
0000
0000
0000
0000
,
0000
0000
1000
0100
0010
0001
0000
0010
,
0001
0100
0010
1000
0000
0010
1000
0100
,
0010
0001
0100
0010
1000
0001
0000
0010
,
0100
1000
0100
0010
0000
0001
0100
0010
,
0100
0001
1000
0100
0010
0001
0000
0100
,
0001
0010
0100
1000
0000
0010
1000
0100
,
0010
0001
0100
0010
1000
0001
0000
0010
,
0100
1000
0001
0100
0000
0010
0100
0001
,
1000
0100
0010
0001
1000
0010
0000
0100
,
0001
0010
0100
1000
0000
0001
0100
0010
,
0100
0001
2000
0000
3010
0100
0001
0100
,
0010
1000
0001
1000
0000
0100
0010
0100
,
0002
0000
0000
0203
0000
0000
2300
0000
3001
0000
0000
0000
0100
0000
0000
0000
,
0020
0000
0000
0032
0000
0000
0023
0000
2030
0000
0000
0000
0100
0000
0000
0000
,
3010
0000
0000
0000
1000
0000
0000
0000
0001
0000
0100
0000
0010
0000
0000
1000
,
0000
1000
0001
0000
0000
0100
0000
0100
0001
0000
1000
0000
0100
0000
0000
0010
,
0000
0010
0001
0000
0000
0010
0000
0010
0100
0000
1000
0000
0001
0000
0000
0100
,
0000
0100
0010
0000
0000
0100
0001
0000
0000
1000
0001
0000
1000
0000
0000
0100
,
1000
0000
0001
0000
0100
0001
1000
0000
0100
0000
0010
0000
0001
0000
1000
0010
,
0100
0000
0010
0000
1000
0000
0001
0010
0100
0000
0010
0000
0001
0000
1000
0010
,
0100
0000
0001
0000
1000
0100
1000
0100
1000
0000
0010
0000
0100
0000
0001
0000
,
1000
0100
1000
0100
0010
0001
0010
0001
1000
0000
0000
0000
0000
0000
0000
0000
,
0000
0000
0000
0000
0000
0000
0000
0000
0001
0000
0100
0000
0010
1000
0010
0000
,
0000
0000
1000
0000
1001
0000
0000
0000
0001
0000
0010
0000
0100
1000
0100
0000
,
0000
0000
1000
0000
1001
0000
0000
0000
0001
0000
0100
0000
0010
1000
0010
0000
,
0000
0000
0100
0000
0101
0000
0000
0000
0001
0000
0010
0000
0100
1000
0100
0000
,
0000
0000
1000
0000
1001
0000
0000
0000
0001
0000
0100
0000
0010
1000
0010
0000
,
0000
0000
1000
0000
1100
0000
0000
0000
0100
0000
0010
0000
0001
1000
0001
0000
,
0000
0000
0100
0000
0101
0000
0000
0000
0001
0000
0100
0000
0010
1000
0010
0000
,
0000
0000
1000
0000
1001
0000
0000
0000
0001
0000
0010
0000
0100
1000
0100
0000
,
0000
0000
1000
0000
1010
0000
0000
0000
0010
0000
0100
0000
0001
1000
0001
0000
,
0000
0000
0010
0000
0110
0000
0000
0000
0100
0000
1000
0000
0001
0100
0001
0000
,
0000
0000
1000
0000
1100
0000
0000
0000
0100
0000
0010
0000
0001
1000
0001
0000
,
0000
0000
1000
0000
1010
0000
0000
0000
0010
0000
0100
0000
0001
1000
0001
0000
,
0000
0000
0010
0000
0110
0000
0000
0000
0100
0000
1000
0000
0010
1000
0010
0000
,
0000
0000
0100
0000
0101
0000
0000
0000
0001
0000
0010
0000
0100
1000
0100
0000
,
0000
0010
0011
0000
2200
0000
3300
2002
,
0000
0000
0000
3003
2020
0000
3030
0000
,
0022
0000
0000
0000
0033
0000
0000
0000
1001
0000
0001
0000
0100
0010
0100
0000
,
0001
0000
1000
0000
0100
0000
0010
0000
0001
1000
0001
0000
0100
0000
0010
0000
,
1000
0001
1000
0000
1001
0000
0000
0000
0001
0000
0100
0000
0010
1000
0010
0000
,
0100
0000
0001
0000
1000
0000
0100
0000
0010
0001
0010
0000
0100
0000
1000
0001
,
1000
0000
0010
0000
0110
0000
0000
0000
0100
0000
0001
0000
1000
0001
1000
0000
,
0100
0000
0010
0000
0011
0000
0000
0000
0001
1000
0001
0000
0100
0000
0010
0000
,
1000
0000
0001
0000
0010
0100
0010
0000
0001
0000
1000
0000
0010
1000
0010
0000
,
0100
0000
0001
0000
1001
0000
0000
0000
1000
0000
0100
0000
0010
0001
0010
0000
,
0100
0000
1000
0000
0001
0000
0000
0000
1000
0000
0001
0000
0010
0100
0010
0000
,
0001
0000
1000
0000
0010
0000
0100
0000
0001
1000
0001
0000
0010
0000
0100
0000
,
1000
0001
1000
0000
1001
0000
0000
0000
0001
0000
0010
0000
0100
1000
0100
0000
,
0010
0000
0001
0000
1000
0000
0010
0000
0100
0001
0100
0000
0010
0000
1000
0001
,
1000
0000
0100
0000
0110
0000
0000
0000
0010
0000
0001
0000
1000
0001
1000
0000
,
0010
0000
0100
0000
0101
0000
0000
0000
0001
1000
0001
0000
0010
0000
0100
0000
,
1000
0000
0001
0000
0100
0010
0100
0000
0001
0000
0100
0000
1000
0000
0100
0000
,
0001
0010
1000
0010
0002
0000
0100
0000
,
0000
0000
0100
0000
0000
0000
0000
0000
1003
0000
0100
0000
0010
0001
0010
0000
,
0100
0000
1000
0000
0001
1000
0001
0000
0100
0000
0010
0000
1000
0010
1000
0000
,
0001
0000
0010
0000
0100
1000
0100
0000
0010
0000
0001
0000
1000
0001
1000
0000
,
0010
0000
0100
0000
0001
0100
0001
0000
1000
0000
0100
0000
0010
0100
0010
0000
,
0001
0000
1000
0000
1010
0000
0000
0000
0010
0000
0100
0000
0001
1000
0001
0000
,
1000
0000
0100
0000
0010
0001
0010
0000
0100
0000
1000
0000
0001
0100
0001
0000
,
1000
0000
0100
0000
0010
0100
0010
0000
0100
0000
0000
0000
1000
0001
0100
0000
,
0010
0000
1000
0000
0001
0010
0100
0000
1000
0000
0001
0000
0100
0010
1000
0000
,
0001
0000
0010
0000
0110
0000
0000
0000
0001
0000
0010
0000
0100
1000
0100
0000
,
0010
0000
0001
0000
1000
0001
1000
0000
0010
0000
0100
0000
0001
0100
0001
0000
,
1000
0000
0100
0000
0010
0001
0010
0000
0100
0000
1000
0000
0001
1000
0001
0000
,
0100
0000
0010
0000
1000
0010
1000
0000
0001
0000
0010
0000
0100
0010
0100
0000
,
1000
0000
0001
0000
0101
0000
0000
0000
0100
0000
0010
0000
1000
0001
1000
0000
,
0001
0000
0010
0000
0100
1000
0100
0000
0010
0000
0001
0000
1000
0010
1000
0000
,
0001
0000
0010
0000
0100
0010
0100
0000
1100
0000
0000
0000
1000
0000
1001
0000
,
0000
0000
0001
1000
0010
0000
0110
0000
0000
0000
0100
0001
1000
0000
0000
0000
,
0001
0000
0100
0000
0010
0100
0001
1000
0001
0100
0001
0000
0100
0000
0001
1000
,
0001
0000
1000
0000
0100
0010
0100
0000
1000
0000
0001
0100
0001
0000
1000
0000
,
0000
0000
0001
0000
0010
0000
0100
0000
1000
0001
1000
0000
0001
0000
0100
0010
,
0100
0000
0001
0000
1000
0100
1000
0000
0001
0000
0100
0001
0100
0000
0010
0000
,
0000
0000
1000
0000
0100
0000
0010
0000
0001
1000
0001
0000
0100
0000
0010
1000
,
0010
0000
0100
0000
0001
1000
0001
0000
1000
0000
0100
0010
0100
0000
1000
0000
,
0000
0000
0010
0000
0100
0000
0001
0000
1000
0100
1000
0000
0001
0000
0100
0010
,
0100
0000
0001
0000
0010
0100
0010
0000
0001
0000
1000
0010
1000
0000
0100
0000
,
0000
0000
0010
0000
0001
0000
1000
0000
0001
0010
0100
0000
0010
0000
0001
1000
,
0010
0000
0100
0000
0010
1000
0001
0000
0010
0000
0100
1000
0001
0000
0100
0000
,
0000
0000
0001
0000
0010
0000
0100
0000
1000
0001
0100
0000
0010
0000
1000
0001
,
0010
0000
0100
0000
1000
0010
0100
0000
0001
0000
0010
0100
1000
0000
0100
0000
,
0000
0000
0001
0000
0100
0000
0010
0000
0001
1000
0010
0000
0100
0000
0001
0010
,
0100
0000
0010
0000
0001
1000
0010
0000
0100
0000
0010
1000
0001
0000
1000
0000
,
0000
0000
0100
0000
0010
0000
0001
0000
0100
0000
0000
0000
0010
1000
0001
0000
,
0000
0010
0001
2000
0000
0000
0000
0000
,
0000
0000
3100
0000
;

//---------------dance-double - ----------------
#NOTEDATA:;
#CHARTNAME:;
#CHARTHASH:2708530431;
#STEPSTYPE:dance-double;
#BANNER:;
#DESCRIPTION:;
#CHARTSTYLE:;
#DIFFICULTY:Beginner;
#METER:6;
#METERF:0.000000;
#LASTSECONDHINT:133.052643;
#RADARVALUES:0.168464,0.198860,0.058596,0.000000,0.000000,161.000000,153.000000,8.000000,0.000000,0.000000,0.000000,0.000000,0.000000,0.000000,0.168464,0.198860,0.058596,0.000000,0.000000,161.000000,153.000000,8.000000,0.000000,0.000000,0.000000,0.000000,0.000000,0.000000;
#CREDIT:YOSEFU;
#NOTES:
00000000
00000000
00000000
00000000
,
00000000
00000000
00000000
00000000
,
00000000
00000000
00000000
00000000
,
00000000
00000000
00000000
00000000
,
00000000
00010000
00000000
00000000
,
00001000
00000000
00000000
00010000
,
00000000
00001000
00000000
00000000
,
00100000
00000000
00000000
00010000
,
00000000
10000000
00000000
00000000
,
00010000
00000000
00000000
01000000
,
00000000
00010000
00000000
00000000
,
10000000
00000000
00000000
00010000
,
00000000
00100000
00000000
00000000
,
01000000
00000000
00000000
00100000
,
00000000
00001000
00010000
00000000
,
00000100
00000000
00001000
00000000
,
00000001
00000000
00000100
00000000
,
00000010
00000000
00001000
00000000
,
00000001
00000000
00000010
00000000
,
00000000
00000000
00000100
00000000
,
00000000
00000000
00001000
00000000
,
00000000
00000000
00000100
00000000
,
00000000
00000000
00000010
00000000
,
00000000
00000000
00000100
00000000
,
00000000
00000000
00010000
00000000
,
00000000
00000000
00001000
00000000
,
00000000
00000000
00011000
00000000
,
00010000
00000000
00001000
00000000
,
00001000
00000000
01000000
00000000
,
01000000
00000000
00010000
00000000
,
00010000
00000000
10000000
00000000
,
10000000
00000000
01000000
00000000
,
01000000
00000000
00100000
00000000
,
00100000
00000000
00010000
00000000
,
00010000
00000000
01000000
00000000
,
01000000
00000000
00001000
00000000
,
00001000
00000000
00010000
00000000
,
00010000
00000000
00000100
00000000
,
00000100
00000000
00001000
00000000
,
00001000
00000000
00000001
00000000
,
00000001
00000000
00001001
00000000
,
00000000
00000000
00000110
00000000
,
00000000
00000000
00001001
00000000
,
00001000
00000000
00000100
00000000
,
00000100
00000000
00000010
00000000
,
00000010
00000000
00000100
00000000
,
00000100
00000000
00010000
00000000
,
00010000
00000000
00001000
00000000
,
00001000
00000000
00100000
00000000
,
00100000
00000000
00010000
00000000
,
00010000
00000000
10000000
00000000
,
10000000
00000000
00100000
00000000
,
00100000
00000000
01000000
00000000
,
01000000
00000000
00010000
00000000
,
00010000
00000000
01000000
00000000
,
01000000
00000000
00001000
00000000
,
00001000
00000000
00010000
00000000
,
00000000
00000000
00001000
00000000
,
00000000
00000000
00011000
00000000
,
00010000
00000000
00000100
00000000
,
00001000
00000000
00000001
00000000
,
00000100
00000000
00000001
00000000
,
00001000
00000000
00000001
00000000
,
00000010
00000000
00000100
00000000
,
00000010
00000000
00000100
00000000
,
00010000
00000000
00001000
00000000
,
00010000
00000000
00001000
00000000
,
00100000
00000000
00001000
00000000
,
00010000
00000000
00001000
00000000
,
01000000
00000000
00010000
00000000
,
01000000
00000000
00010000
00000000
,
10000000
00000000
01000000
00000000
,
00100000
00000000
01100000
00000000
,
00000000
00000000
00100000
00000000
,
00000000
00000000
10010000
00000000
,
00010000
00000000
01000000
00000000
,
00001000
00000000
00010000
00000000
,
00000100
00000000
00001000
00000000
,
00000001
00000000
00000100
00000000
,
00000010
00000000
00010000
00000000
,
00001000
00000000
00100000
00000000
,
00001000
00000000
00010000
00000000
,
00001000
00000000
01000000
00000000
,
00010000
00000000
10000000
00000000
,
01000000
00000000
00100000
00000000
,
00010000
00000000
01000000
00000000
,
00001000
00000000
00010000
00000000
,
00000100
00000000
00001000
00000000
,
00000001
00000000
00000110
00000000
,
00000000
00000000
00000000
00000010
00000000
00000000
00000000
00000000
,
00000000
00000000
00001000
00000000
;

//---------------dance-double - ----------------
#NOTEDATA:;
#CHARTNAME:;
#CHARTHASH:40819468;
#STEPSTYPE:dance-double;
#BANNER:;
#DESCRIPTION:;
#CHARTSTYLE:;
#DIFFICULTY:Easy;
#METER:9;
#METERF:9.000000;
#LASTSECONDHINT:133.052643;
#RADARVALUES:0.336927,0.364577,0.043947,0.014649,0.000000,322.000000,316.000000,6.000000,2.000000,0.000000,0.000000,0.000000,0.000000,0.000000,0.336927,0.364577,0.043947,0.014649,0.000000,322.000000,316.000000,6.000000,2.000000,0.000000,0.000000,0.000000,0.000000,0.000000;
#CREDIT:YOSEFU;
#NOTES:
00000000
00000000
00000000
00000000
,
00000000
00000000
00000000
00000000
,
00000000
00000000
00000000
00000000
,
00000000
00000000
00000000
00000000
,
00000000
00000000
00010000
00000000
00000000
00001000
00000000
00000000
,
00010000
00000000
00000000
00001000
00000000
00000000
01000000
00000000
,
00100000
00000000
10000000
00000000
00000000
01000000
00000000
00000000
,
00100000
00000000
00000000
00001000
00000000
00000000
01000000
00000000
,
00000000
00000000
00001000
00000000
00000000
00010000
00000000
00000000
,
00001000
00000000
00000000
00010000
00000000
00000000
00000100
00000000
,
00000000
00000000
00000010
00000000
00000000
00000001
00000000
00000000
,
00000100
00000000
00000000
00000010
00000000
00000000
00001000
00000000
,
00000100
00000000
00010000
00000000
00000000
00000100
00000000
00000000
,
00010000
00000000
00000000
00000010
00000000
00000000
00000100
00000000
,
00000001
00002000
00003010
00010000
,
00000010
00010000
00001000
00100000
,
00001000
00100000
01000000
10000000
,
00010000
01000000
00001000
00100000
,
00010000
10000000
00100000
01000000
,
00000000
00010000
00000000
00000000
01000000
00000000
00001000
00000000
,
00000000
00010000
00000000
00000000
00000100
00000000
00001000
00000000
,
00000000
00000001
00000000
00000100
00000000
00000010
00000000
00000000
,
00010000
00000100
00001000
00000001
,
00001000
00000010
00010000
00001000
,
00100000
00000000
01000000
00000000
10000000
01000000
10000000
00000000
,
00010000
00000000
00100000
00001000
00100000
00000000
00000000
00000000
,
00000000
00000000
00001000
00010000
,
00000000
00001000
01000000
00000000
00001000
00000000
00010000
00000000
,
00000000
00000100
00010000
00000000
00000010
00000000
00000100
00000000
,
00000000
00000001
00001000
00000000
00000010
00000000
00010000
00000000
,
00000000
00000010
00001000
00000000
00000010
00000000
00000100
00000000
,
00000000
00000010
00010000
00000000
00000010
00000000
00010000
00000000
,
00000000
00000100
00010000
00000000
00001000
00000000
00100000
00000000
,
00000000
00001000
01000000
00000000
00010000
00000000
01000000
00000000
,
00000000
00001000
00100000
00000000
01000000
00000000
10000000
00000000
,
00000000
00010000
01000000
00000000
00001000
00000000
00010000
00000000
,
00000000
00000010
00000100
00000000
00000001
00000000
00001000
00000000
,
00000000
00000100
00010000
00000000
00001000
00000000
00100000
00000000
,
00000000
00010000
10000000
00000000
00100000
00000000
01000000
00000000
,
00000000
00010000
10000000
00000000
00010000
00000000
01000000
00000000
,
00000000
00001000
00010000
00000000
00000100
00000000
00000000
00010100
,
00000000
00000000
00010010
00000000
,
00001001
00000000
00001000
00000100
,
00000000
00001000
00000001
00000000
00001000
00000000
00000010
00000000
,
00000000
00000100
00000001
00000000
00000100
00000000
00000010
00000000
,
00000000
00010000
00001000
00000000
01000000
00000000
00100000
00000000
,
00000000
10000000
01000000
00000000
00100000
00000000
01000000
00000000
,
00000000
10000000
00010000
00000000
00100000
00000000
00001000
00000000
,
00000000
00010000
00001000
00000000
00100000
00000000
00010000
00000000
,
00000000
01000000
00001000
00000000
00010000
00000000
00000100
00000000
,
00000000
00001000
00000100
00000000
00000010
00000000
00000001
00000000
,
00000000
00001000
00000001
00000000
00000010
00000000
00000100
00000000
,
00000000
00010000
00001000
00000000
01000000
00000000
00010000
00000000
,
00000000
10000000
01000000
00000000
00100000
00000000
00001000
00000000
,
00000000
00010000
00001000
00000000
00100000
00000000
00010000
00000000
,
00000000
10000000
00010000
00000000
01000000
00000000
00001000
00000000
,
00000000
00100000
00010000
00000000
01000000
00000000
00000000
00000000
,
00001000
00000000
00010000
00000000
,
00000000
00000000
00001000
00010000
,
00000000
00001000
00100000
00000000
00001000
00000000
00010000
00000000
,
00000000
00000010
00010000
00000000
00000100
00000000
00000010
00000000
,
00000000
00000001
00001000
00000000
00000000
00000100
00010000
00000000
,
00000000
00000100
00001000
00000000
00000100
00000000
00000010
00000000
,
00000000
00000100
00010000
00000000
00000100
00000000
00010000
00000000
,
00000000
00000010
00010000
00000000
00001000
00000000
01000000
00000000
,
00000000
00001000
00100000
00000000
00000000
00010000
00100000
00000000
,
00000000
00001000
01000000
00000000
00100000
00000000
10000000
00000000
,
00000000
00010000
00100000
00000000
00001000
00000000
00010000
00000000
,
00000000
00000100
00000010
00000000
00000001
00000000
00001000
00000000
,
00000000
00000010
00010000
00000000
00000000
00001000
01000000
00000000
,
00000000
00010000
10000000
00000000
01000000
00000000
00100000
00000000
,
00000000
00010000
10000000
00000000
00010000
00000000
00100000
00000000
,
00000000
00001000
00010000
00000000
00000010
00000000
00000000
00010010
,
00000000
00000000
00000000
00010100
00000000
00000000
00000000
00000000
,
00001001
00000001
00001000
00000010
,
00000000
00001000
00000001
00000000
00001000
00000000
00000100
00000000
,
00000000
00000010
00000001
00000000
00000010
00000000
00000100
00000000
,
00000000
00010000
00001000
00000000
00000000
00100000
01000000
00000000
,
00000000
10000000
00100000
00000000
01000000
00000000
00100000
00000000
,
00000000
10000000
00010000
00000000
01000000
00000000
00001000
00000000
,
00000000
00010000
00001000
00000000
01000000
00000000
00010000
00000000
,
00000000
00100000
00001000
00000000
00000000
00010000
00000010
00000000
,
00000000
00001000
00000010
00000000
00000100
00000000
00000001
00000000
,
00000000
00001000
00000001
00000000
00000100
00000000
00000010
00000000
,
00000000
00010000
00001000
00000000
00100000
00000000
00010000
00000000
,
00000000
10000000
00100000
00000000
00000000
01000000
00001000
00000000
,
00000000
00010000
00001000
00000000
01000000
00000000
00010000
00000000
,
00000000
10000000
00010000
00000000
00100000
00000000
00001000
00000000
,
00000000
01000000
00010000
00000000
00100000
00000000
00001000
00010000
,
00000000
00000001
00000100
00000020
00000000
00000000
00000000
00000000
,
00000000
00000000
00001030
00000000
;

//---------------dance-double - ----------------
#NOTEDATA:;
#CHARTNAME:;
#CHARTHASH:2812285591;
#STEPSTYPE:dance-double;
#BANNER:;
#DESCRIPTION:;
#CHARTSTYLE:;
#DIFFICULTY:Medium;
#METER:13;
#METERF:13.000000;
#LASTSECONDHINT:133.052643;
#RADARVALUES:0.534689,0.530294,0.029298,0.080570,0.051272,511.000000,507.000000,4.000000,11.000000,0.000000,0.000000,0.000000,0.000000,0.000000,0.534689,0.530294,0.029298,0.080570,0.051272,511.000000,507.000000,4.000000,11.000000,0.000000,0.000000,0.000000,0.000000,0.000000;
#CREDIT:YOSEFU;
#NOTES:
00000000
00000000
00000000
00000000
,
00000000
00000000
00000000
00000000
,
00000000
00000000
00000000
00000000
,
00000000
00000000
00000000
00000000
,
00000000
00000000
00010000
00000000
00000100
00001000
00000000
00000010
,
00001000
00000000
00000001
00001000
00000000
00000100
00001000
00000000
,
00000010
00010000
00001000
00000000
01000000
00010000
00000000
00100000
,
01000000
00000000
00100000
00010000
00000000
01000000
00100000
10000000
,
00100000
00000000
10000000
00000000
00010000
01000000
00000000
00001000
,
01000000
00000000
00010000
01000000
00000000
00001000
00010000
00000000
,
00000100
00001000
00000010
00000000
00000100
00000001
00000000
00000010
,
00000100
00000000
00010000
00001000
00000000
00100000
00010000
01000000
,
00010000
00000000
00100000
00000000
00001000
00010000
00000000
00000100
,
00001000
00000000
00000001
00000100
00000000
00000010
00000100
00001000
,
00010000
00100000
02000000
00000000
03010000
00000000
10000000
00000000
,
00010000
01000000
00010000
00100000
,
00001000
00000000
00000000
00010000
00000000
00000000
00000010
00000000
00001000
00000000
00000000
00000000
00000100
00000000
00000000
00000000
,
00001000
00000000
00000000
00000001
00000000
00000000
00000010
00000000
00000100
00000000
00000000
00000000
00001000
00000000
00000000
00000000
,
00000010
00000000
00000000
00000000
00010000
00000000
00000000
00000000
00001000
00000000
00000000
00000000
01000000
00000000
00000000
01000000
,
00000000
00000000
00010000
00000000
00000000
00010000
00000000
00000000
00100000
00000000
00000000
00000000
01000000
00000000
00000000
01000000
,
00000000
00000000
10000000
00000000
00000000
10000000
00000000
00000000
00010000
00000000
00000000
00000000
00100000
00000000
00000000
00100000
,
00000000
00000000
00001000
00000000
00000000
00001000
00000000
00000000
00000000
00010000
00000000
00000000
00010000
00000000
00000000
00000100
,
00000000
00000000
00000100
00000000
00001000
00000000
00000000
00000000
00000010
00000000
00000000
00000000
00000100
00000000
00000000
00000100
,
00000000
00000000
00000001
00000000
00000000
00000001
00000000
00000000
00000010
00000000
00000000
00000000
00000100
00000000
00000000
00000100
,
00000000
00000000
00001000
00000000
00000000
00001000
00000000
00000000
00000010
00000000
00010000
00000000
00000010
00000000
00010000
00000000
,
00001000
01000000
00001000
01000000
00010000
00000000
00000000
00000000
,
00000000
00000000
00000000
00000000
00100000
01000000
10000000
00100000
,
00000000
01000000
00100000
00000000
10000000
00010000
01000000
00001000
,
00000000
01000000
00010000
00000000
10000000
00010000
00100000
00001000
,
00000000
00010000
00000010
00000000
00001000
00000100
00000010
00000001
,
00000000
00001000
00000001
00000000
00000100
00000001
00001000
00000100
,
00000000
00010000
00000010
00000000
00001000
00000100
00010000
00000010
,
00000000
00010000
00001000
00000000
01000000
00010000
00100000
00001000
,
00000000
01000000
00010000
00000000
00100000
00001000
00010000
00000010
,
00000000
00010000
00000100
00000000
00001000
00000010
00010000
00001000
,
00000000
00100000
00010000
00000000
10000000
00100000
01000000
10000000
,
00000000
01000000
00100000
00000000
10000000
01000000
00100000
00010000
,
00000000
00100000
01000000
00000000
00010000
00001000
00000010
00000100
,
00000000
00010000
00001000
00000000
00010000
00000100
00001000
00000001
,
00000000
00000010
00000100
00000000
00000001
00000100
00000010
00000001
,
00000000
00000100
00001000
00000000
00022000
00033000
00000000
02002000
,
00000000
03003000
00022000
00033000
,
00002020
00000000
00003030
00000000
00001000
00000010
00001000
00000001
,
00001000
00000100
00010000
00000000
00000100
00001000
00000100
00010000
,
00000100
00001000
00000010
00000000
00010000
00001000
01000000
00010000
,
01000000
00001000
00010000
00000000
00001000
00100000
00001000
00010000
,
00001000
01000000
00010000
00000000
10000000
00010000
00100000
01000000
,
00010000
00001000
00000100
00000000
00000010
00001000
00000001
00000010
,
00001000
00010000
00100000
00000000
00010000
00001000
00000010
00000100
,
00001000
00000001
00000100
00000000
00001000
00010000
00100000
01000000
,
00010000
10000000
00010000
00000000
10000000
01000000
10000000
00100000
,
10000000
00010000
00100000
00000000
00001000
00010000
00000100
00010000
,
00000010
00001000
00000001
00000000
00000010
00000001
00001000
00000001
,
00000100
00000001
00000010
00000000
00000100
00001000
00000100
00010000
,
00001000
01000000
00001000
00000000
01000000
00010000
00100000
01000000
,
00010000
00001000
00000010
00000000
00000100
00001000
00000001
00000100
,
00001000
00010000
00100000
00000000
10000000
01000000
00010000
00001000
,
00000010
00000001
00000100
00001000
00020000
00000000
00000000
00000000
,
00000000
00000000
00000000
00000000
00030100
00000010
00000100
00001000
,
00000001
00000100
00001000
00010000
00001000
00100000
00010000
01000000
,
00001000
00010000
00000010
00000000
00001000
00000010
00000100
00000001
,
00000010
00000100
00010000
00001000
01000000
00001000
00010000
00100000
,
01000000
00010000
10000000
00000000
00010000
00100000
01000000
00010000
,
00001000
00010000
00000100
00001000
00000001
00000100
00000001
00000010
,
00001000
00010000
00000100
00000000
00010000
00001000
00000010
00001000
,
00010000
00100000
01000000
00010000
00100000
01000000
00010000
00001000
,
00000010
00000001
00001000
00000000
00000100
00001000
00000001
00000100
,
00001000
00010000
00000010
00001000
00000100
00000010
00000001
00001000
,
00000010
00010000
00001000
00000000
00010000
00000100
00001000
00000010
,
00000100
00000001
00000010
00001000
00010000
00100000
01000000
00010000
,
00100000
01000000
10000000
00000000
01000000
00100000
00010000
10000000
,
00010000
01000000
00100000
00010000
00001000
00000010
00000100
00010000
,
00000010
00001000
00000001
00000000
00000100
00000000
00001000
00010000
,
00000000
00100000
10000000
01000000
00000000
00010000
00000100
00000000
,
00001000
00000010
00000100
00000010
00001000
00000000
00000010
00001000
,
00000000
00000001
00001000
00000000
00000100
00001000
00000000
00000010
,
00000000
00010000
00001000
00000000
00100000
00000000
00010000
00100000
,
00000000
00010000
01000000
00000000
00010000
00100000
00000000
00010000
,
00000000
10000000
00100000
00000000
01000000
00000000
00010000
01000000
,
00000000
00100000
01000000
00000000
00010000
01000000
00000000
00001000
,
00000000
00010000
00000100
00000000
00001000
00000000
00000010
00000100
,
00000000
00000010
00001000
00000000
00000010
00010000
00000000
00000100
,
00000000
00000010
00001000
00010000
01000000
00000000
00100000
01000000
,
00000000
10000000
01000000
00000000
00100000
01000000
00000000
10000000
,
00000000
00100000
00010000
00001000
00010000
00000000
00000100
00010000
,
00000000
00000010
00000001
00000000
00000010
00001000
00000000
00000100
,
00000000
00000010
00001000
00010000
00000010
00000000
00000100
00000001
,
00000000
00001000
00000001
00000000
00000010
00000001
00000000
00000100
,
00000000
00001000
00010000
00100000
01000000
00000000
00010000
01000000
,
00000000
00010000
00100000
02000000
00000000
00000000
00000000
00000000
,
00000000
00000000
13000000
00000000
;

//---------------dance-double - ----------------
#NOTEDATA:;
#CHARTNAME:;
#CHARTHASH:2336288418;
#STEPSTYPE:dance-double;
#BANNER:;
#DESCRIPTION:;
#CHARTSTYLE:;
#DIFFICULTY:Hard;
#METER:15;
#METERF:15.000000;
#LASTSECONDHINT:133.052643;
#RADARVALUES:0.694782,0.729154,0.058596,0.080570,0.223397,664.000000,656.000000,8.000000,11.000000,0.000000,0.000000,0.000000,0.000000,0.000000,0.694782,0.729154,0.058596,0.080570,0.223397,664.000000,656.000000,8.000000,11.000000,0.000000,0.000000,0.000000,0.000000,0.000000;
#CREDIT:YOSEFU;
#NOTES:
00000000
00000000
00000000
00000000
,
00000000
00000000
00000000
00000000
,
00000000
00000000
00000000
00000000
,
00000000
00000000
00000000
00000000
,
00000000
00000000
00010000
00000010
00001000
00000010
00000000
00001000
,
00000001
00000010
00000100
00001000
00000000
00000100
00010000
00001000
,
01000000
00100000
00010000
00001000
00000010
00000100
00000000
00001000
,
00000001
00000100
00000010
00000100
00000000
00000001
00000100
00000010
,
00010000
00001000
00100000
01000000
10000000
00010000
00000000
01000000
,
00100000
01000000
00001000
00010000
00000000
00001000
00010000
00000010
,
00000100
00001000
00010000
00100000
01000000
00010000
00000000
10000000
,
01000000
00100000
01000000
10000000
00000000
00100000
01000000
00001000
,
00010000
00000000
00000100
00001000
00000001
00000100
00000000
00000010
,
00000100
00001000
00010000
00000010
00000000
00000100
00000001
00000010
,
00000100
00010000
00002000
00000000
01003000
00010000
00100000
00010000
,
01000000
00010000
10000000
01000000
00100000
00001000
00010000
00000010
,
00000100
00000000
00000000
00001000
00000000
00000000
00010000
00000000
00001000
00000000
00100000
00000000
01000000
00000000
10000000
00000000
,
00100000
00000000
00000000
00010000
00000000
00000000
00001000
00000000
00010000
00000000
00001000
00000000
00000010
00000000
00000100
00000000
,
00001000
00000000
00000000
00000000
00000001
00000000
00000000
00000000
00000100
00000000
00000010
00000000
00001000
00000000
00000000
00000100
,
00000000
00000100
00010000
00000000
00000000
00001000
00000000
00001000
01000000
00000000
00010000
00000000
10000000
00000000
00000000
01000000
,
00000000
01000000
00100000
00000000
00000000
00010000
00000000
00010000
10000000
00000000
00100000
00000000
01000000
00000000
00000000
00001000
,
00000000
00001000
00010000
00000000
00000000
00001000
00010000
00000000
00000000
00001000
00010000
00000000
00000100
00000000
00010000
00000000
,
00000100
00001000
00000001
00000100
00000010
00000100
00000001
00001000
,
00000100
00000010
00000001
00000100
00001000
00010000
00001000
00100000
,
00010000
10000000
00100000
01000000
00001000
00010000
00000010
00001000
,
00000001
00000100
00000001
00000100
00000001
00000100
00000001
00000100
00000001
00000000
00000000
00000000
00000000
00000000
00000000
00000000
,
00000000
00000000
00000000
00000000
00001000
00000010
00000100
00000001
,
00001000
00000100
00010000
00000000
00001000
00100000
00010000
10000000
,
00100000
01000000
00001000
00000000
10000000
01000000
00100000
00001000
,
00010000
00000010
00001000
00000000
00000010
00000100
00000001
00000010
,
00000100
00010000
00001000
00000000
00100000
00010000
10000000
00100000
,
01000000
00001000
00010000
00000000
00000100
00010000
00000010
00001000
,
00000001
00000100
00000010
00000000
00000100
00000001
00001000
00000100
,
00010000
00001000
01000000
00000000
00100000
10000000
01000000
00100000
,
00001000
00010000
00001000
00000000
00010000
00100000
01000000
00010000
,
10000000
01000000
00100000
00000000
00001000
00010000
00001000
00000010
,
00000100
00001000
00000001
00000000
00000100
00001000
00010000
00100000
,
01000000
00010000
10000000
00000000
00100000
01000000
00010000
00100000
,
01000000
10000000
00010000
00000000
01000000
00010000
10000000
01000000
,
00100000
00001000
00010000
00000000
00000010
00000100
00001000
00010000
,
00000010
00000100
00000001
00000000
00000202
00000000
00000303
00002020
,
00000000
00000000
00000000
00003030
00000022
00000000
00000000
00000033
,
00002200
00000000
00000000
00000000
00003300
00000000
00000000
00000000
00001000
00000000
00000100
00000000
00000010
00000001
00001000
00000000
,
00000010
00000000
00010000
00000000
00001000
00000000
00000000
00000000
00100000
00000000
01000000
00000000
10000000
00010000
01000000
00000000
,
00100000
00000000
10000000
00000000
00010000
00000000
00000000
00000000
00100000
00000000
01000000
00000000
10000000
00100000
01000000
00000000
,
00001000
00000000
00010000
00000000
00000100
00000000
00000000
00000000
00001000
00000000
00000010
00000000
00000100
00000001
00001000
00000000
,
00000100
00000000
00000010
00000000
00000001
00000000
00000000
00000000
00000100
00000000
00000001
00000000
00000010
00000100
00001000
00000000
,
00000010
00000000
00010000
00000000
00001000
00000000
00000000
00000000
00010000
00000000
00100000
00000000
01000000
00010000
10000000
00000000
,
01000000
00000000
00100000
00000000
00010000
00000000
00000000
00000000
01000000
00000000
00010000
00000000
10000000
01000000
00100000
00000000
,
00010000
00000000
01000000
00000000
00001000
00000000
00000000
00000000
00010000
00000000
00000100
00000000
00000010
00000100
00001000
00000000
,
00000001
00000000
00000100
00000000
00000010
00000000
00000000
00000000
00010000
00000000
00001000
00000000
00100000
00001000
00010000
00000000
,
00001000
00000000
00100000
00000000
01000000
00000000
00000000
00000000
10000000
00000000
00010000
00000000
01000000
00001000
00010000
00000000
,
00000010
00000000
00001000
00000000
00000001
00000000
00000000
00000000
00000010
00000000
00001000
00000000
00010000
00001000
01000000
00000000
,
00100000
00000000
10000000
00000000
00010000
00000000
00000000
00000000
00100000
00000000
00001000
00000000
00010000
00000010
00001000
00000000
,
00000001
00000000
00000010
00000000
00000100
00000000
00000000
00000000
00001000
00000000
00000010
00000000
00010000
00001000
00100000
00000000
,
01000000
00000000
00010000
00000000
00001000
00000000
00000000
00000000
00000010
00000000
00001000
00000000
00010000
00000010
00001000
00000000
,
00000001
00000010
00000100
00000000
00000001
00000100
00001000
00000010
,
00000100
00001000
00010000
00100000
02000000
00000000
00010000
00000000
,
00000000
00000000
00010000
00000000
00000000
00000000
00000000
00000000
03010000
00000000
00100000
00000000
01000000
10000000
00010000
00000000
,
01000000
00000000
00001000
00000000
00010000
00000010
00001000
00000000
00000100
00000000
00000010
00000000
00000001
00001000
00000010
00000000
,
00000100
00000000
00000001
00000000
00001000
00000100
00000010
00000000
00000100
00000000
00000010
00000000
00000001
00000100
00000010
00000000
,
00010000
00000000
00001000
00000000
00100000
00001000
01000000
00000000
00010000
00000000
01000000
00000000
00100000
10000000
00010000
00000000
,
00100000
00000000
01000000
00000000
10000000
00010000
01000000
00000000
00100000
00000000
10000000
00000000
01000000
00100000
00010000
00000000
,
01000000
00000000
00001000
00000000
00010000
00001000
00010000
00000000
00001000
00000000
00000010
00000000
00000100
00001000
00000001
00000000
,
00000100
00000000
00000010
00000000
00001000
00000001
00000100
00000000
00000010
00000000
00001000
00000000
00000001
00000010
00000100
00000000
,
00001000
00000000
00000010
00000000
00010000
00000010
00000100
00000000
00001000
00000000
00010000
00000000
00100000
01000000
00010000
00000000
,
10000000
00000000
00100000
00000000
01000000
00001000
00010000
00000000
00001000
00000000
00010000
00000000
00000100
00010000
00001000
00000000
,
00010000
00000000
00000100
00000000
00000010
00000100
00001000
00000000
00000001
00000000
00001000
00000000
00000010
00010000
00001000
00000000
,
01000000
00000000
00010000
00000000
10000000
01000000
00100000
00000000
01000000
00000000
00010000
00000000
00001000
00010000
00000010
00000000
,
00000100
00000000
00000001
00000000
00001000
00000001
00000010
00000000
00000100
00000000
00010000
00000000
00001000
01000000
00010000
00000000
,
10000000
00000000
01000000
00000000
00100000
00001000
01000000
00000000
00010000
00000000
01000000
00000000
00001000
00010000
00000100
00000000
,
00000010
00000000
00001000
00000000
00010000
00001000
00100000
00000000
01000000
00000000
00010000
00000000
00001000
01000000
00010000
00000000
,
10000000
00000000
01000000
00000000
00100000
00010000
01000000
00000000
01010000
00000000
00000000
00000000
01000000
00000000
10010000
00000000
,
00000000
10000000
01000000
00110000
00000000
00100000
00011000
00000000
,
00001000
00000000
00010000
00000000
00000010
00000100
00000001
00000000
00000010
00000000
00000100
00000000
00000010
00000000
00000001
00000000
,
00000100
00001000
00010000
00100000
01000000
00010000
10000000
01000000
,
00100000
00001000
00010000
00000010
00000100
00001000
00010000
00100000
,
01000000
00010000
10000000
01000000
00010000
00001000
00000010
00000100
,
00001000
00000001
00000100
00001000
00010000
00000010
00000100
00000001
,
00000010
00000100
00010000
00001000
01000000
00100000
00010000
00001000
,
00100000
01000000
10000000
00010000
01000000
00100000
10000000
01000000
,
00010000
00001000
00100000
00010000
01000000
00100000
00010000
00001000
,
00010000
00000010
00000100
00001000
00010000
00000100
00000010
00000001
,
00000100
00001000
00010000
00000010
00000100
00001000
00010000
00000010
,
00000100
00000001
00000010
00001000
00010000
00100000
10000000
01000000
,
00100000
00010000
00001000
00000100
00000010
00000001
00000100
00001000
,
00010000
00100000
00001000
00100000
10000000
01000000
00010000
00001000
,
00000010
00000001
00000100
00001000
00010000
01000000
10000000
01000000
,
00010000
00001000
00000010
00000001
00000100
00000000
00001000
00010000
,
00000000
00100000
00010000
00002000
00000000
00000000
00000000
00000000
,
00000000
00000000
00013000
00000000
;
