#TITLE:シカ色デイズ;
#SUBTITLE:;
#ARTIST:シカ部;
#TITLETRANSLIT:Shikairo Days;
#SUBTITLETRANSLIT:;
#ARTISTTRANSLIT:Shikabu;
#GENRE:Weeb Music;
#CREDIT:;
#BANNER:Shikairo Days.png;
#BACKGROUND:Shikairo Days-bg.png;
#LYRICSPATH:;
#CDTITLE:../_YSD cdtitles/ysd hypo-scvip cdtitle.png;
#MUSIC:Shikairo Days.ogg;
#OFFSET:-0.281000;
#SAMPLESTART:51.594002;
#SAMPLELENGTH:20.983999;
#SELECTABLE:YES;
#BPMS:0.000000=183.000000
;
#STOPS:
;
#BGCHANGES:-0.863150=Shikairo Days.avi=1.000=0=0=0=StretchNoLoop====,
99999=-nosongbg-=1.000=0=0=0 // don't automatically add -songbackground-
;
#KEYSOUNDS:;
#ATTACKS:;

//---------------dance-single - ----------------
#NOTES:
     dance-single:
     Deerly Beloathed:
     Beginner:
     3:
     0.236143,0.260154,0.088752,0.000000,0.000000,149.000000,141.000000,8.000000,0.000000,0.000000,0.000000,0.236143,0.260154,0.088752,0.000000,0.000000,149.000000,141.000000,8.000000,0.000000,0.000000,0.000000:
0000
0000
0000
0000
,
0000
0000
0000
0000
,
0000
0000
1000
0000
,
0001
0000
1000
1000
,
1000
0000
0001
0000
,
0100
0000
0001
0001
,
0001
0000
1000
0000
,
0100
0000
0010
0010
,
0010
0000
1001
0000
,
0001
0000
1000
0000
,
0010
0000
0100
0000
,
0010
0000
0100
0000
,
0001
0000
1001
0000
,
1000
0000
0100
0000
,
1000
0000
0001
0000
,
0100
0000
0010
0000
,
1000
0000
1001
0000
,
1000
1000
0000
0000
,
0001
0001
0000
0000
,
0100
0100
0000
0000
,
0000
0010
0010
0000
,
0100
0000
0001
0000
,
0100
0000
0001
0000
,
1000
0000
0100
0000
,
0110
0000
1001
0000
,
1000
0000
0001
0000
,
0100
0000
0010
0010
,
0010
0000
1000
0000
,
0100
0100
0100
0000
,
0010
0010
0010
0000
,
0001
0001
0001
0000
,
1000
0000
0010
0010
,
0010
0000
0100
0000
,
0000
0001
0000
0000
,
0100
0000
0000
0110
,
0000
0000
1001
0000
,
0000
1001
0000
0000
,
1000
0000
0000
0000
,
0001
0000
0000
0000
,
0000
0000
1000
1000
,
0000
0000
0001
0001
,
0000
0000
0100
0100
,
0000
0000
0010
0010
,
0000
0000
1000
1000
,
0000
0000
0100
0100
,
0000
0000
0010
0010
,
0000
0000
0001
0001
,
0001
0000
1000
1000
,
0000
0000
0001
0001
,
0000
0000
0100
0100
,
0000
0000
0010
0010
,
0000
0000
1000
1000
,
0000
0000
0100
0100
,
0000
0000
0010
0010
,
0000
0000
0100
0100
,
0000
0000
1000
1000
,
1000
0000
0001
0001
,
0001
0000
0100
0100
,
0100
0000
0010
0010
,
0010
0000
1000
0001
,
1000
0000
0001
1000
,
0001
0000
0010
0000
,
0100
0000
1000
0000
,
0001
0000
0100
0000
,
0010
0000
1000
1000
,
1000
0000
0100
0000
,
0010
0000
0001
0001
,
0001
0000
0000
0000
;

//---------------dance-single - ----------------
#NOTES:
     dance-single:
     Feeling Quite Fawn-d of You:
     Easy:
     7:
     0.386704,0.408813,0.188598,0.166410,0.000000,244.000000,227.000000,17.000000,15.000000,0.000000,0.000000,0.386704,0.408813,0.188598,0.166410,0.000000,244.000000,227.000000,17.000000,15.000000,0.000000,0.000000:
0000
0000
0000
0000
,
0000
0000
0000
0000
,
0000
0000
1000
0010
,
1000
0010
0100
0001
,
1001
0000
1000
0100
,
1000
0100
0010
0001
,
1001
0000
1000
0010
,
0001
0010
1000
0001
,
1001
0000
1001
1001
,
0001
0000
0000
0010
0000
0010
0000
0000
,
0100
1000
1010
0101
,
0001
0000
0000
1000
0000
0000
1000
0000
,
0100
0010
0011
0011
,
0001
0000
0000
0100
0000
0010
0000
0000
,
1000
0100
0110
1001
,
0001
0000
0000
0001
0000
0000
0100
0000
,
0010
1000
0001
0001
,
0010
0010
0001
0001
,
0100
0100
1000
1000
,
0100
0100
0001
1000
,
0000
0100
0000
0010
0000
0000
0001
0000
,
1000
0001
0100
0010
,
0100
0001
1000
0100
,
0010
0001
1000
0010
,
0101
0000
0001
1000
,
0100
0001
0100
1000
,
0001
0100
0010
0001
,
0010
1000
0100
0010
,
0001
1000
0010
0001
,
0010
0100
0001
0010
,
1000
0010
0001
1000
,
0010
0100
2000
3200
,
0302
0000
2003
3200
,
0320
0032
2003
3020
,
0230
0000
0302
2003
,
0000
0000
0000
0000
3001
0000
0000
0010
,
0000
0100
0000
1000
,
0001
0000
0000
0202
0000
0000
0000
0000
,
0000
0303
0100
0010
,
1001
0000
1000
0010
,
0100
0010
1000
0001
,
0010
0000
0000
0100
0000
1000
0000
0100
,
0000
0010
0000
0001
0000
0000
1000
0000
,
0001
0100
0010
1000
,
0100
0001
0100
1000
,
0000
0001
0000
0100
0000
0000
0010
0000
,
1000
0002
0000
0000
,
0103
0010
1000
0010
,
0100
0000
0000
0001
0000
1000
0000
0000
,
0001
0000
0000
1000
0000
0001
0000
1000
,
0000
0001
0000
0100
0000
0000
0010
0000
,
1000
0001
0010
0100
,
1000
0000
0001
0000
0100
0000
0000
0010
,
0000
0100
0000
0001
0000
0000
1000
0000
,
0100
0000
0000
0010
0000
0000
0001
0000
,
1000
0001
0100
0100
,
1000
1000
0100
0001
,
0101
0000
1000
0100
,
0001
0100
1000
0001
,
0100
0010
0001
0010
,
1000
0100
0010
0001
,
1100
0000
1000
0001
,
0100
0010
1000
0100
,
0010
0000
0001
0100
,
1000
0100
0001
0010
,
0100
0000
0001
0100
,
1000
0010
0001
0010
,
0110
0000
0000
0000
;

//---------------dance-single - ----------------
#NOTES:
     dance-single:
     And Not a Single Buck was Given:
     Medium:
     11:
     0.516662,0.557472,0.388289,0.144222,0.000000,326.000000,291.000000,35.000000,13.000000,0.000000,0.000000,0.516662,0.557472,0.388289,0.144222,0.000000,326.000000,291.000000,35.000000,13.000000,0.000000,0.000000:
0000
0000
0000
0000
,
0000
0000
0000
0000
,
0000
0000
0000
0000
1000
0010
1000
0000
,
1000
0010
1000
0000
0001
0000
0010
0000
,
0110
0000
0000
0000
1000
0001
1000
0000
,
1000
0001
1000
0000
0001
0000
0100
0000
,
1010
0000
0000
0000
0001
0010
0001
0000
,
0001
0010
0001
0000
0010
0000
0100
0000
,
1000
1001
0101
0101
,
0100
0010
0000
1000
0000
0001
0010
0000
,
0100
1000
0001
0101
,
0010
1000
0000
0001
1000
0000
0001
0000
,
0100
0001
1001
1001
,
1000
0100
0000
0010
0000
0100
1000
0000
,
0001
0100
0001
1010
,
0100
0001
0000
1000
0001
0000
1000
0000
,
0100
0010
0001
1000
,
0001
0100
0001
0000
1000
0000
0100
0000
,
0010
0001
0010
0000
0100
0000
1000
0000
,
0001
0100
0001
0000
1000
0000
0100
0000
,
0000
0010
0000
0100
1000
0000
0001
0000
,
0100
0010
1000
0100
,
0010
0001
0010
0001
1000
0000
0010
0000
,
0100
0001
1000
0100
,
0011
0000
0001
0100
,
0001
1000
0000
0001
0000
0010
0000
0100
,
0000
1000
0000
0001
0100
0000
0001
0000
,
1000
0100
0000
0010
0100
1000
0000
0001
,
0100
0001
1000
0100
,
0010
0100
0000
1000
0000
0001
0000
0100
,
0000
0010
1000
0000
0001
0000
0010
0000
,
0100
1000
0000
0100
0020
0000
0032
0000
,
2003
0000
3020
0230
,
0302
0023
0230
2300
,
3020
0000
0230
0302
,
0000
0000
0003
0000
0101
0000
0000
1001
,
0000
0000
1100
0000
0000
1000
0001
0000
,
0100
0010
1000
0001
0000
0100
0001
0000
,
0100
0001
0000
1000
0100
0000
0010
0000
,
0001
1000
1010
1010
,
0101
0000
0001
1000
0000
0001
0000
0010
,
0100
1000
0000
0100
0000
0010
0000
0100
,
0000
1000
0000
0101
0000
0100
0010
0000
,
0100
0001
1001
1100
,
0110
0000
0010
0100
0010
0000
0100
1000
,
0000
0001
0000
0100
0000
0010
1000
0000
,
0001
0100
0001
0100
0000
0000
0001
0000
,
1000
0100
0011
0011
,
1001
0000
1000
0001
0000
0100
0000
0010
,
0000
0100
0000
0001
0000
1000
0000
0100
,
0000
0010
0000
0011
0000
0001
1000
0000
,
0001
0100
0110
0101
,
1001
0000
1000
0100
1000
0000
0001
0100
,
0000
0010
0000
1000
0000
0001
0010
0000
,
0100
0000
1000
0001
0000
0100
0010
0000
,
0100
0000
0001
1000
0100
0000
0001
0000
,
0100
0000
1000
0000
0001
0100
0010
0000
,
1001
0000
0000
1000
0100
0000
0010
0000
,
0100
0000
1000
0000
0001
0100
0001
0100
,
0000
0010
0000
0000
1000
0000
0001
0000
,
0010
0000
0100
0000
1000
0100
1000
0000
,
1001
0000
0000
0002
0000
0103
0010
0000
,
1010
0110
0101
1001
,
1000
0001
0000
1000
0001
0100
0001
0000
,
0001
0100
0001
0000
1000
0000
0100
0000
,
0110
0000
0000
0000
0001
0010
0001
0000
,
0001
0010
0001
0000
0100
0000
0010
0000
,
1001
0000
0000
0000
;

//---------------dance-single - ----------------
#NOTES:
     dance-single:
     DEER GOD:
     Hard:
     13:
     0.683072,0.668967,0.166410,0.355007,0.000000,431.000000,416.000000,15.000000,32.000000,0.000000,0.000000,0.683072,0.668967,0.166410,0.355007,0.000000,431.000000,416.000000,15.000000,32.000000,0.000000,0.000000:
0000
0000
0000
0000
,
0000
0000
0000
0000
,
0000
0000
0000
0000
1000
0010
0100
0010
,
1000
0010
0100
0010
1000
0000
0001
0010
,
0100
1000
0001
1000
0001
0100
0010
0100
,
0001
0100
0010
0100
0001
0000
1000
0100
,
0010
0001
1000
0000
0001
0100
1000
0100
,
0001
0100
1000
0100
0001
0000
1000
0100
,
0010
0011
1001
1001
,
1000
0010
0100
1000
0000
0100
0010
1000
,
0001
0010
0100
0010
0100
0000
1100
0000
,
1000
0001
0100
0010
0001
0010
0100
0001
,
1000
0100
0010
0000
0011
0000
0011
0000
,
0001
0100
0010
0001
0000
0010
0100
0001
,
0000
1000
0100
0010
0100
0000
1100
0000
,
1000
0001
0100
0010
0001
0010
0100
0001
,
1000
0100
0020
0000
0031
0100
0001
0100
,
0010
1000
0010
1000
0001
0010
0001
0010
,
0100
1000
0100
1000
0001
0100
0010
0100
,
0001
1000
0100
1000
0001
0100
0010
1000
,
0000
0001
0010
0100
1000
0100
1000
0100
,
1000
0001
1000
0001
1000
0010
1000
0010
,
0100
0010
0100
0010
0100
0001
0100
0001
,
1000
0100
1000
0100
0010
0001
0100
0000
,
2010
0000
0100
0000
3001
0100
0010
0100
,
0002
0000
0103
0010
1000
0100
0000
1000
,
0020
0000
0130
0001
0010
0100
0002
0000
,
0203
0000
1300
0001
0100
0020
0000
1030
,
0100
0010
2000
0000
3010
0100
1000
0001
,
0100
0010
0001
0010
1000
0001
0010
0100
,
1000
0010
0100
1000
0100
0001
0010
0100
,
1000
0100
0010
0001
2000
0000
3020
0000
,
0230
0302
2003
3002
,
0023
2030
3020
0032
,
0203
0000
0320
2030
,
0000
0000
0000
0000
3100
0000
0010
0001
,
0000
1000
0001
0000
0000
0100
0001
0000
,
1000
0100
0010
0001
0000
1000
0010
0000
,
1000
0010
0100
0001
0000
1000
0100
0100
,
0010
0010
0001
1000
0010
0000
0101
0000
,
0100
1000
0100
0001
0000
1000
0000
0100
,
0010
0100
0000
1000
0001
0100
0000
0010
,
1000
0001
0000
0110
0000
1000
0010
1000
,
0001
0010
0100
1000
0001
0000
0020
0000
,
0230
0000
0301
0100
2000
0000
3010
0200
,
0000
0301
0010
0200
0000
1300
0010
0000
,
0100
1000
0100
0002
0000
1003
0100
0100
,
0010
0010
0001
0100
0010
0000
0110
0000
,
0100
1000
0100
0001
0000
0200
0000
0310
,
0100
0001
0000
1000
0100
0010
0000
0001
,
0100
0010
0000
1010
0000
1000
0100
0010
,
0100
1000
0001
0100
0010
0000
2000
0000
,
3200
0000
0301
0100
1000
0000
0001
0200
,
0000
0310
1000
0100
0000
0010
0100
1000
,
0001
0100
0010
1000
0000
0100
0010
0000
,
0200
0000
1300
0001
0100
0010
0100
0001
,
0100
0010
0100
1000
0100
0010
0100
0001
,
1000
0000
0100
1000
0010
0001
0010
1000
,
0001
0000
0010
0100
0001
0100
0010
0001
,
0000
1000
1000
0000
0001
0010
0001
0100
,
0001
1000
0001
0100
0001
0010
0100
0000
,
1100
0000
1000
0010
0000
0001
0010
0100
,
0001
1000
0100
0010
0001
0000
1100
0000
,
0100
1000
0000
0001
1000
0100
0001
0100
,
1000
0100
0001
0100
1000
0000
0001
0100
,
1000
0100
0001
1000
0001
0010
1000
0010
,
0001
0010
1000
0010
0001
0100
0010
1000
,
1001
0000
0000
0000
;

//---------------dance-double - ----------------
#NOTES:
     dance-double:
     :
     Beginner:
     1:
     0.117279,0.148659,0.099846,0.000000,0.000000,74.000000,65.000000,9.000000,0.000000,0.000000,0.000000,0.117279,0.148659,0.099846,0.000000,0.000000,74.000000,65.000000,9.000000,0.000000,0.000000,0.000000:
// measure 0
00000000
00000000
00000000
00000000
,  // measure 1
00000000
00000000
00000000
00000000
,  // measure 2
00000000
00000000
00010000
00000000
,  // measure 3
00000000
00000000
00001000
00000000
,  // measure 4
00000000
00000000
00010000
00000000
,  // measure 5
00000000
00000000
00001000
00000000
,  // measure 6
00000000
00000000
00010000
00000000
,  // measure 7
00000000
00000000
00001000
00000000
,  // measure 8
00000000
00000000
00011000
00000000
,  // measure 9
00000000
00000000
00010000
00000000
,  // measure 10
00000000
00000000
00000010
00000000
,  // measure 11
00000000
00000000
00001000
00000000
,  // measure 12
00000000
00000000
00000001
00000000
,  // measure 13
00000000
00000000
00001000
00000000
,  // measure 14
00000000
00000000
00000100
00000000
,  // measure 15
00000000
00000000
00010000
00000000
,  // measure 16
00000000
00000000
00011000
00000000
,  // measure 17
00000000
00000000
00001000
00000000
,  // measure 18
00000000
00000000
00100000
00000000
,  // measure 19
00000000
00000000
00010000
00000000
,  // measure 20
00000000
00000000
10000000
00000000
,  // measure 21
00000000
00000000
00010000
00000000
,  // measure 22
00000000
00000000
01000000
00000000
,  // measure 23
00000000
00000000
00100000
00000000
,  // measure 24
00000000
00000000
10010000
00000000
,  // measure 25
00000000
00000000
10000000
00000000
,  // measure 26
00000000
00000000
00100000
00000000
,  // measure 27
00000000
00000000
01000000
00000000
,  // measure 28
00000000
00000000
00001000
00000000
,  // measure 29
00000000
00000000
00010000
00000000
,  // measure 30
00000000
00000000
00001000
00000000
,  // measure 31
00000000
00000000
00010000
00000000
,  // measure 32
00000000
00000000
00011000
00000000
,  // measure 33
00000000
00000000
00000000
00000000
,  // measure 34
00001000
00000000
00000000
00000000
,  // measure 35
00000000
00000000
00010000
00000000
,  // measure 36
00000000
00000000
00000100
00000000
,  // measure 37
00000000
00000000
00001000
00000000
,  // measure 38
00000000
00000000
00000001
00000000
,  // measure 39
00000000
00000000
00001001
00000000
,  // measure 40
00000000
00000000
00001000
00000000
,  // measure 41
00000000
00000000
00000010
00000000
,  // measure 42
00000000
00000000
00000100
00000000
,  // measure 43
00000000
00000000
00000001
00000000
,  // measure 44
00000000
00000000
00001000
00000000
,  // measure 45
00000000
00000000
00000100
00000000
,  // measure 46
00000000
00000000
00010000
00000000
,  // measure 47
00000000
00000000
00011000
00000000
,  // measure 48
00000000
00000000
00001000
00000000
,  // measure 49
00000000
00000000
01000000
00000000
,  // measure 50
00000000
00000000
00010000
00000000
,  // measure 51
00000000
00000000
10000000
00000000
,  // measure 52
00000000
00000000
00010000
00000000
,  // measure 53
00000000
00000000
10000000
00000000
,  // measure 54
00000000
00000000
00100000
00000000
,  // measure 55
00000000
00000000
01100000
00000000
,  // measure 56
00000000
00000000
01000000
00000000
,  // measure 57
00000000
00000000
00010000
00000000
,  // measure 58
00000000
00000000
01000000
00000000
,  // measure 59
00000000
00000000
00001000
00000000
,  // measure 60
00000000
00000000
00010000
00000000
,  // measure 61
00000000
00000000
00000100
00000000
,  // measure 62
00000000
00000000
00000010
00000000
,  // measure 63
00000000
00000000
00000110
00000000
,  // measure 64
00000000
00000000
00000001
00000000
,  // measure 65
00000000
00000000
00001000
00000000
,  // measure 66
00000000
00000000
00000010
00000000
,  // measure 67
00000110
00000000
00000000
00000000
;

//---------------dance-double - ----------------
#NOTES:
     dance-double:
     :
     Easy:
     8:
     0.323310,0.445978,0.144222,0.011094,0.000000,204.000000,191.000000,13.000000,1.000000,0.000000,0.000000,0.323310,0.445978,0.144222,0.011094,0.000000,204.000000,191.000000,13.000000,1.000000,0.000000,0.000000:
// measure 0
00000000
00000000
00000000
00000000
,  // measure 1
00000000
00000000
00000000
00000000
,  // measure 2
00000000
00000000
00010000
00000000
,  // measure 3
00001000
00000000
00010000
00000000
,  // measure 4
00000000
00000000
00001000
00000000
,  // measure 5
01000000
00000000
00010000
00000000
,  // measure 6
00000000
00000000
10000000
00000000
,  // measure 7
00100000
00000000
01000000
00000000
,  // measure 8
00001000
00000000
00011000
00000000
,  // measure 9
00010000
00000000
00000010
00000000
,  // measure 10
00001000
00000000
00000001
00000000
,  // measure 11
00001000
00000000
00000100
00000000
,  // measure 12
00000010
00000000
00000001
00000000
,  // measure 13
00001000
00000000
00000010
00000000
,  // measure 14
00010000
00000000
00001000
00000000
,  // measure 15
00100000
00000000
00010000
00000000
,  // measure 16
10000000
00000000
00100000
00000000
,  // measure 17
01000000
00010000
10000000
00000000
,  // measure 18
00100000
01000000
00010000
00000000
,  // measure 19
10000000
01000000
00100000
00000000
,  // measure 20
00001000
00000000
00010000
00000000
,  // measure 21
00000010
00000000
00001000
00000000
,  // measure 22
00000001
00000010
00000100
00000000
,  // measure 23
00001000
00000000
00000010
00000100
,  // measure 24
00000001
00000000
00001000
00000100
,  // measure 25
00001000
00000100
00000010
00000001
,  // measure 26
00000010
00000001
00001000
00000010
,  // measure 27
00000100
00000000
00000001
00001000
,  // measure 28
00000100
00000000
00010000
00001000
,  // measure 29
00010000
00001000
01000000
00001000
,  // measure 30
01000000
00001000
01000000
00010000
,  // measure 31
10000000
00010000
10000000
01000000
,  // measure 32
00100000
00000000
00010000
00000000
,  // measure 33
00100000
01000000
00000000
10000000
,  // measure 34
00010000
00000000
01000000
00001000
,  // measure 35
00000000
00000000
00000000
00000000
00010000
00000000
00000000
00000100
,  // measure 36
00000000
00001000
00000000
00000001
,  // measure 37
00001000
00000000
00000000
00000020
00000000
00000100
00000000
00000000
,  // measure 38
00000100
00000000
00000000
00001030
00000000
00000000
00000001
00000000
,  // measure 39
00000010
00000100
00001000
00001100
,  // measure 40
00000100
00000000
00000000
00000010
00000000
00000001
00000000
00000000
,  // measure 41
00001000
00000000
00000000
00000010
00000000
00000100
00000000
00000001
,  // measure 42
00000000
00001000
00000000
00000100
00000000
00000010
00000000
00000000
,  // measure 43
00000001
00001000
00000000
00001010
,  // measure 44
00001001
00000000
00001100
00000000
00011000
00000000
00000000
00001000
,  // measure 45
00000000
01000000
00000000
00100000
00000000
00000000
10000000
00000000
,  // measure 46
00010000
00000000
00000000
10000000
00000000
00000000
01000000
00000000
,  // measure 47
00100000
00010000
10000000
10010000
,  // measure 48
00010000
00000000
00000000
01000000
00000000
00001000
00000000
00000000
,  // measure 49
00010000
00000000
00000000
00000100
00000000
00000010
00000000
00000001
,  // measure 50
00000000
00001000
00000000
00000010
00000000
00000000
00010000
00000000
,  // measure 51
00001000
01000000
00000000
01010000
,  // measure 52
11000000
00000000
01100000
00000000
10010000
00000000
00000000
00010000
,  // measure 53
00000000
01000000
00000000
00001000
00000000
00000000
00010000
00000000
,  // measure 54
00000100
00000000
00000000
00000010
00000000
00000000
00000001
00000000
,  // measure 55
00001000
00000001
00000100
00001000
,  // measure 56
00010000
01000000
10000000
00100000
,  // measure 57
01000000
00000000
10000000
01000000
,  // measure 58
00010000
00000000
00001000
00000000
00000100
00000000
00000000
00000001
,  // measure 59
00000000
00000010
00000100
00000010
,  // measure 60
00000001
00000100
00001000
00010000
,  // measure 61
00001000
00000000
00000000
00010000
00000000
00000000
00100000
00000000
,  // measure 62
01000000
00010000
10000000
11000000
,  // measure 63
01000000
00000000
00100000
00010000
,  // measure 64
10000000
00100000
01000000
00100000
,  // measure 65
10000000
00000000
01000000
00010000
,  // measure 66
00001000
00000100
00000001
00000010
,  // measure 67
00001100
00000000
00000000
00000000
;

//---------------dance-double - ----------------
#NOTES:
     dance-double:
     :
     Medium:
     11:
     0.529341,0.557472,0.299537,0.188598,0.000000,334.000000,307.000000,27.000000,17.000000,0.000000,0.000000,0.529341,0.557472,0.299537,0.188598,0.000000,334.000000,307.000000,27.000000,17.000000,0.000000,0.000000:
// measure 0
00000000
00000000
00000000
00000000
,  // measure 1
00000000
00000000
00000000
00000000
,  // measure 2
00000000
00000000
00000000
00000000
00010000
00001000
00010000
00000000
,  // measure 3
00010000
00001000
00010000
00000000
00001000
00000000
01000000
00000000
,  // measure 4
01100000
00000000
00000000
00000000
00010000
10000000
00010000
00000000
,  // measure 5
00010000
10000000
00010000
00000000
10000000
00000000
00100000
00000000
,  // measure 6
01100000
00000000
00000000
00000000
00010000
01000000
00010000
00000000
,  // measure 7
00010000
01000000
00010000
00000000
01000000
00000000
00001000
00000000
,  // measure 8
00011000
00000000
00010100
00010100
,  // measure 9
00010000
00000000
00000010
00001000
00000000
00001000
00000001
00000000
,  // measure 10
00000010
00000100
00001100
00001001
,  // measure 11
00000001
00000100
00000000
00001000
00010000
00000000
00001000
00000000
,  // measure 12
00100000
01000000
11000000
11000000
,  // measure 13
10000000
00000000
00010000
01000000
00000000
01000000
00100000
00000000
,  // measure 14
00010000
00001000
00011000
00010100
,  // measure 15
00010000
00000100
00000000
00000100
00001000
00000000
00000100
00000000
,  // measure 16
00000001
00000100
00001000
00000001
,  // measure 17
00000100
00000010
00000100
00000010
00000100
00000000
00000001
00000000
,  // measure 18
00001000
00000100
00001000
00000100
00001000
00000000
00000100
00000000
,  // measure 19
00010000
00001000
00010000
00001000
00010000
00000000
00001000
00000000
,  // measure 20
01000000
00100000
10000000
00010000
,  // measure 21
00100000
01000000
00100000
00010000
,  // measure 22
10000000
00100000
10000000
00000000
00010000
00000000
01000000
00000000
,  // measure 23
00001000
00000000
00010000
00000000
00000100
00000010
00000001
00000000
,  // measure 24
00002002
00003003
00001000
00000010
,  // measure 25
00000100
00000000
00001000
00000000
00010000
00001000
00000000
00001000
,  // measure 26
00100000
00000000
01000000
00000000
10000000
00010000
01000000
00000000
,  // measure 27
00100000
00000000
01000000
00000000
00001000
00010000
00000000
00010000
,  // measure 28
00100000
00010000
00001000
00000000
00010000
00000000
00000100
00000000
,  // measure 29
00000010
00000100
00000010
00000100
00001000
00000000
00000001
00000000
,  // measure 30
00000100
00000010
00000100
00000010
00010000
00001000
00010000
00001000
,  // measure 31
00100000
00001000
00100000
00001000
02000000
00000000
03020000
00000000
,  // measure 32
20000000
30030000
20000000
32000000
,  // measure 33
03020000
00032000
00003200
00000302
,  // measure 34
00000023
00000000
00000230
00002300
,  // measure 35
00000000
00000000
00003000
00000000
00001001
00000000
00000000
00000101
,  // measure 36
00000000
00000000
00001010
00000000
00000000
00001000
00000001
00000000
,  // measure 37
00000010
00000100
00000000
00001000
00000000
00000001
00000100
00000000
,  // measure 38
00000010
00001000
00000000
00000010
00020000
00000000
00032000
00000000
,  // measure 39
00203000
01300000
11000000
11000000
,  // measure 40
10000000
00000000
00010000
01000000
00000000
00100000
00000000
10000000
,  // measure 41
00010000
10000000
00000000
00100000
00000000
01000000
00000000
00001000
,  // measure 42
00000000
00010000
00000000
00001000
00000000
00000010
00000100
00000000
,  // measure 43
00001000
00000000
00000001
00000100
00000010
00000000
00001010
00000000
,  // measure 44
00001001
00000000
00001000
00000100
00000010
00000000
00000001
00000100
,  // measure 45
00000000
00000010
00000000
00010000
00000000
00010000
00001000
00000000
,  // measure 46
00100000
01000000
00100000
01000000
00000000
00000000
10000000
00000000
,  // measure 47
00010000
00000000
01000000
00100000
10000000
00000000
10100000
00000000
,  // measure 48
00100000
00000000
01000000
00001000
00000000
00010000
00000000
00000100
,  // measure 49
00000010
00000001
00000000
00001000
00000000
00000010
00000000
00000100
,  // measure 50
00000000
00001000
00000000
00010000
00000000
00001000
00100000
00000000
,  // measure 51
01000000
00000000
00100000
00010000
10000000
00000000
10100000
00000000
,  // measure 52
10010000
00000000
00010000
00100000
01000000
00000000
10000000
00010000
,  // measure 53
00000000
01000000
00000000
00001000
00000000
00010000
00000100
00000000
,  // measure 54
00000010
00000000
00000000
00000001
00000000
00000100
00000010
00000000
,  // measure 55
00001000
00000000
00000010
00010000
00001000
00000000
00010000
00000000
,  // measure 56
00100000
00000000
01000000
00000000
00010000
10000000
00010000
00000000
,  // measure 57
00100000
00000000
00000000
01000000
10000000
00010000
10000000
00010000
,  // measure 58
01000000
00000000
00100000
00000000
10000000
00010000
00100000
01000000
,  // measure 59
00000000
00100000
00001000
00000000
00010000
00000100
00010000
00000000
,  // measure 60
00010000
00000100
00010000
00000000
00010000
00000100
00001000
00000000
,  // measure 61
00000001
00000000
00000000
00000101
00000000
00000100
00000010
00000000
,  // measure 62
00001000
00000100
00000001
00000100
,  // measure 63
00010000
00001000
00000000
00010000
00001000
00010000
00001000
00000000
,  // measure 64
00001000
00010000
00001000
00000000
00100000
00000000
01000000
00000000
,  // measure 65
01100000
00000000
00000000
00000000
10000000
00010000
10000000
00000000
,  // measure 66
10000000
00010000
10000000
00000000
01100000
00000000
00011000
00000000
,  // measure 67
00000110
00000000
00000000
00000000
;

//---------------dance-double - ----------------
#NOTES:
     dance-double:
     I ran out of deer puns...:
     Hard:
     13:
     0.667223,0.631802,0.221880,0.377195,0.000000,421.000000,401.000000,20.000000,34.000000,0.000000,0.000000,0.667223,0.631802,0.221880,0.377195,0.000000,421.000000,401.000000,20.000000,34.000000,0.000000,0.000000:
// measure 0
00000000
00000000
00000000
00000000
,  // measure 1
00000000
00000000
00000000
00000000
,  // measure 2
00000000
00000000
00000000
00000000
00010000
00001000
00100000
00001000
,  // measure 3
00010000
00001000
00100000
00001000
00010000
00000000
00001000
01000000
,  // measure 4
00010000
10000000
00100000
00000000
01000000
00010000
10000000
00010000
,  // measure 5
01000000
00010000
10000000
00010000
00100000
00000000
01000000
10000000
,  // measure 6
00010000
01000000
00001000
00000000
00010000
00000100
00001000
00000100
,  // measure 7
00010000
00000100
00001000
00000100
00000010
00000000
00000001
00000100
,  // measure 8
00000010
00010000
00001000
00100000
00001000
00000000
00101000
00000000
,  // measure 9
00100000
00001000
01000000
00100000
00000000
00100000
10000000
01000000
,  // measure 10
00100000
01000000
10000000
01000000
00100000
00000000
00110000
00000000
,  // measure 11
00010000
01000000
00100000
00010000
00001000
00000010
00000100
00001000
,  // measure 12
00000001
00000100
00000010
00000000
00001000
00000000
00001001
00000000
,  // measure 13
00000001
00000010
00000100
00001000
00000000
00001000
00000010
00000100
,  // measure 14
00000000
00000100
00000001
00000010
00000100
00000000
00010100
00000000
,  // measure 15
00010000
00001000
00000010
00001000
00010000
00100000
01000000
00010000
,  // measure 16
00100000
01000000
10000000
00000000
00010000
01000000
00010000
01000000
,  // measure 17
10000000
01000000
10000000
01000000
00001000
01000000
00001000
01000000
,  // measure 18
00001000
00010000
00001000
00010000
00001000
00000010
00001000
00000010
,  // measure 19
00000001
00000010
00000001
00000010
00000100
00001000
00000010
00000100
,  // measure 20
00000000
00000001
00000010
00000100
00001000
00000010
00001000
00000010
,  // measure 21
00000100
00000001
00000100
00000001
00001000
00000100
00001000
00000100
,  // measure 22
00010000
00001000
00010000
00000000
00001000
01000000
00001000
01000000
,  // measure 23
00010000
01000000
00010000
01000000
00100000
10000000
00010000
00000000
,  // measure 24
00120000
00000000
01000000
00000000
10030000
00010000
01000000
00000000
,  // measure 25
00200000
00000000
10300000
01000000
00010000
00001000
00000000
00000010
,  // measure 26
00000200
00000000
00001300
00000001
00000100
00001000
00020000
00000000
,  // measure 27
00032000
00000000
00003010
00000100
00001000
00000010
00000000
00000100
,  // measure 28
00001000
00000100
00000001
00000000
00000010
00000100
00000010
00000000
,  // measure 29
00000001
00000100
00000010
00000100
00000001
00001000
00000001
00001000
,  // measure 30
00000100
00000010
00000100
00000010
00001000
00010000
00001000
00010000
,  // measure 31
00100000
01000000
00100000
01000000
00020000
00000000
00230000
00000000
,  // measure 32
02300000
13000000
00020000
02030000
,  // measure 33
23000000
32000000
03002000
00023000
,  // measure 34
00030200
00000000
00000320
00000032
,  // measure 35
00000000
00000000
00000003
00000000
00000101
00000000
00000000
00001100
,  // measure 36
00000000
00000000
00011000
00000000
00000000
00010000
00001000
00000000
,  // measure 37
00010000
00100000
01000000
00020000
00000000
01000000
01000000
00000000
,  // measure 38
01000000
01000000
00000000
10030000
01000000
01000000
00100000
00100000
,  // measure 39
00010000
00010000
10000000
00100000
01000000
00000000
01010000
00000000
,  // measure 40
01000000
10000000
01000000
00010000
00000000
02000000
00000000
03001000
,  // measure 41
00010000
00000100
00000000
00000010
00000001
00000100
00000000
00000010
,  // measure 42
00001000
00000100
00000000
00000002
00000000
00000103
00001000
00000001
,  // measure 43
00000000
00000100
00001000
00010000
00001000
00000000
00101000
00000000
,  // measure 44
01100000
00000000
01000000
10000000
00020000
00000000
01030000
00200000
,  // measure 45
00000000
20300000
00000000
31000000
00000000
01000000
00200000
00000000
,  // measure 46
00310000
01000000
00010000
20000000
00000000
31000000
00100000
00100000
,  // measure 47
00001000
00001000
00010000
00001000
00000010
00000000
00000110
00000000
,  // measure 48
00000100
00000001
00000100
00001000
00000000
00000002
00000000
00000103
,  // measure 49
00001000
00010000
00000000
00001000
00100000
01000000
00000000
10000000
,  // measure 50
00100000
01000000
00000000
20000000
00000000
31000000
00010000
10000000
,  // measure 51
00000000
01000000
00100000
00001000
00010000
00000000
00010010
00000000
,  // measure 52
00000110
00000000
00000100
00000001
00000020
00000000
00000130
00002000
,  // measure 53
00000000
00003010
00000000
00000200
00000000
00001300
00010000
01000000
,  // measure 54
00100000
00000000
00010000
02000000
00000000
03100000
10000000
00000000
,  // measure 55
02000000
00000000
03100000
00010000
10000000
00100000
10000000
01000000
,  // measure 56
10000000
00010000
10000000
01000000
00010000
00001000
00010000
00000100
,  // measure 57
00010000
00000000
00000010
00001000
00000100
00000100
00000010
00000010
,  // measure 58
00000002
00000000
00000103
00001000
00010000
01000000
10000000
00020000
,  // measure 59
00000000
01030000
01000000
00000000
00100000
01000000
00010000
01000000
,  // measure 60
00100000
00010000
00001000
00000010
00000100
00001000
00000001
00000000
,  // measure 61
00000011
00000000
00000010
00000001
00000000
00001000
00000010
00000000
,  // measure 62
00000110
00000101
00001001
00001100
,  // measure 63
00000100
00010000
00000000
00001000
00100000
00010000
00100000
01000000
,  // measure 64
00100000
10000000
00100000
00001000
00010000
00000000
00100000
00010000
,  // measure 65
00001000
00000000
00010000
00000000
00001000
00000010
00000100
00000010
,  // measure 66
00000001
00000100
00001000
00010000
01000000
10000000
00100000
00000000
,  // measure 67
01010000
00000000
00000000
00000000
;
