#TITLE:See The Light;
#SUBTITLE:;
#ARTIST:anubasu-anubasu;
#TITLETRANSLIT:;
#SUBTITLETRANSLIT:;
#ARTISTTRANSLIT:;
#GENRE:Hardstyle;
#CREDIT:;
#BANNER:See The Light.png;
#BACKGROUND:See The Light-bg.png;
#LYRICSPATH:;
#CDTITLE:../_YSD cdtitles/ysd br2024 cdtitle.png;
#MUSIC:See The Light.ogg;
#OFFSET:-0.313000;
#SAMPLESTART:94.709000;
#SAMPLELENGTH:25.600000;
#SELECTABLE:YES;
#BPMS:0.000000=150.000000
;
#STOPS:64.000000=0.800000,
230.000000=0.800000
;
#BGCHANGES:;
#KEYSOUNDS:;
#ATTACKS:;

//---------------dance-single - ----------------
#NOTES:
     dance-single:
     :
     Beginner:
     3:
     0.149413,0.228702,0.132480,0.041836,0.000000,150.000000,131.000000,19.000000,6.000000,0.000000,0.000000,0.149413,0.228702,0.132480,0.041836,0.000000,150.000000,131.000000,19.000000,6.000000,0.000000,0.000000:
// measure 0
0000
0000
0000
0000
,  // measure 1
0000
0000
0000
0000
,  // measure 2
0000
0000
0000
0000
,  // measure 3
0000
0000
0000
0000
,  // measure 4
0000
0000
0000
0000
,  // measure 5
1000
0000
0000
0000
,  // measure 6
0001
0000
0000
0000
,  // measure 7
0100
0000
0000
0000
,  // measure 8
0020
0000
0030
0000
,  // measure 9
1000
0000
1000
0000
,  // measure 10
0001
0000
0001
0000
,  // measure 11
1000
0000
1000
0000
,  // measure 12
0001
0000
0001
0000
,  // measure 13
0110
0000
0100
0000
,  // measure 14
0010
0000
0010
0000
,  // measure 15
1000
1000
1000
1000
,  // measure 16
0000
0000
1001
0000
,  // measure 17
0001
0000
1000
0000
,  // measure 18
0010
0000
0100
0000
,  // measure 19
0001
0000
1000
1000
,  // measure 20
1000
1000
1000
0000
,  // measure 21
0100
0000
1000
0000
,  // measure 22
0010
0000
0100
0000
,  // measure 23
0001
0000
0010
0000
,  // measure 24
0200
0300
1001
0000
,  // measure 25
1000
0000
0001
0000
,  // measure 26
0100
0000
0010
0000
,  // measure 27
0100
0000
0001
0000
,  // measure 28
1000
0000
1001
0000
,  // measure 29
0001
0000
1001
0000
,  // measure 30
1000
0000
0110
0000
,  // measure 31
0000
0000
2002
0000
,  // measure 32
0000
3003
1001
0000
,  // measure 33
0000
0000
0000
0000
,  // measure 34
0000
0000
1000
0000
,  // measure 35
0000
0000
0001
0000
,  // measure 36
0000
0000
0100
0000
,  // measure 37
0000
0000
0010
0000
,  // measure 38
0000
0000
0100
0000
,  // measure 39
0000
0000
0010
0000
,  // measure 40
0000
0000
1000
0000
,  // measure 41
0000
0000
0100
0000
,  // measure 42
0000
0000
0110
0000
,  // measure 43
0000
0000
0010
0000
,  // measure 44
0000
0000
0001
0000
,  // measure 45
0000
0000
0100
0000
,  // measure 46
0000
0000
0010
0000
,  // measure 47
0000
0000
1000
0000
,  // measure 48
0000
0000
0100
0000
,  // measure 49
0000
0000
0010
0000
,  // measure 50
0000
0000
1001
0000
,  // measure 51
0001
0000
1000
0000
,  // measure 52
1000
0000
0100
0000
,  // measure 53
0100
0000
0010
0000
,  // measure 54
0010
0000
0001
0000
,  // measure 55
1000
0000
0010
0000
,  // measure 56
0100
0000
0001
0001
,  // measure 57
0001
0001
0000
0000
,  // measure 58
1001
0000
1000
0000
,  // measure 59
0100
0000
0100
0000
,  // measure 60
0010
0000
0010
0000
,  // measure 61
0001
0000
0001
0000
,  // measure 62
0100
0000
0100
0000
,  // measure 63
0010
0000
0010
0000
,  // measure 64
1000
0000
1000
0000
,  // measure 65
0100
0000
0010
0000
,  // measure 66
1001
0000
0001
0000
,  // measure 67
0100
0000
0100
0000
,  // measure 68
0010
0000
0010
0000
,  // measure 69
1000
0000
1000
0000
,  // measure 70
0100
0000
0100
0000
,  // measure 71
0010
0000
0010
0000
,  // measure 72
0001
0000
0001
0000
,  // measure 73
0110
0000
1001
0000
,  // measure 74
0020
0000
0000
0000
,  // measure 75
0000
0030
0000
0100
,  // measure 76
0110
0000
1000
0000
,  // measure 77
0001
0000
0010
0000
,  // measure 78
1001
0000
1000
0000
,  // measure 79
0110
0000
0001
0000
,  // measure 80
1001
0000
0000
0100
,  // measure 81
0200
0000
0000
0300
,  // measure 82
0110
0000
0000
0000
;

//---------------dance-single - ----------------
#NOTES:
     dance-single:
     :
     Easy:
     8:
     0.330702,0.513011,0.495056,0.188261,0.010459,332.000000,261.000000,71.000000,27.000000,0.000000,0.000000,0.330702,0.513011,0.495056,0.188261,0.010459,332.000000,261.000000,71.000000,27.000000,0.000000,0.000000:
0000
0000
0000
0000
,
0000
0000
0000
0000
,
0000
0000
0000
0000
,
0000
0000
0000
0000
,
0000
0000
0000
0000
,
1000
0000
0000
0010
0000
0010
0000
0010
,
0000
0000
0000
0100
0000
0100
0000
0000
,
0001
0000
0000
0010
0000
0010
0000
0020
,
0000
0000
0230
0000
,
1300
0001
1000
0001
,
0100
0001
0100
0001
,
1000
0010
1000
0010
,
1000
0100
1000
0100
,
0010
0010
0001
0001
,
0100
0100
0010
0010
,
1000
1000
0100
0010
,
0000
0110
1001
2000
,
3001
0101
1001
1100
,
1000
1010
0010
2000
,
3010
0110
0100
0100
,
0101
1001
0011
0020
,
0130
1100
1001
0101
,
1001
1100
1001
0101
,
1001
0000
1100
0000
0100
0010
0100
0000
,
2000
0000
3001
0101
,
0100
0110
0010
1010
,
1000
1001
0001
0011
,
0010
0110
0100
1100
,
1000
0000
0001
1000
0001
0000
0101
0000
,
0100
1001
0010
1001
,
0100
0000
1010
0000
1001
0000
0000
1001
,
0000
0110
1001
1000
,
0001
0101
0200
0000
,
0000
0000
0000
0000
,
0000
0000
0301
0000
,
1001
0000
1000
0100
,
0110
0000
0010
0000
,
1001
0000
0001
0100
,
0110
0000
0010
0000
,
1001
0000
1000
0100
,
0110
0000
0001
0000
,
1001
0000
0001
0100
,
0110
0000
1001
0000
,
1000
0200
0000
0310
,
0011
0000
0001
0001
,
0100
0100
0010
0010
,
1000
1000
0001
0000
,
0010
0200
0000
1300
,
1001
0000
0001
0001
,
0010
0010
0100
0100
,
1000
0000
1000
0001
1000
0000
0000
0001
,
0000
0001
0000
0001
0000
0000
0000
1000
,
0000
0000
0010
0000
0100
0000
0000
0001
,
0000
0001
0000
0001
0000
0000
0000
1000
,
0000
0100
0010
0010
,
0001
0001
1000
1000
,
0010
0010
0100
0100
,
0001
0001
0000
0110
,
2010
0010
0001
0001
,
3200
1000
1000
1000
,
0320
0001
0001
0001
,
0230
0001
0010
1000
,
0320
0001
0100
0100
,
0032
0100
0100
0100
,
2003
0100
0100
0100
,
3010
0100
0101
0000
,
1002
1000
0010
0010
,
0203
0010
0010
0010
,
0302
0010
0010
0010
,
0203
1000
0010
0001
,
0320
1000
0100
0100
,
2030
0001
0010
0100
,
3001
0101
1000
1100
,
0110
0011
0202
0303
,
2020
0000
0000
0000
,
3030
0000
0000
0000
0000
0000
0000
1010
0000
0000
0000
0000
1001
0000
0000
0000
,
1001
0100
1001
0010
,
0100
0011
0100
1001
,
1010
0000
0000
0000
1001
0000
0000
0000
0000
0100
0000
0000
0010
0000
0000
0000
,
1001
0000
0000
0000
0110
0000
0000
0000
0000
1001
0000
0000
0000
0000
0000
0000
,
1100
0000
0000
0110
0000
0000
0011
0000
,
0102
0000
0000
0003
;

//---------------dance-single - ----------------
#NOTES:
     dance-single:
     :
     Medium:
     11:
     0.411385,0.457404,0.104589,0.132480,0.146425,413.000000,398.000000,15.000000,19.000000,0.000000,0.000000,0.411385,0.457404,0.104589,0.132480,0.146425,413.000000,398.000000,15.000000,19.000000,0.000000,0.000000:
0000
0000
0000
0000
,
0000
0000
0000
0000
,
0000
0000
0000
0000
,
0000
0000
0000
0000
,
0000
0000
0000
0000
,
2000
0000
3001
0100
0000
0100
0000
0100
,
0000
0000
0000
0200
0300
0100
0002
0000
,
2003
0000
3100
0010
0000
0010
0000
0010
,
0200
0000
0302
0000
,
0103
1000
0001
1000
,
0100
0000
0010
0000
0001
1000
0100
0000
,
0010
0001
0010
0100
,
0010
0000
0001
0000
1000
0010
1000
0000
,
0001
0010
0001
0000
1000
0010
1000
0000
,
0001
0100
0001
0000
1000
0100
1000
0000
,
0001
0100
0001
0100
0010
1000
0010
1000
,
0000
0110
1001
0011
,
0001
1000
0010
0000
0101
0000
0100
0001
,
1000
0001
0200
0000
0301
0000
1001
0000
,
1000
0100
0010
0000
0100
0001
0100
0010
,
0001
1000
0010
0100
0001
0000
1001
0000
,
1000
0010
0100
0000
0101
0000
0001
1000
,
0100
0010
0200
0000
1300
0000
1001
0000
,
0001
0100
0010
0000
1000
0010
0001
0010
,
2000
0000
0000
0000
3200
0000
0000
0000
0310
0000
0000
0000
0001
0000
0000
0001
,
0000
0000
1000
0000
1000
0000
0000
0000
0010
0000
0000
0010
0000
0000
0100
0000
,
0000
0100
0000
0000
0001
0000
0001
0000
1000
0000
0000
0000
0100
0000
0000
0100
,
0000
0000
0010
0000
0010
0000
0000
0000
0001
0000
0000
0001
0000
0000
1000
0000
,
0000
1000
0000
0000
0010
0000
0010
0000
0100
0000
0000
0000
0001
0000
0000
0001
,
0000
0000
1000
0000
0100
0000
0000
0000
0010
0000
0000
0010
0000
0000
0001
0000
,
0000
1000
0000
0000
0020
0000
0000
0000
0130
0000
0000
0001
0000
0000
1000
0000
,
0000
0100
0000
0000
0010
0000
0001
0000
1000
0000
0010
0000
0100
0000
1000
0000
,
0100
0001
1000
0100
0020
0000
0000
0000
,
0000
0000
0000
0000
,
0000
0000
0000
0000
0031
0000
0001
0100
,
0000
0001
0000
1000
0000
0100
0000
0010
,
0001
1000
0000
0001
0100
0000
0001
1000
,
0000
0100
0000
0010
0000
0100
0000
1000
,
0010
0100
0001
0000
1000
0000
0100
0010
,
0000
0100
0000
1000
0000
0010
0000
0100
,
0001
1000
0000
0100
0010
0000
0001
0100
,
0000
0001
0000
0010
0000
0100
0000
1000
,
0010
0100
0001
0000
1001
0000
1000
0000
,
0100
0010
0100
2000
0000
0000
0000
0000
,
3010
0000
0100
0001
0010
0000
0010
0000
,
0010
0100
1000
0100
0000
0000
0010
0001
,
0010
0100
1000
1000
,
0001
0100
0010
0200
0000
0000
0000
0000
,
0301
0000
1000
0010
0100
0000
0100
0000
,
0100
0001
1000
0100
0000
0000
0010
0000
,
0001
1000
0001
1000
0001
0000
0001
0000
,
0100
0100
0010
0010
,
1000
0001
1000
0100
,
1000
0001
1000
0010
,
1000
0000
0100
0000
0010
0001
0010
0000
,
0001
1000
0001
0000
1000
0010
1000
0000
,
0001
0100
0001
0000
0010
0100
1000
0010
,
0100
0001
0010
0100
0000
0000
0110
0000
,
1001
0000
0001
0100
0001
1000
0100
0010
,
0000
0000
0010
0000
0000
0000
0100
0000
1000
0000
0000
0001
0000
0000
0100
0000
,
0001
0000
0000
1000
0000
0000
0100
0000
1000
0000
0000
0001
0000
0000
0010
0000
,
0001
0000
0000
1000
0000
0000
0010
0000
1000
0000
0000
0001
0000
0000
0010
0000
,
0100
0000
1000
0010
1000
0100
0010
0001
,
0000
0000
0100
0000
0000
0000
0001
0000
1000
0000
0000
0100
0000
0000
1000
0000
,
0001
0000
0000
0010
0000
0000
0001
0000
1000
0000
0000
0010
0000
0000
0100
0000
,
0001
0000
0000
0010
0000
0000
0100
0000
0001
0000
0000
0100
0000
0000
1000
0000
,
0001
0000
0100
0001
0100
0010
1000
0001
,
0000
0000
0010
0000
0000
0000
0100
0000
0010
0000
0000
0001
0000
0000
1000
0000
,
0010
0000
0000
0100
0000
0000
0001
0000
1000
0000
0000
0100
0000
0000
0010
0000
,
0001
0000
0000
0010
0000
0000
0100
0000
1000
0000
0000
0010
0000
0000
0100
0000
,
0001
0000
1000
0100
0010
0100
1000
0010
,
0000
0000
0100
0000
0000
0000
0001
0000
1000
0000
0000
0100
0000
0000
0010
0000
,
0001
0000
0000
0100
0000
0000
0010
0000
1000
0000
0000
0001
0000
0000
0010
0000
,
0100
0000
0000
1000
0000
0000
0010
0000
2020
0000
0000
0000
3030
0000
0000
0000
,
2002
0000
0000
0000
,
3003
0000
0000
0000
0000
0000
0000
0100
0000
0100
0000
0000
1001
0000
0001
0000
,
1000
0000
0000
0000
0100
0000
0000
0010
0000
0100
0000
0000
1000
0000
0001
0000
,
0100
0000
0001
0000
1000
0000
0000
0100
0000
0010
0000
0000
0001
0000
0100
0000
,
1000
0000
0100
0000
0010
0000
0000
0100
0000
0100
0000
0000
1000
0000
0100
0000
,
0001
0000
0001
0000
0001
0000
0000
0010
0000
0010
0000
0000
0100
0000
0001
0000
,
0100
0000
0000
1000
0000
0000
0001
0000
0000
0100
0000
0000
0010
0000
1000
0000
,
0200
0000
0000
0310
,
1001
0000
0000
0000
;

//---------------dance-single - ----------------
#NOTES:
     dance-single:
     :
     Hard:
     14:
     0.611599,0.800457,0.460193,0.432303,0.477625,614.000000,548.000000,66.000000,62.000000,0.000000,0.000000,0.611599,0.800457,0.460193,0.432303,0.477625,614.000000,548.000000,66.000000,62.000000,0.000000,0.000000:
0000
0000
0000
0000
,
0000
0000
0000
0000
,
0000
0000
0000
0000
,
0000
0000
0000
0000
,
0000
0000
0000
0000
,
2000
0000
3010
0100
0000
0100
0000
0100
,
0000
0000
0000
0200
0300
0100
0002
0000
,
2003
0000
3100
0010
0000
0010
0000
0010
,
0002
0000
0000
0103
1000
0100
0010
1000
,
2001
0000
3001
0010
0100
0010
0100
0010
,
0001
0000
1000
0001
1000
0001
0200
0000
,
0320
0000
1030
0001
0010
0001
0010
0001
,
0100
0000
0000
0000
0010
0000
1000
0001
1000
0000
0001
0000
0001
0000
0010
0000
,
0100
1000
0100
1000
0001
0100
0001
0100
,
0010
0010
1000
1000
0001
0001
0010
0010
,
0100
1000
0100
0000
0010
0000
0001
0000
1000
0001
1000
0000
0001
0100
0001
0100
,
0000
0110
1001
1020
,
0130
0000
0001
0000
0012
0000
0000
0000
0013
0200
0000
0000
1300
0000
0001
0000
,
0100
0001
0100
0000
0010
0000
1000
0000
1001
0000
0000
0000
1200
0000
0000
0000
,
0310
0000
0001
0000
0101
0000
0000
0000
0011
0000
0010
0000
0100
1000
0100
0000
,
1000
0001
1000
0000
0010
0000
0100
0001
0100
0000
0000
0000
0201
0000
0000
0000
,
0310
0000
1000
0000
1200
0000
0000
0000
0310
0002
0000
0000
0103
0000
0001
0000
,
1000
0100
1000
0000
0010
0000
0100
0000
0101
0000
0000
0000
0021
0000
0000
0000
,
0130
0000
1000
0000
1002
0000
0000
0000
1003
0000
0010
0100
0001
0000
0010
0100
,
2000
0000
0000
0000
0020
0000
3030
0000
0201
0000
0000
0000
0010
0000
0000
0010
,
0000
0000
1000
0000
1000
0000
0000
0000
0302
0000
0000
0100
0000
0000
1000
0000
,
0000
1000
0000
0000
0013
0000
0100
0000
1200
0000
0000
0000
0010
0000
0000
0010
,
0000
0000
0001
0000
0001
0000
0000
0000
2300
0000
0000
0100
0000
0000
0001
0000
,
0000
0001
0000
0000
3010
0100
0010
0000
0101
0000
0000
0000
0100
0000
0001
0100
,
0000
0100
0001
0000
1000
0000
0000
0000
1100
0000
0100
1000
0000
1000
0001
0000
,
0100
0001
0000
0001
2000
0000
0000
0000
3100
0000
0100
1000
0000
1000
0010
0000
,
0010
0100
0000
0100
0001
0000
1000
0000
0001
0100
0001
0100
0001
0100
0001
0100
,
0010
1000
0010
1000
0001
0010
0001
0010
0200
0000
0000
0000
0000
0000
0000
0000
,
0000
0000
0000
0000
,
0000
0000
0000
0000
2300
0000
3001
0100
,
0000
0010
1000
0100
0000
1000
1000
0001
,
0100
0001
0001
0010
0200
0000
1300
0001
,
0000
0100
0001
0010
0000
0001
0001
0100
,
1000
0100
0001
0010
0200
0000
1300
0001
,
0000
0100
0001
0010
0000
0100
0100
1000
,
0010
0100
0100
0001
0200
0000
0301
0010
,
0000
0001
0100
0010
0000
1000
1000
0100
,
0001
0100
1000
0001
0101
0000
0100
0001
,
1000
0100
0010
0002
0000
0000
0100
0000
,
0013
0001
1000
0010
0100
0000
0100
0000
,
0100
0001
0010
0100
0000
0100
0010
0100
,
0010
1000
0020
0000
0130
0000
0100
0001
,
0100
0010
0001
2000
0000
0000
0100
0000
,
3010
0100
0001
1000
0100
0000
0100
0000
,
0100
1000
0001
0100
0000
0100
0000
0001
,
1000
0000
0001
1000
0001
1000
0001
1000
0001
0000
0000
0000
0001
0000
0100
0000
,
0001
0010
0100
1000
0000
1000
0000
0001
,
0010
0000
0000
0001
0000
0000
1000
0000
0010
0000
0000
1000
0000
0000
0001
0000
,
0100
0000
0000
0001
0000
0000
1000
0000
0100
0000
0000
1000
0000
0000
0001
0000
,
0100
0000
0000
0010
0000
0000
1000
0000
0001
0000
0010
0000
0001
0000
0010
0000
,
0100
1000
0100
1000
0001
0100
0010
1000
,
0100
0000
0010
0000
0001
0000
1000
0000
0010
1000
0010
1000
0010
1000
0010
1000
,
0001
0010
0001
0010
0001
0010
0001
0010
0000
0000
0000
0000
0110
0000
0000
0000
,
1001
0000
1010
0010
0100
0001
0010
0001
,
0101
0000
0000
0000
0000
0000
0000
0000
0001
0000
0000
0000
0000
0000
0000
0000
0000
0000
0000
0000
0000
0000
0000
0000
1000
0000
0000
0000
0000
0000
0000
0000
1010
0000
0000
0000
0000
0000
0000
0000
1000
0000
0000
0000
0200
0300
0000
0000
0000
0000
0000
0000
0200
0300
0000
0000
0001
0000
0000
0000
0000
0000
0000
0000
,
1000
0000
0000
0000
0000
0000
0000
0000
0001
0000
0000
0000
0200
0300
0000
0000
0000
0000
0000
0000
0200
0300
0000
0000
1000
0000
0000
0000
0000
0000
0000
0000
0001
0000
0000
0000
0000
0000
0000
0000
1000
0000
0000
0000
0020
0030
0000
0000
0000
0000
0000
0000
0020
0030
0000
0000
0001
0000
0000
0000
0000
0000
0000
0000
,
1000
0000
0000
0000
0000
0000
0000
0000
0001
0000
0000
0000
0020
0030
0000
0000
0000
0000
0000
0000
0020
0030
0000
0000
1000
0000
0000
0000
0000
0000
0000
0000
0001
0000
0000
0000
0000
0000
0000
0000
1000
0000
0000
0000
0010
0000
0000
0000
0100
0000
0000
0000
0000
0000
0000
0000
0001
0000
0000
0000
0000
0000
0000
0000
,
0011
0000
0011
0010
1000
0010
0100
1000
,
1100
0000
0000
0000
0000
0000
0000
0000
1000
0000
0000
0000
0000
0000
0000
0000
0000
0000
0000
0000
0000
0000
0000
0000
0001
0000
0000
0000
0000
0000
0000
0000
0101
0000
0000
0000
0000
0000
0000
0000
0001
0000
0000
0000
0200
0300
0000
0000
0000
0000
0000
0000
0200
0300
0000
0000
1000
0000
0000
0000
0000
0000
0000
0000
,
0010
0000
0000
0000
0000
0000
0000
0000
1000
0000
0000
0000
0200
0300
0000
0000
0000
0000
0000
0000
0200
0300
0000
0000
0001
0000
0000
0000
0000
0000
0000
0000
1000
0000
0000
0000
0000
0000
0000
0000
0001
0000
0000
0000
0020
0030
0000
0000
0000
0000
0000
0000
0020
0030
0000
0000
1000
0000
0000
0000
0000
0000
0000
0000
,
0100
0000
0000
0000
0000
0000
0000
0000
1000
0000
0000
0000
0020
0030
0000
0000
0000
0000
0000
0000
0020
0030
0000
0000
0100
0000
0000
0000
0000
0000
0000
0000
0001
0000
0000
0000
0000
0000
0000
0000
0100
0000
0000
0000
0010
0000
0000
0000
0000
0000
0000
0000
0001
0000
0000
0000
1000
0000
0000
0000
0000
0000
0000
0000
,
1010
0000
1010
0010
0100
0001
0010
0100
,
1100
0000
0000
0000
0000
0000
0000
0000
0100
0000
0000
0000
0000
0000
0000
0000
0000
0000
0000
0000
0000
0000
0000
0000
1000
0000
0000
0000
0000
0000
0000
0000
1001
0000
0000
0000
0000
0000
0000
0000
0001
0000
0000
0000
0200
0300
0000
0000
0000
0000
0000
0000
0200
0300
0000
0000
1000
0000
0000
0000
0000
0000
0000
0000
,
1001
0000
0000
0000
0000
0000
0000
0000
1000
0000
0000
0000
0200
0300
0000
0000
0000
0000
0000
0000
0200
0300
0000
0000
0001
0000
0000
0000
0000
0000
0000
0000
1001
0000
0000
0000
0000
0000
0000
0000
0001
0000
0000
0000
0020
0030
0000
0000
0000
0000
0000
0000
0020
0030
0000
0000
1000
0000
0000
0000
0000
0000
0000
0000
,
1001
0000
0000
0000
0000
0000
0000
0000
1000
0000
0000
0000
0020
0030
0000
0000
0000
0000
0000
0000
0020
0030
0000
0000
0001
0000
0000
0000
0000
0000
0000
0000
1001
0000
0000
0000
0000
0000
0000
0000
1000
0000
0000
0000
0010
0000
0000
0000
0100
0000
0000
0000
0000
0000
0000
0000
0001
0000
0000
0000
0000
0000
0000
0000
,
1001
0000
1001
0001
0100
1000
0100
0010
,
0110
0000
0010
0000
0000
0000
0100
0000
0101
0000
0001
0100
0010
0100
0001
0000
,
1001
0000
0000
0000
0000
0000
0000
0000
1000
0000
0000
0000
0200
0300
0000
0000
0000
0000
0000
0000
0200
0300
0000
0000
0001
0000
0000
0000
0000
0000
0000
0000
0101
0000
0000
0000
0000
0000
0000
0000
0000
0000
0000
0000
0101
0000
0000
0000
0000
0000
0000
0000
0000
0000
0000
0000
0101
0000
0000
0000
0000
0000
0000
0000
,
1001
0000
0000
1001
0000
0000
1001
0000
2020
0000
0000
0000
0030
0000
0000
0000
,
0002
0000
0000
0000
,
0000
0000
0000
0000
3003
0000
0000
1100
0000
1100
0000
1000
0001
0000
0101
0000
,
0101
0000
0100
0000
0010
1000
0100
0010
0000
0010
0000
0001
0100
0000
0010
0000
,
1010
0000
1000
0000
0001
0100
0001
0010
0000
0010
0000
0001
0100
0010
0001
0000
,
0010
0000
1000
0000
1010
0000
0010
0100
0000
0101
0000
0000
1010
0000
1001
0000
,
1100
0000
1100
0000
1000
0100
1000
0010
0000
1010
0000
1000
0001
0000
0011
0000
,
1001
0000
0000
1001
0000
0000
1010
0000
0000
1010
0000
0000
1000
0100
0010
0001
,
0200
0000
0000
0310
,
1001
0000
0000
0000
;

//---------------dance-double - ----------------
#NOTES:
     dance-double:
     :
     Beginner:
     4:
     0.161366,0.254152,0.097617,0.020918,0.000000,162.000000,148.000000,14.000000,3.000000,0.000000,0.000000,0.161366,0.254152,0.097617,0.020918,0.000000,162.000000,148.000000,14.000000,3.000000,0.000000,0.000000:
00000000
00000000
00000000
00000000
,
00000000
00000000
00000000
00000000
,
00000000
00000000
00000000
00000000
,
00000000
00000000
00000000
00000000
,
00000000
00000000
00000000
00000000
,
00001000
00000000
00000000
00000000
,
00010000
00000000
00000000
00000000
,
00000100
00000000
00000000
00000000
,
00001000
00000000
00000000
00000000
,
00000001
00000000
00000001
00000000
,
00001000
00000000
00001000
00000000
,
00000010
00000000
00000010
00000000
,
00001000
00000000
00001000
00000000
,
00000010
00000000
00010000
00000000
,
00001000
00000000
00100000
00000000
,
00010000
00010000
00010000
00010000
,
00000000
00000000
10010000
00000000
,
10000000
00000000
00100000
00000000
,
01000000
01000000
01000000
00000000
,
00001000
00000000
00010000
00010000
,
00010000
00000000
00001000
00000000
,
00010000
00000000
00000100
00000000
,
00000010
00000010
00000010
00000000
,
00000001
00000000
00001000
00001000
,
00002000
00003000
00001001
00000000
,
00000001
00000000
00001000
00000000
,
00000010
00000000
00010000
00000000
,
00001000
00000000
00100000
00000000
,
01000000
01000000
01000000
00000000
,
10000000
00000000
00010000
00000000
,
01000000
00000000
00001000
00000000
,
00010000
00000000
00000100
00000100
,
00000100
00000100
00000200
00000000
,
00000000
00000000
00000000
00000000
,
00000300
00000000
00000001
00000000
,
00000000
00000000
00000100
00000000
,
00000000
00000000
00000010
00000000
,
00000000
00000000
00010000
00000000
,
00000000
00000000
00001000
00000000
,
00000000
00000000
00100000
00000000
,
00000000
00000000
00010000
00000000
,
00000000
00000000
10000000
00000000
,
00000000
00000000
01100000
00000000
,
00000000
00000000
00010000
00000000
,
00000000
00000000
10000000
00000000
,
00000000
00000000
01000000
00000000
,
00000000
00000000
00100000
00000000
,
00000000
00000000
00010000
00000000
,
00000000
00000000
01000000
00000000
,
00000000
00000000
00001000
00000000
,
00000000
00000000
00011000
00000000
,
00010000
00000000
00010000
00000000
,
00000100
00000000
00000100
00000000
,
00000010
00000000
00000010
00000000
,
00000100
00000000
00000100
00000000
,
00001000
00000000
00001000
00000000
,
00000001
00000000
00000001
00000001
,
00000001
00000001
00000000
00000000
,
00001001
00000000
00001000
00000000
,
00000100
00000000
00010000
00010000
,
00010000
00000000
00001000
00001000
,
00001000
00000000
01000000
01000000
,
01000000
00000000
00010000
00000000
,
10000000
00000000
01000000
01000000
,
01000000
00000000
00100000
00100000
,
00100000
00000000
01100000
00000000
,
01100000
00000000
00100000
00000000
,
00001000
00001000
00001000
00000000
,
00010000
00010000
00010000
00000000
,
00000010
00000010
00000010
00000000
,
00001000
00000000
00000001
00000000
,
00001000
00000000
00000100
00000100
,
00000100
00000000
00000110
00000000
,
00000110
00000000
00001001
00000000
,
00000002
00000000
00000000
00000000
,
00000003
00000000
00001001
00000000
,
00001001
00000000
00001000
00000000
,
00000010
00000000
00010000
00010000
,
00010000
00000000
00001000
00000000
,
00100000
00000000
01000000
01000000
,
01000000
00000000
01100000
00000000
,
10010000
00000000
00000000
00000000
;

//---------------dance-double - ----------------
#NOTES:
     dance-double:
     :
     Easy:
     8:
     0.310780,0.400229,0.369549,0.216151,0.010459,312.000000,259.000000,53.000000,31.000000,0.000000,0.000000,0.310780,0.400229,0.369549,0.216151,0.010459,312.000000,259.000000,53.000000,31.000000,0.000000,0.000000:
00000000
00000000
00000000
00000000
,
00000000
00000000
00000000
00000000
,
00000000
00000000
00000000
00000000
,
00000000
00000000
00000000
00000000
,
00000000
00000000
00000000
00000000
,
00010000
00000000
00000000
00000100
00000000
00000100
00000000
00000100
,
00000000
00000000
00000000
00001000
00000000
00001000
00000000
00000000
,
00000010
00000000
00000000
00001000
00000000
00001000
00000000
00002000
,
00000000
00000000
00003001
00000000
,
00000010
00000100
00000010
00000100
,
00010000
00000100
00010000
00000100
,
00010000
00001000
00010000
00001000
,
00100000
00001000
00100000
00001000
,
01000000
00010000
10000000
01000000
,
00100000
00100000
00001000
00001000
,
00010000
00010000
00000100
00000100
,
00000000
00001100
00000011
00002000
,
00003010
00001010
00020000
00031000
,
00101000
00120000
10030000
00200000
,
01300000
01010000
00011000
00001100
,
00001000
00001001
00000001
00000200
,
00000310
00001010
00001100
00011000
,
00001000
00201000
00310000
02000000
,
03010000
00000000
10010000
00000000
10000000
00010000
10000000
00000000
,
02000000
03000000
00100000
00100000
,
00001000
00001000
00010000
00010000
,
00010100
00010100
00000100
00000100
,
00001000
00001000
00001010
00001010
,
00001001
00001001
00000001
00000001
,
00000010
00000010
00001100
00001100
,
00010000
00000000
00010000
00000000
00011000
00000000
00000000
00101000
,
00000000
00011000
00010010
00010000
,
00000010
00001000
00002002
00000000
,
00000000
00000000
00000000
00000000
,
00003000
00000000
00000103
00000000
,
00001010
00000000
00000010
00010000
,
00011000
00000000
00001000
00000000
,
00101000
00000000
00100000
00010000
,
10010000
00000000
10000000
00000000
,
10100000
00000000
00100000
01000000
,
01010000
00000000
00010000
00000000
,
00110000
00000000
00100000
00001000
,
00011000
00000000
00010100
00000000
,
00010000
00002000
00000000
00013000
,
00011000
00000000
00001000
00001000
,
00000010
00000000
00000000
00001000
00000000
00001000
00000000
00000000
,
00010000
00000010
00001000
00000000
,
00000001
00000200
00000000
00000310
,
00001010
00000000
00001000
00001000
,
00000100
00000000
00000000
00010000
00000000
00010000
00000000
00000000
,
00002000
00000000
00000000
00000000
00103000
00000000
00000000
00010000
,
00000000
00010000
00000000
00010000
00000000
00000000
00000000
01000000
,
00000000
01000000
00000000
00000000
00100000
00000000
00000000
10000000
,
00000000
10000000
00000000
10000000
00000000
00000000
01000000
00000000
,
01000000
01000000
00100000
00001000
,
00010000
00000010
00001000
00000100
,
00000010
00000001
00000100
00000010
,
00010000
00001000
00000000
00011000
,
00102000
00100000
00010000
00010000
,
02003000
00001000
00001000
00010000
,
03200000
10000000
10000000
10000000
,
02300000
00010000
10000000
10000000
,
03002000
01000000
00010000
00010000
,
00203000
00001000
00001000
00001000
,
00302000
00010000
00010000
00010000
,
00003010
00001000
00010000
00000000
,
00021000
00001000
00000010
00000010
,
00030200
00001000
00001000
00001000
,
00002300
00000010
00000010
00000010
,
00003200
00000010
00000001
00000001
,
00020300
00001000
00100000
00100000
,
00032000
00010000
00010000
00010000
,
01003000
00100000
00010000
00001000
,
00010000
00001000
00000020
00000000
,
00002030
00000000
00000000
00000000
,
00000000
00000000
00000000
00000000
00000000
00000000
00000000
00013000
00000000
00000000
00000000
00000000
00001000
00000000
00000000
00000000
,
00010000
00011000
00000100
00011000
,
01000000
00011000
00100000
00011000
,
00000010
00000000
00000000
00000000
00001010
00000000
00000000
00000000
00000000
00001000
00000000
00000000
00001001
00000000
00000000
00000000
,
00000001
00000000
00000000
00000000
00000011
00000000
00000000
00000000
00000000
00000110
00000000
00000000
00000000
00000000
00000000
00000000
,
00001001
00000000
00000000
00001100
00000000
00000000
00011000
00000000
,
00201000
00000000
00000000
00320000
,
01030000
00000000
00000000
00000000
;

//---------------dance-double - ----------------
#NOTES:
     dance-double:
     :
     Medium:
     11:
     0.399432,0.428816,0.083672,0.132480,0.139453,401.000000,389.000000,12.000000,19.000000,0.000000,0.000000,0.399432,0.428816,0.083672,0.132480,0.139453,401.000000,389.000000,12.000000,19.000000,0.000000,0.000000:
00000000
00000000
00000000
00000000
,
00000000
00000000
00000000
00000000
,
00000000
00000000
00000000
00000000
,
00000000
00000000
00000000
00000000
,
00000000
00000000
00000000
00000000
,
00020000
00000000
00031000
00010000
00000000
00010000
00000000
00010000
,
00000000
00000000
00000000
00020000
00030000
00010000
00002000
00000000
,
00203000
00000000
00310000
01000000
00000000
01000000
00000000
01000000
,
00200000
00000000
20300000
00000000
,
31000000
00100000
00001000
00010000
,
00000010
00001000
00000001
00000010
,
00000100
00010000
00001000
00100000
,
00001000
01000000
00010000
10000000
,
01000000
10000000
01000000
00000000
00100000
00000000
00001000
00100000
,
00001000
00000000
00010000
00000000
00000010
00010000
00000010
00000000
,
00001000
00000010
00001000
00000010
00000100
00000001
00000100
00000001
,
00000000
00000110
00001010
00011000
,
00001000
00100000
00010000
00000000
10010000
00000000
10000000
00010000
,
01000000
00000000
00010000
00010000
00100000
00000000
00011000
00000000
,
00000010
00010000
00002000
00000000
00013000
00010000
00000200
00000000
,
00001300
00001000
00000002
00000000
00000103
00000000
00001010
00000000
,
00001000
00000010
00010000
00000000
00001000
00100000
00010000
00000000
,
10000000
10000000
00200000
00000000
01300000
00000000
01010000
00000000
,
00010000
01000000
00001000
00000000
00010000
00010000
00001000
00001000
,
00020000
00000000
00000000
00000000
00030020
00000000
00000000
00000000
00001030
00000000
00000000
00000000
00000010
00000000
00000000
00000010
,
00000000
00000000
00000100
00000000
00000100
00000000
00000000
00000000
00000001
00000000
00000000
00000001
00000000
00000000
00000010
00000000
,
00000000
00000010
00000000
00000000
00000100
00000000
00000100
00000000
00001000
00000000
00000000
00000000
00000010
00000000
00000000
00000010
,
00000000
00000000
00010000
00000000
00010000
00000000
00000000
00000000
00001000
00000000
00000000
00001000
00000000
00000000
00100000
00000000
,
00000000
00100000
00000000
00000000
00010000
00000000
00010000
00000000
10000000
00000000
00000000
00000000
00100000
00000000
00000000
00100000
,
00000000
00000000
01000000
00000000
01000000
00000000
00000000
00000000
00010000
00000000
00000000
00010000
00000000
00000000
00100000
00000000
,
00000000
00100000
00000000
00000000
00001000
00000000
00000000
00000000
00010000
00000000
00000000
00001000
00000000
00000000
00000010
00000000
,
00000000
00001000
00000000
00000000
00010000
00000000
00000010
00000000
00001000
00000000
00000001
00000000
00000100
00000000
00000000
00000000
,
00000010
00000100
00001000
00000000
00020000
00000000
00000000
00000000
,
00000000
00000000
00000000
00000000
,
00000000
00000000
00000000
00000000
00031000
00000000
00010000
00001000
,
00000000
00100000
00000000
00010000
00000000
10000000
00000000
00100000
,
01000000
00010000
00000000
00000000
00100000
00000000
00001000
00010000
,
00000000
00000010
00000000
00001000
00000000
00000001
00000000
00000100
,
00000010
00000000
00001000
00000000
00000100
00000000
00010000
00000100
,
00000000
00010000
00000000
00001000
00000000
01000000
00000000
00010000
,
01000000
00000000
00000000
00000000
00100000
00000000
10000000
00010000
,
00000000
00100000
00000000
01000000
00000000
00100000
00000000
00001000
,
00010000
00001000
00010000
00001000
,
00010000
00000010
00001000
00000200
00000000
00000000
00010300
00000000
,
00011000
00001000
00000010
00000010
,
00001000
00010000
00001000
00000010
00000000
00000010
00000000
00000010
,
00000001
00001000
00000020
00000000
00000130
00000000
00000010
00000000
,
00010000
00001000
00100000
02000000
00000000
00000000
13000000
00000000
,
10010000
00010000
01000000
01000000
,
00100000
00010000
00001000
00010000
00000000
00010000
00000000
00010000
,
00001000
00010000
00001000
00010000
00000100
00000000
00001000
00000000
,
00000010
00000100
00000001
00000010
,
00000100
00010000
00001000
01000000
,
00100000
10000000
01000000
00010000
,
00001000
00000000
00000010
00000000
00000001
00000010
00000001
00000000
,
00001000
00000001
00001000
00000000
00000010
00010000
00000010
00000000
,
00010000
00001000
00010000
00000000
00001000
00100000
00001000
00100000
,
00010000
00100000
00010000
10000000
00000000
00000000
01100000
00000000
,
10010000
00000000
10000000
00100000
10000000
01000000
00100000
00010000
,
00000000
00000000
01000000
00000000
00000000
00000000
00001000
00000000
00010000
00000000
00000000
00000010
00000000
00000000
00010000
00000000
,
00001000
00000000
00000000
00100000
00000000
00000000
00001000
00000000
00010000
00000000
00000000
00000100
00000000
00000000
00010000
00000000
,
00001000
00000000
00000000
00100000
00000000
00000000
00001000
00000000
00010000
00000000
00000000
00000000
00000010
00000000
00000010
00000000
,
00001000
00000000
00001000
00000010
00000001
00000010
00000100
00000001
,
00000000
00000000
00000001
00000000
00000000
00000000
00000010
00000000
00000100
00000000
00000000
00010000
00000000
00000000
00001000
00000000
,
00100000
00000000
00000000
00001000
00000000
00000000
00010000
00000000
00000010
00000000
00000000
00010000
00000000
00000000
00001000
00000000
,
01000000
00000000
00000000
00001000
00000000
00000000
00010000
00000000
00100000
00000000
00000000
10000000
00000000
00000000
01000000
00000000
,
00100000
00000000
00010000
01000000
00010000
00100000
01000000
10000000
,
00000000
00000000
00100000
00000000
00000000
00000000
01000000
00000000
00001000
00000000
00000000
00010000
00000000
00000000
00001000
00000000
,
00010000
00000000
00000000
00000100
00000000
00000000
00000010
00000000
00000100
00000000
00000000
00001000
00000000
00000000
00000100
00000000
,
00010000
00000000
00000000
00000010
00000000
00000000
00000100
00000000
00000001
00000000
00000000
00000000
00000100
00000000
00000100
00000000
,
00000010
00000000
00000100
00001000
00010000
00000010
00001000
00000100
,
00000000
00000000
00000100
00000000
00000000
00000000
00010000
00000000
00001000
00000000
00000000
01000000
00000000
00000000
00100000
00000000
,
00010000
00000000
00000000
00001000
00000000
00000000
00100000
00000000
01000000
00000000
00000000
00010000
00000000
00000000
00001000
00000000
,
00100000
00000000
00000000
00001000
00000000
00000000
00010000
00000000
00200000
00000000
00000000
00000000
00000000
00000000
00000000
00000000
,
20300000
00000000
00000000
00000000
,
00000000
00000000
00000000
00000000
30000000
00000000
00000000
01000000
00000000
01000000
00000000
00000000
10000000
00000000
10000000
00000000
,
00100000
00000000
01000000
00000000
00010000
00000000
00000000
00100000
00000000
00100000
00000000
00000000
00001000
00000000
00010000
00000000
,
00000100
00000000
00001000
00000000
00000001
00000000
00000000
00000100
00000000
00000100
00000000
00000000
00000010
00000000
00000100
00000000
,
00001000
00000000
00010000
00000000
00100000
00000000
00000000
01000000
00000000
01000000
00000000
00000000
10000000
00000000
01000000
00000000
,
00010000
00000000
00010000
00000000
00100000
00000000
00000000
01000000
00000000
01000000
00000000
00000000
00010000
00000000
01000000
00000000
,
10000000
00000000
00000000
10000000
00000000
00000000
00010000
00000000
00000000
00010000
00000000
00000000
01000000
00000000
00001000
00000000
,
00020000
00000000
00000000
00030100
,
00010100
00000000
00000000
00000000
;

//---------------dance-double - ----------------
#NOTES:
     dance-double:
     :
     Hard:
     14:
     0.538884,0.657519,0.216151,0.257987,0.317254,541.000000,510.000000,31.000000,37.000000,0.000000,0.000000,0.538884,0.657519,0.216151,0.257987,0.317254,541.000000,510.000000,31.000000,37.000000,0.000000,0.000000:
00000000
00000000
00000000
00000000
,
00000000
00000000
00000000
00000000
,
00000000
00000000
00000000
00000000
,
00000000
00000000
00000000
00000000
,
00000000
00000000
00000000
00000000
,
00020000
00000000
00031000
00010000
00000000
00010000
00000000
00010000
,
00000000
00000000
00000000
00020000
00030000
00010000
00002000
00000000
,
00203000
00000000
00310000
10000000
00000000
10000000
00000000
10000000
,
02000000
00000000
03200000
00000000
,
00310000
00000000
01000000
00010000
00100000
00010000
00100000
00010000
,
00100000
00000000
00001000
00010000
00001000
00010000
00000100
00000000
,
00000010
00000000
00000001
00001000
00000001
00001000
00000001
00001000
,
00000010
00000000
00000100
00000010
00001000
00000010
00001000
00000010
,
00001000
00000100
00001000
00000100
00010000
00000100
00010000
00000100
,
00010000
00001000
00010000
00001000
00100000
00010000
00100000
00010000
,
10000000
00100000
01000000
00010000
00100000
00001000
00010000
00000100
,
00000000
00000110
00001001
00000021
,
00000130
00001000
00002001
00000000
00003020
00000000
00010030
00001000
,
00100000
00010000
01000000
00100000
10100000
00000000
10020000
00000000
,
00130000
00000000
01000000
00000000
12000000
00000000
00000000
00000000
03100000
00000000
00010000
00000000
01000000
00010000
01000000
00000000
,
00100000
00010000
00001000
00010000
00010100
00000000
00002100
00000000
,
00003010
00000100
00000201
00000000
00000302
00000000
00000013
00000100
,
00010000
00000100
00010000
00000000
00001000
00000000
00100000
00000000
00101000
00000000
00000000
00000000
01020000
00000000
00000000
00000000
,
00130000
00000000
01000000
00000000
12000000
00000000
00000000
00000000
03100000
00000000
01000000
10000000
00010000
00000000
01000000
00100000
,
00020000
00000000
00000000
00000000
00032000
00000000
00000000
00000000
00023000
00000000
00000000
00000000
00001000
00000000
00000000
00001000
,
00000000
00000000
00000100
00000000
00030200
00000000
00000000
00000000
00000010
00000000
00000000
00000010
00000000
00000000
00000001
00000000
,
00000000
00000001
00000000
00000000
00000310
00000000
00000001
00000000
00002000
00000000
00000000
00000000
00000010
00000000
00000000
00000010
,
00000000
00000000
00000100
00000000
00003200
00000000
00000000
00000000
00000010
00000000
00000000
00000010
00000000
00000000
00010000
00000000
,
00000000
00010000
00000000
00000000
00010300
00000100
00010000
00000000
00001000
00000000
00100000
00000000
00010000
00000000
01000000
00010000
,
00000000
01000000
00010000
00000000
20000000
00000000
00000000
00000000
31000000
00000000
00100000
00010000
00000000
00100000
00010000
00000000
,
00100000
00001000
00000000
00100000
00002000
00000000
00000000
00000000
00013000
00000000
00001000
00010000
00000000
00010000
00000100
00000000
,
00000100
00000010
00000000
00000010
00000001
00000000
00001000
00000000
00000010
00000000
00000100
00000001
00000100
00000000
00000001
00001000
,
00000001
00000000
00001000
00000100
00001000
00000000
00000100
00010000
00002000
00000000
00000000
00000000
00000000
00000000
00000000
00000000
,
00000000
00000000
00000000
00000000
,
00000000
00000000
00000000
00000000
00023000
00000000
00031000
01000000
,
00000000
01000000
00010000
10000000
00000000
01000000
01000000
00100000
,
00010000
10000000
10000000
00010000
02000000
00000000
03001000
00010000
,
00000000
00000100
00001000
00000010
00000000
00000100
00000100
00001000
,
00010000
00001000
00000100
00000001
00000020
00000000
00000130
00001000
,
00000000
00000010
00001000
00000100
00000000
00010000
00010000
00001000
,
00100000
00010000
00010000
10000000
00200000
00000000
01300000
00010000
,
00000000
00100000
01000000
10000000
00000000
00100000
00100000
00010000
,
00001000
00010000
00100000
10000000
10010000
00000000
00010000
00100000
,
01000000
00100000
00010000
20000000
00000000
00000000
00100000
00000000
,
30010000
01000000
00001000
00010000
00000100
00000000
00000100
00000000
,
00000100
00001000
00000001
00000100
00000000
00000100
00000010
00000100
,
00001000
00010000
00200000
00000000
01300000
00000000
01000000
10000000
,
01000000
00010000
00100000
00002000
00000000
00000000
00010000
00000000
,
01003000
00001000
00100000
00010000
01000000
00000000
01000000
00000000
,
01000000
00010000
00100000
00001000
00000000
00001000
00000000
00010000
,
00000100
00000000
00001000
00000100
00001000
00000000
00000001
00000000
00000100
00000000
00000000
00000000
00001000
00000000
00000000
00000000
,
00010000
00001000
01000000
00010000
10000000
00000000
00100000
00000000
,
01000000
00000000
00000000
00001000
00000000
00000000
00010000
00000000
00000100
00000000
00000000
00010000
00000000
00000000
00001000
00000000
,
00100000
00000000
00000000
00001000
00000000
00000000
00010000
00000000
00000010
00000000
00000000
00010000
00000000
00000000
00001000
00000000
,
00100000
00000000
00000000
00001000
00000000
00000000
00010000
00000000
00000100
00000000
00010000
00000000
00000100
00000000
00010000
00000000
,
00000010
00001000
00000010
00001000
00000001
00000001
00000010
00000010
,
00000100
00000000
00000100
00000000
00010000
00000000
00010000
00000000
00001000
00100000
00001000
00100000
00001000
00100000
00010000
00000000
,
10000000
00010000
10000000
00010000
10000000
00010000
01000000
00000000
00000000
00000000
00000000
00000000
01100000
00000000
00000000
00000000
,
10010000
00000000
10000000
00100000
01000000
00100000
10000000
01000000
,
00100000
00000000
01000000
00000000
00000000
00000000
10000000
00000000
00010000
00000000
00000000
01000000
00000000
00001000
00010000
00000000
,
00000100
00000000
00000000
00010000
00000000
00001000
01000000
00000000
00010000
00000000
00000000
10000000
00000000
01000000
00100000
00000000
,
00001000
00000000
00000000
00010000
00000000
00000100
00001000
00000000
00000001
00000000
00000000
00000100
00000010
00000000
00001000
00000000
,
00001001
00000000
00000001
00000100
00001000
00010000
01000000
10000000
,
00010000
00000000
01000000
00000000
00000000
00000000
00001000
00000000
00010000
00000000
00000000
00000100
00000000
00001000
00000001
00000000
,
00001000
00000000
00000000
00000100
00000000
00010000
00001000
00000000
01000000
00000000
00000000
00010000
00000000
10000000
01000000
00000000
,
00100000
00000000
00000000
00001000
00000000
00010000
00000100
00000000
00000001
00000000
00000100
00000010
00000000
00000001
00001000
00000000
,
00001001
00000000
00000001
00000100
00000010
00000100
00000001
00000010
,
00000100
00000000
00001000
00000000
00000100
00000000
00010000
00000000
00001000
00000000
00000000
00100000
00000000
00010000
10000000
00000000
,
00100000
00000000
00000000
01000000
00000000
00001000
00010000
00000000
00000010
00000000
00000000
00010000
00000000
00001000
00010000
00000000
,
00000100
00000000
00000000
00010000
00000000
00001000
00100000
00000000
00010000
00000000
00000000
10000000
00010000
00000000
01000000
00000000
,
01001000
00000000
00001000
00010000
01000000
10000000
00100000
01000000
,
00001000
00000000
00010000
00000000
00000100
00000000
00000010
00000000
00000001
00000000
00001000
00000010
00000000
00001000
00000100
00000000
,
00001000
00000000
00000100
00010000
00000000
00001000
00100000
00000000
00101000
00000000
00000000
00110000
00000000
00000000
00010000
00000000
,
10010000
00000000
00000000
11000000
00000000
00000000
10000000
00000000
20200000
00000000
00000000
00000000
30300000
00000000
00000000
00000000
,
02020000
00000000
00000000
00000000
,
00000000
00000000
00000000
00000000
03030000
00000000
00000000
01000000
00000000
00001000
00000000
00010000
00000100
00000000
00000010
00000000
,
00000001
00000000
00000100
00000000
00000010
00000000
00001000
00000100
00000000
00010000
00000000
00000100
00001000
00000000
00000100
00000000
,
00010000
00000000
00001000
00000000
01000000
00000000
00010000
00100000
00000000
01000000
00000000
00100000
00010000
10000000
00010000
00000000
,
00100000
00000000
00001000
00000000
00010000
00000000
00000010
00001000
00000000
00000100
00000000
00000010
00000001
00000000
00001000
00000000
,
00000010
00000000
00010000
00000000
00001000
00000000
00000000
00011000
00000000
00001000
00000000
00100000
00010000
00000000
01000000
00000000
,
01010000
00000000
00000000
01010000
00000000
00000000
01001000
00000000
00000000
01001000
00000000
00000000
00001000
00010000
00001000
00010000
,
00000200
00000000
00000000
00000310
,
00001001
00000000
00000000
00000000
;
