#VERSION:0.83;
#TITLE:Programmed World;
#SUBTITLE:;
#ARTIST:kors k as StripE;
#TITLETRANSLIT:;
#SUBTITLETRANSLIT:;
#ARTISTTRANSLIT:;
#GENRE:Psy Trance (Full On);
#ORIGIN:beatmania IIDX 16 EMPRESS;
#TAGS:;
#CREDIT:;
#BANNER:Programmed World.png;
#BACKGROUND:Programmed World-bg.png;
#PREVIEWVID:;
#JACKET:Programmed World-jacket.png;
#CDIMAGE:;
#DISCIMAGE:;
#LYRICSPATH:;
#CDTITLE:../_YSD cdtitles/ysd sum mem cdtitle.png;
#MUSIC:Programmed World.ogg;
#OFFSET:-0.429000;
#SAMPLESTART:28.666000;
#SAMPLELENGTH:25.098000;
#SELECTABLE:YES;
#DISPLAYBPM:153.000000;
#BPMS:0.000000=153.000000
,103.000000=306.000000
,104.000000=153.000000
,199.000000=306.000000
,200.000000=153.000000
,230.000000=306.000000
,230.250000=153.000000
,230.375000=76.500000
,230.625000=153.000000
,230.750000=306.000000
,231.500000=153.000000
,231.750000=76.500000
,232.000000=153.000000
,263.000000=76.500000
,263.250000=153.000000
,263.500000=306.000000
,264.000000=153.000000
;
#STOPS:103.000000=0.049019
,103.250000=0.049019
,103.500000=0.049019
,103.750000=0.049019
,199.000000=0.049019
,199.250000=0.049019
,199.500000=0.049019
,199.750000=0.049019
;
#DELAYS:;
#WARPS:;
#TIMESIGNATURES:0.000000=4=4
;
#TICKCOUNTS:0.000000=4
;
#COMBOS:0.000000=1
;
#SPEEDS:0.000000=1.000000=0.000000=0
,56.000000=0.500000=8.000000=0
,68.000000=1.000000=4.000000=0
;
#SCROLLS:0.000000=1.000000
,136.000000=0.500000
,168.000000=1.000000
;
#FAKES:;
#LABELS:0.000000=Song Start
;
#BGCHANGES:;
#KEYSOUNDS:;
#ATTACKS:
;

//---------------dance-single - 1st Half 244, 2nd Half 228----------------
#NOTEDATA:;
#CHARTNAME:Fully Simulated;
#CHARTHASH:1849309698;
#STEPSTYPE:dance-single;
#BANNER:;
#DESCRIPTION:1st Half 244, 2nd Half 228;
#CHARTSTYLE:;
#DIFFICULTY:Hard;
#METER:14;
#METERF:14.000000;
#LASTSECONDHINT:116.801529;
#RADARVALUES:0.564363,0.860195,0.016564,0.289872,0.650141,477.000000,475.000000,2.000000,35.000000,0.000000,0.000000,0.000000,0.000000,0.000000,0.564363,0.860195,0.016564,0.289872,0.650141,477.000000,475.000000,2.000000,35.000000,0.000000,0.000000,0.000000,0.000000,0.000000;
#CREDIT:yosefu++;
#DISPLAYBPM:153.000000;
#NOTES:
0000
0000
0000
0000
,
0000
0000
0000
0000
,
0000
0000
0000
0000
,
0000
0000
0000
0000
,
0000
0000
0000
0000
,
0000
0000
0000
0000
,
1000
0000
0010
0100
0000
0100
0001
1000
,
0000
1000
0000
0100
0000
0100
0010
0000
,
0001
0000
0100
0010
0000
0010
1000
0100
,
0000
0100
0010
0000
0001
0000
0100
0000
,
0101
0000
0001
0000
1000
0100
0010
0001
,
1000
0000
0010
0000
0100
0001
0010
0000
,
0100
0000
1000
0000
0001
0100
0010
1000
,
0100
0010
1000
0010
0001
0000
1000
0010
,
0100
0000
0001
0000
1000
0100
0010
0000
,
0001
1000
0010
0000
0100
0001
1000
0000
,
2010
0000
0000
0000
,
0000
0000
0000
0000
,
3001
0000
0010
0001
1000
0000
0010
0100
0000
0010
0000
1000
0001
0010
0100
0000
,
1000
0001
0100
0000
0100
0000
0010
0000
0100
0001
0010
0000
0200
0000
1300
0001
,
0100
0000
0010
1000
0001
0000
0010
0100
0000
0010
0000
0001
1000
0010
0100
0000
,
0001
0010
0000
0100
0001
0000
0001
0000
0100
0010
0001
1000
0010
0000
0100
0001
,
1000
0000
0100
0010
0001
0000
1000
0010
0000
0100
0000
0001
1000
0100
0010
0000
,
0100
1000
0001
0000
0001
0000
0100
0000
0010
1000
0100
0000
0020
0000
0031
1000
,
0010
0000
1000
0010
0001
0010
0000
1000
0000
1000
0000
0100
0010
0001
0000
1000
,
0001
0010
0001
1000
0010
1000
0001
0100
0001
1000
0100
1000
0001
0100
1000
0100
,
0001
0000
1000
0100
0010
0000
0100
1000
0000
0010
0000
0100
1000
0100
0010
0000
,
1000
0001
0010
0000
0010
0000
0100
0000
0010
0001
0100
0000
0020
0000
1030
0001
,
0010
0000
0100
1000
0001
0000
0100
0010
0000
0001
0000
0010
0100
0001
1000
0000
,
0100
0010
0100
1000
0010
0000
0010
0000
0001
0000
0010
0100
0001
0000
1000
0100
,
0010
0000
0100
1000
0001
0000
0100
0010
0000
0001
0000
0010
0100
0001
1000
0000
,
0100
0010
0001
0000
0001
0000
0100
0000
0010
1000
0100
0000
2000
0000
3010
0100
,
0001
0000
0100
1000
0100
0001
0000
0010
0000
0010
0000
0100
1000
0001
0000
1000
,
0010
0100
1000
0000
0100
0000
0001
0010
0100
0000
0001
0100
1000
0000
0000
0000
,
0020
0000
0000
0032
0000
0000
0023
0000
,
0000
0000
0000
0000
,
2030
0000
0000
3200
0000
0000
0310
0002
,
0000
0000
0000
0000
,
2003
0000
0000
3020
0000
0000
0230
0000
,
0000
0000
0000
0000
,
0000
0000
0000
0000
,
0302
0000
0000
0000
,
2003
3200
0320
0230
,
2300
3002
0203
0320
,
0230
0000
0302
0000
0023
0000
2030
3010
,
0002
0203
0320
2030
,
3001
0100
0001
0010
0100
1000
0010
1000
,
0001
0010
1000
0010
0100
1000
0001
0100
,
0010
1000
0010
0000
1000
0001
1000
0000
0001
0010
0001
0000
1000
0010
1000
0000
,
0002
0000
0000
0000
0000
0000
0000
0000
0000
0000
0000
0000
1003
0010
1000
0010
,
1000
0000
0001
0000
0010
0000
0000
0100
0000
1000
0000
0001
0000
0000
0000
0000
,
1000
0000
0010
0000
0100
0000
0000
0001
0000
1000
0000
0100
0000
0000
0000
0000
,
0010
0000
0001
0000
1000
0000
0000
0010
0000
0100
0000
0001
0000
0000
1000
0000
,
0100
0000
0000
0010
0000
0000
0001
0000
1000
0000
0000
0010
0000
0000
0100
0000
,
0001
0000
0010
0000
0100
0000
0000
1000
0000
0001
0000
0100
0000
0000
0000
0000
,
0010
0000
1000
0000
0001
0000
0000
0010
0000
0100
0000
1000
0000
0000
0000
0000
,
0001
0000
0100
0000
0010
0000
0000
1000
0000
0001
0000
0010
0000
0000
0000
0000
,
0100
0000
0000
0010
0000
0000
0001
0000
2000
0000
0000
0000
3020
0000
0000
0000
,
0130
0000
0001
0000
1000
0000
0000
0100
0000
0010
0000
0001
0000
0000
1000
0000
,
0010
0000
0100
0000
0001
0000
0000
0010
0000
0100
0000
1000
0000
0000
0001
0000
,
0100
0000
0010
0000
1000
0000
0000
0100
0000
0010
0000
0001
0000
0000
1000
0000
,
0010
0000
0000
0100
0000
0000
0001
0000
0010
0000
0000
1000
0000
0000
0010
0000
,
0100
0000
1000
0000
0001
0000
0000
0100
0000
0010
0000
1000
0000
0000
0100
0000
,
0010
0000
0001
0000
1000
0000
0000
0010
0000
0100
0000
0001
0000
0000
0010
0000
,
0100
0000
1000
0000
0001
0000
0000
0100
0000
0010
0000
0100
0000
0000
0001
0000
,
1000
0000
0000
0100
0000
0000
0001
0000
0100
0000
1000
0000
0000
0000
0000
0000
,
0001
0000
0100
0000
0010
0000
0100
0001
0000
1000
0000
0100
0000
0000
0010
0000
,
0001
0000
1000
0000
0010
0000
0100
0001
0000
1000
0000
0100
0000
0000
1000
0000
,
0001
0000
0100
0000
0010
0000
0100
0001
0000
1000
0000
0100
0000
0000
0010
0000
,
0001
0000
1000
0010
0000
1000
0010
0000
1000
0000
0001
0010
0000
0001
0010
0000
,
0001
0000
1000
0000
0010
0000
0100
0001
0000
1000
0000
0100
0000
0010
0100
0000
,
1000
0000
0001
0000
0100
0000
0010
1000
0000
0001
0000
0010
0000
0100
0010
0000
,
0001
0000
0100
0000
0010
0000
1000
0001
0000
0010
0000
0100
0000
1000
0001
0100
,
0001
0000
1000
0100
0000
1000
0001
1000
0100
0000
0010
0001
0000
1000
0010
1000
,
0200
0000
0000
0300
0000
0000
0000
0000
0000
0000
0000
0000
0000
0000
0000
0000
;

//---------------dance-single - ----------------
#NOTEDATA:;
#CHARTNAME:;
#CHARTHASH:2649012678;
#STEPSTYPE:dance-single;
#BANNER:;
#DESCRIPTION:;
#CHARTSTYLE:;
#DIFFICULTY:Beginner;
#METER:2;
#METERF:2.000000;
#LASTSECONDHINT:116.507408;
#RADARVALUES:0.120681,0.183862,0.074538,0.000000,0.000000,102.000000,93.000000,9.000000,0.000000,0.000000,0.000000,0.000000,0.000000,0.000000,0.120681,0.183862,0.074538,0.000000,0.000000,102.000000,93.000000,9.000000,0.000000,0.000000,0.000000,0.000000,0.000000,0.000000;
#CREDIT:YOSEFU;
#DISPLAYBPM:153.000000;
#NOTES:
// measure 0
0000
0000
0000
0000
,  // measure 1
0000
0000
0000
0000
,  // measure 2
0000
0000
0000
0000
,  // measure 3
0000
0000
0000
0000
,  // measure 4
0000
0000
0000
0000
,  // measure 5
0000
0000
0000
0000
,  // measure 6
1000
0000
0000
0000
,  // measure 7
0001
0000
0000
0000
,  // measure 8
0100
0000
0000
0000
,  // measure 9
0010
0000
0000
0000
,  // measure 10
1001
0000
0000
0000
,  // measure 11
1000
0000
0000
0000
,  // measure 12
0100
0000
0000
0000
,  // measure 13
0010
0000
0000
0000
,  // measure 14
0001
0000
0000
0000
,  // measure 15
0100
0000
0000
0000
,  // measure 16
0110
0000
0000
0000
,  // measure 17
0000
0000
0000
0000
,  // measure 18
1001
0000
0000
0000
,  // measure 19
0001
0000
0000
0000
,  // measure 20
1000
0000
0000
0000
,  // measure 21
0100
0000
0000
0000
,  // measure 22
1000
0000
0000
0000
,  // measure 23
0001
0000
0000
0000
,  // measure 24
0010
0000
0010
0000
,  // measure 25
0010
0000
0000
0000
,  // measure 26
1001
0000
0000
0000
,  // measure 27
1000
0000
0000
0000
,  // measure 28
0100
0000
0000
0000
,  // measure 29
0010
0000
0000
0000
,  // measure 30
0100
0000
0000
0000
,  // measure 31
1000
0000
0000
0000
,  // measure 32
0001
0000
0001
0000
,  // measure 33
0100
0000
0100
0000
,  // measure 34
1001
0000
0000
0000
,  // measure 35
0000
0000
0000
0000
,  // measure 36
0000
0000
0000
0000
,  // measure 37
0000
0000
0000
0000
,  // measure 38
1000
0000
0000
0000
,  // measure 39
0000
0000
0000
0000
,  // measure 40
0000
0000
0000
0000
,  // measure 41
0001
0000
0000
0000
,  // measure 42
1001
0000
0000
0000
,  // measure 43
1000
0000
0000
0000
,  // measure 44
0100
0000
0000
0000
,  // measure 45
0010
0000
0000
0000
,  // measure 46
0001
0000
0001
0000
,  // measure 47
1000
0000
1000
0000
,  // measure 48
0010
0000
0010
0000
,  // measure 49
0100
0000
0000
0000
,  // measure 50
1000
0000
1000
0000
,  // measure 51
0001
0000
0001
0000
,  // measure 52
0100
0000
0100
0000
,  // measure 53
0010
0000
0010
0000
,  // measure 54
1000
0000
1000
0000
,  // measure 55
0100
0000
0100
0000
,  // measure 56
0010
0000
0010
0000
,  // measure 57
0001
0000
0001
0000
,  // measure 58
1001
0000
1000
0000
,  // measure 59
0010
0000
0010
0000
,  // measure 60
0100
0000
0100
0000
,  // measure 61
0001
0000
0001
0000
,  // measure 62
0010
0000
0010
0000
,  // measure 63
0100
0000
0100
0000
,  // measure 64
1000
0000
1000
0000
,  // measure 65
0001
0000
0001
0000
,  // measure 66
1001
0000
1000
0000
,  // measure 67
0100
0000
0010
0000
,  // measure 68
0001
0000
1000
0000
,  // measure 69
0010
0000
0100
0000
,  // measure 70
0010
0000
1000
0000
,  // measure 71
0001
0000
0010
0000
,  // measure 72
0100
0000
1000
0000
,  // measure 73
0001
0000
0100
0000
,  // measure 74
1001
0000
0000
0000
;

//---------------dance-single - ----------------
#NOTEDATA:;
#CHARTNAME:;
#CHARTHASH:2733518188;
#STEPSTYPE:dance-single;
#BANNER:;
#DESCRIPTION:;
#CHARTSTYLE:;
#DIFFICULTY:Easy;
#METER:6;
#METERF:6.000000;
#LASTSECONDHINT:116.801529;
#RADARVALUES:0.256744,0.307212,0.049692,0.248462,0.004141,217.000000,211.000000,6.000000,30.000000,0.000000,0.000000,0.000000,0.000000,0.000000,0.256744,0.307212,0.049692,0.248462,0.004141,217.000000,211.000000,6.000000,30.000000,0.000000,0.000000,0.000000,0.000000,0.000000;
#CREDIT:YOSEFU;
#DISPLAYBPM:153.000000;
#NOTES:
0000
0000
0000
0000
,
0000
0000
0000
0000
,
0000
0000
0000
0000
,
0000
0000
0000
0000
,
0000
0000
0000
0000
,
0000
0000
0000
0000
,
1000
0000
0010
0000
,
0100
0000
0001
0000
,
1000
0000
0100
0000
,
0010
0000
0001
0000
,
0011
0000
0010
0000
,
0001
0000
1000
0000
,
0010
0000
0100
0000
,
0001
0000
1000
0000
,
0100
0000
0010
0000
,
0100
0000
1000
0000
,
2002
0000
0000
0000
,
0000
0000
3003
0000
,
0001
0100
0001
1000
,
0100
0010
0100
1000
,
0001
0100
0010
0100
,
0001
0010
0100
1000
,
0010
0100
0010
1000
,
0001
0010
0100
1000
,
0001
0100
1000
0100
,
0001
0000
0000
1000
0000
0000
0002
0000
,
1003
0100
0010
0001
,
1000
0010
0100
0001
,
0010
0001
1000
0010
,
0100
1000
0100
0001
,
1000
0100
0010
0001
,
0100
0010
1000
0001
,
0010
0100
0001
0100
,
1000
0010
0001
0010
,
0220
0000
0000
0000
,
0000
0000
0000
0000
,
0000
0000
0000
0000
0000
0000
0000
0330
,
0000
0000
0000
0000
,
2000
0000
0000
0000
,
0000
0000
0000
0000
,
0000
0000
0000
0000
,
3002
0000
0000
0000
,
2003
3200
2300
3200
,
0320
0032
0023
0032
,
2003
3020
2030
3020
,
0230
0302
0203
0302
,
1003
0100
0001
0100
,
1000
0010
0001
0010
,
0100
0001
0010
0100
,
2002
0000
0000
3003
,
1000
0010
0100
0001
,
1000
0100
0010
0001
,
1000
0001
0010
0001
,
1000
0010
0001
0010
,
1000
0100
0010
0001
,
1000
0010
0100
0010
,
1000
0001
0010
0100
,
2000
0000
3200
0320
,
0031
1000
0010
0100
,
0001
0010
0100
1000
,
0001
0100
0010
0100
,
0001
1000
0100
0001
,
0100
1000
0010
0100
,
0001
0010
0100
0010
,
0001
1000
0010
0100
,
1000
0100
0001
0000
,
1001
1000
0100
0001
,
0100
0010
0001
1000
,
0010
0100
1000
0100
,
0001
1000
0100
0001
,
0100
0010
0001
1000
,
0010
0100
0001
0010
,
0100
1000
0100
0001
,
0100
1000
0001
0100
,
0220
0000
0000
0330
0000
0000
0000
0000
0000
0000
0000
0000
0000
0000
0000
0000
;

//---------------dance-single - ----------------
#NOTEDATA:;
#CHARTNAME:;
#CHARTHASH:2569503233;
#STEPSTYPE:dance-single;
#BANNER:;
#DESCRIPTION:;
#CHARTSTYLE:;
#DIFFICULTY:Medium;
#METER:11;
#METERF:11.000000;
#LASTSECONDHINT:116.801529;
#RADARVALUES:0.453147,0.522261,0.016564,0.265026,0.136654,383.000000,381.000000,2.000000,32.000000,0.000000,0.000000,0.000000,0.000000,0.000000,0.453147,0.522261,0.016564,0.265026,0.136654,383.000000,381.000000,2.000000,32.000000,0.000000,0.000000,0.000000,0.000000,0.000000;
#CREDIT:YOSEFU;
#DISPLAYBPM:153.000000;
#NOTES:
0000
0000
0000
0000
,
0000
0000
0000
0000
,
0000
0000
0000
0000
,
0000
0000
0000
0000
,
0000
0000
0000
0000
,
0000
0000
0000
0000
,
1000
0100
1000
0100
,
0010
0001
0010
0001
,
1000
0010
1000
0010
,
0100
0001
0100
0001
,
1001
1000
0100
0010
,
0100
1000
0010
0100
,
0001
0000
0010
0000
0100
0000
0010
0001
,
1000
0010
0100
0010
,
1000
0100
0001
0100
,
0010
0001
0010
0100
,
2002
0000
0000
0000
,
0000
0000
3003
0000
,
1000
0000
0010
0000
0100
0000
0000
0001
0000
1000
0000
0100
0000
0000
0010
0000
,
0100
1000
0001
0000
0100
0001
1000
0000
,
0100
0000
0010
0000
0001
0000
0000
1000
0000
0010
0000
0100
0000
0000
0001
0000
,
1000
0100
0000
0000
0010
0000
0010
0000
0000
0000
0100
0000
1000
0000
0001
0000
,
0100
0000
0010
0000
1000
0000
0000
0010
0000
0100
0000
0001
0000
0000
1000
0000
,
0100
0010
0001
0000
1000
0010
0200
0000
,
0301
0000
0010
0000
0100
0000
0000
0001
0000
0100
0000
0000
1000
0100
0000
0000
,
1000
0000
0001
0100
0000
0001
0100
0000
0001
1000
0000
0001
2000
0000
0000
0000
,
3100
0000
0010
0000
0001
0000
0000
1000
0000
0010
0000
0100
0000
0000
0001
0000
,
1000
0100
0010
0100
1000
0001
0200
0000
,
0310
0000
1000
0000
0001
0000
0000
0010
0000
0100
0000
1000
0000
0000
0001
0000
,
0100
0010
0001
0001
0010
0100
0001
1000
,
0100
0000
0010
0000
0001
0000
0000
1000
0000
0010
0000
0100
0000
0000
0001
0000
,
0010
0100
0010
0001
1000
0010
0200
0000
,
0301
0000
0010
0000
0100
0000
0000
0001
0000
0100
0000
0000
1000
0001
0000
0000
,
1000
0010
1000
0000
0001
0000
0010
0000
0100
0000
1000
0001
2000
0000
0000
0000
,
3020
0000
0000
0000
,
0000
0000
0000
0000
,
0230
0000
0000
0000
0000
0000
0000
1000
,
0000
0000
0000
0000
,
0302
0000
0000
0000
,
0000
0000
0000
0000
,
0023
0000
0000
0000
,
0230
0000
0000
0000
,
2300
3020
0230
0302
,
0023
0230
2300
3200
,
0320
0032
2003
3020
,
0230
0302
0023
0230
,
1300
0001
1000
0001
0100
0010
0100
0010
,
1000
0001
1000
0001
0010
0100
0010
0100
,
1000
0001
0100
0010
0001
0010
1000
0001
,
0020
0000
0000
0000
0000
0000
0000
0000
0000
0000
0000
0000
0000
0000
0031
1000
,
0001
1000
0010
0100
0010
1000
0001
0000
,
1000
0100
0010
0100
1000
0001
0100
0000
,
0010
1000
0010
0100
0001
0010
0100
0000
,
1000
0100
0010
1000
0010
0001
0100
0000
,
0010
1000
0010
0100
0001
0010
0100
0000
,
0010
0001
1000
0010
0100
0001
0010
0000
,
0100
1000
0001
0100
0010
1000
0001
0000
,
1000
0100
0001
0100
2000
0000
3002
0000
,
0103
0010
1000
0010
0100
0001
0010
0000
,
0100
1000
0100
0010
0001
1000
0010
0000
,
0100
0010
1000
0001
0010
0100
1000
0000
,
0001
0100
1000
0100
0001
0010
0100
0000
,
1000
0100
0010
0001
0100
0010
1000
0000
,
0001
0010
0100
1000
0010
0100
0001
0000
,
1000
0100
0010
0100
1000
0001
0100
0000
,
0010
0100
1000
0100
0001
1000
0000
0000
,
0001
0010
0100
0001
0100
1000
0001
0100
,
0010
0001
0010
0100
0001
1000
0100
0010
,
1000
0010
0100
1000
0001
0100
0010
1000
,
0100
0010
1000
0010
0001
0100
0010
0001
,
0010
0100
0001
1000
0100
0010
1000
0010
,
0001
1000
0010
0100
1000
0100
0001
1000
,
0100
0010
1000
0010
0001
1000
0010
0100
,
0001
0010
1000
0010
0001
1000
0010
0100
,
0002
0000
0000
0003
0000
0000
0000
0000
0000
0000
0000
0000
0000
0000
0000
0000
;
