#VERSION:0.83;
#TITLE:Playing With Fire;
#SUBTITLE:(Sota Fujimori Remix);
#ARTIST:Sota Fujimori;
#TITLETRANSLIT:;
#SUBTITLETRANSLIT:;
#ARTISTTRANSLIT:;
#GENRE:SPEED RAVE;
#ORIGIN:Let's Do It Now!! [QWCE-00363];
#TAGS:;
#CREDIT:;
#BANNER:Playing With Fire (Sota Fujimori Remix).png;
#BACKGROUND:Playing With Fire (Sota Fujimori Remix)-bg.png;
#PREVIEWVID:;
#JACKET:Playing With Fire (Sota Fujimori Remix)-jacket.png;
#CDIMAGE:;
#DISCIMAGE:;
#LYRICSPATH:;
#CDTITLE:../_YSD cdtitles/ysd br2024 cdtitle.png;
#MUSIC:Playing With Fire (Sota Fujimori Remix).ogg;
#OFFSET:-0.042000;
#SAMPLESTART:71.147003;
#SAMPLELENGTH:23.702000;
#SELECTABLE:YES;
#BPMS:0.000000=162.013000
;
#STOPS:;
#DELAYS:;
#WARPS:;
#TIMESIGNATURES:0.000000=4=4
;
#TICKCOUNTS:0.000000=4
;
#COMBOS:0.000000=1
;
#SPEEDS:0.000000=1.000000=0.000000=0
;
#SCROLLS:0.000000=1.000000
;
#FAKES:;
#LABELS:0.000000=Song Start
;
#BGCHANGES:;
#KEYSOUNDS:;
#ATTACKS:
;

//---------------dance-single - Don't come near me...----------------
#NOTEDATA:;
#CHARTNAME:...i'm (not) going to commit arson.;
#CHARTHASH:892329026;
#STEPSTYPE:dance-single;
#BANNER:;
#DESCRIPTION:Don't come near me...;
#CHARTSTYLE:;
#DIFFICULTY:Beginner;
#METER:5;
#METERF:0.000000;
#LASTSECONDHINT:112.255211;
#RADARVALUES:0.195597,0.299179,0.184312,0.122875,0.000000,156.000000,135.000000,21.000000,14.000000,0.000000,0.000000,0.000000,0.000000,0.000000,0.195597,0.299179,0.184312,0.122875,0.000000,156.000000,135.000000,21.000000,14.000000,0.000000,0.000000,0.000000,0.000000,0.000000;
#CREDIT:YOSEFU;
#NOTES:
// measure 0
0000
0000
0000
0000
,  // measure 1
0000
0000
0000
0000
,  // measure 2
0000
0000
0000
0000
,  // measure 3
0000
0000
0000
0000
,  // measure 4
1001
0000
1000
0000
,  // measure 5
0001
0000
0100
0000
,  // measure 6
0010
0010
0010
0000
,  // measure 7
0020
0000
0000
0030
,  // measure 8
0110
0000
0100
0000
,  // measure 9
0001
0001
0001
0000
,  // measure 10
1000
0000
0001
0000
,  // measure 11
0010
0010
0010
0000
,  // measure 12
0110
0000
0100
0000
,  // measure 13
1000
1000
1000
0000
,  // measure 14
1001
0000
0110
0000
,  // measure 15
2002
0000
3003
0000
,  // measure 16
1001
0000
0001
0000
,  // measure 17
0100
0100
0100
0000
,  // measure 18
0010
0000
1000
0000
,  // measure 19
0002
0000
0000
0003
0000
0000
0000
0000
,  // measure 20
0100
0000
0010
0000
,  // measure 21
1000
1000
1000
0000
,  // measure 22
0001
0001
0001
0001
,  // measure 23
0001
0000
1001
0000
,  // measure 24
2000
0000
0000
0000
,  // measure 25
0000
0000
0000
0000
,  // measure 26
0000
0000
0000
0000
,  // measure 27
0000
0000
3000
0000
,  // measure 28
0002
0000
0000
0000
,  // measure 29
0000
0000
0000
0000
,  // measure 30
0000
0000
0000
0000
,  // measure 31
0000
0000
0003
0000
,  // measure 32
1001
0000
0000
0000
,  // measure 33
2000
0000
3000
0000
,  // measure 34
0020
0000
0030
0000
,  // measure 35
0200
0000
0300
0000
,  // measure 36
0002
0000
0003
0000
,  // measure 37
0020
0000
0030
0000
,  // measure 38
0200
0000
0300
0000
,  // measure 39
2000
0000
3000
0000
,  // measure 40
1001
0000
0001
0000
,  // measure 41
1000
0000
0010
0000
,  // measure 42
0100
0000
0010
0000
,  // measure 43
1000
0000
0100
0000
,  // measure 44
0110
0000
0010
0000
,  // measure 45
1001
0000
0001
0000
,  // measure 46
1001
0000
0000
0001
,  // measure 47
0001
0001
0001
0000
,  // measure 48
1001
0000
1000
0000
,  // measure 49
0001
0000
0100
0100
,  // measure 50
0100
0000
0010
0000
,  // measure 51
1000
1000
1000
0000
,  // measure 52
0100
0000
0010
0000
,  // measure 53
0001
0001
0001
0000
,  // measure 54
0100
0000
0001
0000
,  // measure 55
0000
1000
0000
1000
0000
0000
0000
0000
,  // measure 56
1001
0000
0001
0000
,  // measure 57
0010
0000
0100
0100
,  // measure 58
0100
0000
1000
0000
,  // measure 59
1001
1001
0000
0001
,  // measure 60
0001
0000
0100
0000
,  // measure 61
0010
0000
1000
1000
,  // measure 62
1000
0000
0001
0000
,  // measure 63
1000
1000
1000
0000
,  // measure 64
1001
0000
0001
0001
,  // measure 65
0001
0000
0100
0100
,  // measure 66
0100
0000
0010
0000
,  // measure 67
1001
1001
0000
0001
,  // measure 68
0001
0000
0100
0100
,  // measure 69
0100
0000
0010
0010
,  // measure 70
0010
0000
1000
0000
,  // measure 71
0001
0001
0001
0000
,  // measure 72
1001
0000
0000
0000
,  // measure 73
2000
0000
0000
0000
,  // measure 74
0000
0000
0000
0000
,  // measure 75
0000
0000
0000
3000
;

//---------------dance-single - ----------------
#NOTEDATA:;
#CHARTNAME:(don't) Commit arson;
#CHARTHASH:193579313;
#STEPSTYPE:dance-single;
#BANNER:;
#DESCRIPTION:;
#CHARTSTYLE:;
#DIFFICULTY:Easy;
#METER:9;
#METERF:0.000000;
#LASTSECONDHINT:112.255211;
#RADARVALUES:0.346056,0.465389,0.289634,0.193089,0.008777,276.000000,243.000000,33.000000,22.000000,0.000000,0.000000,0.000000,0.000000,0.000000,0.346056,0.465389,0.289634,0.193089,0.008777,276.000000,243.000000,33.000000,22.000000,0.000000,0.000000,0.000000,0.000000,0.000000;
#CREDIT:YOSEFU;
#NOTES:
0000
0000
0000
0000
,
0000
0000
0000
0000
,
0000
0000
0000
0000
,
0000
0000
0000
0000
,
1001
0001
0101
1000
,
1100
0001
0011
1000
,
1010
0000
0010
0000
0100
0000
0001
1000
,
0002
0000
0000
0003
,
0010
0000
0100
0000
1000
0010
1000
0000
,
0001
0100
0110
0000
,
0010
0000
1000
0000
0001
0010
0001
0000
,
0011
0110
0100
1001
,
1000
0000
0010
0000
0100
0001
0100
0000
,
0001
0010
0011
0001
,
1001
0000
0110
0000
,
1001
0000
0000
0000
0000
0000
0000
0000
1000
0000
0000
0000
0000
0001
0000
0000
,
0001
0100
0010
0100
,
0001
1000
0001
1000
0001
0000
0010
0000
,
0100
1000
0010
0100
,
0002
0100
2003
0100
,
3001
0100
0010
1000
,
0001
1000
0001
1000
0001
0000
0010
0000
,
0110
0100
1001
0001
,
0200
0000
0320
0000
,
2030
0000
0000
0000
,
0000
0000
0000
0000
,
0000
0000
0000
0000
,
0000
0000
0000
0000
,
3002
0000
0000
0000
,
0000
0000
0000
0000
,
0000
0000
0000
0000
,
0000
0000
0000
0000
,
0023
0000
0000
0000
,
0230
0000
0000
2300
0000
3020
0000
2030
,
0000
0000
3200
0000
0000
0000
0000
0320
,
0000
0000
0000
0032
0000
2003
0000
3200
,
0000
0000
0000
0000
,
0000
0000
0000
2300
0000
3020
0000
0230
,
0000
0302
0000
0000
0000
0000
0000
0000
,
0000
0000
0000
0000
,
0013
0000
0000
0100
0000
0000
1000
0000
,
0001
0000
0000
0100
0000
0000
1000
0000
,
0100
0000
0000
0001
0000
0000
1000
0000
,
0100
0000
0000
0010
0000
0000
0001
0000
,
0101
0100
0010
1000
,
1001
0001
0010
0100
,
1100
0000
0000
1001
0000
0000
0101
0000
,
0001
0100
0001
1001
,
1000
0000
0100
0000
0010
0000
0001
0100
,
0001
0000
0010
0000
0100
0000
1000
0001
,
1000
0100
0001
0100
,
1000
0001
1000
0000
0001
0000
0101
0000
,
0100
0000
0001
0000
0010
0000
0100
1000
,
0100
0000
0010
0000
0001
0000
0100
0001
,
0100
1000
0100
0001
,
0000
1001
0000
0110
0000
0000
1000
0000
,
0001
0100
0010
0000
1000
0000
0100
0000
,
0010
0100
1000
0000
0001
0000
0100
0000
,
0001
1000
0100
0000
0001
0000
0100
0000
,
1100
1001
0101
0110
,
0010
1000
0100
0000
0010
0000
0001
0000
,
0100
0001
0010
0000
0100
0000
0001
0000
,
0100
1000
0001
0100
,
0010
1000
0010
0000
0100
0001
0100
0000
,
0001
0000
1000
0000
0100
1000
0010
0000
,
0100
0000
0001
0000
0010
0100
1000
0000
,
0001
0000
0100
0000
0010
1000
0010
1000
,
0001
0101
1001
1100
,
1000
0000
0001
0000
0100
0001
0010
0000
,
0100
0000
1000
0000
0001
0100
0001
0100
,
0001
1000
0000
0100
0000
1000
0000
0001
,
1000
0001
1000
0000
1001
0000
0000
0000
,
0110
0000
0000
0000
0000
0000
0000
0000
0100
0000
0100
0000
0000
0010
0000
0000
,
1000
0002
0000
0000
,
0000
0000
0000
0000
,
0000
0000
0000
0003
;

//---------------dance-single - ----------------
#NOTEDATA:;
#CHARTNAME:Barson;
#CHARTHASH:2392218318;
#STEPSTYPE:dance-single;
#BANNER:;
#DESCRIPTION:;
#CHARTSTYLE:;
#DIFFICULTY:Medium;
#METER:13;
#METERF:0.000000;
#LASTSECONDHINT:112.255211;
#RADARVALUES:0.537891,0.631599,0.157982,0.272080,0.355460,429.000000,411.000000,18.000000,31.000000,0.000000,0.000000,0.000000,0.000000,0.000000,0.537891,0.631599,0.157982,0.272080,0.355460,429.000000,411.000000,18.000000,31.000000,0.000000,0.000000,0.000000,0.000000,0.000000;
#CREDIT:YOSEFU;
#NOTES:
0000
0000
0000
0000
,
0000
0000
0000
0000
,
0000
0000
0000
0000
,
0000
0000
0000
0000
,
1001
0000
1000
0010
0100
0000
0110
0000
,
0101
0000
0001
0010
0100
0000
1100
0000
,
1000
0000
0010
0000
1000
0000
0010
0000
0100
0000
0001
0000
0010
0000
0100
1000
,
0200
0000
0000
0300
,
0010
0000
0001
0000
0100
0000
0001
0000
0010
0000
0100
1000
0000
0100
1000
0000
,
0001
0100
0010
0100
0001
0000
1001
0000
,
1000
0000
0100
0000
0010
0000
0100
0000
1000
0000
0001
0100
0000
0001
0100
0000
,
0001
0010
0100
0010
0100
0000
1001
0000
,
1000
0000
0010
0000
0100
0000
0010
0000
1000
0000
0001
0010
0000
0001
0010
0000
,
0100
1000
0010
1000
0100
0000
0110
0000
,
0010
0000
0000
1001
0000
0000
0000
0000
1000
0000
0000
0010
0000
0000
0100
0000
,
0001
0000
0000
0010
0000
0000
0100
0000
1000
0000
1000
0000
0000
1001
0000
0000
,
0001
0000
0100
0000
0000
0001
0000
0100
0001
0000
1000
0000
0000
0100
0000
0000
,
0010
0100
1000
0100
0010
0001
0100
0000
,
0010
0000
1000
0000
0000
0100
0000
0000
0010
0001
0000
1000
0000
0000
0010
0000
,
2000
0000
0100
0000
0000
0010
0000
0000
3002
0000
0000
0100
0000
0000
0010
0000
,
1003
0000
0010
0000
0000
0100
0000
0010
1000
0000
0001
0000
0000
0010
0000
0000
,
0100
1000
0010
1000
0100
0010
0001
0100
,
0010
0100
0001
0010
0100
0010
0001
1000
,
0020
0000
0000
0000
0000
0000
0000
0000
1030
0100
0000
0010
0000
0000
0001
0000
,
0200
0000
0000
0000
,
0000
0000
0000
0000
,
0302
0000
0000
0000
,
0000
0000
0000
0000
,
0023
0000
0000
0000
,
0000
0000
0000
0000
,
0000
0000
0000
0000
0000
0000
0000
0000
0000
0000
0000
0000
0000
0000
0000
0000
0000
0000
0000
0230
0000
0000
0000
0000
0000
0000
0000
0000
0000
0000
0000
0000
0000
0000
0000
0000
0000
0000
0000
0000
0000
0000
0000
0000
0000
0000
0000
0000
0000
0000
0000
0000
0000
0000
0000
0000
0000
0000
0000
0000
0000
0000
0000
0000
0000
0000
0000
0000
0000
0000
0000
0000
0000
0000
0000
0000
0000
0000
0000
0000
0000
0000
0000
0000
0000
0000
0000
0000
0000
0000
0000
0000
0000
0000
0000
0000
,
0000
0000
0000
0000
,
2300
0000
0000
0100
0000
0000
0000
0000
,
3002
0000
0000
0203
0000
2300
0000
3200
,
0000
0302
0023
0000
0000
0000
0000
0230
,
2300
3200
0000
2300
3002
2003
3020
0230
,
0302
0000
0000
0100
0000
0000
0000
0000
,
2003
0000
0000
3200
0000
0320
0000
0032
,
0000
0203
0000
0000
0000
0000
0000
0000
,
0320
0000
0000
0000
,
1030
0000
0000
0010
0000
0000
0100
0000
0000
0001
0000
0000
0010
0000
0100
0000
,
0000
1000
0000
0000
0010
0000
0000
0100
0000
0000
1000
0000
0100
0000
0010
0000
,
0000
0000
0000
1000
0000
0000
0001
0000
0000
0010
0000
0000
0100
0000
1000
0000
,
0000
0001
0000
0000
0100
0000
0001
0000
0000
0010
0000
0000
0100
0000
1000
0000
,
0001
0100
0010
0001
0010
0100
0001
1000
,
0100
0010
1000
0010
0100
1000
0001
0100
,
0110
0000
0000
1010
0000
0000
1001
0000
0000
0011
0000
0000
0010
0000
0100
0000
,
1000
0001
0000
0000
0100
0001
0000
0000
1000
0001
0000
0000
0010
0000
0000
0000
,
0100
1000
0100
0000
0010
0000
0001
0000
0100
0000
0010
0000
1000
0000
0001
0000
,
0010
0001
0010
0000
0001
0000
0100
0000
0010
0000
1000
0001
0000
0000
0010
0000
,
0010
0000
0100
1000
0000
0000
0001
0000
0100
0001
0000
0000
0010
0000
0100
0000
,
0000
1000
0001
0000
0000
0100
0001
0000
0010
0000
0000
0100
0000
0000
1000
0000
,
0001
0100
0001
0000
0010
0000
0100
0000
1000
0000
0010
0000
0100
0000
0001
0000
,
1000
0100
1000
0000
0010
0000
0100
0000
0001
0000
0000
0010
0000
0000
0100
0000
,
0100
0000
0010
0001
0000
0000
1000
0000
0010
0100
0000
0000
0001
0000
1000
0000
,
0000
0100
1000
0000
0000
0001
0100
0000
0010
0000
0000
1000
0000
0000
0100
0000
,
0010
0001
1000
0000
0010
0000
0100
0000
1000
0000
0100
0000
0010
0000
1000
0000
,
0001
0010
0100
0000
0001
0000
0100
0000
1000
0000
0001
0100
0000
0000
0001
0000
,
0001
0000
0010
0100
0000
0000
1000
0000
0001
0100
0000
0000
0010
0000
1000
0000
,
0001
0010
0100
0000
1000
0100
0010
0000
0100
0000
0000
0000
1000
0000
0001
0000
,
0100
0001
1000
0000
0010
0000
0100
0000
1000
0000
0100
0000
0010
0000
1000
0000
,
0100
0010
0001
0000
0010
0000
1000
0000
0010
0000
0001
1000
0000
0000
0010
0000
,
0010
0100
0001
0010
0100
1000
0001
0100
,
0000
0010
1000
0010
0000
0100
0001
0000
0010
0000
0000
1000
0000
0000
0010
0000
,
0001
1000
0000
0010
0000
0000
0100
0000
0010
0000
1000
0000
0100
0000
0010
0000
,
0001
1000
0000
0010
0000
0000
0100
0000
0001
0000
0010
0000
0100
0000
0010
0000
,
0001
1000
0000
0010
0000
0000
0100
0000
1000
0000
0100
0000
0001
0000
0010
0000
,
0100
1000
0100
0001
0100
0000
1001
0000
,
1000
0010
0000
0100
0000
0000
0001
0000
0010
0000
0100
0000
1000
0000
0001
0000
,
0100
0010
0000
1000
0000
0000
0001
0000
0010
0000
0100
1000
0000
0000
0001
0000
,
0100
0010
0100
1000
0100
0010
0100
0001
,
0010
0000
1000
0000
0010
0000
0001
0000
0100
0000
0000
0110
0000
0000
0000
0000
,
1001
0000
0000
0000
0000
0000
0000
0000
0010
0000
0110
0000
0000
1001
0000
0000
,
0001
0020
0000
0000
,
0000
0000
0000
0000
,
0000
0000
0000
0030
;

//---------------dance-single - ----------------
#NOTEDATA:;
#CHARTNAME:Arson;
#CHARTHASH:1647821080;
#STEPSTYPE:dance-single;
#BANNER:;
#DESCRIPTION:;
#CHARTSTYLE:;
#DIFFICULTY:Hard;
#METER:16;
#METERF:0.000000;
#LASTSECONDHINT:112.255211;
#RADARVALUES:0.699635,0.964020,0.175536,0.315964,0.820629,558.000000,538.000000,20.000000,36.000000,0.000000,0.000000,0.000000,0.000000,0.000000,0.699635,0.964020,0.175536,0.315964,0.820629,558.000000,538.000000,20.000000,36.000000,0.000000,0.000000,0.000000,0.000000,0.000000;
#CREDIT:Yosefu Against the Arsonist;
#NOTES:
0000
0000
0000
0000
,
0000
0000
0000
0000
,
0000
0000
0000
0000
,
0000
0000
0000
0000
,
1001
0000
1000
0100
0110
0000
0011
0000
,
1001
0000
0000
0000
0001
0000
0100
0000
0000
0010
0001
0000
0010
0000
0100
0000
,
0001
0000
1000
0000
0100
0000
1000
0000
0001
0100
0001
0100
0010
1000
0001
1000
,
0200
0000
0000
0300
,
1000
0000
0010
0000
0100
0000
0010
0000
1000
0100
0010
0100
0000
1000
0010
0000
,
1000
0100
0001
0100
1000
0000
1001
0000
,
0001
0000
0100
0000
0010
0000
0100
0000
0001
0010
0100
0010
0000
0001
1000
0000
,
0001
0100
1000
0100
0001
0000
0011
0000
,
0010
0000
0100
0000
0010
0000
0001
0000
0100
0001
0010
0100
0000
1000
0001
0000
,
0100
0000
1000
0000
0100
0000
0001
0000
1000
0000
0100
0000
0000
0010
0000
0000
,
0001
0000
0000
1001
0000
0000
1000
0010
0100
0000
0001
1000
0000
0100
0010
0000
,
0001
0000
0000
0100
0000
0000
0010
0000
1000
0000
1001
0000
0000
0011
0000
0000
,
0001
0010
0100
1000
0000
0001
0000
0100
0001
1000
0100
0000
0010
0000
0100
1000
,
0001
0000
0100
0000
1000
0000
0100
0000
0010
0100
0001
0100
0001
0000
0000
0010
,
0100
0000
0002
0000
0000
0203
0000
0000
1300
0001
0000
0100
0000
0001
1000
0000
,
0200
0000
0010
0000
0000
1000
0000
0000
0320
0000
0000
1000
0000
0000
0031
0000
,
1000
0010
0100
0001
0000
1000
0000
0010
1000
0100
0010
0000
0001
0000
0100
0010
,
1000
0000
0100
0000
0001
0000
0100
0000
1000
0001
1000
0001
0100
0000
0010
1000
,
0100
0000
0010
0001
0100
0000
0010
1000
0001
0000
0000
0011
0000
0000
0110
0000
,
1002
0000
0000
0000
0000
0000
0000
0000
1003
0010
0100
1000
0000
0000
0100
0000
,
0002
0000
0000
0000
,
0000
0000
0000
0000
,
0023
0000
0000
0000
,
0000
0000
0000
0000
,
0230
0000
0000
0000
,
2300
0000
0000
0000
,
0000
0000
0000
0000
0000
0000
0000
0000
0000
0000
0000
0000
0000
0000
0000
0000
0000
0000
0000
3002
0000
0000
0000
0000
0000
0000
0000
0000
0000
0000
0000
0000
0000
0000
0000
0000
0000
0000
0000
0000
0000
0000
0000
0000
0000
0000
0000
0000
0000
0000
0000
0000
0000
0000
0000
0000
0000
0000
0000
0000
0000
0000
0000
0000
0000
0000
0000
0000
0000
0000
0000
0000
0000
0000
0000
0000
0000
0000
0000
0000
0000
0000
0000
0000
0000
0000
0000
0000
0000
0000
0000
0000
0000
0000
0000
0000
,
0000
0000
0000
0000
,
2003
0000
0000
0100
0000
0000
0000
0000
,
3020
0000
0000
0230
0000
2300
0000
3200
,
0000
0302
2003
0000
0000
0000
0000
3200
,
0320
0230
0000
2300
3002
2003
3200
0320
,
0032
0000
0000
0100
0000
0000
0000
0000
,
0023
0000
0000
0230
0000
0302
0000
0203
,
0000
2300
0000
0000
0000
0000
0000
0000
,
3020
0000
0230
0000
,
0301
0000
0000
0010
0000
0000
0100
0000
0000
0001
0000
0000
0100
0000
1000
0000
,
0000
0001
0000
0100
0001
0000
0010
0001
0000
0100
1000
0000
0100
0000
0001
0000
,
0010
0000
0000
0000
0100
0000
0000
1000
0000
0010
0000
0000
0001
0000
0010
0000
,
0000
0100
0000
0001
0010
0000
0001
0100
0000
0001
0000
0010
0100
0000
1000
0000
,
1010
0010
1000
0100
0010
0001
0100
0010
,
1010
0000
1000
0000
0100
0000
1000
0000
0010
0000
0100
0000
0001
0000
0010
0100
,
1000
0000
0100
0001
0000
0000
0101
0000
0001
0100
0000
0000
1000
0001
1000
0001
,
1000
0100
1000
0000
0001
0100
0001
0000
1000
0010
1000
0000
0001
0000
0000
0000
,
1000
0100
1000
0010
1000
0001
0010
0100
1000
0100
0010
0001
1000
0010
0100
0000
,
0001
0100
0001
0010
0100
1000
0001
0000
0100
0000
0100
0010
0000
0010
1000
0000
,
1000
0000
0001
0010
0000
0010
1000
0000
1000
0010
0000
0010
0001
0000
1000
0000
,
0000
0001
0100
0000
0000
0001
1000
0000
0001
0000
0001
0010
0000
0010
0100
0000
,
1000
0100
1000
0010
1000
0001
0010
0100
1000
0001
0100
0010
1000
0001
0010
0000
,
0100
0010
0001
0100
0001
1000
0100
0000
0010
0000
0010
0100
0000
0100
1000
0000
,
0001
0000
0001
0100
0000
0100
1000
0000
1000
0100
0000
0100
0001
0000
1000
0000
,
0000
0010
1000
0001
0000
0010
0001
0000
1000
0000
0000
0010
1000
0000
0001
0000
,
1000
0010
1000
0100
0010
0001
1000
0010
0100
0001
0010
0100
1000
0001
0100
0000
,
0001
0100
0001
0010
0100
1000
0010
0000
1000
0000
1000
0001
0000
0001
0100
0000
,
0100
0000
0001
0010
0000
0010
1000
0000
1000
0010
0000
0010
0002
0000
1000
0000
,
0003
1000
0001
0100
0000
0010
1000
0100
0010
0000
0100
1000
0000
0001
0100
0000
,
0001
0100
0001
0010
0100
1000
0001
0100
0010
1000
0100
0010
0001
1000
0010
0000
,
1000
0100
1000
0010
0100
0001
0010
0000
0001
0000
0100
0010
1000
0000
0100
0000
,
0100
0000
1000
0010
0000
0010
0001
0000
0001
0010
0000
0010
1000
0000
0001
0000
,
0010
0100
0010
0100
1000
0001
1000
0010
1000
0000
0001
0100
0000
0000
1000
0100
,
0010
0100
0000
0001
0000
0100
0001
0000
1000
0100
1000
0000
0001
0100
0010
0000
,
0100
0001
0000
0010
0000
0100
1000
0000
0001
0100
0010
0000
1000
0001
0010
0000
,
0100
0010
0000
0001
0000
0100
0010
0000
0001
0010
0100
0010
1000
0000
0100
0000
,
1000
0000
0010
0000
0001
0000
0010
0000
0100
0000
0000
0000
0110
0000
0010
1000
,
0001
1000
0000
0010
0000
0100
0001
0000
1000
0100
0010
0000
0001
0100
0010
0000
,
0100
0001
0000
0010
0000
0001
0100
0010
1000
0000
0001
0100
0000
0000
0001
0000
,
1000
0010
0001
0010
1000
0100
0001
0100
,
1000
0001
0100
0001
0010
0001
0010
0001
1000
0000
0001
0010
0000
0000
0100
0000
,
1001
0000
0000
0000
0000
0000
0000
0000
1100
0000
0011
0000
0000
1001
0000
0000
,
1000
0020
0000
0000
,
0000
0000
0000
0000
,
0000
0000
0000
0030
;

//---------------dance-double - ----------------
#NOTEDATA:;
#CHARTNAME:;
#CHARTHASH:1309711075;
#STEPSTYPE:dance-double;
#BANNER:;
#DESCRIPTION:;
#CHARTSTYLE:;
#DIFFICULTY:Beginner;
#METER:5;
#METERF:0.000000;
#LASTSECONDHINT:112.255211;
#RADARVALUES:0.159236,0.299179,0.122875,0.114098,0.000000,127.000000,113.000000,14.000000,13.000000,0.000000,0.000000,0.000000,0.000000,0.000000,0.159236,0.299179,0.122875,0.114098,0.000000,127.000000,113.000000,14.000000,13.000000,0.000000,0.000000,0.000000,0.000000,0.000000;
#CREDIT:YOSEFU;
#NOTES:
00000000
00000000
00000000
00000000
,
00000000
00000000
00000000
00000000
,
00000000
00000000
00000000
00000000
,
00000000
00000000
00000000
00000000
,
00011000
00000000
00001000
00000000
,
00010000
00000000
00001000
00000000
,
00100000
00000000
00010000
00000000
,
10000000
00000000
00000000
00000000
,
10010000
00000000
00010000
00000000
,
01000000
01000000
01000000
00000000
,
00001000
00000000
00010000
00000000
,
00000100
00000100
00000100
00000000
,
00001000
00000000
00000001
00000000
,
00000100
00000100
00000100
00000000
,
00000110
00000000
00001001
00000000
,
00000220
00000000
00000330
00000000
,
00001001
00000000
00000001
00000000
,
00001000
00001000
00001000
00000000
,
00000100
00000000
00010000
00000000
,
00002000
00000000
00003000
00000000
,
01000000
00000000
00010000
00000000
,
10000000
10000000
10000000
00000000
,
01000000
00000000
01000000
00000000
,
00100000
00000000
00000000
00000000
,
00002000
00000000
00000000
00000000
,
00000000
00000000
00000000
00000000
,
00000000
00000000
00000000
00000000
,
00000000
00000000
00003000
00000000
,
00020000
00000000
00000000
00000000
,
00000000
00000000
00000000
00000000
,
00000000
00000000
00000000
00000000
,
00000000
00000000
00030000
00000000
,
00011000
00000000
00000000
00000000
,
00002000
00000000
00003000
00000000
,
00020000
00000000
00030000
00000000
,
00000200
00000000
00000300
00000000
,
00000020
00000000
00000030
00000000
,
00000002
00000000
00000003
00000000
,
00000200
00000000
00000300
00000000
,
00000020
00000000
00000030
00000000
,
00000110
00000000
00000000
00000000
,
00001000
00000000
00000000
00000000
,
00000001
00000000
00000000
00000000
,
00000010
00000000
00000000
00000000
,
00001001
00000000
00000000
00000000
,
00001000
00000000
00000000
00000000
,
00000110
00000000
00000000
00000000
,
00010000
00000000
00001000
00000000
,
00011000
00000000
00010000
00000000
,
00001000
00000000
01000000
00000000
,
00010000
00000000
10000000
00000000
,
01000000
00000000
00100000
00000000
,
00010000
00000000
10000000
00000000
,
00010000
00000000
01000000
00000000
,
00100000
00000000
01000000
00000000
,
00001000
00000000
00010000
00000000
,
00011000
00000000
00001000
00000000
,
00010000
00000000
00000100
00000000
,
00001000
00000000
00000001
00000000
,
00000100
00000100
00000100
00000000
,
00000010
00000000
00001000
00000000
,
00000001
00000000
00000010
00000000
,
00000100
00000000
00000010
00000000
,
00000001
00000001
00000001
00000000
,
00001001
00000000
00001000
00000000
,
00000010
00000000
00010000
00000000
,
00001000
00000000
00100000
00000000
,
01000000
01000000
01000000
00000000
,
00100000
00000000
00010000
00000000
,
10000000
00000000
00100000
00000000
,
01100000
00000000
01000000
00000000
,
00010000
00000000
10000000
00000000
,
00010000
00000000
00000000
00000000
,
20000000
00000000
00000000
00000000
,
00000000
00000000
00000000
00000000
,
00000000
00000000
00000000
30000000
;

//---------------dance-double - ----------------
#NOTEDATA:;
#CHARTNAME:(still don't) Commit arson;
#CHARTHASH:1506464024;
#STEPSTYPE:dance-double;
#BANNER:;
#DESCRIPTION:;
#CHARTSTYLE:;
#DIFFICULTY:Easy;
#METER:9;
#METERF:0.000000;
#LASTSECONDHINT:112.255211;
#RADARVALUES:0.323487,0.565115,0.263303,0.166759,0.004388,258.000000,228.000000,30.000000,19.000000,0.000000,0.000000,0.000000,0.000000,0.000000,0.323487,0.565115,0.263303,0.166759,0.004388,258.000000,228.000000,30.000000,19.000000,0.000000,0.000000,0.000000,0.000000,0.000000;
#CREDIT:YOSEFU;
#NOTES:
00000000
00000000
00000000
00000000
,
00000000
00000000
00000000
00000000
,
00000000
00000000
00000000
00000000
,
00000000
00000000
00000000
00000000
,
00010000
00001000
00000010
00000001
,
00000100
00000010
00001000
00000100
,
00010000
00001000
01000000
00100000
,
20000000
00000000
00000000
30000000
,
00010000
00000000
00100000
00000000
01000000
10000000
01000000
00000000
,
00100000
00001000
00010000
00011000
,
00001000
00000000
00000010
00000000
00000001
00001000
00000001
00000000
,
00001001
00001001
00000100
00000110
,
00000001
00000000
00000010
00000000
00000100
00001000
00000100
00000000
,
00010000
00001000
01000000
00100000
,
10100000
00000000
10010000
00000000
,
00110000
00000000
00000000
00000000
00000000
00000000
00000000
00000000
00100000
00000000
00000000
00000000
00000000
00100000
00000000
00000000
,
00001000
00010000
00100000
10000000
,
00010000
10000000
00010000
10000000
00010000
00000000
00100000
00000000
,
01000000
10000000
00010000
01000000
,
00002000
01000000
00023000
00000100
,
00031000
00000010
00000001
00000100
,
00000010
00001000
00000010
00001000
00000010
00000000
00000110
00000000
,
00001010
00011000
00101000
01010000
,
10010000
00000000
10000000
00100000
,
02000000
00000000
00000000
00000000
,
00000000
00000000
00000000
00000000
,
00000000
00000000
00000000
00000000
,
00000000
00000000
00000000
00000000
,
03002000
00000000
00000000
00000000
,
00000000
00000000
00000000
00000000
,
00000000
00000000
00000000
00000000
,
00000000
00000000
00000000
00000000
,
00003200
00000000
00000000
00000000
,
00000302
00000000
00000000
00000023
00000000
00000000
00000000
00000230
,
00000000
00000000
00002300
00000000
00000000
00000000
00000000
00003200
,
00000000
00000000
00000000
00002300
00000000
00023000
00000000
00230000
,
00000000
00000000
00000000
00000000
,
00000000
00000000
00000000
02300000
00000000
23000000
00000000
30020000
,
00000000
02030000
00000000
00000000
00000000
00000000
00000000
00000000
,
00000000
00000000
00000000
00000000
,
03001000
00000000
00000000
00010000
00000000
00000000
00000100
00000000
,
00000010
00000000
00000000
00000001
00000000
00000000
00000100
00000000
,
00001000
00000000
00000000
00010000
00000000
00000000
01000000
00000000
,
10000000
00000000
00000000
00100000
00000000
00000000
01000000
00000000
,
01010000
00010000
00100000
00001000
,
00011000
00010000
00001000
00000010
,
00000011
00000000
00000000
00001100
00000000
00000000
00011000
00000000
,
00010000
01000000
10000000
00010000
,
01000000
00000000
10000000
00000000
01000000
00000000
00010000
01000000
,
00010000
00100000
00001000
00010000
,
00000100
00000010
00000100
00010000
,
00001000
00100000
00001000
00000000
01000000
00000000
00100000
00000000
,
10000000
00000000
01000000
00000000
00100000
00000000
00001000
00100000
,
00001000
00000000
00010000
00000000
00000100
00000000
00000010
00000100
,
00000010
00000001
00000100
00001000
,
00000000
00010000
00000000
00011000
00000000
00000000
00000000
00000000
,
00001000
00000000
01000000
00000000
00100000
00000000
00010000
00100000
,
01000000
00000000
00001000
00000000
00010000
00000000
00000100
00010000
,
00001000
00000010
00000001
00000100
,
00000110
00001010
00011000
00101000
,
00100000
00000000
01000000
00000000
00010000
00000000
00001000
00010000
,
00000100
00000000
00000010
00000000
00000001
00000000
00000100
00000010
,
00001000
00000100
00010000
00001000
,
01000000
10000000
01000000
00000000
,
01010000
00010000
00100000
01000000
,
00010000
00001000
00000100
00000001
,
00000010
00000000
00000100
00000000
00001000
00000001
00001000
00000000
,
00001010
00010100
01001000
01010000
,
00010000
00100000
01000000
00010000
,
00001000
00000010
00000001
00000100
,
00001000
01000000
00010000
00100000
,
01000000
00010000
00001000
00000000
,
00011000
00000000
00000000
00000000
00010000
00010000
00000000
00000000
,
00010010
00000020
00000000
00000000
,
00000000
00000000
00000000
00000000
,
00000000
00000000
00000000
00000030
;

//---------------dance-double - ----------------
#NOTEDATA:;
#CHARTNAME:double Barson;
#CHARTHASH:1750501062;
#STEPSTYPE:dance-double;
#BANNER:;
#DESCRIPTION:;
#CHARTSTYLE:;
#DIFFICULTY:Medium;
#METER:13;
#METERF:0.000000;
#LASTSECONDHINT:112.255211;
#RADARVALUES:0.491500,0.565115,0.166759,0.254527,0.210643,392.000000,373.000000,19.000000,29.000000,0.000000,0.000000,0.000000,0.000000,0.000000,0.491500,0.565115,0.166759,0.254527,0.210643,392.000000,373.000000,19.000000,29.000000,0.000000,0.000000,0.000000,0.000000,0.000000;
#CREDIT:YOSEFU;
#NOTES:
00000000
00000000
00000000
00000000
,
00000000
00000000
00000000
00000000
,
00000000
00000000
00000000
00000000
,
00000000
00000000
00000000
00000000
,
00011000
00000000
00010000
00001000
00100000
00000000
00110000
00000000
,
00010000
01000000
00100000
00000000
10100000
00000000
10010000
00000000
,
10000000
01000000
00100000
00001000
00010000
00000100
00000010
00000001
,
00000200
00000000
00000000
00000300
,
00000010
00000000
00001000
00000000
00000100
00000000
00001000
00000000
00000010
00000000
00000000
00010000
00000000
00000000
00001000
00000000
,
00100000
00010000
01000000
00010000
00100000
00000000
11000000
00000000
,
10000000
00000000
00010000
00000000
01000000
00000000
00010000
00000000
00100000
00000000
00000000
00001000
00000000
00000000
00010000
00000000
,
00001000
00010000
00000010
00001000
00000100
00000000
00000011
00000000
,
00000001
00000000
00000100
00000000
00000010
00000000
00000100
00000000
00000001
00000000
00000000
00000010
00000000
00000000
00000100
00000000
,
00010000
00000000
00001000
00000000
00010000
00000000
00000100
00000000
00010000
00000000
00001000
00000000
00000000
01000000
00000000
00000000
,
00100000
00000000
00000000
10010000
00000000
00000000
00000000
00000000
10000000
00000000
00000000
01000000
00000000
00000000
00100000
00000000
,
00010000
00000000
00000000
01000000
00000000
00000000
00001000
00000000
00010000
00000000
00000100
00000000
00000000
00000010
00000000
00000000
,
00000001
00000000
00000100
00000000
00000000
00000010
00000000
00001000
00000010
00000000
00010000
00000000
00001000
00000000
00000000
00000000
,
00010000
00001000
00000010
00001000
00010000
00000000
00011000
00000000
,
00001000
00000000
00100000
00000000
00000000
00010000
00000000
00000000
01000000
00000000
00000000
00100000
00000000
00000000
10000000
00000000
,
00000000
00000000
01000000
00000000
00000000
00010000
00000000
00000000
00001000
00000000
00000000
00000100
00000000
00000000
00000001
00000000
,
00000100
00000000
00000010
00000000
00000000
00001000
00000000
00000100
00001000
00000000
00000100
00000000
00010000
00000000
00000000
00000000
,
00001000
00010000
00100000
00010000
00001000
00000000
00011000
00000000
,
00010000
00001000
00000010
00001000
00010000
00100000
00010000
00001000
,
00020000
00000000
00000000
00000000
00000000
00000000
00000000
00000000
00031000
00000000
00000000
00000010
00000000
00000000
00000001
00000000
,
00000200
00000000
00000000
00000000
,
00000000
00000000
00000000
00000000
,
00000320
00000000
00000000
00000000
,
00000000
00000000
00000000
00000000
,
00020030
00000000
00000000
00000000
,
00000000
00000000
00000000
00000000
,
00000000
00000000
00000000
00000000
00000000
00000000
00000000
00000000
00000000
00000000
00000000
00000000
00000000
00000000
00000000
00000000
00000000
00000000
00000000
00032000
00000000
00000000
00000000
00000000
00000000
00000000
00000000
00000000
00000000
00000000
00000000
00000000
00000000
00000000
00000000
00000000
00000000
00000000
00000000
00000000
00000000
00000000
00000000
00000000
00000000
00000000
00000000
00000000
00000000
00000000
00000000
00000000
00000000
00000000
00000000
00000000
00000000
00000000
00000000
00000000
00000000
00000000
00000000
00000000
00000000
00000000
00000000
00000000
00000000
00000000
00000000
00000000
00000000
00000000
00000000
00000000
00000000
00000000
00000000
00000000
00000000
00000000
00000000
00000000
00000000
00000000
00000000
00000000
00000000
00000000
00000000
00000000
00000000
00000000
00000000
00000000
,
00000000
00000000
00000000
00000000
,
02003000
00000000
00000000
00100000
00000000
00000000
00000000
00000000
,
03020000
00000000
00000000
00230000
00000000
20300000
00000000
30200000
,
00000000
02300000
23000000
00000000
00000000
00000000
00000000
30020000
,
02030000
03020000
00000000
00230000
00320000
00230000
00302000
00023000
,
00030020
00000000
00000000
00000100
00000000
00000000
00000000
00000000
,
00002030
00000000
00000000
00003200
00000000
00000320
00000000
00000032
,
00000000
00000203
00000000
00000000
00000000
00000000
00000000
00000000
,
00000320
00000000
00000000
00000000
,
00001030
00000000
00000000
00000100
00000000
00000000
00000010
00000000
00000000
00000001
00000000
00000000
00000100
00000000
00000010
00000000
,
00000000
00010000
00000000
00000000
00001000
00000000
00000000
01000000
00000000
00000000
00100000
00000000
10000000
00000000
01000000
00000000
,
00000000
00000000
00000000
00100000
00000000
00000000
00001000
00000000
00000000
00010000
00000000
00000000
00100000
00000000
00010000
00000000
,
00000000
00001000
00000000
00000000
00010000
00000000
00000100
00000000
00000000
00000010
00000000
00000000
00000001
00000000
00000100
00000000
,
00000010
00001000
00000010
00001000
00000010
00010000
00000010
00010000
,
00001000
00010000
00001000
00010000
00001000
01000000
00001000
01000000
,
00010000
00000000
00000000
01010000
00000000
00000000
10000000
00000000
00000000
11000000
00000000
00000000
01000000
00000000
00010000
00000000
,
00001000
00100000
00001000
00010000
00000100
00000010
00000100
00000000
,
00001000
00000100
00000010
00000001
00000100
00000010
00010000
00001000
,
00100000
00000000
00010000
00000000
01000000
00000000
00100000
00000000
10000000
00000000
01000000
00100000
00000000
00000000
00010000
00000000
,
01000000
00000000
00100000
10000000
00000000
00000000
01000000
00000000
00000000
00100000
00000000
00000000
00001000
00000000
00010000
00000000
,
00000000
00000100
00001000
00000000
00000000
00000001
00001000
00000000
00000010
00000000
00000000
00000100
00000000
00000000
00000001
00000000
,
00000010
00000100
00010000
00001000
01000000
00100000
10000000
00010000
,
00100000
00000000
01000000
00000000
10000000
00000000
00100000
00000000
01000000
00000000
00000000
00010000
00000000
00000000
00100000
00000000
,
00001000
00000000
00010000
00000010
00000000
00000000
00001000
00000000
00000000
00000001
00000000
00000000
00000100
00000000
00000010
00000000
,
00000000
00001010
00000000
00011000
00000000
00000000
00010000
00001000
,
00100000
01000000
10000000
00100000
01000000
00010000
00001000
00010000
,
01000000
00000000
00001000
00000000
00010000
00000000
00000100
00000000
00000010
00000000
00000001
00001000
00000000
00000000
00000010
00000000
,
00000100
00000000
00000001
00000010
00000000
00000000
00000100
00000000
00000000
00001000
00000000
00000000
00010000
00000000
00001000
00000000
,
00000010
00010000
00001000
00010000
00000100
00000000
00010100
00000000
,
00010000
00001000
00000010
00001000
00010000
00100000
10000000
01000000
,
00010000
00001000
00000010
00000001
00000100
00000010
00001000
00000000
,
00000100
00001000
00010000
00001000
00000100
00010000
00001000
00100000
,
01000000
00000000
00010000
00000000
01000000
00000000
10000000
00000000
00010000
00000000
00000000
01010000
00000000
00000000
01000000
00000000
,
00001000
00000000
00000000
00010000
00000000
00000000
00000100
00000000
00000010
00000000
00000001
00000000
00000100
00000000
00000010
00000000
,
00001000
00000000
00000000
00000100
00000000
00000000
00010000
00000000
00001000
00000000
01000000
00000000
00100000
00000000
10000000
00000000
,
01000000
00000000
00000000
00100000
00000000
00000000
01000000
00000000
00010000
00000000
00001000
00000000
00000010
00000000
00000001
00000000
,
00000100
00000000
00001010
00000000
00011000
00000000
00010000
00001000
,
00100000
00000000
00000000
01000000
00000000
00000000
10000000
00000000
00100000
00000000
00010000
00000000
00001000
00000000
00100000
00000000
,
01000000
00000000
00000000
00010000
00000000
00000000
00001000
00000000
00000100
00000000
00000001
00000000
00000010
00000000
00000000
00000000
,
00000100
00001000
00000010
00000100
00001000
00010000
00001000
00100000
,
01000000
00000000
00010000
00000000
01000000
00000000
10000000
00000000
00010000
00000000
00000000
10010000
00000000
00000000
00000000
00000000
,
10100000
00000000
00000000
00000000
00000000
00000000
00000000
00000000
10000000
00000000
01000000
00000000
00000000
00100000
00000000
00000000
,
00001000
00020000
00000000
00000000
,
00000000
00000000
00000000
00000000
,
00000000
00000000
00000000
00030000
;

//---------------dance-double - ----------------
#NOTEDATA:;
#CHARTNAME:double Arson;
#CHARTHASH:2088928499;
#STEPSTYPE:dance-double;
#BANNER:;
#DESCRIPTION:;
#CHARTSTYLE:;
#DIFFICULTY:Hard;
#METER:16;
#METERF:16.000000;
#LASTSECONDHINT:112.255211;
#RADARVALUES:0.659512,0.831051,0.193089,0.298411,0.671424,526.000000,504.000000,22.000000,34.000000,0.000000,0.000000,0.000000,0.000000,0.000000,0.659512,0.831051,0.193089,0.298411,0.671424,526.000000,504.000000,22.000000,34.000000,0.000000,0.000000,0.000000,0.000000,0.000000;
#CREDIT:Yosefu vs. Arsonist Duo;
#NOTES:
00000000
00000000
00000000
00000000
,
00000000
00000000
00000000
00000000
,
00000000
00000000
00000000
00000000
,
00000000
00000000
00000000
00000000
,
00011000
00000000
00010000
00000100
00000010
00000000
00000011
00000000
,
00000101
00000000
00001010
00000000
00010100
00000000
00011000
00001000
,
00100000
00000000
00010000
00000000
01000000
00000000
00000000
00000000
00100000
00000000
10000000
00000000
01000000
00100000
01000000
00100000
,
00020000
00000000
00000000
00030000
,
00100000
00000000
00010000
00000000
01000000
00000000
00010000
00000000
00100000
00000000
00001000
00010000
00000000
00000100
00001000
00000001
,
00001000
00000001
00000100
00000001
00000010
00000100
00001000
00000010
,
00010000
00000000
00001000
00000000
00010000
00000000
00000010
00000000
00010000
00000000
00001000
00100000
00000000
00010000
00100000
00010000
,
01000000
00010000
00001000
00000001
00000100
00000000
00001001
00000000
,
00000001
00000000
00000100
00000000
00000010
00000000
00000100
00000000
00000001
00000000
00001000
00000100
00000000
00010000
00001000
01000000
,
00010000
00000000
01000000
00000000
10000000
00000000
01000000
00000000
00100000
00000000
10000000
00000000
00000000
01000000
00000000
00000000
,
00010000
00000000
00000000
00011000
00000000
00000000
00001000
00000100
00000010
00000000
00000100
00000010
00000000
00000000
00000001
00000000
,
00000100
00000000
00000000
00001000
00000000
00000000
00010000
00000000
00001000
00000000
01000000
00000000
00000000
01010000
00000000
00000000
,
00010000
10000000
01000000
00100000
00000000
00001000
00000000
00010000
00000100
00000000
00000010
00000000
00000000
00000001
00000000
00000100
,
00000010
00000000
00000100
00000000
00001000
00000000
00010000
00000000
01000000
10000000
01000000
10000000
00010000
00000000
00000000
00100000
,
01000000
00000000
00010000
00000000
00000000
00001000
00000000
00000000
00000100
00000010
00000000
00000001
00001000
00000000
00000100
00000000
,
00000020
00000000
00001000
00000000
00000000
00000100
00000000
00000000
00000032
00000000
00000000
00000010
00000000
00000000
00001000
00000000
,
00000103
00000010
00001000
00000001
00000000
00000010
00000000
00000100
00001000
00000001
00001000
00000000
00000010
00000000
00000100
00000000
,
00001000
00000000
00010000
00000000
00100000
00000000
10000000
00000000
01000000
00000000
00100000
00010000
00100000
00000000
00010000
10000000
,
00010000
00000000
01000000
00010000
01000000
00000000
00001000
00010000
00001000
00000000
00010000
00000100
00000000
00000000
00001100
00000000
,
00001002
00000000
00000000
00000000
00000000
00000000
00000000
00000000
00001003
00000010
00010000
00001000
00020000
00000000
00000000
00000000
,
00032000
00000000
00000000
00000000
,
00000000
00000000
00000000
00000000
,
00023000
00000000
00000000
00000000
,
00000000
00000000
00000000
00000000
,
02030000
00000000
00000000
00000000
,
23000000
00000000
00000000
00000000
,
00000000
00000000
00000000
00000000
00000000
00000000
00000000
00000000
00000000
00000000
00000000
00000000
00000000
00000000
00000000
00000000
00000000
00000000
00000000
30200000
00000000
00000000
00000000
00000000
00000000
00000000
00000000
00000000
00000000
00000000
00000000
00000000
00000000
00000000
00000000
00000000
00000000
00000000
00000000
00000000
00000000
00000000
00000000
00000000
00000000
00000000
00000000
00000000
00000000
00000000
00000000
00000000
00000000
00000000
00000000
00000000
00000000
00000000
00000000
00000000
00000000
00000000
00000000
00000000
00000000
00000000
00000000
00000000
00000000
00000000
00000000
00000000
00000000
00000000
00000000
00000000
00000000
00000000
00000000
00000000
00000000
00000000
00000000
00000000
00000000
00000000
00000000
00000000
00000000
00000000
00000000
00000000
00000000
00000000
00000000
00000000
,
00000000
00000000
00000000
00000000
,
02300000
00000000
00000000
00010000
00000000
00000000
00000000
00000000
,
03020000
00000000
00000000
00230000
00000000
20300000
00000000
30200000
,
00000000
00302000
00023000
00000000
00000000
00000000
00000000
00030200
,
00000320
00000230
00000000
00000320
00002030
00023000
02030000
23000000
,
30020000
00000000
00000000
01000000
00000000
00000000
00000000
00000000
,
20030000
00000000
00000000
32000000
00000000
00020000
03000000
00032000
,
00000000
00003020
00000000
00000000
00000000
00000000
00000000
00000000
,
00000032
00000000
00000203
00000000
,
00000310
00000000
00000000
00001000
00000000
00000000
00000100
00000000
00000000
00000001
00000000
00000000
00000100
00000000
00001000
00000000
,
00000000
00000010
00000000
00001000
00000100
00000000
00000010
00000001
00000000
00000100
00000010
00000000
00010000
00000000
00001000
00000000
,
00100000
00000000
00000000
01000000
00000000
00000000
10000000
00000000
00000000
00100000
00000000
00000000
00010000
00000000
00100000
00000000
,
00000000
01000000
00000000
00010000
10000000
00000000
01000000
00100000
00000000
00001000
00000000
00010000
00000100
00000000
00000010
00000000
,
00000011
00000001
00000100
00000010
00010000
00001000
00100000
01000000
,
11000000
00000000
10000000
00000000
00100000
00000000
01000000
00000000
00001000
00000000
00010000
00000000
00000100
00000000
00000010
00000001
,
00001000
00000000
00000010
00001000
00000000
00000000
00001100
00000000
00000100
00000001
00000000
00000000
00000100
00000010
00000100
00000010
,
00000001
00001000
00000001
00000000
00001000
00000010
00001000
00000000
00000010
00000100
00000010
00000000
00001000
00000000
00000000
00000000
,
00000100
00000010
00000100
00000000
00001000
00000100
00001000
00000000
00000100
00010000
00000100
00000000
00010000
00001000
00010000
00001000
,
01000000
00010000
01000000
00000000
00010000
10000000
00010000
00000000
00100000
00000000
00100000
01000000
00000000
01000000
10000000
00000000
,
10000000
00000000
00010000
01000000
00000000
01000000
10000000
00000000
10000000
01000000
00000000
01000000
00010000
00000000
00100000
00000000
,
00000000
00001000
00010000
00000000
00000000
00000010
00001000
00000000
00000100
00000000
00000010
00000001
00000000
00000000
00000100
00000000
,
00000010
00001000
00000010
00000000
00001000
00000100
00001000
00000000
00000100
00010000
00000100
00000000
00010000
00001000
00010000
00001000
,
00100000
00001000
00100000
00000000
00010000
10000000
00010000
00000000
01000000
00000000
01000000
00100000
00000000
00100000
10000000
00000000
,
10000000
00000000
01000000
00100000
00000000
00100000
00010000
00000000
00010000
00001000
00000000
00001000
00000100
00000000
00010000
00000000
,
00000000
00000000
00010100
00000000
00000000
00000000
00001001
00000000
00000000
00000000
00000000
00000000
00000001
00000100
00000001
00000000
,
00000100
00000010
00001000
00000000
00000100
00010000
00001000
00000000
00100000
00010000
01000000
00000000
00100000
10000000
01000000
00100000
,
00001000
00010000
00000010
00000000
00000100
00000001
00001000
00000000
00000100
00000000
00000100
00000010
00000000
00000010
00000001
00000000
,
00000001
00000000
00000100
00000010
00000000
00000010
00000001
00000000
00000001
00000010
00000000
00000010
00001000
00000000
00010000
00000000
,
00000000
00001000
00000010
00000000
00000000
00010000
00001000
00000000
01000000
00000000
00100000
10000000
00000000
01000000
00100000
00000000
,
00010000
01000000
00100000
00000000
00010000
00001000
00100000
00000000
00001000
00010000
00000010
00000000
00000100
00000001
00000010
00000100
,
00001000
00000010
00010000
00000000
00001000
00010000
00100000
00000000
10000000
00000000
01000000
00100000
00010000
00000000
01000000
00000000
,
00100000
00010000
00001000
00000010
00001000
00010000
00000010
00000100
,
00000001
00000010
00000100
00001000
00000010
00010000
00001000
00000010
00000100
00000000
00000010
00001000
00000000
00000010
00000001
00000000
,
00001000
00000010
00000000
00000100
00000000
00001000
00010000
00000000
00001000
00100000
01000000
00000000
10000000
00100000
01000000
00000000
,
00001000
00100000
00000000
00010000
00000000
00001000
00010000
00000000
00000100
00000010
00000001
00000000
00000100
00000010
00001000
00000000
,
00000001
00000100
00000000
00001000
00000000
00010000
00001000
00000000
00000010
00000001
00000010
00000100
00010000
00000000
00001000
00000000
,
00000010
00000000
00010000
00000000
00100000
00000000
00001000
00000000
01000000
00000000
00000000
00000000
01010000
00000000
00010000
10000000
,
00100000
01000000
00000000
00001000
00000000
00010000
00000100
00000000
00000010
00000001
00000100
00000000
00001000
00010000
00000100
00000000
,
00001000
00000010
00000000
00010000
00000000
00001000
00100000
00000000
01000000
00000000
10000000
00100000
00000000
00000000
10000000
00000000
,
01000000
00100000
00010000
00001000
00000100
00010000
00001000
00000100
,
00000010
00000000
00001000
00000000
00100000
00000000
01000000
00000000
00010000
00000000
00000000
01010000
00000000
00000000
01000000
00000000
,
10010000
00000000
00000000
00000000
00000000
00000000
00000000
00000000
00101000
00000000
00010100
00000000
00000000
00001001
00000000
00000000
,
00000001
00000020
00000000
00000000
,
00000000
00000000
00000000
00000000
,
00000000
00000000
00000000
00000030
;
