#VERSION:0.83;
#TITLE:НУМЛ;
#SUBTITLE:;
#ARTIST:Zutt;
#TITLETRANSLIT:NUML;
#SUBTITLETRANSLIT:;
#ARTISTTRANSLIT:;
#GENRE:FANTASY RENAISSANCE;
#ORIGIN:pop'n music うさぎと猫と少年の夢;
#TAGS:;
#CREDIT:;
#BANNER:NUML.png;
#BACKGROUND:NUML-bg.png;
#PREVIEWVID:;
#JACKET:NUML-jacket.png;
#CDIMAGE:;
#DISCIMAGE:;
#LYRICSPATH:;
#CDTITLE:../_YSD cdtitles/ysd sc2024 cdtitle.png;
#MUSIC:NUML.ogg;
#OFFSET:-0.546000;
#SAMPLESTART:86.575836;
#SAMPLELENGTH:10.632912;
#SELECTABLE:YES;
#BPMS:0.000000=79.000000
,30.000000=200.000000
,218.000000=158.600006
,219.000000=158.000000
,264.000000=157.199997
,266.000000=157.500000
,267.666656=162.000000
,268.000000=158.000000
,271.000000=163.899994
,274.000000=200.000000
,398.000000=192.000000
,404.000000=185.000000
,405.000000=191.000000
,405.500000=189.000000
,406.000000=190.000000
;
#STOPS:;
#DELAYS:;
#WARPS:;
#TIMESIGNATURES:0.000000=2=4
,30.000000=4=4
,170.000000=6=4
,218.000000=2=4
,220.000000=4=4
,236.000000=2=9
,240.500000=2=5
,245.500000=2=9
,254.500000=2=5
,259.500000=2=9
,264.000000=4=4
,268.000000=3=4
,274.000000=4=4
;
#TICKCOUNTS:0.000000=4
;
#COMBOS:0.000000=1
;
#SPEEDS:0.000000=1.000000=0.000000=0
;
#SCROLLS:0.000000=1.000000
;
#FAKES:;
#LABELS:0.000000=Song Start
;
#BGCHANGES:;
#KEYSOUNDS:;
#ATTACKS:
;

//---------------dance-single - ----------------
#NOTEDATA:;
#CHARTNAME:;
#CHARTHASH:343686829;
#STEPSTYPE:dance-single;
#BANNER:;
#DESCRIPTION:;
#CHARTSTYLE:;
#DIFFICULTY:Beginner;
#METER:8;
#METERF:0.000000;
#LASTSECONDHINT:152.040497;
#RADARVALUES:0.284832,0.524565,0.221536,0.056966,0.000000,315.000000,280.000000,35.000000,9.000000,0.000000,0.000000,0.000000,0.000000,0.000000,0.284832,0.524565,0.221536,0.056966,0.000000,315.000000,280.000000,35.000000,9.000000,0.000000,0.000000,0.000000,0.000000,0.000000;
#CREDIT:YOSEFU;
#NOTES:
0000
0000
0000
0000
,
0000
0000
0000
0000
,
1000
0000
0001
0000
,
0100
0000
0000
0000
,
0010
0000
1000
0000
,
0100
0000
0000
0000
,
0010
0000
0001
0000
,
1001
0000
0000
0000
,
0000
0000
1001
0000
,
1000
0000
0001
0000
,
1000
1000
1001
0000
,
0001
0000
0100
0000
,
0010
0010
1000
0000
,
0000
0000
0001
0000
,
0000
0000
0100
0000
,
0000
0000
0010
0000
,
0000
0000
1001
0000
,
0001
0000
0100
0000
,
0001
0000
0010
0000
,
0001
0000
1000
1000
,
1000
0000
0001
0000
,
0010
0000
0100
0000
,
0010
0000
0001
0000
,
1000
0000
0010
0010
,
0010
0000
0110
0000
,
0001
0000
1000
0000
,
0100
0000
0010
0000
,
0001
0000
0100
0100
,
0100
0000
0010
0000
,
1000
0000
0001
0000
,
0010
0000
0100
0000
,
1000
0000
0001
0001
,
0001
0000
1001
0000
,
1000
0000
0001
0000
,
0100
0000
0110
0100
,
0010
0000
0100
0000
,
0001
0000
1001
0001
,
1000
0000
0100
0000
,
0010
0000
1001
1000
,
0001
0000
0100
0000
,
0010
0000
1000
1000
,
1000
1000
0001
0001
,
0001
0000
1000
1000
,
0001
0001
0100
0100
,
0010
0010
1000
1000
,
0100
0010
0001
0001
,
0100
0100
0001
0010
,
0100
0100
1000
1000
,
0100
0010
0001
0001
,
1000
1000
0010
0010
,
0100
0100
0001
0001
,
0010
0100
1000
1000
,
0010
0010
1000
0100
,
0010
0010
0001
0001
,
0010
0100
0000
0000
,
1000
0010
1000
0000
,
0010
0100
0001
0000
,
1000
0100
1000
0100
,
0010
0001
1000
0000
,
0110
0000
0000
0100
0000
0000
0001
0000
,
0000
1001
0000
0000
0100
0000
0000
0000
,
1000
0000
0000
1001
0000
0000
0001
0000
,
0000
0100
0000
0000
0110
0000
0000
0010
,
0000
0000
1000
0000
0000
1001
0000
0000
,
0001
0000
0000
0010
0000
0110
0000
1001
,
0000
0000
0001
0000
0000
0100
0000
0000
,
1001
0000
1000
0000
,
0100
0000
0000
0010
0000
0000
2002
0000
,
0000
0000
3003
0000
,
0000
0000
0010
0000
,
0000
0000
0100
0000
,
0000
0000
0010
0000
,
0000
0000
0000
0000
1001
0000
0000
0001
,
0000
0001
0000
0001
0001
0000
0000
1000
,
0000
1000
0000
1000
1000
0000
0000
0100
,
0000
0100
0000
0100
0100
0000
0000
0110
,
0000
0110
0000
0000
1000
0000
0000
1001
,
0000
1001
0000
0000
0001
0000
0000
0110
,
0000
0110
0000
0000
1000
0000
0000
0110
,
0000
0110
0000
0000
1001
0000
0110
0000
,
1001
0000
1001
0000
0110
0000
0000
1000
,
0000
1000
0000
1000
1000
0000
0000
0001
,
0000
0001
0000
0001
0001
0000
0000
0100
,
0000
0100
0000
0100
0100
0000
0000
0010
,
0000
0010
0000
0000
0110
0000
0000
1000
,
0000
1000
0000
0000
1001
0000
0000
0001
,
0000
0001
0000
0000
0110
0000
0000
1000
,
0000
1000
0000
0000
0100
0000
1000
0000
,
0100
0010
0001
0100
,
0001
0100
0010
1000
,
0010
1000
0001
0010
,
0001
0010
0100
1000
,
0100
1000
0001
0100
,
0010
0100
0001
1000
,
0100
0010
0100
1000
,
0001
0100
1000
0100
,
0001
0010
0200
0000
,
0000
0000
0000
0000
,
0000
0000
0000
0000
,
0000
0000
0000
0000
,
0000
0000
0000
0000
,
0300
0000
1000
0010
,
0200
0000
0310
0100
,
0002
0000
1003
0100
,
0020
0000
0000
0000
,
0000
0030
0001
0100
,
0020
0000
0130
0010
,
2000
0000
3001
0010
,
0200
0000
0000
0000
,
0000
0000
0000
0000
,
0000
0000
0300
0000
;

//---------------dance-single - ----------------
#NOTEDATA:;
#CHARTNAME:;
#CHARTHASH:2365337073;
#STEPSTYPE:dance-single;
#BANNER:;
#DESCRIPTION:;
#CHARTSTYLE:;
#DIFFICULTY:Easy;
#METER:12;
#METERF:0.000000;
#LASTSECONDHINT:152.040497;
#RADARVALUES:0.474720,0.594507,0.227865,0.316480,0.129757,525.000000,489.000000,36.000000,50.000000,0.000000,2.000000,0.000000,0.000000,0.000000,0.474720,0.594507,0.227865,0.316480,0.129757,525.000000,489.000000,36.000000,50.000000,0.000000,2.000000,0.000000,0.000000,0.000000;
#CREDIT:frondal ft. YOSEFU;
#NOTES:
0000
0000
0000
0000
,
0000
0000
0000
0000
,
1000
0000
0100
0000
1000
0000
0001
0100
,
0010
0000
0000
0000
,
1000
1000
0100
0000
0010
0010
0001
0100
,
0010
0100
0001
0000
0000
0000
0000
0000
,
0001
0001
0010
0000
0100
0100
1000
0010
,
0100
0001
1000
0000
0000
0000
0000
0000
,
0000
0000
1001
0001
,
1000
0000
0000
0000
,
0000
0000
1001
1000
,
0001
0000
0000
0000
,
0000
0000
0020
0000
,
0230
0000
2300
0000
,
3002
0000
0203
0000
,
0320
0000
0000
0000
1030
0001
1000
0001
,
0010
0100
1000
0001
0101
0000
0100
0000
,
0010
1000
0001
0000
0011
0000
0010
0000
,
0100
0010
1000
0010
0002
0000
0000
2003
,
0000
0000
3010
0010
,
0100
0001
0010
0000
0011
0000
0010
0000
,
0100
1000
0001
0000
0101
0000
0100
0000
,
0010
0100
1000
0100
0002
0000
0000
2003
,
0000
0000
0000
0000
3100
0010
0100
0010
,
0000
0001
1000
0000
1010
0000
0010
0000
,
0100
0001
1000
0000
1100
0000
0100
0000
,
0010
0100
0001
0100
2000
0000
0000
3002
,
0000
0000
0103
0100
,
0010
1000
0100
0000
1100
0000
0100
0000
,
0010
0001
1000
0000
1010
0000
0010
0000
,
0100
0010
0001
0010
0100
0000
0001
0000
,
0010
0000
0100
0000
1000
0000
0001
0010
,
0100
1000
0010
0000
1000
0000
0010
0100
,
0001
0000
0010
0000
0001
0000
0100
0010
,
1000
0000
0100
0000
0001
0000
0100
1000
,
0010
0000
0100
0000
0001
0000
0010
0001
,
0100
0000
0010
0000
0001
0000
0010
1000
,
0100
0000
0010
0000
0001
0000
1000
0010
,
0100
0000
0100
0000
1000
0000
0100
0010
,
1000
0000
0100
0000
0010
0000
0001
0100
,
0010
0000
1000
0000
0001
0010
0001
0010
,
0100
1000
0100
1000
0020
0000
0000
0000
,
0030
0000
0000
0000
1000
0000
0001
0100
,
1000
0100
0001
0000
0100
0000
0010
0000
,
1000
0000
0001
0010
1000
0010
0100
0000
,
0100
1000
0000
1000
0001
0000
1000
0010
,
0001
0010
1000
0000
0010
0000
0100
0000
,
0001
0000
1000
0100
0001
0100
0010
0000
,
0010
0001
1000
0000
0001
0000
1000
0010
,
0001
0010
1000
0000
0010
0000
0100
0000
,
0001
0000
1000
0100
0001
0100
0010
0000
,
0010
0001
0000
0001
1000
0000
0001
0100
,
1000
0100
0001
0000
0100
0000
0010
0000
,
1000
0000
0001
0010
1000
0010
0100
0000
,
0100
1000
0001
0000
0000
0000
0000
0000
,
2000
3020
0230
0302
,
0023
0230
2300
3002
,
0203
0320
2030
3200
,
0320
0032
0103
0101
,
1001
0000
0000
1001
0000
0000
1000
0000
0000
0100
0000
0000
0010
0000
0001
0100
,
0000
0000
0101
0000
0000
0101
0000
0000
0100
0000
0000
0001
0000
0000
1000
0000
,
0100
0000
0010
0000
0000
0000
0011
0000
0000
1001
0000
0000
1000
0000
0000
0010
,
0000
0000
0100
0000
0001
0010
0000
0000
1001
0000
0000
1001
0000
0000
1000
0000
,
0000
0100
0000
0000
0010
0000
0100
1000
0000
0000
1100
0000
0000
1001
0000
0000
,
0001
0000
0000
0100
0000
0000
0010
0000
0100
0000
0001
0000
0000
0000
0101
0000
,
0000
1001
0000
0000
1000
0000
0000
0100
0000
0000
0010
0000
0001
0100
0000
0000
,
0101
0000
0000
0000
0000
0000
0000
0000
0000
1001
0000
0000
0000
0000
0000
0000
0000
0000
0000
0000
0000
0000
0000
0000
1000
0000
0000
0000
0100
0000
0000
0000
1000
0000
0000
0000
0000
0000
0000
0000
0001
0000
0000
0000
0100
0000
0000
0000
,
0001
0000
0000
0010
0000
0000
1000
0000
0000
0010
0000
0000
0002
0000
0000
0000
,
0000
0000
0203
0000
,
0000
0000
0000
0000
0310
1000
0000
1000
,
0000
1000
0000
1000
0200
0000
0000
0000
,
0000
0000
0000
0000
0310
0001
0000
0001
,
0000
0001
0000
0001
1000
1000
0000
0010
,
0000
0100
0000
0001
0010
0010
0000
0100
,
0000
1000
0000
0001
0100
0100
0000
1000
,
0000
0100
0000
0001
0010
0010
0000
1100
,
0000
0101
0000
0000
0001
0001
0000
0011
,
0000
1100
0000
0000
1000
1000
0000
1010
,
0000
0101
0000
0000
0001
0001
0000
1100
,
0000
0101
0000
0000
0001
0100
0010
0100
,
0001
1000
0100
0000
0110
0000
0010
0001
,
0010
0100
0010
0001
1000
0000
0001
0100
,
0010
0100
1000
0100
0010
0000
1000
0100
,
0010
0100
1000
0010
0100
0000
1000
0100
,
0001
0100
0010
0000
1000
0100
0010
0001
,
0000
0101
0000
0100
0001
0010
1000
0010
,
0000
0001
0000
0100
0010
1000
0100
0010
,
0000
0001
0000
0100
0001
0000
0010
0000
,
0100
1000
0001
0100
,
0010
0000
1000
0001
0000
0000
0010
0000
0000
0100
0000
0000
,
1000
0000
0001
0100
0000
0000
0010
0000
0000
1000
0000
0000
,
0100
0000
0010
0001
0000
0000
0100
0000
0000
0001
0000
0000
,
0010
0000
0100
0001
0000
0000
0100
0000
0000
1000
0000
0001
,
0100
0000
0000
0010
0000
1000
0100
0000
0000
0001
0000
0100
,
0010
0000
0000
0001
0000
1000
0010
0000
0000
0100
0000
0001
,
0010
0000
0000
0100
0000
1000
0010
0000
0000
0001
0000
0010
,
0100
0000
0000
0001
0000
1000
0200
0000
0000
0000
0000
0000
,
0000
0000
0010
0000
,
1000
0000
0010
0000
,
0001
0000
1000
0000
,
0010
0000
1000
0000
,
0001
1000
0320
0032
,
0203
0000
0320
2030
,
3100
0000
1000
0000
0100
0000
0020
0000
0000
0032
0000
0000
,
0203
0000
0000
0000
,
0000
0300
0002
0023
,
0230
0000
2300
3020
,
0130
0000
0001
0000
0100
0000
0002
0000
0000
0203
0000
0000
,
2320
0000
0000
3000
0000
0000
0100
0000
0001
0000
0100
0000
,
0002
0203
0300
0000
,
0000
0000
0030
0000
;

//---------------dance-single - ----------------
#NOTEDATA:;
#CHARTNAME:;
#CHARTHASH:4202479607;
#STEPSTYPE:dance-single;
#BANNER:;
#DESCRIPTION:;
#CHARTSTYLE:;
#DIFFICULTY:Medium;
#METER:15;
#METERF:0.000000;
#LASTSECONDHINT:152.040497;
#RADARVALUES:0.626630,0.804333,0.240525,0.430412,0.379776,693.000000,655.000000,38.000000,68.000000,0.000000,0.000000,0.000000,0.000000,0.000000,0.626630,0.804333,0.240525,0.430412,0.379776,693.000000,655.000000,38.000000,68.000000,0.000000,0.000000,0.000000,0.000000,0.000000;
#CREDIT:frondal ft. YOSEFU;
#NOTES:
0000
0000
0000
0000
,
0000
0000
0000
0000
,
2000
0000
3200
0000
,
0320
0000
0000
0000
0032
0000
1000
0023
,
0032
0000
0203
2300
,
3200
0000
0320
0000
,
2030
0000
3002
0023
,
0230
0000
0300
0000
,
0000
0000
1100
1000
,
0010
0100
0001
0100
,
0010
1000
0101
0001
,
0010
0100
1000
0100
,
0010
0000
0000
0001
0000
0000
1000
0000
0010
0000
1000
0000
,
0001
0000
0100
0000
0001
0000
1000
0000
0100
0000
1000
0000
,
0001
0000
0010
0000
0001
0000
1000
0000
0010
0000
0100
0000
,
0001
0000
0000
0000
0010
0000
0000
0000
0100
0000
0000
0000
1000
0000
0000
0010
0000
0000
1000
0000
0000
0001
0000
0000
,
0010
0001
0100
0010
1000
0100
0010
0001
,
0100
0001
0010
0100
1000
0100
0010
0001
,
1000
0001
0100
0010
2000
0001
0000
0001
,
0000
0010
0000
3010
0100
0001
0010
0100
,
0000
1000
0000
0001
0100
0001
0010
0001
,
0010
0100
0010
0001
1000
0010
0100
0010
,
1000
0001
0010
0100
2000
0010
0000
0010
,
0000
0100
0000
3100
0010
0001
0100
0010
,
0000
1000
0100
0010
0001
0010
0100
0010
,
0001
1000
0010
0100
0001
1000
0100
0010
,
0001
0010
0100
1000
0001
0000
0100
0000
,
0010
0000
0100
0000
0001
0010
0100
1000
,
0000
0100
0001
0100
1000
0001
0100
0010
,
1000
0100
0010
0001
0010
0100
1000
0010
,
0001
0000
0010
0000
1000
0000
0001
0000
0000
0010
0000
0000
,
0100
0000
0000
0000
1000
0000
0000
0000
0001
0000
0000
0000
1000
0010
1000
0000
,
0001
0000
0010
0000
0100
0000
0000
0000
1000
0000
0100
0010
0000
0000
0020
0000
,
0000
0030
0000
0000
0001
0000
0100
0010
0000
0000
0020
0000
0000
0000
0030
0000
,
1000
0000
0100
0010
0000
0000
0001
0000
1000
0000
0010
0000
0100
0000
0001
1000
,
0000
0000
2000
0000
0000
0000
3100
0000
0100
0000
0010
0001
0000
0000
0002
0000
,
0000
0000
0103
0000
0100
0000
0010
1000
0001
0000
0020
0000
0000
0000
0130
0000
,
1000
0000
0001
0100
0000
0000
0200
0000
0000
0000
0310
0000
1000
0000
0001
0010
,
0000
0000
0020
0000
0000
0000
0130
0000
1000
0000
0010
0100
0000
0000
0200
0000
,
0000
0000
0301
0000
1000
0000
0100
0010
0000
0000
0020
0000
0000
0000
0031
0000
,
1000
0000
0010
0100
0000
0200
0000
0000
0301
0000
0010
0000
0001
0000
0010
0000
,
0100
1000
0100
1000
0020
0000
0230
0000
,
0301
0000
0000
0000
1100
1000
0001
0101
,
0100
0010
1000
0100
0001
0100
1000
0000
,
1010
1000
0001
0011
0010
0100
0001
0100
,
1000
0001
0010
0000
0101
0001
1000
1100
,
0100
0010
0001
0100
1000
0100
0001
0000
,
0011
0001
1000
1010
0010
0100
1000
0100
,
0001
1000
0010
0000
0101
0100
1000
1100
,
0100
0001
0010
1000
0001
0100
1000
0010
,
1010
1000
0100
0101
0001
0100
1000
0001
,
0100
1000
0001
0010
1010
1000
0010
0011
,
0001
0010
1000
0100
0001
1000
0010
0001
,
0011
0010
1000
1010
0010
0001
0100
1000
,
0001
0010
1000
0100
0000
0000
0000
0000
,
2000
3200
0320
0032
,
0203
0320
0032
0023
,
2030
3200
0320
0230
,
2300
3002
0203
0310
,
1010
0000
1000
0001
0000
0000
0010
0000
0100
0010
0000
0001
0010
0001
0000
1000
,
0000
0000
1010
0000
0010
1000
0000
0000
0100
0010
0001
0000
1000
0000
0010
0000
,
1000
0010
0100
0000
0000
0000
1001
0000
0001
0010
0000
0000
0100
0000
0010
0001
,
0000
1000
0010
0000
0100
0010
1000
0000
1001
0000
0001
0100
0000
0000
0010
0000
,
1000
0010
0000
1000
0001
0000
0010
0100
0000
0000
1100
0000
1000
0001
0000
0000
,
0100
0000
0010
1000
0000
0001
0010
0000
0100
1000
0010
0000
0000
0000
0110
0000
,
0100
0001
0000
0000
0010
0000
0100
1000
0000
0001
1000
0000
0010
0100
0001
0000
,
0101
0000
0000
0000
0000
0000
0000
0000
0000
1010
0000
0000
0000
0000
0000
0000
0000
0000
0000
0000
0000
0000
0000
0000
1000
0000
0000
0000
0010
0000
0000
0000
1000
0000
0000
0000
0001
0000
0000
0000
1000
0000
0000
0000
0001
0000
0000
0000
,
0010
0000
0000
0100
0000
0000
1100
0000
0000
1000
0000
0000
0020
0000
0000
0000
,
0000
0000
2030
0000
,
0000
0000
0000
0000
3100
0010
0000
0010
,
0000
0010
0000
0010
0002
0000
0000
0000
,
0000
0000
0000
0000
0103
0010
0000
0010
,
0000
0001
0000
0010
2000
0000
0000
0100
,
0000
0001
0000
3010
0200
0000
0000
0001
,
0000
0310
0000
1000
0002
0000
0000
0100
,
0000
1000
0000
0013
0100
1000
0000
1100
,
0000
0011
0000
0000
0001
0100
0000
0101
,
0000
0000
1010
0000
0000
0000
0010
1000
0001
0000
0010
0000
0000
0000
0110
0000
,
0000
0000
1001
0000
0000
0000
0001
1000
0010
0000
0100
0000
0000
0000
0110
0000
,
0000
1001
0000
0000
0001
0100
1000
0100
,
0002
0000
0000
0000
2003
0000
0000
0000
3100
0000
0000
0100
0010
0000
0001
0000
,
0100
0000
1000
0000
0100
0000
0001
0000
0010
0000
0000
0010
0100
0000
1000
0000
,
0010
0000
0001
0000
0010
0000
1000
0000
0100
0000
0000
0100
0010
0000
1000
0000
,
0001
0100
0010
0001
1001
1000
0010
0100
,
0010
1000
0001
0000
0100
0010
1000
0100
,
0010
0000
0000
0010
0001
0000
1000
0000
0100
0000
0010
0000
0001
0000
0100
0000
,
0010
0000
0000
0010
1000
0000
0001
0000
0010
0000
0100
0000
1000
0000
0010
0000
,
0100
0001
1000
0100
0110
0000
0110
0000
,
0010
0000
0000
0000
0000
0000
0001
0000
0000
1000
0000
0000
0001
0000
0000
1000
0000
0000
0000
0000
0000
0000
0000
0000
0010
0000
0000
0000
0000
0000
0000
0000
1000
0000
0000
0000
0010
0000
0000
0000
0000
0000
0000
0000
1000
0000
0000
0000
,
0001
0010
0100
0010
0001
1000
0010
0000
0100
0001
0000
1000
,
0010
0100
0001
0100
0010
1000
0001
0000
0010
0100
0000
0001
,
0100
0010
0001
1000
0010
0100
0001
0000
1000
0100
0000
0010
,
1000
0010
0100
1000
0001
0100
0010
0000
1000
0010
0100
0000
,
0100
0000
0001
0010
0100
0000
0100
0000
1000
0010
1000
0010
,
0100
0000
0001
0010
0001
0010
0100
1000
0001
1000
0001
0000
,
0100
0001
1000
0001
1000
0000
0010
1000
0010
1000
0100
0010
,
0001
0010
0001
0100
0010
1000
0020
0000
0000
0000
0000
0000
,
0000
0000
0000
0000
1030
0100
1000
0000
,
0001
0100
0001
0000
1000
0010
1000
0000
,
0001
0010
0001
0000
1000
0100
1000
0000
,
0001
0100
0001
0000
1000
0010
1000
0000
,
0001
0010
0100
1000
0020
0000
0230
0000
,
0302
0000
0023
0230
,
1300
0000
0100
0000
0010
0000
0002
0000
0000
2003
0000
0000
,
3020
0000
0000
0000
,
0000
0030
0200
0302
,
0023
0000
0230
2300
,
3010
0000
1000
0000
0001
0000
2000
0000
0000
3020
0000
0000
,
0230
0000
0000
0000
,
0000
0000
0000
0000
,
0000
0000
0300
0000
;

//---------------dance-single - ----------------
#NOTEDATA:;
#CHARTNAME:;
#CHARTHASH:2236940342;
#STEPSTYPE:dance-single;
#BANNER:;
#DESCRIPTION:;
#CHARTSTYLE:;
#DIFFICULTY:Hard;
#METER:17;
#METERF:0.000000;
#LASTSECONDHINT:151.935226;
#RADARVALUES:0.746892,1.013394,0.265843,0.234195,0.702585,826.000000,784.000000,42.000000,37.000000,0.000000,0.000000,0.000000,0.000000,0.000000,0.746892,1.013394,0.265843,0.234195,0.702585,826.000000,784.000000,42.000000,37.000000,0.000000,0.000000,0.000000,0.000000,0.000000;
#CREDIT:frondal ft. YOSEFU;
#NOTES:
0000
0000
0000
0000
,
0000
0000
0000
0000
,
2000
0000
3020
0000
0230
0000
0301
0010
,
0200
0000
0000
0000
0320
0000
0000
0031
,
0100
0010
0001
0000
0010
0100
0001
0010
,
0100
1000
0020
0000
0100
0000
0000
0000
,
1030
0100
0010
0000
1000
0010
0001
0100
,
0010
1000
0100
0000
0000
0000
0000
0000
,
0000
0000
1001
1000
,
0001
0010
0001
0010
,
0100
1000
1001
0001
,
0100
0010
1000
0010
,
0100
0000
0000
0001
0000
0000
1000
0000
0100
0000
1000
0000
,
0001
0000
0100
0000
0001
0000
0010
0000
0100
0000
1000
0000
,
0010
0000
0100
0000
0001
0000
1000
0000
0100
0000
0010
0000
,
1000
0000
0010
0000
0100
0000
1000
0000
0001
0000
0100
0000
,
0010
0000
0000
0000
1000
0000
0000
0000
0001
0000
0000
0000
1000
0000
0000
0100
0000
0000
0010
0000
0000
1000
0000
0000
,
0010
0001
1000
0010
1000
0100
0010
0001
,
1000
0010
0001
0010
0200
0000
0000
0302
,
0000
0000
0003
0000
1000
0010
0100
0001
,
0000
0000
0010
0000
0010
0000
0000
0001
1000
0000
0010
0000
0100
0000
1000
0000
,
0100
0001
1000
0100
1000
0010
0100
0001
,
1000
0100
0001
0100
2000
0000
0000
3200
,
0000
0000
0000
0000
0301
0100
0010
1000
,
0000
0000
0010
0000
0010
0000
0001
1000
0001
0000
0100
0000
0010
0000
0001
0000
,
0010
1000
0001
0010
0001
0100
0010
1000
,
0001
0000
0010
1000
0010
0000
0100
0000
0000
1100
0000
0000
,
0011
0000
0000
0000
0001
0010
0100
1000
,
0000
0000
0010
0000
0100
0010
1000
0000
0001
0000
0010
0000
0100
0000
0001
0000
,
0100
1000
0001
0100
0001
0010
0100
1000
,
0001
0000
0100
1000
0100
0000
0001
0000
0000
0011
0000
0000
,
1100
0000
0000
0000
1000
0000
0000
0000
0001
0000
0100
0000
0010
1000
0001
1000
,
0100
0010
0001
1000
0100
0010
0001
0000
1000
0000
0010
0100
0010
0000
0010
0000
,
1000
0000
0100
0000
0010
0001
1000
0000
0010
0000
0100
0000
0010
0000
0010
0000
,
1000
0100
0010
0001
0000
1000
0010
0000
1010
0000
1000
0000
0001
0010
0001
0000
,
0100
0000
0010
0000
1000
0000
0001
0000
1000
0100
0010
0001
0000
1000
0010
0000
,
0100
0000
0001
0000
1000
0100
0010
0000
0011
0000
0001
0000
0100
0000
0100
0000
,
0010
1000
0001
0000
0010
0000
0100
0000
1000
0000
0001
0000
0100
0010
0100
0000
,
0100
0001
0010
0100
0110
0010
0001
0001
,
1000
0000
0010
0000
1000
0100
0010
0001
0000
1000
0010
0000
0100
0000
0100
0000
,
0001
0010
0100
1000
0000
0000
0001
0000
1000
0000
0010
0000
1000
0000
0010
0000
,
0100
0001
0100
0001
0020
0000
0000
0000
,
0030
0000
0000
0000
0000
0000
0000
0000
0001
0000
0010
0100
1000
0000
0001
0000
,
0100
0010
1000
0000
0100
0010
0001
0100
0010
0000
1000
0001
0010
0100
1000
0000
,
0010
0000
0100
0001
0010
0000
0100
0000
0010
0001
0100
0000
1000
0000
0100
0000
,
0010
1000
0001
0010
0100
1000
0001
0000
1000
0000
0010
0100
0001
0000
1000
0000
,
0100
0010
0001
0000
0100
0010
1000
0100
0010
0000
0001
1000
0010
0100
0001
0000
,
0010
0000
0100
1000
0010
0000
0100
0000
0010
1000
0100
0000
0001
0000
0100
0000
,
0010
0001
1000
0010
0100
0001
1000
0000
0001
0000
0100
0001
0010
0000
1000
0000
,
0010
0001
1000
0000
0010
0100
0001
0010
0100
0000
1000
0010
0100
0001
0010
0000
,
1000
0000
0010
0001
0100
0000
1000
0000
0100
0001
1000
0000
0100
0010
0001
0000
,
0100
0010
0001
0010
0100
0001
1000
0000
0001
0000
0010
0001
0100
0000
1000
0000
,
0100
0001
1000
0000
0100
0010
0001
0100
0010
0000
1000
0100
0010
0001
0100
0000
,
1000
0000
0100
0001
0010
0000
1000
0000
0010
0001
1000
0000
0010
0100
0001
0000
,
0010
0100
0001
0100
0010
0001
1000
0000
0000
0000
0000
0000
0000
0000
0000
0000
,
0002
0000
0000
0000
0203
0000
0000
0000
0320
0000
0000
0000
2030
0000
0000
3001
,
0100
0000
0000
0100
0002
0000
0000
0000
0013
0000
0100
0000
2000
0000
0000
0000
,
3002
0023
2030
3020
,
0130
0000
0000
0100
1000
0000
0000
1000
0001
0000
0000
0000
0101
0000
0000
0000
,
0100
0001
1000
0100
0000
0000
0010
0100
1000
0100
0010
0001
1000
0010
0100
0001
,
0000
0000
0010
0100
1000
0001
0000
0000
0100
0001
0010
0100
1000
0001
0100
0010
,
1000
0100
0010
0000
0000
0000
0001
0010
0100
1000
0000
0000
0001
0100
0010
0100
,
0001
1000
0100
0010
0001
1000
0010
0100
0001
0010
0100
1000
0000
0000
0001
0010
,
0001
0100
0001
1000
0001
0100
0001
0010
0000
0000
0100
1000
0001
0100
0000
0000
,
0010
1000
0100
1000
0010
1000
0001
1000
0100
0010
0001
0000
0000
0000
0100
0001
,
0010
0100
0000
0000
1000
0100
0010
0001
0010
0100
1000
0010
0100
0001
1000
0100
,
0010
0000
0000
0000
0000
0000
0000
0000
0000
1001
0000
0000
0000
0000
0000
0000
0000
0000
0000
0000
0000
0000
0000
0000
0001
0000
0000
0000
0010
0000
0000
0000
0100
0000
0000
0000
1000
0000
0000
0000
0010
0000
0000
0000
0100
0000
0000
0000
,
0001
0000
0000
0011
0000
0000
0101
0000
0000
1001
0000
0000
1100
0000
0000
0000
,
0000
0000
2000
0000
,
0000
0000
0000
0000
3002
0100
0000
0100
,
0000
0100
0000
0103
0020
0000
0000
0000
,
0000
0000
0000
0000
2030
0100
0000
0100
,
0000
0100
0000
3100
0010
0010
0000
0011
,
0000
0101
0000
1010
1000
1000
0000
1100
,
0000
0101
0000
0011
0010
0010
0000
0110
,
0000
1100
0000
1001
0001
0001
0000
0101
,
0000
1010
0000
0000
1100
0100
0000
1001
,
0000
0101
0000
0000
0011
0010
0000
0110
,
0000
1100
0000
0000
1001
0001
0000
0101
,
0000
0110
0000
0100
0001
0100
0010
0100
,
0001
0000
0100
0000
1000
0000
0100
0000
0001
0000
0000
0000
0100
0000
0010
1000
,
0001
0000
0010
0001
1000
0000
0010
0100
0001
0000
0000
0000
1000
0000
0100
1000
,
0010
0000
1000
0100
0010
0000
1000
0010
0001
0000
0000
0000
1000
0000
0001
0010
,
0100
0000
0010
0001
0100
0000
1000
0100
0001
0000
0000
0000
0010
0000
0100
1000
,
0010
0000
0100
0001
1000
0000
0000
0000
1100
0000
0100
0000
0010
0000
0011
0000
,
0001
0000
0000
1000
0010
0000
0000
0000
0110
0000
0100
0000
0001
0000
1001
0000
,
1000
0000
0000
0100
0010
0000
0000
0000
0011
0000
0001
0000
1000
0000
1010
0000
,
0010
0000
0000
0100
0001
0000
0000
0010
0100
0000
0000
0000
1100
0000
0000
0000
,
2000
0000
0000
3020
0000
0000
0130
0000
0000
0001
0010
0100
,
0001
0100
1000
0001
0010
0100
1000
0000
0000
0001
0100
0010
,
0001
0010
0100
0001
1000
0001
1000
0000
0000
0001
0100
0010
,
0001
0010
1000
0001
0010
0100
1000
0000
0000
0001
1000
0010
,
0001
0010
1000
0001
0010
0100
1000
0010
0100
0001
0010
0001
,
1000
0010
0100
0001
1000
0001
0100
0010
1000
0001
0010
0001
,
0100
0010
1000
0001
0010
0100
1000
0010
0100
0001
0010
0100
,
0001
0100
0010
0001
0100
0010
1000
0001
0100
0001
0010
0100
,
0001
0100
0010
0001
0100
0010
1000
0000
0000
0000
0000
0000
,
0000
0000
0000
0000
0100
0010
0100
0000
,
1000
0001
1000
0000
0010
0100
0010
0000
,
1000
0001
1000
0000
0100
0010
0001
0000
,
0100
0010
1000
0000
0001
0010
0100
0000
,
1000
0010
0001
0010
0200
0000
0010
0000
,
0010
0000
0302
0010
,
2003
0000
3200
0000
0010
0000
1300
0000
0000
0100
0000
0000
,
0002
0000
0000
0000
,
0000
0003
0200
0010
,
0010
0000
2300
0010
,
3002
0000
0203
0000
0010
0000
0301
0000
0000
0100
0000
0000
,
2000
0000
0000
0000
,
0000
0000
0000
0000
,
0000
0000
0000
0000
0000
3000
0000
0000
0000
0000
0000
0000
;

//---------------dance-single - ----------------
#NOTEDATA:;
#CHARTNAME:;
#CHARTHASH:1525642068;
#STEPSTYPE:dance-single;
#BANNER:;
#DESCRIPTION:;
#CHARTSTYLE:;
#DIFFICULTY:Edit;
#METER:18;
#METERF:0.000000;
#LASTSECONDHINT:152.040497;
#RADARVALUES:0.765881,1.049130,0.101274,0.430412,0.829177,847.000000,831.000000,16.000000,68.000000,0.000000,0.000000,0.000000,0.000000,0.000000,0.765881,1.049130,0.101274,0.430412,0.829177,847.000000,831.000000,16.000000,68.000000,0.000000,0.000000,0.000000,0.000000,0.000000;
#CREDIT:frondal ft. YOSEFU;
#NOTES:
0000
0000
0000
0000
,
0000
0000
0000
0000
,
0000
0000
0000
0000
,
0000
0000
0000
0000
,
0001
0010
0100
0000
1000
0010
0100
0001
,
0010
0001
1000
0000
0000
0000
0000
0000
,
0001
0100
0010
0000
1000
0100
0010
0001
,
1001
1000
0010
0000
0000
0000
0000
0000
,
0000
0000
0110
0100
,
0001
0100
0010
1000
,
0001
0010
0110
0100
,
1000
0100
0010
0001
,
1000
0000
0000
0010
0000
0000
0200
0000
0320
0000
2030
0000
,
3200
0000
0320
0000
0032
0000
2003
0000
3020
0000
0230
0000
,
0302
0000
0023
0000
0230
0000
2300
0000
3020
0000
0032
0000
,
2003
0000
0000
0000
3200
0000
0000
0000
0302
0000
0000
0000
0013
0000
0000
0100
0000
0000
0010
0000
0000
1000
0000
0000
,
0001
0100
1000
0010
1000
0001
0100
1000
,
0100
0010
0100
0001
0010
0100
0010
0001
,
0100
0010
1000
0100
0020
0100
0000
0032
,
0000
0100
0000
1003
0100
0010
0001
0100
,
0000
1000
0000
0100
0010
1000
0100
0001
,
0100
0010
0001
0100
0010
1000
0010
0100
,
0001
0010
0100
0010
0002
0100
0000
0023
,
0000
1000
0000
0130
0001
0100
1000
0001
,
0000
0100
0010
1000
0001
1000
0010
0001
,
0010
1000
0100
0010
0001
0100
0010
0100
,
0001
0010
0100
1000
0002
0100
0000
0023
,
0000
0001
0000
0130
1000
0001
1000
0010
,
0000
0000
0001
0000
0010
0100
0001
1000
0100
0000
1000
0000
0010
0000
0001
0000
,
0010
1000
0100
0010
0001
1000
0001
0010
,
1000
0000
0010
0000
0001
0000
0200
0000
0000
0302
0000
0000
,
0023
0000
0000
0000
1000
0000
0000
0000
0001
0000
0000
0000
0130
1000
0100
0010
,
0001
0100
0010
1000
0001
0000
0000
0000
0100
0000
0000
0000
0001
0000
1000
0100
,
0010
0000
0100
0000
0000
0000
1000
0001
0100
0000
0010
0000
1000
0000
1000
0000
,
0100
0000
0010
0001
0100
0000
0010
0000
1000
0000
0000
0000
0100
0000
0010
0001
,
0100
0000
0001
0000
0000
0000
0010
0000
0100
1000
0001
0000
0100
0000
0010
0000
,
0000
0000
1000
0000
0001
0000
0010
0100
1000
0000
0001
0000
0100
0000
0100
0000
,
0010
0000
0000
0000
1000
0000
0100
0000
0000
0000
1000
0000
0001
0100
0010
0000
,
1000
0100
0000
0010
0001
0100
0010
0010
,
1000
0000
0010
0000
0100
0000
0001
0010
0100
0000
1000
0000
0001
0000
0001
0000
,
0100
0000
0010
1000
0001
0000
0010
0000
0001
0000
0010
0000
0100
0000
0001
0000
,
0100
0000
1000
0000
0010
0000
0100
0000
0001
1000
0100
0010
0001
1000
0010
0100
,
0010
0000
0000
0000
0000
0000
0000
0000
1000
0000
0001
0100
0010
0000
1000
0000
,
0001
0010
0100
0000
1000
0010
0100
0010
1000
0000
0001
0010
0100
0010
0001
0000
,
1000
0000
0100
0010
0001
0000
1000
0000
0010
0100
0001
0000
0100
1000
0100
0010
,
1000
0001
0010
0100
1000
0001
1000
0000
0100
0000
0010
0001
0100
0000
0010
0000
,
1000
0100
0010
0000
0001
0100
0010
1000
0100
0000
1000
0100
0010
0001
0100
0000
,
0001
0000
0010
0100
1000
0000
0010
0000
0100
0001
0010
0000
1000
0010
0001
0010
,
0100
1000
0010
0100
0001
1000
0001
0000
0100
0000
1000
0100
0010
0000
1000
0000
,
0100
0010
1000
0000
0010
0100
0010
0001
1000
0000
0010
0100
1000
0100
0010
0000
,
0100
0000
0001
0010
0100
0000
0001
0000
0100
0010
0001
0000
0100
1000
0100
0001
,
0010
0100
1000
0010
0100
1000
0100
0000
0010
0000
0001
0010
0100
0000
0001
0000
,
0010
0100
0001
0000
0100
0010
0100
1000
0001
0000
0100
0010
0001
0010
0100
0000
,
0010
0000
1000
0100
0010
0000
1000
0000
0010
0100
1000
0000
0010
0001
0010
1000
,
0100
0010
0001
0100
0010
1000
0001
0000
0000
0000
0000
0000
0000
0000
0000
0000
,
2000
3200
0320
0032
,
0203
0000
0000
0000
0320
0000
0000
0000
1030
0001
0000
0001
1000
0000
0000
0000
,
0002
0023
0230
2300
,
3001
0100
0000
0010
1000
0000
0001
0100
0001
1000
0001
1000
0100
0000
0000
0000
,
0010
0000
0000
0001
0000
0000
0100
0000
0000
1000
0000
0000
0000
0000
0000
0000
0000
0000
0100
0000
0000
0010
0000
0000
1000
0000
0000
0010
0000
0000
0100
0000
0000
0001
0000
0010
0000
0100
0000
1000
0000
0000
0001
0000
0000
0100
0000
0000
,
0000
0000
0000
0000
0000
0000
0010
0000
0000
1000
0000
0000
0100
0000
0000
0001
0000
0000
0000
0000
0000
0100
0000
0000
1000
0000
0000
0100
0000
0000
0010
0000
0000
0001
0000
0000
1000
0000
0010
0000
0100
0000
0001
0000
0000
0001
0000
0000
,
0010
0100
0010
0000
0000
0000
1000
0010
0001
0100
0000
0000
1000
0100
0010
0100
,
0001
0010
1000
0010
0100
1000
0100
0010
0100
1000
0010
0001
0000
0000
0010
0100
,
0001
0000
0000
0100
0000
0000
0010
0000
0000
1000
0000
0100
0000
0010
0000
0001
0000
0000
1000
0000
0000
0010
0000
0000
0000
0000
0000
0000
0000
0000
0100
0000
0000
0001
0000
0000
0010
0000
0000
1000
0000
0000
0000
0000
0000
0000
0000
0000
,
0010
0000
0000
0001
0000
0000
0010
0000
0000
0100
0000
0000
1000
0000
0000
0010
0000
0000
0100
0000
0000
0001
0000
0000
0010
0000
0100
0000
1000
0000
0010
0000
0000
0000
0000
0000
0000
0000
0000
0000
0000
0000
0001
0000
0000
0010
0000
0000
,
1000
0100
0000
0000
0010
1000
0001
0100
1000
0010
0001
1000
0100
0001
0010
0100
,
2000
0000
0000
0000
0000
0000
0000
0000
0000
3002
0000
0000
0000
0000
0000
0000
0000
0000
0000
0000
0000
0000
0000
0000
1003
0000
0000
0000
0100
0000
0000
0000
0100
0000
0000
0000
0001
0000
0000
0000
0010
0000
0000
0000
0010
0000
0000
0000
,
2000
0000
0000
3200
0000
0000
0320
0000
0000
0032
0000
0000
1003
0000
0000
0000
,
0000
0000
0010
0000
,
0000
0000
0000
0000
0100
1000
0000
1000
,
0000
0100
0000
0001
1000
0000
0000
0000
,
0000
0000
0000
0000
0100
0001
0000
0001
,
0100
0000
0000
0000
0010
0000
0001
0000
1000
0000
0010
0000
1000
0000
0100
0000
0010
0000
0000
0000
0000
0000
0000
0000
0000
0000
0000
0000
0001
0100
0000
0000
,
0000
0000
0000
0000
0001
0100
0000
0000
0000
0000
0000
0000
0001
0100
0000
0000
0010
0000
0000
0000
0000
0000
0000
0000
0000
0000
0000
0000
1000
0100
0000
0000
,
0000
0000
0000
0000
1000
0100
0000
0000
0000
0000
0000
0000
1000
0100
0000
0000
0010
0000
0000
0000
0000
0000
0000
0000
0000
0000
0000
0000
0001
0100
0000
0000
,
0000
0000
0000
0000
0010
1000
0000
0000
0000
0000
0000
0000
0100
0010
0000
0000
0001
0000
0000
0000
1000
0000
0000
0000
0000
0000
0000
0000
1001
0000
0000
0000
,
0000
1001
0000
0000
0001
0010
0000
0011
,
0000
0000
1100
0000
0000
0000
1000
0001
1000
0000
0010
0000
0000
0000
1010
0000
,
0000
0000
0101
0000
0000
0001
1000
0001
0010
0000
0100
0000
0000
0000
0110
0000
,
0000
0000
0110
0000
0000
0000
0010
0001
2000
0000
0100
3000
0002
0000
0100
0003
,
1000
0000
0000
0000
1001
0000
0000
0000
0001
0000
0000
0010
0100
0000
1000
0020
,
0100
0030
1000
0020
0100
0030
1000
0100
0010
0000
0000
0001
0100
0000
0001
0020
,
0100
0030
0001
0020
0100
0030
0001
0100
0010
0000
0000
1000
0001
0000
0010
0100
,
1000
0000
0010
0100
0001
0000
1000
0000
1001
0000
0001
0000
0010
0000
0100
0010
,
1000
0000
0001
0100
0010
0001
0100
0000
1000
0000
0100
0000
0001
0000
0101
0000
,
0100
0000
0010
0100
0001
0000
0010
0100
0001
0000
0100
0000
1000
0000
1100
0000
,
0100
0000
0010
0100
1000
0000
0010
0100
1000
0000
0100
0000
0010
0000
0110
0000
,
0100
0000
0001
0010
1000
0000
0001
0100
2000
0000
0000
0000
3002
0000
0000
0000
,
0103
0000
0000
0000
0000
0000
0010
0000
0000
1000
0000
0000
0001
0000
0000
0010
0000
0000
0100
0000
0000
0000
0000
0000
1000
0000
0000
0000
0010
0000
0000
0000
0100
0000
0000
0000
0001
0000
0000
0000
0010
0000
0000
0000
0100
0000
0000
0000
,
1000
0001
0100
0010
0100
0001
1000
0100
0010
0001
1000
0010
,
0100
0001
0100
0010
1000
0001
0010
0100
1000
0001
0100
0010
,
0001
0010
0100
0001
1000
0100
0010
0001
0100
0010
1000
0100
,
0001
0100
1000
0001
0100
0010
0001
0010
0100
0001
1000
0100
,
0001
0100
0010
0001
1000
0010
0001
0010
1000
0100
0010
0100
,
0001
0100
1000
0001
0100
0010
0001
0010
0100
0001
1000
0100
,
0001
0100
1000
0001
1000
0010
0001
1000
0100
0001
0010
0100
,
0001
0100
1000
0001
0100
1000
0200
0000
0000
0000
0000
0000
,
0000
0000
0000
0000
0310
1000
0100
0000
,
0010
0001
0100
0000
0010
1000
0001
0000
,
0100
0010
1000
0000
0100
0010
0001
0000
,
0100
0010
1000
0000
0100
0010
0001
0000
,
0100
0010
1000
0100
0002
0000
0203
0000
,
2300
3000
2000
3020
,
0031
0000
0010
0000
1000
0000
0002
0000
0000
0023
0000
0000
,
0230
0000
0000
0000
,
0000
0300
0002
0203
,
2300
3000
2000
3020
,
0031
0000
0010
0000
1000
0000
0002
0000
0000
0023
0000
0000
,
0230
0000
0000
0000
,
0000
0000
0000
0000
,
0000
0000
0300
0000
;

//---------------dance-double - ----------------
#NOTEDATA:;
#CHARTNAME:;
#CHARTHASH:2277349277;
#STEPSTYPE:dance-double;
#BANNER:;
#DESCRIPTION:;
#CHARTSTYLE:;
#DIFFICULTY:Beginner;
#METER:7;
#METERF:0.000000;
#LASTSECONDHINT:151.935226;
#RADARVALUES:0.254088,0.419336,0.158240,0.063296,0.012659,281.000000,256.000000,25.000000,10.000000,0.000000,0.000000,0.000000,0.000000,0.000000,0.254088,0.419336,0.158240,0.063296,0.012659,281.000000,256.000000,25.000000,10.000000,0.000000,0.000000,0.000000,0.000000,0.000000;
#CREDIT:YOSEFU;
#NOTES:
00000000
00000000
00000000
00000000
,
00000000
00000000
00000000
00000000
,
00010000
00000000
00001000
00000000
,
01000000
00000000
00000000
00000000
,
00100000
00000000
10000000
00000000
,
00010000
00000000
00000000
00000000
,
00100000
00000000
01000000
00000000
,
20020000
00000000
30030000
00000000
,
00000000
00000000
10000000
00010000
,
01000000
00000000
00001000
00010000
,
00000100
00000000
00000010
00000100
,
00001000
00000000
00000010
00000100
,
00000001
00000000
00001000
00000000
,
00000010
00000000
00010000
00000000
,
00001000
00000000
00000000
00000000
00000000
00000000
00010000
00000000
00000000
00000000
00100000
00000000
,
00000000
00000000
00000000
00000000
01000000
00000000
00000000
00000000
00000000
00000000
00010000
00000000
,
00000000
00000000
10000000
00000000
,
00010000
00000000
01000000
00000000
,
00001000
00010000
00000100
00000000
,
00000010
00000000
00000100
00000100
,
00000100
00000000
00001000
00000000
,
00000001
00000000
00000100
00000000
,
00000010
00010000
00001000
00000000
,
01000000
00000000
00010000
00010000
,
00010000
00000000
10000000
00000000
,
00100000
00000000
01000000
00000000
,
00001000
00010000
00000100
00000000
,
00000010
00000000
00000001
00000001
,
00000001
00000000
00000100
00000000
,
00000010
00000000
00010000
00000000
,
00001000
00100000
01000000
00000000
,
10000000
00000000
00010000
00010000
,
00010000
00000000
01000000
00000000
,
00001000
00000000
00010000
00000000
,
00000100
00000010
00000001
00000000
,
00001000
00000000
00000010
00000000
,
00000100
00000000
00000001
00000000
,
00001000
00000000
00000100
00000000
,
00010000
00001000
01000000
00000000
,
00010000
00000000
10000000
00000000
,
01000000
00000000
00100000
00000000
,
00010000
00000000
10000000
00100000
,
01000000
00000000
00000000
00000000
00010000
00000000
00000000
10000000
,
00000000
00010000
00000000
00000000
,
01000000
00000000
00000000
00001000
00000000
00000000
00010000
00000000
,
00000000
00000000
00000000
00000000
00000100
00000000
00000000
00000010
,
00000000
00000001
00000000
00000000
,
00001000
00000000
00000000
00000010
00000000
00000000
00000100
00000000
,
00000000
00000000
00000000
00000000
00000001
00000000
00000000
00000100
,
00000000
00000000
00000001
00000000
00000000
00001000
00000000
00000000
,
00000100
00000000
00000000
00010000
00000000
00000000
00001000
00000000
,
00000000
01000000
00000000
00000000
00100000
00000000
00000000
10000000
,
00000000
00000000
01000000
00000000
00000000
00100000
00000000
00000000
,
00001000
00000000
00000000
00010000
00000000
00000000
00000010
00000000
,
00000000
00001000
00000000
00000001
00000000
00000000
00000000
00000000
,
00001000
00000100
00000010
00000000
,
00000001
00000100
00000010
00000000
,
00010000
00001000
00100000
00000000
,
00010000
10000000
00100000
00000000
,
01100000
00000000
00000000
01000000
00000000
00000000
00010000
00000000
,
00000000
01100000
00000000
00000000
01000000
00000000
00000000
00001000
,
00000000
00010000
00000000
00011000
00000000
00000000
00001000
00000000
,
00000000
00010000
00000000
00000000
00010010
00000000
00000000
00000010
,
00000000
00000000
00001000
00000000
00000000
00001001
00000000
00000000
,
00000001
00000000
00000000
00000010
00000000
00000110
00000000
00001001
,
00000000
00000000
00001000
00000000
00000000
00000010
00000000
00000000
,
00000110
00000000
00000000
00000000
,
00001000
00000000
00000000
00000010
00000000
00000000
00010000
00000000
,
00000000
00000000
00011000
00000000
,
00000000
00000000
00001000
00000000
,
00000000
00000000
00100000
00000000
,
00000000
00000000
00010000
00000000
,
00000000
00000000
00000000
00000000
10010000
00000000
00000000
10000000
,
00000000
10000000
00000000
00000000
10010000
00000000
00000000
00010000
,
00000000
00010000
00000000
00000000
01100000
00000000
00000000
00010000
,
00000000
00010000
00000000
00000000
01100000
00000000
00000000
00001000
,
00000000
00001000
00000000
00000000
00011000
00000000
00000000
00010000
,
00000000
00010000
00000000
00000000
00011000
00000000
00000000
00001000
,
00000000
00001000
00000000
00000000
00000110
00000000
00000000
00000010
,
00000000
00000010
00000000
00000000
00000110
00000000
00001001
00000000
,
00000110
00000000
00000000
00000000
00001001
00000000
00000000
00001000
,
00000000
00000010
00000000
00000100
00000000
00000000
00000000
00000001
,
00000000
00001000
00000000
00000100
00000000
00000000
00000000
00010000
,
00000000
00001000
00000000
01000000
00000000
00000000
00000000
00010000
,
00000000
10000000
00000000
00000000
01100000
00000000
00000000
10000000
,
00000000
00010000
00000000
00000000
01100000
00000000
00000000
00010000
,
00000000
10000000
00000000
00000000
01100000
00000000
00000000
00001000
,
00000000
00010000
00000000
00000000
00001000
00000000
00010000
00000000
,
00000010
00000000
00001000
00000000
,
00000010
00000100
00000001
00000000
,
00001000
00000100
00000010
00000000
,
00000001
00000100
00000010
00000000
,
00001000
00000010
00010000
00001000
,
00010000
00001000
00100000
00010000
,
00100000
00010000
10000000
00100000
,
01000000
00001000
00010000
00000100
,
00000010
00000001
00002002
00000000
,
00000000
00000000
00000000
00000000
,
00000000
00000000
00000000
00000000
,
00000000
00000000
00000000
00000000
,
00000000
00000000
00000000
00000000
,
00003003
00000000
00000001
00001000
,
00000020
00000030
00010000
00001000
,
00200000
00300000
01000000
10000000
,
00200000
00000000
00000000
00000000
,
00000000
00300000
01000000
00001000
,
00020000
00030000
00000100
00000010
,
00000002
00000003
00000100
00000010
,
00020000
00000000
00000000
00000000
,
00000000
00000000
00000000
00000000
,
00000000
00000000
00000000
00000000
00000000
00030000
00000000
00000000
00000000
00000000
00000000
00000000
;

//---------------dance-double - ----------------
#NOTEDATA:;
#CHARTNAME:;
#CHARTHASH:82367298;
#STEPSTYPE:dance-double;
#BANNER:;
#DESCRIPTION:;
#CHARTSTYLE:;
#DIFFICULTY:Easy;
#METER:12;
#METERF:0.000000;
#LASTSECONDHINT:151.935226;
#RADARVALUES:0.443072,0.559114,0.164569,0.145581,0.161405,490.000000,464.000000,26.000000,23.000000,0.000000,0.000000,0.000000,0.000000,0.000000,0.443072,0.559114,0.164569,0.145581,0.161405,490.000000,464.000000,26.000000,23.000000,0.000000,0.000000,0.000000,0.000000,0.000000;
#CREDIT:YOSEFU;
#NOTES:
00000000
00000000
00000000
00000000
,
00000000
00000000
00000000
00000000
,
00010000
00000000
00001000
00000000
00100000
00000000
00010000
10000000
,
00100000
00000000
00000000
00000000
,
01000000
00001000
00010000
00000000
00000100
00001000
00000001
00000100
,
00000010
00001000
00000001
00000000
00000000
00000000
00000000
00000000
,
00001000
00000100
00010000
00000000
00001000
01000000
00010000
10000000
,
01000000
00100000
00010000
00000000
00000000
00000000
00000000
00000000
,
00000000
00000000
10100000
00100000
,
01000000
00000000
00000000
00000000
,
00000000
00000000
00011000
00010000
,
00000100
00000000
00000000
00000000
,
00000000
00000000
00000000
00000000
00000000
00000000
00001000
00000000
00000000
00000000
00000001
00000000
,
00000000
00000000
00000100
00000000
00000000
00000000
00000010
00000000
00000000
00000000
00010000
00000000
,
00000000
00000000
00001000
00000000
00000000
00000000
01000000
00000000
00000000
00000000
00100000
00000000
,
00000000
00000000
10000000
00000000
00000000
00000000
01000000
00000000
00000000
00000000
00100000
00000000
,
00000000
00000000
00000000
00000000
00001000
00000000
00000000
00000000
00000000
00000000
00000000
00000000
00010000
00000000
00000000
00000000
00000000
00000000
00001000
00000000
00000000
00100000
00000000
00000000
,
00010000
01000000
00100000
10000000
,
00010000
00000000
00100000
01000000
00200000
00000000
00000000
00302000
,
00000000
00000000
00000000
00000000
00013000
00000010
00001000
00000010
,
00000000
00000100
00000000
00000001
00001000
00000000
00000100
00000010
,
00000001
00000100
00000010
00010000
,
00001000
00000000
01000000
00100000
20000000
00000000
00000000
32000000
,
00000000
00000000
00000000
00000000
03010000
01000000
00100000
00010000
,
00000000
00100000
00001000
00000000
00010000
00000000
00000010
00001000
,
00000001
00001000
00000100
00000010
,
00000001
00000000
00001000
00000000
00000010
00000000
00000100
00000000
00000000
00001000
00000000
00000000
,
00010000
00000000
00000000
00000000
00100000
01000000
00010000
10000000
,
00000000
01000000
00100000
00000000
00010000
00000000
01000000
00001000
,
00010000
00000000
00000100
00000000
00000010
00000000
00000001
00000100
,
00001000
00000000
00000100
00000000
00000001
00000000
00001000
00000000
00000000
00000100
00000000
00000000
,
00000020
00000000
00000000
00000000
00000000
00000000
00000031
00001000
,
00000010
00010000
00001000
00000000
00010000
00000000
00001000
01000000
,
00010000
00000000
10000000
00000000
00100000
00000000
01000000
00001000
,
00010000
00000000
00000100
00000000
00000010
00000000
00000001
00001000
,
00000010
00000000
00000100
00000000
00000010
00000000
00010000
00001000
,
00100000
00000000
00001000
00000000
01000000
00000000
00010000
10000000
,
00100000
00000000
01000000
00000000
00010000
00000000
10000000
01000000
,
00100000
00000000
00010000
00000000
01000000
00000000
00001000
00010000
,
00000100
00000000
00000010
00000000
00000001
00000000
00000100
00000010
,
00010000
00000000
00001000
00000000
00100000
00010000
01000000
00000000
,
00100000
10000000
01000000
00000000
00100000
00010000
00100000
00010000
,
10000000
00000000
00000000
00000000
00100000
00000000
00100000
01000000
,
00000000
01000000
00001000
00000000
00001000
00010000
00000000
00010000
,
00000100
00001000
00000100
00001000
00000000
00000001
00000100
00000001
,
00000100
00000001
00000000
00001000
00000100
00000000
00000100
00000010
,
00000000
00000010
00000001
00000000
00000001
00000100
00000000
00000100
,
00000010
00010000
00000010
00010000
00000000
00001000
00100000
00001000
,
00100000
00001000
00000000
00010000
00000100
00000000
00000100
00000010
,
00000000
00000010
00000001
00000000
00000001
00000100
00000000
00000100
,
00000010
00010000
00000010
00010000
00000000
00001000
00100000
00001000
,
00100000
00001000
00000000
01000000
00100000
00000000
00100000
01000000
,
00000000
01000000
00010000
00000000
00010000
00100000
00000000
00100000
,
01000000
10000000
01000000
10000000
00000000
00010000
01000000
00010000
,
01000000
00010000
01000000
00001000
00000000
00000000
00000000
00000000
,
00010000
00001000
01000000
00010000
,
10000000
00100000
00010000
00001000
,
00010000
00000010
00000100
00001000
,
00000100
00000001
00001000
00000000
,
00001010
00000000
00000000
00000010
00000000
00000000
00000100
00000000
00000000
00000001
00000000
00000000
00001000
00000000
00000100
00000010
,
00000000
00000000
00000110
00000000
00000000
00000100
00000000
00000000
00010000
00000000
00000000
00000000
00001000
00000000
01000000
00000000
,
00010000
00000000
01000000
00000000
00000000
00000000
10100000
00000000
00000000
10000000
00000000
00000000
00010000
00000000
00000000
00100000
,
00000000
00000000
00001000
00000000
00000000
00010000
00000000
00000000
00010010
00000000
00000000
00000010
00000000
00000000
00001000
00000000
,
00000000
00000010
00000000
00000000
00000100
00000000
00000000
00000001
00000000
00000000
00000011
00000000
00000000
00000010
00000000
00000000
,
00001000
00000000
00000000
00010000
00000000
00000000
00100000
00000000
00000000
01000000
00010000
00000000
00000000
00000000
01010000
00000000
,
00000000
01000000
00000000
00000000
00010000
00000000
00000000
10000000
00000000
00000000
01000000
00000000
00010000
00000000
00001000
00000000
,
00011000
00000000
00000000
00000000
00000000
00000000
00000000
00000000
00000000
00010010
00000000
00000000
00000000
00000000
00000000
00000000
00000000
00000000
00000000
00000000
00000000
00000000
00000000
00000000
00000010
00000000
00000000
00000000
00001000
00000000
00000000
00000000
00000010
00000000
00000000
00000000
00000000
00000000
00000000
00000000
00000100
00000000
00000000
00000000
00000001
00000000
00000000
00000000
,
00000100
00000000
00000000
00001000
00000000
00000000
00010000
00000000
00000000
01000000
00000000
00000000
20000000
00000000
00000000
00000000
,
00000000
00000000
30010000
00000000
,
00000000
00000000
01000000
00000000
,
00000000
00000000
00100000
00000000
,
00000000
00000000
10000000
00000000
,
00000000
00000000
00000000
00000000
10010000
00000000
00000000
00010000
,
00000000
01000000
00000000
00001000
00010000
00000000
00000000
00000100
,
00000000
00001000
00000000
00000001
00000100
00000000
00000000
00000010
,
00000000
00001000
00000000
00000001
00000010
00000100
00000000
00001100
,
00000000
00010100
00000000
00000000
00010000
00001000
00000000
01001000
,
00000000
01010000
00000000
00000000
01000000
00100000
00000000
10100000
,
00000000
10010000
00000000
00000000
10000000
01000000
00000000
01100000
,
00000000
00110000
00000000
00010000
00100000
00001000
00010000
00000010
,
00010000
00001000
00100000
00000000
01100000
00000000
00000000
01000000
,
10000000
00010000
10000000
00010000
01000000
00000000
00000000
00001000
,
00010000
00000100
00010000
00000100
00001000
00000000
00000000
00000100
,
00000010
00000001
00001000
00000001
00001000
00000000
00000000
00000010
,
00000100
00001000
00010000
00000000
00001000
00100000
00000000
01100000
,
00000000
11000000
00000000
00000000
10000000
00100000
00000000
01010000
,
00000000
00011000
00000000
00000000
00010000
00000100
00000000
00000110
,
00000000
00000011
00000000
00000001
00001000
00000000
00000010
00000000
,
00000100
00000000
00000000
00001000
00000000
00000000
00010000
00000000
00000000
00001000
00000000
00100000
,
00010000
00000000
00000000
10000000
00000000
00000000
00100000
00000000
00000000
01000000
00000000
00001000
,
00010000
00000000
00000000
00000100
00000000
00000000
00001000
00000000
00000000
00000001
00000000
00000100
,
00000010
00000000
00000000
00001000
00000000
00000000
00000100
00000000
00000000
00000010
00000000
00001000
,
00010000
00000000
00000000
00001000
00000000
00000000
00100000
00000000
00000000
00010000
00000000
10000000
,
00100000
00000000
00000000
01000000
00000000
00001000
00010000
00000000
00000000
00000100
00000000
00001000
,
00000001
00000000
00000000
00000100
00000000
00000010
00001000
00000000
00000000
00000100
00000000
00000010
,
00001000
00000000
00000000
00010000
00000000
00100000
01000000
00000000
00000000
00010000
00000000
10000000
,
01000000
00000000
00000000
00100000
00000000
00010000
02000000
00000000
00000000
00000000
00000000
00000000
,
00000000
00000000
10000000
00000000
,
00100000
00000000
00010000
00000000
,
00001000
00000000
00010000
00000000
,
00100000
00000000
10000000
00000000
,
00100000
00000000
03020000
20030000
,
32000000
00000000
03020000
00032000
,
00003010
00000000
00000100
00000000
00000010
00000000
00000002
00000000
00000000
00002003
00000000
00000000
,
00003020
00000000
00000000
00000000
,
00000000
00000030
00000200
00000320
,
00000230
00000000
00002300
00023000
,
00130000
00000000
01000000
00000000
00100000
00000000
20000000
00000000
00000000
32000000
00000000
00000000
,
03200000
00000000
00000000
00000000
,
00000000
00000000
00000000
00000000
,
00000000
00000000
00000000
00000000
00000000
00300000
00000000
00000000
00000000
00000000
00000000
00000000
;

//---------------dance-double - ----------------
#NOTEDATA:;
#CHARTNAME:;
#CHARTHASH:3018039146;
#STEPSTYPE:dance-double;
#BANNER:;
#DESCRIPTION:;
#CHARTSTYLE:;
#DIFFICULTY:Medium;
#METER:15;
#METERF:0.000000;
#LASTSECONDHINT:151.935226;
#RADARVALUES:0.624821,0.873616,0.253184,0.284832,0.376611,691.000000,651.000000,40.000000,45.000000,0.000000,0.000000,0.000000,0.000000,0.000000,0.624821,0.873616,0.253184,0.284832,0.376611,691.000000,651.000000,40.000000,45.000000,0.000000,0.000000,0.000000,0.000000,0.000000;
#CREDIT:YOSEFU;
#NOTES:
00000000
00000000
00000000
00000000
,
00000000
00000000
00000000
00000000
,
00020000
00000000
00000000
00000000
00032000
00000000
10003000
00010000
,
02000000
00000000
00000000
00000000
,
03100000
10000000
00020000
00000000
20030000
00000000
32000000
00000000
,
03100000
00010000
02000000
00000000
00000000
00000000
00000000
00000000
,
03001000
00010000
00000200
00000000
00002300
00000000
00003001
00000100
,
00000010
00001000
00000002
00000000
00000000
00000000
00000003
00000000
,
00000000
00000000
00001001
00001000
,
00000100
00000010
00001000
00010000
,
00100000
01000000
01100000
00100000
,
10000000
00010000
10000000
01000000
,
00100000
00000000
00000000
01000000
00000000
00000000
00010000
00000000
00001000
00000000
00010000
00000000
,
00000100
00000000
00010000
00000000
00000100
00000000
00001000
00000000
00000100
00000000
00001000
00000000
,
00000001
00000000
00001000
00000000
00000001
00000000
00001000
00000000
00000010
00000000
00000100
00000000
,
00000001
00000000
00001000
00000000
00000100
00000000
00010000
00000000
00000100
00000000
00010000
00000000
,
00001000
00000000
00000000
00000000
01000000
00000000
00000000
00000000
00010000
00000000
00000000
00000000
10000000
00000000
00000000
00100000
00000000
00000000
10000000
00000000
00000000
00100000
00000000
00000000
,
01000000
00010000
01000000
00010000
10000000
01000000
00100000
01000000
,
10000000
00010000
01000000
00001000
00020000
00000000
00000000
00030200
,
00000000
00000000
00000000
00000000
00001300
00000100
00000010
00000001
,
00000000
00000100
00000000
00000010
00001000
00000010
00001000
00000010
,
00000100
00000001
00000100
00000001
00000010
00000100
00000010
00000100
,
00010000
00001000
01000000
00010000
00200000
00000000
00000000
02300000
,
00000000
00000000
00000000
00000000
03010000
01000000
10000000
01000000
,
00000000
00001000
00010000
00000100
00001000
00000010
00000100
00000001
,
00001000
00000100
00000010
00000100
00010000
00001000
00100000
00010000
,
10000000
00100000
01000000
00010000
20000000
00000000
00000000
32000000
,
00000000
00000000
00000000
00000000
03010000
01000000
10000000
00100000
,
00000000
00010000
00001000
00010000
00000100
00001000
00000010
00000100
,
00000001
00001000
00000100
00000010
00000100
00000001
00000100
00001000
,
00000010
00000000
00000000
00000000
00000100
00000000
00000000
00000000
00001000
00000000
00000000
00000000
00020000
00000000
00000000
00000000
00000000
00000000
00000000
00000000
00000000
00230000
00000000
00000000
,
00000000
00000000
00000000
00000000
00000000
00000000
00000000
00000000
00000000
00000000
00000000
00000000
10300000
00010000
10000000
00010000
,
10000000
00100000
01000000
00000000
00001000
00010000
00100000
00010000
,
00001000
00000000
00010000
00001000
00000010
00001000
00010000
00000000
,
00001000
00010000
01000000
00010000
00001000
00000100
00000001
00001000
,
00000100
00000000
00000010
00001000
00010000
00001000
00000010
00000000
,
00000001
00001000
00000010
00000100
00000001
00000100
00000010
00010000
,
00001000
00000000
00000010
00001000
00010000
00100000
01000000
00000000
,
00010000
10000000
01000000
00100000
00010000
00000000
01000000
00100000
,
00010000
00001000
00000100
00000000
00000010
00001000
00000100
00000010
,
00000001
00000000
00000100
00000010
00000100
00001000
00010000
00100000
,
01000000
00010000
10000000
01000000
00010000
00001000
00010000
00100000
,
01000000
00000000
00000000
00000000
00010000
10000000
01000000
00010000
,
01000000
10000000
00100000
00010000
00001000
00010000
01000000
10000000
,
00010000
00100000
10000000
00100000
00010000
10000000
00100000
00010000
,
00001000
00000010
00000001
00001000
00000001
00001000
00000100
00000001
,
00000100
00001000
00000001
00000100
00001000
00010000
00001000
00000010
,
00000001
00000100
00001000
00000100
00000001
00000010
00001000
00010000
,
00100000
10000000
00010000
10000000
00010000
10000000
00100000
00010000
,
00100000
10000000
01000000
00010000
00001000
00010000
00100000
10000000
,
00010000
01000000
10000000
01000000
00010000
10000000
01000000
00010000
,
00001000
00000100
00000001
00001000
00000001
00001000
00000010
00000001
,
00000010
00001000
00000001
00000010
00001000
00010000
00001000
00000100
,
00000001
00000010
00001000
00000010
00000001
00000100
00001000
00010000
,
01000000
10000000
00010000
10000000
00000000
00000000
00000000
00000000
,
02000000
03020000
02030000
23000000
,
30200000
00320000
00032000
00003010
,
00000011
00001010
00001100
00011000
,
00110000
01010000
10100000
10010000
,
00010000
00000000
01000000
00010000
00000000
00000000
10000000
00000000
01000000
00100000
00000000
00001000
00010000
00000000
00000010
00001000
,
00000000
00000000
00001001
00000000
00000001
00000100
00000000
00000000
00000010
00001000
00000001
00000000
00001000
00000000
00000100
00000010
,
00000001
00000000
00001000
00000000
00000000
00000000
00001010
00000000
00000010
00010000
00000000
00000000
00000100
00000000
00010000
00001000
,
00000000
01000000
00010000
00000000
10000000
01000000
00000000
00100000
00010000
00000000
10000000
00100000
00000000
00000000
01000000
00000000
,
00100000
00010000
00000000
00001000
00010000
00000000
00001000
00000010
00000000
00000000
00000011
00000000
00000001
00001000
00000000
00000000
,
00000010
00000000
00000100
00000001
00000000
00001000
00000100
00000000
00000010
00001000
00010000
00000000
00000000
00000000
00011000
00000000
,
00001000
01000000
00000000
00000000
00010000
00000000
10000000
01000000
00000000
10000000
00100000
00000000
00010000
00001000
00010000
00000100
,
00001000
00000000
00000000
00000000
00000000
00000000
00000000
00000000
00000000
00001001
00000000
00000000
00000000
00000000
00000000
00000000
00000000
00000000
00000000
00000000
00000000
00000000
00000000
00000000
00000001
00000000
00000000
00000000
00000100
00000000
00000000
00000000
00000010
00000000
00000000
00000000
00000100
00000000
00000000
00000000
00001000
00000000
00000000
00000000
00010000
00000000
00000000
00000000
,
00100000
00000000
00000000
01100000
00000000
00000000
01010000
00000000
00000000
11000000
00000000
00000000
02200000
00000000
00000000
00000000
,
00000000
03300000
20000000
00000000
,
00000000
00000000
00000000
00000000
30010000
01000000
00000000
01000000
,
00000000
01000000
00000000
01000000
00002000
00000000
00000000
00000000
,
00000000
00000000
00000000
00000000
00013000
00000100
00000000
00000100
,
00000000
00000000
00000100
00000000
00000000
00000000
00000100
00000000
00000010
00000000
00000001
00000000
00000000
00000000
00001000
00000010
,
00000000
00000000
00000100
00000001
00000000
00000000
00001000
00000100
00010000
00000000
00001000
00000000
00000000
00000000
00100000
00010000
,
00000000
00000000
10000000
00010000
00000000
00000000
10000000
00100000
01000000
00000000
00010000
00000000
00000000
00000000
10000000
01000000
,
00000000
00000000
00100000
00010000
00000000
00000000
10000000
00100000
01000000
00000000
00010000
00000000
00000000
00000000
01010000
00000000
,
00000000
00011000
00000000
00000000
00010000
00001000
00000000
00001100
,
00000000
00000011
00000000
00000000
00000001
00000100
00000000
00001010
,
00000000
00010010
00000000
00000000
00010000
00001000
00000000
00101000
,
00000000
00110000
00000000
00010000
10000000
00100000
00010000
00100000
,
10000000
00000000
01000000
00000000
00010000
00000000
00001000
00000000
00010000
00000000
00000100
00000000
00000000
00000000
00001000
00000100
,
00000000
00000000
00000010
00000001
00000000
00000000
00001000
00000010
00000100
00000000
00000001
00000000
00000000
00000000
00001000
00000100
,
00000000
00000000
00010000
00001000
00000000
00000000
01000000
00010000
10000000
00000000
01000000
00000000
00000000
00000000
00100000
00010000
,
00000000
00000000
10000000
00100000
00000000
00000000
01000000
00001000
00010000
00000000
00000100
00000000
00000000
00000000
00001100
00000000
,
00000000
00000011
00000000
00000000
00000001
00000100
00000010
00001010
,
00000000
00010010
00000000
00000000
00010000
00001000
00100000
00110000
,
00000000
10010000
00000000
00000000
10000000
00100000
01000000
01001000
,
00000000
00011000
00000000
00010000
00011000
00000000
00010100
00000000
,
00001001
00000000
00000000
00000101
00000000
00000000
00001000
00000000
00000001
00000100
00000000
00000010
,
00001000
00000010
00000100
00000001
00000000
00000000
00001000
00000000
00000100
00000010
00000000
00000100
,
00010000
00001000
00010000
00000100
00000000
00000000
00010000
00000000
00001000
01000000
00000000
00010000
,
00100000
01000000
10010000
01000000
00000000
00000000
00100000
00000000
10000000
01000000
00000000
00010000
,
01000000
10000000
00100000
01000000
00000000
00000000
00010000
01000000
00100000
10000000
00000000
00100000
,
01000000
00001000
00010000
00000100
00000000
00001000
00000010
00000100
00000001
00001000
00000000
00000100
,
00000010
00000001
00000100
00000010
00000000
00001000
00000100
00010000
00001000
01000000
00010000
10000000
,
01000000
00100000
01000000
10000000
00010000
00100000
00001000
00010000
00000010
00001000
00000001
00000010
,
00000100
00001000
00000010
00000100
00000001
00001000
00000100
00000000
00000000
00000000
00000000
00000000
,
00000000
00000000
00000000
00000000
00010000
00001000
00010000
00000000
,
00001000
00010000
00001000
00000000
01000000
00010000
01000000
00000000
,
00010000
01000000
00010000
00000000
10000000
00010000
10000000
00000000
,
00010000
10000000
00010000
00000000
01000000
00100000
01000000
00000000
,
00100000
01000000
00100000
10000000
02000000
00000000
03020000
00000000
,
00032000
00000000
00003020
00000032
,
00000103
00000000
00001000
00000000
00010000
00000000
00002000
00000000
00000000
00003020
00000000
00000000
,
00000032
00000000
00000000
00000000
,
00000000
00000000
00000203
00002300
,
00023000
00000000
00230000
20300000
,
31000000
00000000
00010000
00000000
00001000
00000000
00020000
00000000
00000000
02030000
00000000
00000000
,
03200000
00000000
00000000
00000000
,
00000000
00000000
00000000
00000000
,
00000000
00000000
00000000
00000000
00000000
00300000
00000000
00000000
00000000
00000000
00000000
00000000
;

//---------------dance-double - ----------------
#NOTEDATA:;
#CHARTNAME:;
#CHARTHASH:3706099954;
#STEPSTYPE:dance-double;
#BANNER:;
#DESCRIPTION:;
#CHARTSTYLE:;
#DIFFICULTY:Hard;
#METER:17;
#METERF:0.000000;
#LASTSECONDHINT:151.935226;
#RADARVALUES:0.768594,1.013394,0.303821,0.189888,0.708915,850.000000,802.000000,48.000000,30.000000,0.000000,0.000000,0.000000,0.000000,0.000000,0.768594,1.013394,0.303821,0.189888,0.708915,850.000000,802.000000,48.000000,30.000000,0.000000,0.000000,0.000000,0.000000,0.000000;
#CREDIT:YOSEFU;
#NOTES:
// measure 0
00000000
00000000
00000000
00000000
,  // measure 1
00000000
00000000
00000000
00000000
,  // measure 2
00020000
00000000
00001000
00000000
00030200
00000000
00001000
00010000
,  // measure 3
02000300
00000000
00000000
00000000
00100000
00000000
00000000
03010000
,  // measure 4
00100000
10000000
00100000
00000000
00010000
01000000
10000000
01000000
,  // measure 5
00100000
00010000
00002000
00000000
00000001
00000000
00000000
00000000
,  // measure 6
00003010
00001000
00010000
00000000
00100000
10000000
01000000
00010000
,  // measure 7
00000100
00000010
00000001
00000000
00000000
00000000
00000000
00000000
,  // measure 8
00000000
00000000
00001001
00000101
,  // measure 9
00001010
00000010
00000100
00001000
,  // measure 10
00010000
00100000
10010000
11000000
,  // measure 11
00110000
00010000
01000000
00010000
,  // measure 12
00001000
00000000
00000000
00000100
00000000
00000000
00000001
00000000
00000010
00000000
00000100
00000000
,  // measure 13
00001000
00000000
00010000
00000000
00100000
00000000
01000000
00000000
10000000
00000000
01000000
00000000
,  // measure 14
00100000
00000000
00010000
00000000
00100000
00000000
01000000
00000000
10000000
00000000
01000000
00000000
,  // measure 15
00100000
00000000
00010000
00000000
00001000
00000000
00000100
00000000
00000010
00000000
00000001
00000000
,  // measure 16
00000010
00000000
00000000
00000000
00000100
00000000
00000000
00000000
00001000
00000000
00000000
00000000
00000010
00000000
00000000
00000100
00000000
00000000
00000010
00000000
00000000
00000001
00000000
00000000
,  // measure 17
00000010
00000100
00000010
00001000
00000100
00000010
00000100
00010000
,  // measure 18
00001000
00100000
00010000
10000000
00200000
01000000
00000000
01300000
,  // measure 19
00020000
01000000
00000000
01030000
10000000
01000000
00100000
00010000
,  // measure 20
00000000
01000000
00000000
00100000
10000000
01000000
00100000
10000000
,  // measure 21
00100000
01000000
00100000
00001000
00010000
00000010
00001000
00000001
,  // measure 22
00000010
00000100
00000010
00000001
00000200
00000010
00000000
00000310
,  // measure 23
00002000
00000010
00000000
00003010
00000001
00000010
00001000
00000010
,  // measure 24
00000000
00010000
00001000
00100000
01000000
00100000
00010000
00001000
,  // measure 25
00010000
00100000
01000000
00100000
00010000
01000000
00100000
10000000
,  // measure 26
01000000
00000000
00000000
00000000
00100000
00000000
00000000
00000000
00010000
00000000
00000000
00000000
10000000
00000000
00000000
00100000
00000000
00000000
01000000
00000000
00000000
00100000
00000000
00000000
,  // measure 27
10000000
00100000
00010000
00100000
01000000
00001000
00010000
00000100
,  // measure 28
00000000
00000000
00000010
00000000
00000100
00001000
00000001
00000100
00000010
00000000
00000100
00000000
00001000
00000000
00010000
00000000
,  // measure 29
00001000
00000100
00000010
00000001
00000010
00000100
00000001
00000010
,  // measure 30
00001000
00000000
00000000
00000000
00010000
00000000
00000000
00000000
00100000
00000000
00000000
00000000
10000000
00000000
00000000
01000000
00000000
00000000
00100000
00000000
00000000
01000000
00000000
00000000
,  // measure 31
00010000
00000000
01000000
00000000
00100000
00000000
01000000
00000000
10000000
00000000
00010000
00000000
10000000
00100000
01000000
00010000
,  // measure 32
10000000
01000000
00100000
00001000
10000000
00100000
01000000
00001000
00010000
00000000
00000000
00001000
00010000
00000000
00000100
00000000
,  // measure 33
00000010
00000000
00000000
00000000
00000001
00001000
00000010
00000100
00000001
00000000
00001000
00000000
00000000
00000000
00000100
00000000
,  // measure 34
00000100
00000010
00000100
00010000
00001000
00000000
00100000
00000000
00101000
00000000
00000000
00000000
00001000
00100000
01000000
00100000
,  // measure 35
00010000
00000000
10000000
00000000
00000000
00000000
00100000
00000000
00100000
01000000
00100000
00010000
00001000
00000000
00010000
00000000
,  // measure 36
00000000
00000000
00001000
00000000
00001000
00000010
00000100
00001000
00000001
00000000
00001000
00000000
00000000
00000000
00000010
00000000
,  // measure 37
00000010
00000100
00000001
00001000
00000100
00000000
00000010
00000000
00000000
00000000
00000100
00000000
00000100
00010000
00001000
01000000
,  // measure 38
00100000
00000000
10000000
00000000
00000000
00000000
00010000
00000000
00010000
00100000
01000000
00100000
00001000
00000000
00010000
00000000
,  // measure 39
00000000
00000000
00001000
00000000
00001000
00010000
00100000
01000000
00010000
00000000
10000000
00000000
00000000
00000000
01000000
00000000
,  // measure 40
01000000
00010000
00001000
00010000
00001000
00000000
00010000
00000000
00000010
00000000
00001000
00000000
00000010
00000000
00001000
00000000
,  // measure 41
00000001
00000010
00000001
00000010
00000100
00000010
00001000
00010000
,  // measure 42
00200000
00000000
00000000
00000000
00000000
00000000
00000000
00000000
10300000
00000000
00100000
01000000
00010000
00000000
10000000
00000000
,  // measure 43
00100000
01000000
00010000
00000000
10000000
01000000
00100000
01000000
10000000
00000000
00010000
01000000
00001000
00010000
00000100
00000000
,  // measure 44
00000010
00000000
00000001
00001000
00000100
00000000
00000010
00000000
00000001
00001000
00000100
00000000
00000010
00000000
00001000
00000000
,  // measure 45
00010000
00100000
01000000
00010000
10000000
01000000
00100000
00000000
00010000
00000000
10000000
00100000
01000000
00000000
00010000
00000000
,  // measure 46
10000000
00100000
01000000
00000000
00010000
10000000
01000000
10000000
00010000
00000000
01000000
00001000
00010000
00000100
00001000
00000000
,  // measure 47
00000001
00000000
00000100
00000010
00001000
00000000
00000001
00000000
00000100
00000010
00001000
00000000
00000001
00000000
00000010
00000000
,  // measure 48
00001000
00010000
01000000
00100000
00010000
10000000
00010000
00000000
10000000
00000000
01000000
00100000
00010000
00000000
10000000
00000000
,  // measure 49
01000000
00100000
00010000
00000000
10000000
00100000
01000000
00100000
10000000
00000000
00010000
00100000
00001000
00010000
00000010
00000000
,  // measure 50
00000100
00000000
00000001
00001000
00000010
00000000
00000100
00000000
00000001
00001000
00000010
00000000
00000100
00000000
00001000
00000000
,  // measure 51
00010000
01000000
00100000
00010000
10000000
00100000
01000000
00000000
00010000
00000000
10000000
01000000
00100000
00000000
00010000
00000000
,  // measure 52
10000000
01000000
00100000
00000000
00010000
10000000
00100000
10000000
00010000
00000000
00100000
00001000
00010000
00000010
00001000
00000000
,  // measure 53
00000001
00000000
00000010
00000100
00001000
00000000
00000001
00000000
00000010
00000100
00001000
00000000
00000001
00000000
00000100
00000000
,  // measure 54
00001000
00010000
00100000
01000000
00010000
10000000
00010000
00000000
00000000
00000000
00000000
00000000
00000000
00000000
00000000
00000000
,  // measure 55
20000000
30200000
02300000
23000000
,  // measure 56
32000000
03002000
00003200
00000310
,  // measure 57
00000101
00000011
00001100
00011000
,  // measure 58
01010000
11000000
00110000
10010000
,  // measure 59
10000000
00100000
01000000
00010000
00000000
00000000
10000000
01000000
00100000
00010000
00100000
01000000
10000000
00010000
01000000
00001000
,  // measure 60
00000000
00000000
00010000
00000100
00000010
00000100
00000000
00001000
00000010
00000100
00000001
00000010
00000100
00001000
00000001
00000100
,  // measure 61
00000010
00001000
00000001
00000000
00000000
00000000
00000010
00000100
00001000
00000001
00000000
00000000
00000100
00000010
00001000
00000001
,  // measure 62
00000010
00000100
00000010
00000001
00000100
00000010
00000100
00001000
00010000
00001000
00100000
01000000
00000000
00000000
00100000
00010000
,  // measure 63
10000000
00100000
01000000
00100000
00010000
00001000
00010000
00000100
00000000
00000000
00000010
00000001
00001000
00000010
00000000
00000000
,  // measure 64
00000100
00000010
00000001
00000010
00000100
00000010
00001000
00000100
00000010
00001000
00010000
00000000
00000000
00000000
00100000
01000000
,  // measure 65
00010000
10000000
00000000
00000000
01000000
00100000
01000000
00010000
00001000
00000010
00000100
00001000
00000001
00000100
00000010
00001000
,  // measure 66
00000100
00000000
00000000
00000000
00000000
00000000
00000000
00000000
00000000
00000011
00000000
00000000
00000000
00000000
00000000
00000000
00000000
00000000
00000000
00000000
00000000
00000000
00000000
00000000
00000001
00000000
00000000
00000000
00000100
00000000
00000000
00000000
00001000
00000000
00000000
00000000
00010000
00000000
00000000
00000000
01000000
00000000
00000000
00000000
10000000
00000000
00000000
00000000
,  // measure 67
00100000
00000000
00000000
01001000
00000000
00000000
00010100
00000000
00000000
00001001
00000000
00000000
00000011
00000000
00000000
00000000
,  // measure 68
00000000
00000000
00000002
00000000
,  // measure 69
00000000
00000000
00000000
00000000
00000203
00000010
00000000
00000010
,  // measure 70
00000000
00000010
00000000
00000310
00002000
00000000
00000000
00000000
,  // measure 71
00000000
00000000
00000000
00000000
00003200
00010000
00000000
00010000
,  // measure 72
00000000
00010000
00000000
00010300
00010100
00000100
00000000
00011000
,  // measure 73
00000000
00101000
00000000
00110000
00100000
00100000
00000000
11000000
,  // measure 74
00000000
10010000
00000000
01010000
01000000
01000000
00000000
00011000
,  // measure 75
00000000
00010100
00000000
00001100
00001000
00001000
00000000
00000101
,  // measure 76
00000000
00001010
00000000
00000000
00001000
00001100
00000000
00000011
,  // measure 77
00000000
00000000
00000101
00000000
00000000
00000000
00000001
00000010
00000100
00000000
00001100
00000000
00000000
00000000
00001010
00000000
,  // measure 78
00000000
00000000
00011000
00000000
00000000
00001000
00010000
00100000
01000000
00000000
01010000
00000000
00000000
00000000
10010000
00000000
,  // measure 79
00000000
11000000
00000000
10000000
00010000
01000000
10000000
01000000
,  // measure 80
00100000
00000000
00010000
00000000
00001000
00000000
00000010
00000000
00000001
00000000
00001000
00000000
00000000
00000000
00000100
00000010
,  // measure 81
00000001
00000000
00000100
00000010
00001000
00000000
00000010
00010000
00001000
00000000
00100000
00000000
00000000
00000000
01000000
00100000
,  // measure 82
00010000
00000000
01000000
00100000
10000000
00000000
00100000
00010000
00001000
00000000
00010000
00000000
00000000
00000000
00001000
00000010
,  // measure 83
00000100
00000000
00001000
00000001
00000100
00000000
00000010
00001000
00000100
00000000
00000010
00000000
00000000
00000000
00000001
00001000
,  // measure 84
00000010
00000000
00000100
00001000
00010000
00000000
00000000
00000000
00011000
00000000
00100000
00000000
01000000
00000000
10010000
00000000
,  // measure 85
00000000
00000000
00010000
01000000
00100000
00000000
10000000
00000000
10010000
00000000
00010000
00000000
00100000
00000000
10100000
00000000
,  // measure 86
00000000
00000000
00100000
00010000
10000000
00000000
00100000
00000000
01100000
00000000
01000000
00000000
00001000
00000000
00011000
00000000
,  // measure 87
00000000
00000000
00010000
00000010
00000100
00000000
00001000
00000100
00000010
00000000
00000000
00000000
00001010
00000000
00000000
00000000
,  // measure 88
00001000
00000000
00000000
00000100
00000000
00000000
00000010
00000000
00000000
00000001
00000100
00000010
,  // measure 89
00000001
00000010
00000100
00000001
00001000
00000100
00000010
00000000
00000000
00000001
00000100
00000010
,  // measure 90
00000100
00001000
00010000
00001000
00100000
00010000
10000000
00000000
00000000
00010000
10000000
01000000
,  // measure 91
00010000
01000000
00100000
00010000
10000000
00100000
01000000
00000000
00000000
00010000
10000000
00100000
,  // measure 92
00010000
00100000
10000000
00010000
00100000
00001000
00010000
00100000
00010000
00001000
00010000
00001000
,  // measure 93
00000010
00001000
00010000
00001000
00010000
01000000
00010000
00001000
00000100
00000010
00000100
00001000
,  // measure 94
00010000
01000000
00100000
01000000
00010000
00001000
00000010
00000001
00000010
00001000
00010000
00100000
,  // measure 95
10000000
01000000
00010000
00001000
00000010
00000001
00000100
00001000
00010000
01000000
10000000
00100000
,  // measure 96
00010000
00001000
00000010
00000001
00000100
00001000
00010000
00000000
00000000
00000000
00000000
00000000
,  // measure 97
00000000
00000000
00000000
00000000
00000010
00001000
00000001
00000000
,  // measure 98
00000010
00000100
00001000
00000000
00000100
00010000
00001000
00000000
,  // measure 99
01000000
00010000
10000000
00000000
01000000
00100000
00010000
00000000
,  // measure 100
10000000
00100000
01000000
00000000
00001000
00010000
00000100
00000000
,  // measure 101
00000010
00000001
00000100
00000010
00002000
00000000
00000010
00000000
,  // measure 102
00000100
00000000
00003002
00000010
,  // measure 103
00000103
00000000
00001000
00000000
00010000
00000000
02000000
00000000
00000000
23000000
00000000
00000000
,  // measure 104
30200000
00000000
00000000
00000000
,  // measure 105
00000000
00300000
02000000
00100000
,  // measure 106
00001000
00000000
03020000
00100000
,  // measure 107
10030000
00000000
01000000
00000000
00010000
00000000
00002000
00000000
00000000
00003020
00000000
00000000
,  // measure 108
00000230
00000000
00000000
00000000
,  // measure 109
00000000
00000000
00000000
00000000
,  // measure 110
00000000
00000000
00000000
00000000
00000000
00000300
00000000
00000000
00000000
00000000
00000000
00000000
;
