#VERSION:0.83;
#TITLE:Myztic Stage Δ Frost & Fire;
#SUBTITLE:;
#ARTIST:NANORAY;
#TITLETRANSLIT:Myztic Stage - Frost & Fire;
#SUBTITLETRANSLIT:;
#ARTISTTRANSLIT:;
#GENRE:FANTASICAL DNB;
#ORIGIN:DIGIMAIDEN (2022 Album);
#TAGS:;
#CREDIT:skeleton made by DJEmbrace;
#BANNER:Myztic Stage - Frost & Fire.png;
#BACKGROUND:Myztic Stage - Frost & Fire-bg.png;
#PREVIEWVID:;
#JACKET:Myztic Stage - Frost & Fire-jacket.png;
#CDIMAGE:;
#DISCIMAGE:;
#LYRICSPATH:;
#CDTITLE:../_YSD cdtitles/ysd sale1 cdtitle.png;
#MUSIC:Myztic Stage - Frost & Fire.ogg;
#OFFSET:-0.002000;
#SAMPLESTART:1.389000;
#SAMPLELENGTH:22.197001;
#SELECTABLE:YES;
#BPMS:0.000000=173.000000
;
#STOPS:;
#DELAYS:;
#WARPS:;
#TIMESIGNATURES:0.000000=4=4
;
#TICKCOUNTS:0.000000=4
;
#COMBOS:0.000000=1
;
#SPEEDS:0.000000=1.000000=0.000000=0
;
#SCROLLS:0.000000=1.000000
,80.000000=0.750000
,84.000000=1.000000
,246.000000=0.750000
,248.000000=1.000000
,312.500000=0.987000
,313.000000=0.974000
,313.500000=0.962000
,314.000000=0.949000
,314.500000=0.936000
,315.000000=0.923000
,315.500000=0.910000
,316.000000=0.897000
,316.500000=0.885000
,317.000000=0.872000
,317.500000=0.859000
,318.000000=0.846000
,318.500000=0.833000
,319.000000=0.821000
,319.500000=0.808000
,320.000000=0.795000
,320.500000=0.782000
,321.000000=0.769000
,321.500000=0.756000
,322.000000=0.744000
,322.500000=0.731000
,323.000000=0.718000
,323.500000=0.705000
,324.000000=0.692000
,324.500000=0.679000
,325.000000=0.667000
,325.500000=0.654000
,326.000000=0.641000
,326.500000=0.628000
,327.000000=0.615000
,327.500000=0.603000
,328.000000=0.590000
,328.500000=0.577000
,329.000000=0.564000
,329.500000=0.551000
,330.000000=0.538000
,330.500000=0.526000
,331.000000=0.513000
,331.500000=0.500000
,332.000000=0.487000
,332.500000=0.474000
,333.000000=0.462000
,333.500000=0.449000
,334.000000=0.436000
,334.500000=0.423000
,335.000000=0.410000
,335.500000=0.397000
,336.000000=0.385000
,336.500000=0.372000
,337.000000=0.359000
,337.500000=0.346000
,338.000000=0.333000
,338.500000=0.321000
,339.000000=0.308000
,339.500000=0.295000
,340.000000=0.282000
,340.500000=0.269000
,341.000000=0.256000
,341.500000=0.244000
,342.000000=0.231000
,342.500000=0.218000
,343.000000=0.205000
,343.500000=0.192000
,344.000000=0.179000
,344.500000=0.167000
,345.000000=0.154000
,345.500000=0.141000
,346.000000=0.128000
,346.500000=0.115000
,347.000000=0.103000
,347.500000=0.090000
,348.000000=0.077000
,348.500000=0.064000
,349.000000=0.051000
,349.500000=0.038000
,350.000000=0.026000
,350.500000=0.013000
,351.000000=0.000000
;
#FAKES:;
#LABELS:0.000000=Song Start
;
#BGCHANGES:;
#KEYSOUNDS:;
#ATTACKS:
;

//---------------dance-single - ----------------
#NOTEDATA:;
#CHARTNAME:;
#CHARTHASH:2495168284;
#STEPSTYPE:dance-single;
#BANNER:;
#DESCRIPTION:;
#CHARTSTYLE:;
#DIFFICULTY:Beginner;
#METER:3;
#METERF:0.000000;
#LASTSECONDHINT:119.308350;
#RADARVALUES:0.128999,0.211793,0.106717,0.008209,0.000000,110.000000,97.000000,13.000000,1.000000,0.000000,0.000000,0.000000,0.000000,0.000000,0.128999,0.211793,0.106717,0.008209,0.000000,110.000000,97.000000,13.000000,1.000000,0.000000,0.000000,0.000000,0.000000,0.000000;
#CREDIT:YOSEFU;
#NOTES:
// measure 0
0000
0000
0000
0000
,  // measure 1
0000
0000
0000
0000
,  // measure 2
0000
0000
0000
0000
,  // measure 3
0000
0000
0000
0000
,  // measure 4
0000
0000
0000
0000
,  // measure 5
1000
0000
0000
0000
,  // measure 6
0001
0000
0000
0000
,  // measure 7
0100
0000
0000
0000
,  // measure 8
0010
0000
0000
0000
,  // measure 9
1001
0000
0000
0000
,  // measure 10
1000
0000
0000
0000
,  // measure 11
0001
0000
0000
0000
,  // measure 12
0010
0000
0000
0000
,  // measure 13
0100
0000
0000
0000
,  // measure 14
1000
0000
0000
0000
,  // measure 15
0001
0000
0000
0000
,  // measure 16
0100
0000
0000
0000
,  // measure 17
1001
0000
0000
0000
,  // measure 18
0001
0000
0000
0000
,  // measure 19
1000
0000
0000
0000
,  // measure 20
0200
0000
0300
0000
,  // measure 21
0110
0000
0000
0000
,  // measure 22
0010
0000
0000
0000
,  // measure 23
0100
0000
0000
0000
,  // measure 24
1000
0000
0000
0000
,  // measure 25
0001
0000
0000
0000
,  // measure 26
0100
0000
0000
0000
,  // measure 27
0010
0000
0000
0000
,  // measure 28
0100
0000
0000
0000
,  // measure 29
1001
0000
0001
0000
,  // measure 30
0100
0000
0100
0000
,  // measure 31
1000
0000
1000
0000
,  // measure 32
0100
0000
0100
0000
,  // measure 33
0010
0000
0010
0000
,  // measure 34
0001
0000
0001
0000
,  // measure 35
1000
0000
1000
0000
,  // measure 36
0001
0000
0000
0000
,  // measure 37
0110
0000
0000
0000
,  // measure 38
1000
0000
0000
0000
,  // measure 39
0001
0000
0000
0000
,  // measure 40
0010
0000
0000
0000
,  // measure 41
0100
0000
0000
0000
,  // measure 42
1000
0000
0000
0000
,  // measure 43
0001
0000
0000
0000
,  // measure 44
0100
0000
0000
0000
,  // measure 45
0010
0000
0000
0000
,  // measure 46
1000
0000
0000
0000
,  // measure 47
0100
0000
0000
0000
,  // measure 48
0001
0000
0000
0000
,  // measure 49
1000
0000
0000
0000
,  // measure 50
0010
0000
0000
0000
,  // measure 51
0001
0000
0000
0000
,  // measure 52
0100
0000
0000
0000
,  // measure 53
0010
0000
0000
0000
,  // measure 54
1001
0000
0000
0000
,  // measure 55
0001
0000
0000
0000
,  // measure 56
0110
0000
0000
0000
,  // measure 57
0010
0000
0000
0000
,  // measure 58
1001
0000
0000
0000
,  // measure 59
1000
0000
0000
0000
,  // measure 60
0110
0000
0000
0000
,  // measure 61
0001
0000
0000
0000
,  // measure 62
1001
0000
0001
0000
,  // measure 63
0001
0000
0100
0000
,  // measure 64
0100
0000
0010
0000
,  // measure 65
0010
0000
1000
0000
,  // measure 66
1000
0000
0100
0000
,  // measure 67
0100
0000
0010
0000
,  // measure 68
0010
0000
0001
0000
,  // measure 69
0001
0000
1000
0000
,  // measure 70
1001
0000
0000
0000
,  // measure 71
0001
0000
0000
0000
,  // measure 72
0100
0000
0000
0000
,  // measure 73
0010
0000
0000
0000
,  // measure 74
1001
0000
0000
0000
,  // measure 75
1000
0000
0000
0000
,  // measure 76
0100
0000
0000
0000
,  // measure 77
0010
0000
0000
0000
,  // measure 78
0110
0000
0000
0000
,  // measure 79
0100
0000
0000
0000
,  // measure 80
1000
0000
0000
0000
,  // measure 81
0001
0000
0000
0000
,  // measure 82
0100
0000
0000
0000
,  // measure 83
0010
0000
0000
0000
,  // measure 84
1000
0000
0000
0000
,  // measure 85
0100
0000
0000
0000
,  // measure 86
0010
0000
0000
0000
;

//---------------dance-single - ----------------
#NOTEDATA:;
#CHARTNAME:;
#CHARTHASH:1424084712;
#STEPSTYPE:dance-single;
#BANNER:;
#DESCRIPTION:;
#CHARTSTYLE:;
#DIFFICULTY:Easy;
#METER:7;
#METERF:0.000000;
#LASTSECONDHINT:121.736099;
#RADARVALUES:0.349470,0.432206,0.180599,0.016418,0.000000,298.000000,276.000000,22.000000,2.000000,0.000000,0.000000,0.000000,0.000000,0.000000,0.349470,0.432206,0.180599,0.016418,0.000000,298.000000,276.000000,22.000000,2.000000,0.000000,0.000000,0.000000,0.000000,0.000000;
#CREDIT:YOSEFU;
#NOTES:
0000
0000
0000
0000
,
0000
0000
0000
0000
,
0000
0000
0000
0000
,
0000
0000
0000
0000
,
0000
0000
0000
0000
,
1000
1000
1000
0100
,
0010
0010
0001
0001
,
0100
0100
0100
0100
,
0100
0010
0100
0100
,
0001
0001
0001
0010
,
0100
0100
1000
1000
,
0100
0100
0100
0100
,
0010
0001
0010
0010
,
0001
0001
0001
0100
,
0010
0010
1000
1000
,
0100
0100
0100
0100
,
0100
0100
0100
0100
,
0100
0000
0010
0000
0000
0001
0000
0000
,
1000
0000
0010
0000
0000
0100
0000
0000
,
0001
0000
1000
0000
0000
0100
0000
0000
,
0020
0000
0000
0030
,
0001
0000
0000
1000
0000
0000
0001
0000
,
0000
0100
0000
0000
0010
0000
1000
0000
,
0001
0000
0000
0010
0000
0000
0100
0000
,
0000
0010
0000
0000
0001
0000
1000
0000
,
0010
0000
0000
0100
0000
0000
0001
0000
,
0000
0010
0000
0000
0100
0000
1000
0000
,
0001
0000
0000
0100
0000
0000
0010
0000
,
0000
1000
0000
0000
0001
0000
0010
0000
,
0100
1000
0100
1000
,
0001
0100
0001
0100
,
0010
1000
0010
1000
,
0001
0010
0100
1000
,
0100
0010
0001
0100
,
0010
1000
0001
0010
,
0100
1000
0001
0100
,
0010
1000
0000
0000
,
0001
0000
0000
0100
0000
0000
0001
0000
,
0000
0100
0000
0000
0010
0000
1000
0000
,
0001
0000
0000
0010
0000
0000
0001
0000
,
0000
0010
0000
0000
0100
0000
1000
0000
,
0001
0000
0000
1000
0000
0000
0010
0000
,
0000
0100
0000
0000
0001
0000
1000
0000
,
0100
0000
0000
0010
0000
0000
0100
0000
,
0000
1000
0000
0000
0001
0000
0100
0000
,
0010
0000
0000
1000
0000
0000
0100
0000
,
0000
0010
0000
0000
1000
0000
0010
0000
,
0001
0000
0000
0100
0000
0000
0010
0000
,
0000
0001
0000
0000
0010
0000
1000
0000
,
0001
0000
0000
0010
0000
0000
1000
0000
,
0000
0001
0000
0000
0100
0000
1000
0000
,
0001
0000
0000
0100
0000
0000
0010
0000
,
0000
0001
0000
0000
1000
0000
0100
0000
,
0001
0000
0000
0000
,
0101
0000
0000
0101
0000
0000
1000
0000
,
0001
0000
1000
0000
0000
0100
0000
0000
,
0110
0000
0000
0110
0000
0000
0010
0000
,
0001
0000
1001
0000
0000
0110
0000
0000
,
1001
0000
0000
1001
0000
0000
1000
0000
,
0010
0000
0100
0000
0000
0001
0000
0000
,
1001
0000
0000
1001
0000
0000
0001
0000
,
0010
0100
1000
0000
,
1001
0000
0000
1001
0000
0000
0001
0000
,
0100
0010
1000
0100
,
0011
0000
0000
0011
0000
0000
0001
0000
,
1000
0000
0110
0000
0000
1001
0000
0000
,
0110
0000
0000
1001
0000
0000
1000
0000
,
0010
0100
0001
0010
,
0110
0000
0000
0110
0000
0000
1000
0000
,
0001
0000
0110
0000
0000
1001
0000
0000
,
0001
0100
0001
0100
,
0010
1000
0100
0010
,
1000
0010
0001
0100
,
0010
0100
0001
1000
,
0100
0010
0100
0010
,
0001
1000
0010
0100
,
1000
0100
0001
0010
,
0100
1000
0001
0100
,
1000
0100
0001
0010
,
1000
0010
0001
1000
,
0010
0001
0010
0100
,
0001
0010
0100
1000
,
0001
0100
0010
0001
,
1000
0100
0010
1000
,
0001
0010
1000
0001
,
0100
1000
0010
0100
,
0002
0000
0000
0000
,
0000
0000
0000
0003
;

//---------------dance-single - ----------------
#NOTEDATA:;
#CHARTNAME:;
#CHARTHASH:3630354126;
#STEPSTYPE:dance-single;
#BANNER:;
#DESCRIPTION:;
#CHARTSTYLE:;
#DIFFICULTY:Medium;
#METER:12;
#METERF:0.000000;
#LASTSECONDHINT:121.736099;
#RADARVALUES:0.538278,0.540257,0.098508,0.032836,0.004105,459.000000,447.000000,12.000000,4.000000,0.000000,0.000000,0.000000,0.000000,0.000000,0.538278,0.540257,0.098508,0.032836,0.004105,459.000000,447.000000,12.000000,4.000000,0.000000,0.000000,0.000000,0.000000,0.000000;
#CREDIT:YOSEFU;
#NOTES:
0000
0000
0000
0000
,
0000
0000
0000
0000
,
0000
0000
0000
0000
,
0000
0000
0000
0000
,
0000
0000
0000
0000
,
1000
0000
1000
0000
1000
0000
0100
0010
,
0001
0001
0100
0100
,
0010
0010
0010
0010
,
0010
0001
0010
0010
,
1000
0000
1000
0000
1000
0000
0100
0010
,
0001
0001
0100
0100
,
0010
0010
0010
0010
,
0100
1000
0100
0100
,
0001
0000
0001
0000
0001
0000
0010
0100
,
1000
1000
0010
0010
,
0100
0100
0100
0100
,
0100
0000
0100
0000
0100
0000
0100
0001
,
0101
0000
0100
0001
0000
0100
0001
0000
,
1000
0000
0100
1000
0000
0100
1000
0000
,
0001
0000
0100
0010
0000
1000
0001
0000
,
0020
0000
0230
0000
,
1300
0001
0100
1000
0000
0100
0010
1000
,
0000
0100
1000
0001
0100
0010
1000
0001
,
0010
0100
0010
0001
0000
1000
0010
0001
,
0000
0010
0100
0001
0010
0100
0010
1000
,
0010
0001
0100
1000
0000
0100
0001
0010
,
0000
0100
1000
0001
0100
0010
1000
0001
,
0010
0100
0010
0001
0000
0100
0010
0001
,
0000
0010
1000
0001
0010
0100
1000
0001
,
0100
0001
0010
1000
0000
0010
0001
1000
,
0000
0100
1000
0001
0100
0010
1000
0100
,
0010
0001
0100
0010
0000
1000
0100
0001
,
0000
0100
0010
0001
1000
0010
0100
1000
,
0100
0001
0010
1000
0000
0010
0001
0100
,
0000
0010
1000
0100
0010
0001
1000
0010
,
0100
0001
1000
0100
0000
0010
0100
0001
,
0000
0100
1000
0000
0000
0000
0000
0000
,
0001
0100
0000
0001
0100
0000
0010
1000
,
0000
0010
1000
0000
0001
1000
0001
1000
,
0100
0010
0000
0100
0010
0000
0001
1000
,
0000
0001
1000
0000
0001
0100
0001
0100
,
0010
1000
0000
0010
1000
0000
0001
0100
,
0000
0001
0100
0000
0001
0010
0001
0010
,
0100
1000
0000
0100
1000
0000
0001
0100
,
0000
0001
0100
0000
0010
1000
0010
0100
,
0001
0100
0000
0001
1000
0000
0010
1000
,
0000
0100
1000
0000
0001
0010
0100
0010
,
0001
1000
0000
0001
0100
0000
0010
1000
,
0000
0001
0010
0000
0100
1000
0001
0100
,
0010
1000
0000
0001
0010
0000
0001
1000
,
0000
0010
0100
0000
0001
1000
0100
0010
,
0001
1000
0000
0010
0100
0000
1000
0100
,
0000
0001
0010
0000
0100
1000
0001
0100
,
0000
0000
0000
0000
,
1001
0000
0000
1001
0000
0000
0001
0000
,
0100
0000
0010
1000
0001
0000
0010
0000
,
1100
0000
0000
1100
0000
0000
1000
0000
,
0001
0000
0101
0000
0000
1010
0000
0000
,
0101
0000
0000
0101
0000
0000
0001
0000
,
1000
0000
0100
0010
0001
0000
0100
0000
,
1010
0000
0000
1010
0000
0000
0101
0000
,
0001
0000
1000
0100
0020
0000
0000
0000
,
0031
0000
1000
0010
0000
0100
0001
0000
,
1000
0100
0000
0010
0001
1000
0001
0100
,
0010
0000
1000
0001
0000
0010
0100
0000
,
1000
0000
0000
0001
0000
0000
0100
0000
0010
0000
0100
0000
0001
0000
1000
0000
,
0010
0000
0100
0001
0000
0010
0100
0000
,
1000
0001
0000
0100
0010
1000
0001
0000
,
0010
0000
0100
1000
0000
0001
0100
0000
,
0010
1000
0001
0000
0010
0100
0010
0001
,
1000
0010
1000
0010
0000
0100
0001
0100
,
0000
0010
1000
0010
0000
0100
0001
0100
,
0000
0001
0010
0001
0000
1000
0010
1000
,
0000
0001
0100
0001
0000
1000
0100
1000
,
0000
0001
0100
0010
0000
1000
0010
0100
,
0000
0001
0010
0100
0000
1000
0100
0010
,
0000
0001
0100
0010
0000
1000
0001
0100
,
0000
0010
1000
0001
0000
0010
0100
1000
,
0001
1000
0010
0000
0100
0001
1000
0000
,
0100
0010
0001
0000
1000
0010
0100
0000
,
1000
0100
0001
0000
0010
0100
1000
0000
,
0100
0010
0001
0000
0010
1000
0010
0000
,
0001
0100
1000
0000
0100
0001
0010
0000
,
1000
0010
0001
0000
1000
0100
0001
0000
,
0100
0010
0001
0000
1000
0100
0001
0000
,
0100
1000
0010
0000
0001
0010
0100
0001
,
2000
0000
0000
0000
,
0000
0000
0000
3000
;

//---------------dance-single - ----------------
#NOTEDATA:;
#CHARTNAME:;
#CHARTHASH:724480681;
#STEPSTYPE:dance-single;
#BANNER:;
#DESCRIPTION:;
#CHARTSTYLE:;
#DIFFICULTY:Hard;
#METER:15;
#METERF:0.000000;
#LASTSECONDHINT:121.736099;
#RADARVALUES:0.831458,0.900428,0.648514,0.065672,0.348884,709.000000,630.000000,79.000000,8.000000,0.000000,0.000000,0.000000,0.000000,0.000000,0.831458,0.900428,0.648514,0.065672,0.348884,709.000000,630.000000,79.000000,8.000000,0.000000,0.000000,0.000000,0.000000,0.000000;
#CREDIT:YOSEFU;
#NOTES:
0000
0000
0000
0000
,
0000
0000
0000
0000
,
0000
0000
0000
0000
,
0000
0000
0000
0000
,
0000
0000
0000
0000
,
1000
0001
0100
0010
1000
0001
0100
0010
,
1000
0001
0100
0010
1000
0001
0100
0010
,
1000
0100
0001
0100
1000
0100
0001
0100
,
1000
0100
0001
0100
1000
0100
0001
0100
,
1000
0001
0010
0100
1000
0001
0010
0100
,
1000
0000
0001
0000
0010
0000
0100
0000
1000
0000
0001
0000
0010
0100
0010
0100
,
1000
0001
0100
1000
0100
0001
0100
1000
,
0100
0000
0001
0000
0100
0000
1000
0000
0100
0000
0001
0000
0100
0010
0100
0010
,
1000
0001
0100
0010
1000
0001
0100
0010
,
1000
0000
0001
0000
0100
0000
0010
0000
1000
0000
0001
0000
0100
0010
0100
0010
,
1000
0001
0010
0100
1000
0001
0010
0100
,
1000
0000
0001
0000
0010
0000
0100
0000
1000
0000
0001
0000
1000
0010
1000
0010
,
0100
0000
0001
0011
0000
1000
0100
0010
,
0011
0000
0001
0101
0000
0100
0001
1000
,
1100
0000
0100
0110
0000
0010
0001
1000
,
0020
0000
0230
0000
,
0301
0000
0000
1000
0100
0000
0010
0000
0100
1000
0001
0000
0100
0000
0010
0000
,
0100
0000
0001
1000
0100
1000
0001
0000
0100
0000
0010
0000
1000
0000
0100
0000
,
0010
0000
0000
0100
1000
0000
0001
0000
0100
0010
1000
0000
0100
0000
0010
0001
,
0010
0100
1000
0100
1000
0001
1000
0000
0010
0000
1000
0000
0010
0000
0001
0000
,
0010
0000
0000
0100
0001
0000
1000
0000
0000
0100
0010
0000
0001
0000
1000
0010
,
0100
0000
0001
1000
0001
1000
0100
0010
0001
0000
0100
0000
0010
0000
1000
0000
,
0001
0000
0000
1000
0100
0000
0010
0000
0001
1000
0010
0000
0100
0000
0001
1000
,
0100
0000
0010
0000
0100
1000
0001
1000
0001
0000
0100
0000
0010
0000
1000
0000
,
0001
0000
0100
0000
0010
0000
0100
0000
0001
0000
1000
0000
0100
0010
0001
0000
,
1000
0000
0010
0100
0001
0100
0001
1000
0001
0000
0010
0000
0100
0000
1000
0000
,
0001
0000
0100
0001
1000
0000
0100
0000
0010
0100
1000
0000
0001
0000
0100
0010
,
1000
0000
0001
0010
0100
0010
0100
1000
0001
0000
0100
0000
0010
0000
1000
0000
,
0001
0000
0010
0000
0100
0000
1000
0000
0001
0000
0100
0000
0010
1000
0001
0000
,
1000
0000
0100
0010
0100
1000
0100
0000
0010
0000
0001
0000
0100
0000
0010
0000
,
1000
0000
0001
0000
0010
0000
0100
0000
0010
0001
1000
0000
0010
0100
0001
1000
,
0100
0000
0000
0010
0001
0000
0000
0000
0000
0000
0000
0000
0000
0000
0000
0000
,
1001
0010
0000
0101
1000
0000
0110
0001
,
0000
0110
1000
0000
0011
0001
0100
0010
,
1010
0100
0000
1001
0010
0000
0101
1000
,
0000
0110
0001
0000
1100
0100
0010
0001
,
1001
0100
0000
1001
0010
0000
0101
1000
,
0000
1100
0001
0000
0110
1000
0001
0010
,
0110
1000
0000
0101
0010
0000
0101
1000
,
0000
0011
1000
0000
0101
0001
1000
0100
,
0110
0001
0000
0110
1000
0000
0110
0001
,
0000
0110
1000
0000
0101
0100
0010
1000
,
0110
0001
0000
1100
0010
0000
0101
0010
,
0000
1100
0010
0000
0101
0001
1000
0100
,
0011
1000
0000
0101
0010
0000
1100
0001
,
0000
0110
1000
0000
0101
0010
0100
0010
,
1001
0100
0000
1001
0010
0000
1100
0010
,
0000
0101
1000
0000
0011
0100
0010
0100
,
0000
0000
0000
0000
,
1001
0000
0000
0000
0000
0000
0101
0000
0000
0000
0000
0000
1001
0000
0000
1000
,
0100
0000
0000
0000
1000
0001
1000
0001
1000
0000
0001
0100
0010
0000
0000
0000
,
0110
0000
0000
0000
0000
0000
0101
0000
0000
0000
0000
0000
1001
0000
0000
0001
,
0010
0000
1100
0000
0000
1010
0000
0000
,
0101
0000
0000
0000
0000
0000
1100
0000
0000
0000
0000
0000
1001
0000
0000
0001
,
0100
0000
0000
0000
0010
1000
0010
1000
0010
0000
0100
0001
1000
0000
0000
0000
,
1100
0000
0000
0000
0000
0000
0011
0000
0000
0000
0000
0000
0101
0000
0000
0001
,
0100
0000
0010
0000
1000
0001
1000
0001
2000
0000
0000
0000
0000
0000
0000
0000
,
3001
0000
0100
0000
0010
0000
1000
0000
0100
0000
0010
0000
0001
1000
0000
0001
,
0100
0000
0010
1000
0010
1000
0001
0010
0200
0000
1300
0001
0100
0000
0000
0000
,
0101
0000
0000
0001
1000
0000
1100
0000
0000
0100
0010
0000
0001
1000
0100
1000
,
0001
0000
1000
0010
0000
0010
0100
0000
0010
1000
0010
1000
0200
0000
0310
0000
,
0001
0000
0100
0000
0010
0000
1000
0000
0100
0000
0010
0000
0001
1000
0000
0100
,
1000
0000
0001
0100
0010
1000
0010
1000
0002
0000
0013
0000
0100
0000
0000
0000
,
1100
0000
0000
1000
0010
0000
0110
0000
0000
0100
0001
0000
1000
0100
0010
0001
,
0100
0000
0010
0000
2000
0000
3010
0000
0100
0001
0100
0001
1000
0100
1000
0100
,
0010
0001
0100
0101
1000
0100
0010
0001
,
1010
0010
0100
1001
1000
0100
0010
0001
,
0101
1000
0100
0011
0010
0100
1000
0001
,
0101
0001
1000
0101
0100
0001
0100
0010
,
1001
0001
0100
0101
1000
0100
0010
0001
,
1010
0010
0100
1001
0001
0010
0100
1000
,
0101
0100
0010
1001
1000
0100
0001
0100
,
0110
0001
0100
1001
1000
0010
1010
0001
,
1000
0010
0100
0010
1000
0100
0010
0100
,
1000
0001
0100
0010
0100
0001
0010
0100
,
1000
0100
0001
0100
1000
0001
0100
1000
,
0100
0001
0010
0100
1000
0100
0001
0100
,
1000
0001
0100
0010
0001
0010
1000
0001
,
0010
0100
1000
0001
0100
0010
1000
0100
,
0010
0001
1000
0010
0100
0001
1000
0100
,
0010
0001
0100
0010
1000
0001
1000
0010
,
0200
0000
0000
0000
,
0000
0000
0000
0300
;

//---------------dance-double - ----------------
#NOTEDATA:;
#CHARTNAME:;
#CHARTHASH:470807366;
#STEPSTYPE:dance-double;
#BANNER:;
#DESCRIPTION:;
#CHARTSTYLE:;
#DIFFICULTY:Beginner;
#METER:3;
#METERF:0.000000;
#LASTSECONDHINT:119.308350;
#RADARVALUES:0.125481,0.211793,0.082090,0.000000,0.000000,107.000000,97.000000,10.000000,0.000000,0.000000,0.000000,0.000000,0.000000,0.000000,0.125481,0.211793,0.082090,0.000000,0.000000,107.000000,97.000000,10.000000,0.000000,0.000000,0.000000,0.000000,0.000000,0.000000;
#CREDIT:YOSEFU;
#NOTES:
00000000
00000000
00000000
00000000
,
00000000
00000000
00000000
00000000
,
00000000
00000000
00000000
00000000
,
00000000
00000000
00000000
00000000
,
00000000
00000000
00000000
00000000
,
00010000
00000000
00000000
00000000
,
00001000
00000000
00000000
00000000
,
00010000
00000000
00000000
00000000
,
00001000
00000000
00000000
00000000
,
00011000
00000000
00000000
00000000
,
00100000
00000000
00000000
00000000
,
00010000
00000000
00000000
00000000
,
01000000
00000000
00000000
00000000
,
00100000
00000000
00000000
00000000
,
01000000
00000000
00000000
00000000
,
00001000
00000000
00000000
00000000
,
00010000
00000000
00000000
00000000
,
00011000
00000000
00000000
00000000
,
00000100
00000000
00000000
00000000
,
00001000
00000000
00000000
00000000
,
00000010
00000000
00000000
00000000
,
00000110
00000000
00000000
00000000
,
00001000
00000000
00000000
00000000
,
00000001
00000000
00000000
00000000
,
00000010
00000000
00000000
00000000
,
00000110
00000000
00000000
00000000
,
00001000
00000000
00000000
00000000
,
00000001
00000000
00000000
00000000
,
00000100
00000000
00000000
00000000
,
00000110
00000000
00000010
00000000
,
00001000
00000000
00001000
00000000
,
00000001
00000000
00000001
00000000
,
00000010
00000000
00000010
00000000
,
00000100
00000000
00000100
00000000
,
00010000
00000000
00010000
00000000
,
00001000
00000000
00001000
00000000
,
01000000
00000000
00000000
00000000
,
01100000
00000000
00000000
00000000
,
00010000
00000000
00000000
00000000
,
10000000
00000000
00000000
00000000
,
01000000
00000000
00000000
00000000
,
00100000
00000000
00000000
00000000
,
01000000
00000000
00000000
00000000
,
10000000
00000000
00000000
00000000
,
00010000
00000000
00000000
00000000
,
01000000
00000000
00000000
00000000
,
00001000
00000000
00000000
00000000
,
00010000
00000000
00000000
00000000
,
00000100
00000000
00000000
00000000
,
00001000
00000000
00000000
00000000
,
00000001
00000000
00000000
00000000
,
00000100
00000000
00000000
00000000
,
00000010
00000000
00000000
00000000
,
00001000
00000000
00000000
00000000
,
00001001
00000000
00000000
00000000
,
00000001
00000000
00000000
00000000
,
00000010
00000000
00000000
00000000
,
00000100
00000000
00000000
00000000
,
00010000
00000000
00000000
00000000
,
00001000
00000000
00000000
00000000
,
00010000
00000000
00000000
00000000
,
00001000
00000000
00000000
00000000
,
00011000
00000000
00001000
00000000
,
00100000
00000000
00100000
00000000
,
00010000
00000000
00010000
00000000
,
10000000
00000000
10000000
00000000
,
00100000
00000000
00100000
00000000
,
01000000
00000000
01000000
00000000
,
00001000
00000000
00001000
00000000
,
00010000
00000000
00010000
00000000
,
00011000
00000000
00000000
00000000
,
00001000
00000000
00000000
00000000
,
00010000
00000000
00000000
00000000
,
00000100
00000000
00000000
00000000
,
00001000
00000000
00000000
00000000
,
00000010
00000000
00000000
00000000
,
00000100
00000000
00000000
00000000
,
00000001
00000000
00000000
00000000
,
00001001
00000000
00000000
00000000
,
00001000
00000000
00000000
00000000
,
00000100
00000000
00000000
00000000
,
00010000
00000000
00000000
00000000
,
00001000
00000000
00000000
00000000
,
01000000
00000000
00000000
00000000
,
00010000
00000000
00000000
00000000
,
10000000
00000000
00000000
00000000
,
01000000
00000000
00000000
00000000
;

//---------------dance-double - ----------------
#NOTEDATA:;
#CHARTNAME:;
#CHARTHASH:3378585963;
#STEPSTYPE:dance-double;
#BANNER:;
#DESCRIPTION:;
#CHARTSTYLE:;
#DIFFICULTY:Easy;
#METER:8;
#METERF:0.000000;
#LASTSECONDHINT:121.736099;
#RADARVALUES:0.345952,0.432206,0.246271,0.032836,0.000000,295.000000,265.000000,30.000000,4.000000,0.000000,0.000000,0.000000,0.000000,0.000000,0.345952,0.432206,0.246271,0.032836,0.000000,295.000000,265.000000,30.000000,4.000000,0.000000,0.000000,0.000000,0.000000,0.000000;
#CREDIT:YOSEFU;
#NOTES:
00000000
00000000
00000000
00000000
,
00000000
00000000
00000000
00000000
,
00000000
00000000
00000000
00000000
,
00000000
00000000
00000000
00000000
,
00000000
00000000
00000000
00000000
,
00010000
00010000
00010000
00001000
,
00100000
00100000
01000000
01000000
,
10000000
10000000
10000000
10000000
,
10000000
00100000
01000000
01000000
,
00010000
00010000
00010000
00100000
,
01000000
01000000
00010000
00010000
,
00001000
00001000
00001000
00001000
,
00000010
00000100
00001000
00001000
,
00000001
00000001
00000001
00000100
,
00000010
00000010
00000100
00000100
,
00001000
00001000
00001000
00001000
,
00001000
00001000
00001000
00001000
,
00010000
00000000
00001000
00000000
00000000
01000000
00000000
00000000
,
00100000
00000000
10000000
00000000
00000000
01000000
00000000
00000000
,
00010000
00000000
00001000
00000000
00000000
00100000
00000000
00000000
,
00002000
00000000
00000000
00003000
,
00010000
00000000
00000000
00000010
00000000
00000000
00000100
00000000
,
00000000
00000001
00000000
00000000
00000010
00000000
00001000
00000000
,
00010000
00000000
00000000
00100000
00000000
00000000
01000000
00000000
,
00000000
10000000
00000000
00000000
01000000
00000000
00010000
00000000
,
00100000
00000000
00000000
01000000
00000000
00000000
00010000
00000000
,
00000000
00001000
00000000
00000000
00000010
00000000
00000001
00000000
,
00000100
00000000
00000000
00001000
00000000
00000000
00010000
00000000
,
00000000
00100000
00000000
00000000
01000000
00000000
00010000
00000000
,
10000000
01000000
10000000
01000000
,
00100000
00001000
00100000
00001000
,
00010000
00000100
00010000
00000100
,
00001000
00000010
00001000
00000010
,
00000100
00000001
00000100
00000001
,
00000010
00000100
00000010
00000100
,
00010000
00001000
00010000
00001000
,
00100000
00001000
00000000
00000000
,
01000000
00000000
00000000
00010000
00000000
00000000
01000000
00000000
,
00000000
00010000
00000000
00000000
10000000
00000000
01000000
00000000
,
00010000
00000000
00000000
01000000
00000000
00000000
00010000
00000000
,
00000000
01000000
00000000
00000000
00010000
00000000
00001000
00000000
,
00100000
00000000
00000000
00001000
00000000
00000000
00100000
00000000
,
00000000
00001000
00000000
00000000
00010000
00000000
00000100
00000000
,
00000010
00000000
00000000
00000100
00000000
00000000
00000010
00000000
,
00000000
00000100
00000000
00000000
00001000
00000000
00000001
00000000
,
00000100
00000000
00000000
00001000
00000000
00000000
00000100
00000000
,
00000000
00001000
00000000
00000000
00010000
00000000
00100000
00000000
,
01000000
00000000
00000000
10000000
00000000
00000000
01000000
00000000
,
00000000
00010000
00000000
00000000
01000000
00000000
00100000
00000000
,
10000000
00000000
00000000
01000000
00000000
00000000
00010000
00000000
,
00000000
01000000
00000000
00000000
00010000
00000000
00001000
00000000
,
00000010
00000000
00000000
00000001
00000000
00000000
00000100
00000000
,
00000000
00001000
00000000
00000000
00010000
00000000
00100000
00000000
,
01000000
00000000
00000000
00000000
,
10010000
00000000
00000000
10010000
00000000
00000000
00010000
00000000
,
00000000
00000000
01000000
00000000
00000000
00011000
00000000
00000000
,
00000110
00000000
00000000
00000110
00000000
00000000
00000001
00000000
,
00000000
00000000
00000110
00000000
00000000
00001010
00000000
00000000
,
00011000
00000000
00000000
00011000
00000000
00000000
00100000
00000000
,
00000000
00000000
00001000
00000000
00000000
01000000
00000000
00000000
,
10100000
00000000
00000000
10100000
00000000
00000000
10000000
00000000
,
00000000
02200000
00000000
03300000
,
10000000
01000000
00010000
00001000
,
00000010
00000001
00000100
00001000
,
00010000
00100000
00010000
00001000
,
00100000
01000000
10000000
00100000
,
00010000
00001000
00000100
00000010
,
00001000
00000100
00000010
00000001
,
00000100
00001000
00010000
00100000
,
01000000
10000000
01000000
00010000
,
10010000
00000000
00000000
11000000
00000000
00000000
00000000
00000000
,
01100000
00000000
00000000
00110000
00000000
00000000
00100000
00000000
,
00101000
00000000
00000000
00011000
00000000
00000000
00000000
00000000
,
00010100
00000000
00000000
00001010
00000000
00000000
00000101
00000000
,
00001001
00000000
00000000
00001100
00000000
00000000
00000000
00000000
,
00011000
00000000
00000000
01001000
00000000
00000000
00010000
00000000
,
00110000
00000000
00000000
11000000
00000000
00000000
00000000
00000000
,
10100000
00000000
00000000
01010000
00000000
00000000
00011000
00000000
,
00010000
00001000
00000010
00000001
,
00000100
00001000
00010000
00100000
,
01000000
10000000
01000000
00010000
,
00100000
01000000
00010000
00001000
,
00000010
00000001
00000100
00001000
,
00010000
00000010
00000100
00001000
,
00010000
00100000
01000000
00001000
,
00010000
00100000
01000000
00010000
,
20000000
00000000
00000000
00000000
,
00000000
00000000
00000000
30000000
;

//---------------dance-double - ----------------
#NOTEDATA:;
#CHARTNAME:;
#CHARTHASH:3623659489;
#STEPSTYPE:dance-double;
#BANNER:;
#DESCRIPTION:;
#CHARTSTYLE:;
#DIFFICULTY:Medium;
#METER:12;
#METERF:0.000000;
#LASTSECONDHINT:121.736099;
#RADARVALUES:0.504269,0.504240,0.098508,0.032836,0.000000,430.000000,418.000000,12.000000,4.000000,0.000000,0.000000,0.000000,0.000000,0.000000,0.504269,0.504240,0.098508,0.032836,0.000000,430.000000,418.000000,12.000000,4.000000,0.000000,0.000000,0.000000,0.000000,0.000000;
#CREDIT:YOSEFU;
#NOTES:
00000000
00000000
00000000
00000000
,
00000000
00000000
00000000
00000000
,
00000000
00000000
00000000
00000000
,
00000000
00000000
00000000
00000000
,
00000000
00000000
00000000
00000000
,
00010000
00000000
00010000
00000000
00010000
00000000
00001000
00100000
,
01000000
01000000
10000000
10000000
,
00100000
00100000
00100000
00100000
,
00100000
01000000
00100000
00100000
,
01000000
00000000
01000000
00000000
01000000
00000000
00001000
00010000
,
00000100
00000100
00001000
00001000
,
00000001
00000001
00000001
00000001
,
00000100
00000010
00000100
00000100
,
00000010
00000000
00000010
00000000
00000010
00000000
00001000
00000100
,
00010000
00010000
00001000
00001000
,
01000000
01000000
01000000
01000000
,
01000000
01000000
01000000
01000000
,
00100000
00000000
10000000
00100000
00000000
10000000
00100000
00000000
,
01000000
00000000
00001000
00010000
00000000
00001000
00010000
00000000
,
00000100
00000000
00001000
00000010
00000000
00001000
00000010
00000000
,
00000200
00000000
00000302
00000003
,
00001000
00000000
00000010
00010000
00000000
00000010
00010000
00001000
,
00000000
00100000
00001000
00000000
01000000
00100000
10000000
00000000
,
01000000
00000000
00100000
00010000
00000000
01000000
00100000
00010000
,
00000000
00001000
00010000
00000000
00000100
00000010
00000001
00000000
,
00000100
00000000
00001000
00010000
00000000
00000010
00001000
00000001
,
00000000
00000010
00000100
00000000
00010000
00001000
01000000
00000000
,
00100000
00000000
00010000
00001000
00000000
00100000
01000000
00010000
,
00000000
01000000
10000000
00000000
00010000
01000000
00100000
00000000
,
10000000
00100000
01000000
00010000
,
10000000
00000000
01000000
00100000
00001000
00010000
00100000
00000000
,
01000000
00010000
00100000
01000000
,
00010000
00000000
00001000
00000000
00000010
00000100
00001000
00000001
,
00000100
00000010
00000100
00001000
,
00010000
00000000
00001000
00000010
00000001
00000010
00000100
00000000
,
00001000
00000000
00000001
00000000
00000100
00000000
00001000
00010000
,
00100000
01000000
00000000
00000000
,
00010000
01000000
00010000
01000000
00000000
00010000
10000000
00010000
,
00000000
10000000
01000000
10000000
00000000
00010000
01000000
00010000
,
00000000
01000000
00001000
01000000
00000000
00001000
00010000
00001000
,
00000000
00010000
00000100
00010000
00000000
00000100
00001000
00000100
,
00000000
00001000
00000001
00001000
00000000
00000001
00000100
00000001
,
00000000
00001000
00000010
00001000
00000000
00000100
00001000
00000100
,
00000000
00010000
00001000
00010000
00000000
00001000
01000000
00001000
,
00000000
00100000
01000000
00100000
00000000
00010000
10000000
00010000
,
00000000
00100000
01000000
10000000
00000000
00100000
01000000
00001000
,
00000000
00010000
00001000
00000010
00000000
00000100
00001000
00000001
,
00000000
00000100
00001000
00010000
00000000
00100000
01000000
00001000
,
00000000
00100000
01000000
10000000
00000000
00010000
01000000
00100000
,
00000000
10000000
01000000
00010000
00000000
00001000
00100000
00010000
,
00000000
10000000
01000000
00010000
00000000
00001000
00000010
00000001
,
00000000
00000100
00001000
00010000
00000000
00000010
00000100
00001000
,
00000000
00010000
00100000
01000000
00000000
10000000
01000000
00010000
,
00100000
00000000
00000000
00000000
,
11000000
00000000
00000000
11000000
00000000
00000000
10000000
00000000
,
00010000
00000000
01000000
00001000
00010000
00000000
00001000
00000000
,
00010100
00000000
00000000
00010100
00000000
00000000
00010000
00000000
,
00000010
00000000
00000101
00000000
00000000
00001010
00000000
00000000
,
00011000
00000000
00000000
00011000
00000000
00000000
00100000
00000000
,
00001000
00000000
01000000
00100000
10000000
00000000
01000000
00000000
,
00110000
00000000
00000000
00110000
00000000
00000000
00100000
00000000
,
00001000
00000000
00010000
00000010
00002000
00000000
00000000
00000000
,
00003001
00000000
00000100
00000010
00000000
00001000
00000010
00000000
,
00010000
00001000
00000000
00100000
00001000
00000000
10010000
00000000
,
10000000
00000000
00100000
01000000
00000000
00001000
00010000
00000000
,
00000100
00001000
00000001
00000000
00000100
00001000
00010000
00000000
,
00001000
00000000
00100000
00001000
00000000
00100000
00010000
00000000
,
10000000
00100000
00000000
01000000
00010000
00000000
01010000
00000000
,
01000000
00000000
00100000
10000000
00000000
01000000
00010000
00000000
,
00001000
00100000
00001000
00000000
00010000
00000100
00000010
00000001
,
00001000
00000001
00000100
00000010
00000000
00010000
00001000
00100000
,
00000000
01000000
10000000
00100000
00000000
01000000
00010000
00100000
,
00000000
01000000
00010000
00001000
00000000
00100000
01000000
10000000
,
00000000
01000000
00010000
00001000
00000000
00000010
00000001
00001000
,
00000010
00000100
00000001
00001000
00000000
00000010
00000100
00000001
,
00000000
00001000
00000100
00010000
00000000
00001000
00100000
00010000
,
00000000
10000000
00100000
00010000
00000000
00001000
00100000
01000000
,
00000000
00010000
00001000
00000010
00000000
00000001
00000100
00000010
,
00001000
00000010
00001000
00000000
00000100
00010000
00000100
00000000
,
01000000
00001000
01000000
00000000
00010000
10000000
00010000
00000000
,
00100000
01000000
10000000
00000000
01000000
00010000
00001000
00000000
,
00000010
00000001
00000100
00000000
00001000
00010000
00100000
00000000
,
01000000
00010000
10000000
00000000
01000000
00010000
00001000
00000000
,
00100000
01000000
10000000
00000000
00100000
00010000
00001000
00000000
,
01000000
00100000
00010000
00000000
00001000
00100000
01000000
00000000
,
00010000
00001000
00000100
00000000
00000010
00001000
00000100
00000000
,
00000020
00000000
00000000
00000000
,
00000000
00000000
00000000
00000030
;

//---------------dance-double - ----------------
#NOTEDATA:;
#CHARTNAME:;
#CHARTHASH:1696808341;
#STEPSTYPE:dance-double;
#BANNER:;
#DESCRIPTION:;
#CHARTSTYLE:;
#DIFFICULTY:Hard;
#METER:15;
#METERF:0.000000;
#LASTSECONDHINT:121.736099;
#RADARVALUES:0.793931,0.864411,0.607469,0.057463,0.233957,677.000000,603.000000,74.000000,7.000000,4.000000,0.000000,0.000000,0.000000,0.000000,0.793931,0.864411,0.607469,0.057463,0.233957,677.000000,603.000000,74.000000,7.000000,4.000000,0.000000,0.000000,0.000000,0.000000;
#CREDIT:YOSEFU;
#NOTES:
00000000
00000000
00000000
00000000
,
00000000
00000000
00000000
00000000
,
00000000
00000000
00000000
00000000
,
00000000
00000000
00000000
00000000
,
00000000
00000000
00000000
00000000
,
00010000
00001000
00000010
00001000
00010000
00001000
00000010
00001000
,
00010000
00001000
00000010
00001000
00010000
00001000
00000010
00001000
,
00010000
00100000
00010000
00001000
00010000
00100000
00010000
00001000
,
00010000
00100000
00010000
00001000
00010000
00100000
00010000
00001000
,
00100000
01000000
10000000
00010000
00100000
01000000
10000000
00010000
,
00100000
00000000
01000000
00000000
10000000
00000000
00010000
00000000
00100000
00000000
01000000
00000000
10000000
00010000
10000000
00010000
,
00100000
01000000
00010000
00001000
00100000
01000000
00010000
00001000
,
00100000
00000000
01000000
00000000
00010000
00000000
00001000
00000000
00100000
00000000
01000000
00000000
00010000
00001000
00010000
00001000
,
00010000
00000100
00000010
00000001
00001000
00000100
00000010
00000001
,
00001000
00000000
00000100
00000000
00000010
00000000
00000001
00000000
00001000
00000000
00000100
00000000
00000010
00000001
00000010
00000001
,
00000100
00001000
00010000
00000010
00000100
00001000
00010000
00000010
,
00000100
00000000
00001000
00000000
00010000
00000000
00000010
00000000
00000100
00000000
00001000
00000000
00010000
00001000
00010000
00001000
,
01000000
00000000
00010000
01010000
00000000
01000000
00100000
10000000
,
10010000
00000000
00010000
00110000
00000000
00100000
00001000
00010000
,
00010010
00000000
00000010
00001010
00000000
00001000
00000100
00000010
,
00000002
00000000
00000203
00000000
,
00000310
00000000
00000000
00001000
00000001
00000000
00001000
00000000
00000000
00000010
00010000
00000000
00001000
00000000
00100000
00000000
,
00010000
00000000
10000000
00100000
01000000
00000000
00010000
00000000
00100000
00000000
01000000
00000000
10000000
00000000
00010000
00000000
,
01000000
00000000
00000000
00001000
00010000
00000000
00000100
00000000
00000000
00001000
00000001
00000000
00000100
00000000
00001000
00000000
,
00010000
00000000
00001000
00100000
00000000
00010000
01000000
00000000
00100000
00000000
00010000
00000000
00001000
00000000
00000010
00000000
,
00000100
00000000
00000000
00001000
00000001
00000000
00000100
00000000
00000000
00000010
00010000
00000000
00001000
00000000
00100000
00000000
,
01000000
00000000
10000000
00010000
10000000
00000000
00100000
00000000
01000000
00000000
00010000
00000000
00100000
00000000
01000000
00000000
,
10000000
00000000
00000000
00010000
01000000
00000000
00001000
00000000
00000000
00010000
00001000
00000000
00100000
00000000
01000000
00000000
,
00010000
00001000
00000010
00000001
00000100
00001000
00010000
00000010
,
00001000
00000100
00001000
00000010
00010000
00001000
00100000
00010000
,
01000000
00000000
00100000
10000000
00000000
00010000
01000000
00000000
00001000
00000000
00010000
00000000
00001000
00000000
00000010
00000000
,
00000100
00000000
00001000
00000000
00000001
00000000
00000100
00000000
00000010
00000000
00010000
00000000
00001000
00000000
00100000
00010000
,
10000000
00000000
01000000
10000000
00000000
01000000
10000000
00000000
01000000
00000000
00010000
00000000
00001000
00000000
00000100
00000000
,
00000001
00000010
00000100
00001000
00000100
00010000
00001000
01000000
,
00010000
00000000
01000000
00100000
10000000
00000000
01000000
00000000
00100000
00000000
00010000
00000000
01000000
00000000
00001000
00000000
,
00010000
00000000
00001000
00000000
00000010
00000000
00000001
00000000
00000100
00000001
00001000
00000000
00000010
00010000
00001000
00000000
,
01000000
00000000
00000000
00010000
10000000
00000000
00000000
00000000
00000000
00000000
00000000
00000000
00000000
00000000
00000000
00000000
,
11000000
00100000
00000000
10010000
01000000
00000000
01100000
00010000
,
00000000
00011000
00000100
00000000
00001001
00000001
00000100
00000010
,
00001010
00010000
00000000
00011000
00100000
00000000
00110000
10000000
,
00000000
01010000
10000000
00000000
10100000
00100000
00010000
00001000
,
00011000
00100000
00000000
00011000
00000010
00000000
00011000
01000000
,
00000000
00011000
00000100
00000000
00011000
00100000
00010000
01000000
,
10010000
00100000
00000000
01100000
10000000
00000000
01100000
00010000
,
00000000
00011000
00000010
00000000
00001010
00001000
00000100
00000010
,
00000011
00000100
00000000
00001010
00000100
00000000
00011000
00100000
,
00000000
11000000
00010000
00000000
11000000
01000000
00010000
00001000
,
00011000
00100000
00000000
00011000
00000010
00000000
00000101
00001000
,
00000000
00011000
01000000
00000000
10100000
00010000
01000000
00001000
,
00011000
00000100
00000000
00000011
00000100
00000000
00000011
00001000
,
00000000
00000101
00001000
00000000
00000101
00000100
00001000
00010000
,
00011000
00100000
00000000
10010000
00001000
00000000
00011000
00000001
,
00000000
00000110
00001000
00000000
00000101
00000100
00001000
00010000
,
00000000
00000000
M00M0000
M00M0000
,
10010000
00000000
00000000
00000000
00000000
00000000
01001000
00000000
00000000
00000000
00000000
00000000
00011000
00000000
00000000
00010000
,
00000100
00000000
00000000
00000000
00001000
00000001
00001000
00000001
00001000
00000000
00000010
00001000
00000010
00000000
00000000
00000000
,
00001010
00000000
00000000
00000000
00000000
00000000
00011000
00000000
00000000
00000000
00000000
00000000
00101000
00000000
00000000
00100000
,
00010000
00000000
11000000
00000000
00000000
10100000
00000000
00000000
,
01010000
00000000
00000000
00000000
00000000
00000000
00011000
00000000
00000000
00000000
00000000
00000000
00010100
00000000
00000000
00010000
,
00000100
00000000
00000000
00000000
00001000
00000001
00001000
00000001
00001000
00000000
00000010
00010000
00000010
00000000
00000000
00000000
,
00011000
00000000
00000000
00000000
00000000
00000000
00110000
00000000
00000000
00000000
00000000
00000000
11000000
00000000
00000000
10000000
,
00100000
00000000
00000000
00000000
01000000
00010000
01000000
00010000
02000000
00000000
00000000
00000000
00000000
00000000
00000000
00000000
,
03100000
00010000
00001000
00000010
00000001
00000100
00001000
00010000
,
00100000
00000000
01000000
00010000
01000000
00010000
01000000
00000000
00100000
00000000
10000000
00000000
01000000
00000000
00010000
00000000
,
00001000
00000000
00000010
00000000
00000001
00000000
00000100
00000000
00001000
00000000
00010000
00000000
00100000
01000000
00010000
01000000
,
00010000
00000000
10000000
01000000
00000000
01000000
00100000
00000000
00010000
10000000
00010000
00000000
00200000
00000000
01300000
00000000
,
10000000
00100000
00010000
00001000
00000010
00000001
00000100
00001000
,
00010000
00000000
01000000
10000000
01000000
10000000
01000000
00100000
00020000
00000000
10030000
00000000
00100000
00000000
01000000
00000000
,
00010000
00000000
00100000
00000000
01000000
00000000
00010000
00000000
00001000
00000000
00000010
00000000
00000001
00001000
00000010
00001000
,
00000010
00000000
00010000
00000000
00002000
00000000
00103000
00000000
00010000
01000000
00010000
01000000
00100000
10000000
00100000
10000000
,
00010000
00100000
00001000
00011000
00100000
00001000
00010000
00000010
,
00001010
00001000
00000001
00000011
00001000
00000001
00000100
00000010
,
00001010
00010000
00001000
00101000
00100000
01000000
10000000
00010000
,
01010000
01000000
00100000
10100000
10000000
01000000
00010000
00001000
,
00011000
00100000
00010000
00110000
00001000
00010000
00000010
00001000
,
00001010
00000001
00000010
00000110
00001000
00000001
00000100
00000010
,
00001010
00010000
00001000
00101000
00100000
01000000
10000000
00100000
,
01100000
01000000
00001000
00011000
00100000
01000000
00010000
00001000
,
00000010
00000001
00000100
00001000
00010000
00100000
10000000
01000000
,
00010000
00001000
00100000
01000000
00010000
00001000
01000000
00100000
,
00010000
00001000
01000000
00010000
00100000
01000000
00010000
00001000
,
00000010
00000001
00000100
00000010
00000100
00001000
00010000
00100000
,
01000000
00001000
00010000
01000000
00010000
00001000
00000010
00000001
,
00000100
00001000
00010000
00100000
01000000
00010000
10000000
01000000
,
00010000
00001000
00000010
00000001
00000100
00000001
00000010
00000001
,
00000100
00000010
00001000
00000100
00010000
00001000
00100000
00010000
,
02000000
00000000
00000000
00000000
,
00000000
00000000
00000000
03000000
;
