#VERSION:0.83;
#TITLE:MAGICAL RENDA STADIUM;
#SUBTITLE:;
#ARTIST:ルゼ;
#TITLETRANSLIT:;
#SUBTITLETRANSLIT:;
#ARTISTTRANSLIT:Luze;
#GENRE:VERTICAL MAGIC;
#ORIGIN:BOF\:ET -Summer Dream Traveler- (Team "代打三兄弟");
#TAGS:;
#CREDIT:;
#BANNER:MAGICAL RENDA STADIUM.png;
#BACKGROUND:MAGICAL RENDA STADIUM-bg.png;
#PREVIEWVID:;
#JACKET:MAGICAL RENDA STADIUM-jacket.png;
#CDIMAGE:;
#DISCIMAGE:;
#LYRICSPATH:;
#CDTITLE:../_YSD cdtitles/ysd br2023 cdtitle.png;
#MUSIC:MAGICAL RENDA STADIUM.ogg;
#OFFSET:-0.024000;
#SAMPLESTART:32.595001;
#SAMPLELENGTH:21.943001;
#SELECTABLE:YES;
#BPMS:0.000000=175.000000
;
#STOPS:;
#DELAYS:;
#WARPS:;
#TIMESIGNATURES:0.000000=4=4
;
#TICKCOUNTS:0.000000=4
;
#COMBOS:0.000000=1
;
#SPEEDS:0.000000=1.000000=0.000000=0
;
#SCROLLS:0.000000=1.000000
;
#FAKES:;
#LABELS:0.000000=Song Start
;
#BGCHANGES:;
#KEYSOUNDS:;
#ATTACKS:
;

//---------------dance-single - ----------------
#NOTEDATA:;
#CHARTNAME:;
#CHARTHASH:569796287;
#STEPSTYPE:dance-single;
#BANNER:;
#DESCRIPTION:;
#CHARTSTYLE:;
#DIFFICULTY:Beginner;
#METER:4;
#METERF:4.000000;
#LASTSECONDHINT:141.281143;
#RADARVALUES:0.139141,0.247270,0.068591,0.130323,0.000000,142.000000,132.000000,10.000000,19.000000,0.000000,0.000000,0.000000,0.000000,0.000000,0.139141,0.247270,0.068591,0.130323,0.000000,142.000000,132.000000,10.000000,19.000000,0.000000,0.000000,0.000000,0.000000,0.000000;
#CREDIT:YOSEFU;
#NOTES:
// measure 0
0000
0000
0000
0000
,  // measure 1
0000
0000
0000
0000
,  // measure 2
0000
0000
0000
0000
,  // measure 3
0000
0000
0000
0000
,  // measure 4
1000
0000
0000
0000
,  // measure 5
0001
0000
0000
0000
,  // measure 6
0100
0000
0000
0000
,  // measure 7
0001
0000
0000
0000
,  // measure 8
1001
0000
1000
0000
,  // measure 9
2000
0000
3000
0000
,  // measure 10
0001
0000
0001
0000
,  // measure 11
0002
0000
0003
0000
,  // measure 12
0100
0000
0100
0000
,  // measure 13
0200
0000
0300
0000
,  // measure 14
0010
0000
0010
0000
,  // measure 15
0020
0000
0030
0000
,  // measure 16
1001
0000
0001
0000
,  // measure 17
0002
0000
0003
0000
,  // measure 18
0010
0000
0010
0000
,  // measure 19
0020
0000
0030
0000
,  // measure 20
0100
0000
0100
0000
,  // measure 21
0200
0000
0300
0000
,  // measure 22
1000
0000
1000
0000
,  // measure 23
2000
0000
3000
0000
,  // measure 24
0001
0000
0000
0000
,  // measure 25
1000
0000
0000
0000
,  // measure 26
0010
0000
0000
0000
,  // measure 27
0100
0000
0000
0000
,  // measure 28
0001
0001
0000
0000
,  // measure 29
1000
1000
0000
0000
,  // measure 30
0001
0000
0001
0000
,  // measure 31
0100
0000
0100
0000
,  // measure 32
1001
0000
0000
0000
,  // measure 33
1000
0000
0000
0000
,  // measure 34
0100
0000
0000
0000
0000
0000
0000
0010
,  // measure 35
0000
0000
0000
0000
,  // measure 36
0001
0001
0000
0000
,  // measure 37
1000
1000
0000
0000
,  // measure 38
0010
0000
0000
0000
,  // measure 39
0100
0000
0100
0000
,  // measure 40
1001
0000
0000
0000
,  // measure 41
0001
0000
0000
0000
,  // measure 42
1000
0000
0000
0000
,  // measure 43
0010
0000
0000
0000
,  // measure 44
0100
0000
0000
0000
,  // measure 45
0001
0000
0000
0000
,  // measure 46
1000
0000
0000
0000
,  // measure 47
0100
0000
0000
0000
,  // measure 48
0010
0000
0010
0000
,  // measure 49
0001
0000
0001
0000
,  // measure 50
1000
0000
1000
0000
,  // measure 51
0002
0000
0000
0000
,  // measure 52
0000
0000
0003
0000
,  // measure 53
1001
0000
0000
0000
,  // measure 54
0000
0000
0000
0000
,  // measure 55
1000
0000
0000
0000
,  // measure 56
0000
0000
0000
0000
,  // measure 57
0001
0000
0000
0000
,  // measure 58
1000
0000
0000
0000
,  // measure 59
0010
0000
0000
0000
,  // measure 60
0100
0000
0000
0000
,  // measure 61
0001
0000
0000
0000
,  // measure 62
1000
0000
0000
0000
,  // measure 63
0100
0000
0000
0000
,  // measure 64
0010
0000
0000
0000
,  // measure 65
0001
0000
0000
0000
,  // measure 66
1000
0000
0000
0000
,  // measure 67
0001
0000
0001
0000
,  // measure 68
0001
0000
0000
0000
,  // measure 69
1001
0000
0000
0000
0000
0000
0000
1001
,  // measure 70
0000
0000
2000
0000
,  // measure 71
3000
1000
0000
0000
,  // measure 72
0001
0000
0000
0000
,  // measure 73
0100
0100
0000
0000
,  // measure 74
0001
0001
0000
0000
,  // measure 75
1000
0000
1000
0000
,  // measure 76
0001
0000
0001
0000
,  // measure 77
1001
0000
0000
0000
,  // measure 78
1000
0000
0000
0000
,  // measure 79
0001
0000
0000
0000
0000
0000
0000
0100
,  // measure 80
0000
0000
0000
0000
,  // measure 81
0010
0010
0000
0000
,  // measure 82
1000
1000
0000
0000
,  // measure 83
0001
0000
0001
0000
,  // measure 84
0010
0000
0010
0000
,  // measure 85
0001
0001
0001
0000
,  // measure 86
2002
0000
0000
0000
,  // measure 87
0000
0000
3003
0000
,  // measure 88
1000
0000
1000
0000
,  // measure 89
2000
0000
3000
0000
,  // measure 90
0010
0000
0010
0000
,  // measure 91
0020
0000
0030
0000
,  // measure 92
0100
0000
0100
0000
,  // measure 93
0200
0000
0300
0000
,  // measure 94
0000
0001
0000
0001
,  // measure 95
0002
0000
0003
0000
,  // measure 96
0010
0000
0010
0000
,  // measure 97
0020
0000
0030
0000
,  // measure 98
0000
0100
0000
0100
,  // measure 99
0200
0000
0300
0000
,  // measure 100
1000
0000
1000
0000
,  // measure 101
2000
0000
0000
0000
,  // measure 102
0000
0000
3000
0000
,  // measure 103
1001
0000
0000
0000
;

//---------------dance-single - ----------------
#NOTEDATA:;
#CHARTNAME:;
#CHARTHASH:4242915412;
#STEPSTYPE:dance-single;
#BANNER:;
#DESCRIPTION:;
#CHARTSTYLE:;
#DIFFICULTY:Easy;
#METER:7;
#METERF:7.000000;
#LASTSECONDHINT:141.452576;
#RADARVALUES:0.282202,0.353672,0.041155,0.192054,0.000000,288.000000,282.000000,6.000000,28.000000,0.000000,0.000000,0.000000,0.000000,0.000000,0.282202,0.353672,0.041155,0.192054,0.000000,288.000000,282.000000,6.000000,28.000000,0.000000,0.000000,0.000000,0.000000,0.000000;
#CREDIT:YOSEFU;
#NOTES:
0000
0000
0000
0000
,
0000
0000
0000
0000
,
0000
0000
0000
0000
,
0000
0000
0000
0000
,
1000
0000
0001
0000
,
0100
0000
0001
0000
,
1000
0000
0100
0000
,
0010
0000
0001
0000
,
1001
0000
1000
0000
,
0001
0100
0001
0000
,
1000
0000
0100
0000
,
0010
0001
0010
0000
,
0001
0000
1000
0000
,
0010
0100
0010
0000
,
1000
0000
0001
0000
,
1000
0100
1000
0000
,
1100
0000
0100
0000
,
0010
0001
0010
0000
,
0001
0000
1000
0000
,
0010
0100
0010
0000
,
1000
0000
0001
0000
,
0010
0100
0010
0000
,
0001
0000
1000
0000
,
0010
1000
0010
0000
,
0200
0000
0301
1000
,
0001
0000
0010
0100
,
1000
0000
0001
0100
,
0010
0000
1000
0001
,
1000
0001
0000
0010
,
0100
1000
0000
0001
,
0100
0001
0100
0010
,
1000
0001
1000
0100
,
0020
0000
0031
1000
,
0010
0000
0100
0001
,
0200
0000
0000
0000
0300
0000
0000
0002
,
0000
0000
0000
0003
0000
0000
1000
0000
,
0001
1000
0000
0001
,
0010
0100
0000
1000
,
0001
0100
0010
0100
,
0001
1000
0100
0000
,
1000
0000
0100
0000
,
0010
0000
0001
0000
,
1000
0000
0010
0000
,
0100
0000
0001
0000
,
1000
0000
0100
0000
,
0010
0000
0100
0000
,
1000
0000
0010
0000
,
0100
0000
0001
0000
,
1000
0001
0100
0010
,
1000
0100
0010
0001
,
1000
0100
0001
0100
,
1000
0001
1000
0001
,
1000
0001
1000
0001
,
0020
0000
0000
0000
,
0230
0000
0000
0000
,
2300
0000
0000
0000
,
3002
0000
0000
0000
,
0103
0010
1000
0001
,
0001
1000
0100
0010
,
0002
0000
2003
0000
,
3020
0000
0000
0000
,
0130
0001
1000
0100
,
0100
0010
0001
1000
,
0020
0000
0230
0000
,
0302
0000
1000
0000
,
1003
0000
0100
0000
,
0010
0000
0001
0000
,
1000
0010
0001
0010
,
1000
0000
0001
0000
,
1002
0000
0000
0000
0000
0000
0000
0023
,
0000
0000
0230
0000
,
0300
1000
0001
1000
,
0100
0010
0001
0100
,
0010
1000
0100
1000
,
0001
0100
0010
1000
,
0100
0010
0001
1000
,
0010
0100
0001
0010
,
0100
1000
0010
0100
,
0001
0010
0100
1000
,
0200
0000
0000
0000
0300
0000
0000
2002
,
0000
0000
0000
3003
0000
0000
1000
0000
,
0100
0010
0001
1000
,
0100
0010
0100
1000
,
0001
0100
0010
0100
,
0001
0010
1000
0010
,
0001
0100
1000
0100
,
2002
0000
0000
3003
,
0001
0100
0001
2000
,
3001
0000
0100
0000
,
0010
1000
0010
0000
,
1000
0000
0001
0000
,
0010
0100
0010
0200
,
1300
0000
0001
0000
,
0100
0010
0100
0000
,
0000
0010
1000
0001
,
0010
0100
1000
0002
,
0103
0010
1000
0100
,
0010
0001
1000
0010
,
0100
0001
0010
0100
,
1000
0001
1000
0200
,
0310
0001
0100
0010
,
1000
0100
0001
0100
,
1000
0010
0100
0000
,
2002
3003
0000
0000
0000
0000
0000
0000
;

//---------------dance-single - ----------------
#NOTEDATA:;
#CHARTNAME:;
#CHARTHASH:187574811;
#STEPSTYPE:dance-single;
#BANNER:;
#DESCRIPTION:;
#CHARTSTYLE:;
#DIFFICULTY:Medium;
#METER:12;
#METERF:12.000000;
#LASTSECONDHINT:141.452576;
#RADARVALUES:0.497774,0.601242,0.054873,0.384109,0.072020,508.000000,500.000000,8.000000,56.000000,0.000000,0.000000,0.000000,0.000000,0.000000,0.497774,0.601242,0.054873,0.384109,0.072020,508.000000,500.000000,8.000000,56.000000,0.000000,0.000000,0.000000,0.000000,0.000000;
#CREDIT:YOSEFU;
#NOTES:
0000
0000
0000
0000
,
0000
0000
0000
0000
,
0000
0000
0000
0000
,
0000
0000
0000
0000
,
1000
0010
0100
0001
,
1000
0100
0010
0100
,
1000
0001
1000
0000
0001
0100
0001
0000
,
1000
0000
1000
0000
1000
0000
0001
0000
0001
0000
0001
0000
,
0100
0000
0010
0000
1000
0010
1000
0000
,
0001
1000
0001
1000
0001
0000
0010
0000
,
0001
0000
0100
0000
0010
1000
0010
0000
,
1000
0001
1000
0001
1000
0000
0100
0000
,
0010
0000
0001
0000
1000
0010
1000
0000
,
0001
1000
0001
1000
0001
0000
0010
0000
,
0100
0000
1000
0000
0001
0100
0001
0000
,
1000
0001
1000
0001
1000
0000
0100
0000
,
0010
0000
0001
0000
1000
0010
1000
0000
,
0001
0010
0001
0010
0001
0000
1000
0000
,
0100
0000
0010
0000
0001
1000
0001
0000
,
1000
0010
1000
0010
1000
0000
0001
0000
,
0010
0000
0100
0000
1000
0001
1000
0000
,
0001
0100
0001
0100
0001
0000
1000
0000
,
0100
0000
0010
0000
0100
1000
0001
0000
,
0100
0001
0100
0001
0100
0000
0010
1000
,
0002
0000
0000
0000
0000
0013
0100
2000
,
0000
0000
0000
3010
0100
0001
1000
0100
,
0010
0200
0000
0000
0000
0000
0000
1300
,
0002
0000
0000
0000
0003
0000
0100
0010
,
1000
0010
1000
0020
0000
0000
0000
0130
,
0001
0100
0001
0200
0000
0000
0301
1000
,
0100
0000
0000
1000
0000
0000
0100
0000
0000
1000
0000
0000
0100
0000
0010
0000
,
0002
0000
2003
0000
3020
0000
0130
0001
,
2000
0000
0000
0000
0000
3100
0010
0002
,
0000
0000
0000
0000
0000
0000
0000
0000
0000
0103
0000
0000
0010
0000
0000
0000
0010
0000
1000
0000
0000
0000
1000
0000
,
0200
0000
0000
0000
0300
0000
0010
0002
,
0000
0000
0000
0000
1003
0000
0001
0100
,
0010
1000
0010
2000
0000
0000
0000
3001
,
0010
0100
0010
0200
0000
0000
1300
0001
,
0100
0000
0000
0000
0010
0000
1000
0000
0001
0000
0000
1000
0000
0000
0001
0000
,
2000
3200
0320
0030
,
0100
0000
1000
0000
0001
0100
0000
0001
,
1000
0000
0100
0010
0001
1000
0020
0000
,
0130
0001
1000
0000
0100
0000
0010
0001
,
1000
0010
0100
0000
0001
0100
1000
0100
,
0001
0000
1000
0000
0100
0010
0000
0100
,
1000
0000
0001
0100
0010
1000
0002
0000
,
0013
0100
1000
0000
0001
0000
0100
0000
,
0010
0001
0010
1000
0001
0010
0100
0000
,
1000
0100
0010
0001
1000
0010
0000
0100
,
0001
1000
0000
0100
1000
0001
0000
0100
,
0010
1000
0001
1000
0001
0010
0100
1000
,
0001
0100
1000
0100
0001
1000
0100
0001
,
0100
1000
0010
0100
0001
0000
1000
0000
,
0200
0320
0000
0000
,
0000
0000
0000
0000
0000
0032
0000
0000
,
2003
3020
0000
0000
,
0000
0000
0000
0230
0000
0302
0000
0000
,
1003
0100
0010
0001
,
0001
1000
0010
0100
,
0002
0000
0000
0203
0000
0000
0000
0000
,
0000
0000
0000
0320
0000
2030
0000
3001
,
0100
0010
1000
0100
,
0100
0010
0100
0001
,
0200
0000
0000
2300
0000
0000
0100
0000
,
3001
0100
0010
1000
,
0001
0000
0000
0100
0000
0000
0001
0000
0000
0000
1000
0000
0100
0000
0000
0000
,
1000
0000
0000
0010
0000
0000
1000
0000
0000
0000
0001
0000
0010
0000
0000
0000
,
0001
0010
1000
0010
0100
1000
0010
0100
,
0001
0000
0001
0000
0001
0000
1000
0000
1000
0000
1000
0000
,
2020
0000
0000
0000
0000
3030
0000
1001
,
0000
0011
0000
0000
0001
0010
1000
0010
,
0000
0001
1002
0000
0100
0000
1003
0010
,
0200
0000
0001
0000
0010
0000
0301
1000
,
0100
0010
0100
0020
0000
0000
0031
1000
,
0010
0100
0010
0200
0000
0000
0301
1000
,
0100
0000
0000
0010
0000
0000
0100
0000
0000
0010
0000
0000
0100
0000
1000
0000
,
0002
0000
0203
0000
0320
0000
1030
0001
,
0020
0000
0100
0000
0031
1000
0010
0200
,
0000
0000
0000
0000
0000
0000
0000
0000
0000
0301
0000
0000
1000
0000
0000
0000
1000
0000
0100
0000
0000
0000
0100
0000
,
0020
0000
0000
0000
0030
0000
0001
0200
,
0000
0000
0000
0000
0300
0000
0010
1000
,
0001
0010
0100
0020
0000
0000
0031
1000
,
0010
0100
0001
0200
0000
0000
0310
1000
,
0001
0000
0000
0000
0010
0000
0100
0000
1000
0000
0000
0001
0000
0000
0100
0000
,
0002
0023
2030
3020
,
0031
0100
1000
0100
0001
0010
0100
0000
,
2002
0000
0000
3003
,
1000
0100
1000
0100
1000
0000
0001
0000
,
0100
0000
0010
0000
1000
0001
0010
0000
,
0100
1000
0100
1000
0100
0000
0010
0000
,
0001
0000
1000
0000
0010
0100
0001
0000
,
1000
0100
1000
0100
1000
0000
0010
0000
,
0100
0000
1000
0000
0100
0001
1000
0000
,
0100
0010
0100
0010
0100
0000
1000
0000
,
0000
0001
0000
0000
1001
0000
0000
0000
1000
0000
0010
0000
0100
0000
0000
0000
,
0001
1000
0001
1000
0001
0000
0010
0000
,
0100
0000
0001
0000
0100
1000
0001
0000
,
0100
0010
0100
0010
0100
0000
0001
0000
,
0000
1000
1001
0000
0001
0010
0100
0000
,
1000
0010
1000
0010
1000
0000
0001
0000
,
0100
0000
1000
0000
0100
0010
1000
0000
,
0001
0010
1000
0010
0001
1000
0010
0001
,
0010
1000
0100
0010
0001
0000
1000
0000
,
2002
3003
0000
0000
0000
0000
0000
0000
;

//---------------dance-single - ----------------
#NOTEDATA:;
#CHARTNAME:;
#CHARTHASH:3435593852;
#STEPSTYPE:dance-single;
#BANNER:;
#DESCRIPTION:;
#CHARTSTYLE:;
#DIFFICULTY:Hard;
#METER:16;
#METERF:16.000000;
#LASTSECONDHINT:141.452576;
#RADARVALUES:0.680029,0.884179,0.178336,0.432122,0.397827,694.000000,668.000000,26.000000,63.000000,0.000000,0.000000,0.000000,0.000000,0.000000,0.680029,0.884179,0.178336,0.432122,0.397827,694.000000,668.000000,26.000000,63.000000,0.000000,0.000000,0.000000,0.000000,0.000000;
#CREDIT:YOSEFU;
#NOTES:
0000
0000
0000
0000
,
0000
0000
0000
0000
,
0000
0000
0000
0000
,
0000
0000
0000
0000
,
1000
0010
0100
0010
1000
0001
0010
0000
,
0001
0100
0010
0100
0001
1000
0100
0000
,
0010
0001
1000
0010
0100
0001
1000
0100
,
1100
0000
0110
0000
0011
0000
0101
0000
0110
0000
1010
0000
,
1000
0001
0100
0000
0001
1000
0100
0000
,
1000
0001
1000
0000
0001
1000
0001
0000
1000
0000
0001
0000
0100
0000
0000
0000
,
0010
1000
0001
0000
0010
0001
1000
0000
,
0001
1000
0001
0000
1000
0001
1000
0000
0001
0000
0010
0000
0100
0000
0000
0000
,
1000
0001
0100
0000
0001
1000
0100
0000
,
1000
0001
1000
0000
0001
1000
0001
0000
1000
0000
0010
0000
0100
0000
0000
0000
,
0001
1000
0100
0000
1000
0001
0100
0000
,
0001
1000
0001
0000
1000
0001
1000
0000
0001
0000
0010
0000
0100
0000
0000
0000
,
1000
0001
0100
0000
0010
1000
0001
0000
,
0010
0100
0010
0000
0100
0010
0100
0000
0010
0000
0001
0000
1000
0000
0000
0000
,
0010
0100
0001
0000
1000
0100
0010
0000
,
0001
1000
0001
0000
1000
0001
1000
0000
0001
0000
0100
0000
0010
0000
0000
0000
,
1000
0010
0100
0000
0001
0010
0100
0000
,
1000
0010
1000
0000
0010
1000
0010
0000
1000
0000
0001
0000
0010
0000
0000
0000
,
0001
0010
1000
0000
1000
0010
0001
0000
,
1000
0010
1000
0000
0010
1000
0010
0000
1000
0000
0000
0000
0001
1000
0001
1000
,
0002
0000
0100
0000
1003
0010
0100
0002
,
0000
0000
0000
0000
0013
0000
0001
0000
1000
0000
0010
0000
0100
0000
0001
1000
,
0100
0000
0020
0000
0000
0000
0000
0000
0001
0000
0000
0000
0031
0000
0010
0001
,
2000
0000
0010
0000
3001
0000
1000
0010
,
0100
0001
0100
0002
0000
0000
1003
0100
,
0010
0000
0001
0000
0010
0000
0002
0000
0000
0000
0000
0000
1003
0001
1000
0001
,
1000
0000
0001
1000
0000
0001
1000
0000
0001
1000
0000
0010
1000
0000
0001
0000
,
0020
0000
0000
0000
0230
0000
0000
0000
2300
0000
0000
0000
3001
1000
0001
1000
,
0002
0000
0100
0000
1003
0100
0010
0002
,
0000
0000
0000
0000
0000
0000
1003
0000
0000
0010
0000
0000
0100
0000
0001
0000
1000
0000
0001
0000
0100
0000
0010
0000
,
0002
0000
0000
0000
0000
0000
0013
1000
,
0000
0000
1010
0000
0000
1001
0000
0000
0011
0000
0000
0000
0001
0000
0010
0000
,
0001
1000
0001
2000
0010
0000
3001
0010
,
0100
0000
1000
0000
0100
0000
2000
0000
0100
0000
0000
0000
3001
0100
0001
0100
,
0002
0000
0000
0000
1003
0100
0020
0000
0031
0000
0000
1000
0000
0000
0010
0000
,
0010
0100
1000
0100
,
0001
0000
1000
0100
0010
1000
0000
0010
,
0001
0000
1000
0000
0001
0100
0000
0001
0100
0010
0000
0000
0002
0000
0000
0000
,
0013
0000
1000
0000
0001
1000
0000
0000
0100
0000
0000
0100
0000
0000
0100
0000
,
0010
0000
0001
0000
1000
0010
0000
0000
0100
0000
0100
0000
0002
0000
0003
0000
,
1000
0100
0010
0001
0100
1000
0000
0100
,
0001
0000
1000
0000
0100
0010
0000
0001
0100
0010
0000
0000
0002
0000
0000
0000
,
0013
0000
1000
0000
0100
0010
0000
0000
0001
0000
0000
0001
1000
0000
0000
0000
,
0010
0000
0100
0000
0001
0000
0001
0000
1000
0001
1000
0001
1000
0000
0000
0000
,
0001
0001
0010
0010
0100
0001
0100
1000
,
0010
0001
0010
1000
0100
0001
0100
1000
,
0001
0100
0001
0100
0001
0000
0000
0000
1000
0100
1000
0100
1000
0000
0010
0000
,
1000
0001
1000
0000
0001
1000
0001
0000
0100
0010
0100
0000
0010
0100
0010
0000
,
1000
0001
1000
0000
0001
1000
0001
0000
0010
0000
0100
0000
1000
0000
0000
0000
,
0002
0203
0000
0000
,
0000
0000
0000
0000
0000
0320
0000
0000
,
2030
3200
0000
0000
,
0000
0000
0000
0302
0003
0200
0000
0000
,
2300
3002
0000
0000
,
0000
0000
0000
0000
0000
2003
0000
0000
,
3002
0203
0000
0000
,
0000
0000
0000
2300
0000
3200
0000
0000
,
0301
1000
0100
0010
0100
1000
0100
1000
,
0001
0100
0010
1000
0001
0010
0100
1000
,
0001
0000
0100
0010
2000
0000
0001
0000
,
0100
0000
3001
1000
0000
0001
0010
0000
,
0100
0000
0000
1000
0000
0000
1001
0000
0000
0000
0001
0000
0101
0000
0000
0000
,
0100
0000
0000
0010
0000
0000
1010
0000
0000
0000
1000
0000
1100
0000
0000
0000
,
0100
1000
0100
0000
1000
0001
1000
0000
0001
0100
0001
0000
0100
0010
0100
0000
,
0110
0000
1010
0000
1001
0000
0011
0000
0110
0000
1100
0000
,
2000
0000
0000
0000
0000
3010
0100
0002
,
0000
0000
1003
0000
0000
0000
0001
0000
0010
0100
0010
0000
0100
0010
0100
0000
,
0000
0000
1000
0000
2001
0000
0000
0000
0100
0000
0000
0000
3001
0000
1000
0010
,
0200
0000
0001
0000
0010
0000
0301
1000
,
0100
0010
0100
0020
0000
0000
0031
1000
,
0010
0000
1000
0000
0010
0000
2000
0000
0000
0000
0000
0000
3001
0100
0001
0100
,
0001
0000
0100
0001
0000
0100
0001
0000
0100
0001
0000
1000
0001
0000
0010
0000
,
0200
0000
0000
0000
2300
0000
0000
0000
3002
0000
0000
0000
0103
0001
0100
0001
,
0200
0000
0010
0000
0301
1000
0100
0020
,
0000
0000
0000
0000
0000
0000
0031
0000
0000
1000
0000
0000
0010
0000
0100
0000
0001
0000
1000
0000
0100
0000
0010
0000
,
2000
0000
0000
0000
0000
0000
3010
0001
,
0000
0000
0011
0000
0000
1001
0000
0000
1010
0000
0000
0000
0010
0000
0100
0000
,
0001
1000
0100
2000
0001
0000
3100
1000
,
0001
0000
0100
0000
0010
0000
0200
0000
0001
0000
0000
0000
0310
1000
0010
1000
,
0010
0000
0000
0000
1000
0001
0010
0000
0100
0000
0000
1000
0000
0000
0001
0000
,
0002
0203
2300
3200
,
0302
0023
2030
3010
,
0220
0000
0000
0330
,
1000
0001
1000
0000
0001
1000
0001
0000
1000
0000
0010
0000
0200
0000
0000
0000
,
0301
0100
0010
0000
1000
0100
0010
0000
,
0001
0100
0001
0000
1000
0100
1000
0000
0001
0000
0001
0000
1000
0000
0100
0000
,
0010
0001
1000
0000
0010
0100
0001
0000
,
1000
0100
1000
0000
0001
0100
0001
0000
1000
0000
0001
0000
0200
0000
0000
0000
,
0310
1000
0001
0000
0010
0100
1000
0000
,
0001
0010
0001
0000
1000
0010
1000
0000
0001
0000
0001
0000
1000
0000
0100
0000
,
0000
0010
0000
0000
0011
0000
0000
0000
0001
0000
0100
0000
0010
0000
0000
0000
,
1000
0001
0100
0000
0001
1000
0100
0000
0010
0000
0001
0000
2000
0000
0000
0000
,
3001
0100
1000
0000
1000
0100
0001
0000
,
1000
0001
0010
0000
0001
1000
0010
0000
1000
0000
1000
0000
0100
0000
0010
0000
,
0000
0000
0001
0100
0010
0000
0000
0000
1000
0000
0100
0000
0010
0000
0000
0000
,
0001
0010
0100
0000
1000
0010
0100
0000
0001
0000
0010
0000
0200
0000
0000
0000
,
1300
0100
0001
0000
1000
0010
0001
1000
,
0001
1000
0010
0000
1000
0001
0010
0000
0001
1000
0100
0000
1000
0001
0100
0000
,
0001
0010
0100
0000
1000
0010
0100
0000
0001
0000
1000
0000
0100
0000
0010
0000
,
0022
0033
0000
0000
0000
0000
0000
0000
;

//---------------dance-single - DR+, XO----------------
#NOTEDATA:;
#CHARTNAME:insert overly kawaii spell here;
#CHARTHASH:3536550843;
#STEPSTYPE:dance-single;
#BANNER:;
#DESCRIPTION:DR+, XO;
#CHARTSTYLE:Pad;
#DIFFICULTY:Challenge;
#METER:18;
#METERF:18.000000;
#LASTSECONDHINT:141.452576;
#RADARVALUES:0.851507,1.167116,0.137182,0.411545,0.805943,869.000000,849.000000,20.000000,60.000000,0.000000,0.000000,0.000000,0.000000,0.000000,0.851507,1.167116,0.137182,0.411545,0.805943,869.000000,849.000000,20.000000,60.000000,0.000000,0.000000,0.000000,0.000000,0.000000;
#CREDIT:YOSEFU;
#NOTES:
0000
0000
0000
0000
,
0000
0000
0000
0000
,
0000
0000
0000
0000
,
0000
0000
0000
0000
,
1000
0100
0010
0100
1000
0001
0100
0001
,
1000
0100
0010
0001
1000
0010
0100
0010
,
1000
0100
0010
0001
0100
0010
1000
0001
,
0101
0000
1001
0000
1100
0000
1010
0000
1001
0000
0011
0000
,
0001
0100
0010
1000
0100
0010
0001
0000
,
1000
0001
1000
0001
1000
0001
1000
0001
1000
0000
1000
0000
0010
0000
0000
0000
,
1000
0000
0010
0000
0100
0000
0001
0000
0010
0000
0100
0000
1000
0001
0100
0000
,
0001
1000
0001
1000
0001
1000
0001
1000
0001
0000
0001
0000
0010
0100
1000
0001
,
1000
0010
0100
0001
0010
0100
1000
0000
,
0001
1000
0001
1000
0001
1000
0001
1000
0001
0000
0001
0000
0100
0000
0000
0000
,
0001
0000
0010
0000
0100
0000
1000
0000
0010
0000
0100
0000
0001
1000
0100
0000
,
1000
0001
1000
0001
1000
0001
1000
0001
1000
0000
1000
0000
0001
0100
0010
1000
,
0001
0010
1000
0010
0100
1000
0001
0000
,
1000
0010
1000
0010
1000
0010
1000
0010
1000
0000
1000
0000
0001
0000
0000
0000
,
1000
0000
0100
0000
0001
0000
0100
0000
0010
0000
0001
0000
1000
0001
0010
0000
,
0001
1000
0001
1000
0001
1000
0001
1000
0001
0000
0001
0000
0100
0010
1000
0001
,
0010
0100
0001
0100
1000
0010
1000
0000
,
0001
0100
0001
0100
0001
0100
0001
0100
0001
0000
0001
0000
0010
0000
0000
0000
,
0100
0000
0010
0000
1000
0000
0010
0000
0001
0000
1000
0000
0010
1000
0001
0000
,
1000
0100
1000
0100
1000
0100
1000
0100
0010
0000
0010
0000
0001
0010
0100
1000
,
0020
0000
0100
0000
1030
0001
0010
0200
,
0000
0000
0000
0000
1300
0000
0001
0000
0100
0000
0010
0000
1000
0000
0001
1000
,
0010
0000
0200
0000
0001
0000
0000
0000
0010
0000
0000
0000
0301
0000
1000
0001
,
0020
0000
0100
0000
0031
0000
0010
0100
,
1000
0100
1000
0200
0010
0000
1300
0010
,
1000
0000
0010
0000
1000
0000
0020
0000
0100
0000
0000
0000
1030
0001
0100
0010
,
1000
0000
0010
1000
0000
0010
1000
0000
0010
1000
0000
0001
1000
0000
0100
0000
,
0020
0000
0000
0000
0032
0000
0000
0000
2003
0000
0000
3001
0100
0010
1000
0001
,
0020
0000
0100
0000
0031
1000
0010
0100
,
0001
0000
0000
0000
0000
0000
1000
0000
0000
0001
0000
0000
1000
0000
0000
0001
0000
0000
0000
0000
0000
1000
0000
0000
0001
0000
0000
0000
1000
0000
0000
0000
0100
0000
0000
0000
1000
0000
0000
0000
0001
0000
0000
0000
0100
0000
0000
0000
,
2000
0000
3100
0000
0001
0000
0010
0100
,
0000
0000
1100
0000
0000
0110
0000
0000
1001
0000
0000
0000
1000
0010
1000
0010
,
0100
0010
1000
0020
0100
0000
1030
0100
,
0010
0000
0100
0000
1000
0000
0200
0000
0010
0000
0000
0000
1300
0001
0010
0100
,
1000
0000
0001
1000
0000
0001
0100
0000
0001
1000
0000
0100
1000
0000
0001
0100
,
0010
0000
0000
1000
0010
0000
0000
0100
1000
0000
0100
0000
0001
0000
0000
0000
,
1000
0000
0000
1000
0000
0000
1000
0000
0001
0010
0100
0000
0000
0000
1000
0000
,
0010
0000
0100
0000
0010
1000
0010
1000
0001
0100
0000
0000
2000
0000
0000
0000
,
3100
0000
0001
1000
0001
0020
0000
0000
0130
0000
0000
0100
0000
0000
0100
0000
,
1000
0000
0001
0000
0100
0001
0000
0000
1000
0000
1000
0000
0100
0000
0010
0000
,
0002
0000
1003
0010
0100
0000
0010
0000
1000
0001
0010
0000
0000
0000
0100
0000
,
1000
0000
0001
0000
0100
0001
0100
0001
1000
0100
0000
0000
0002
0000
0000
0000
,
0103
0000
1000
0001
1000
0010
0000
0000
0100
0000
0000
0100
0010
0000
0000
0100
,
0001
0000
0000
1000
0100
0010
0000
0000
0001
0100
0010
1000
0001
0000
0100
0000
,
0001
0000
0010
0000
0100
0000
0010
0000
0001
1000
0010
0000
0100
0000
0010
0000
,
1000
0001
0010
0000
0100
0000
0010
0000
0001
1000
0010
0000
0100
0000
0010
0000
,
1000
0010
1000
0010
0100
0001
1000
0001
1000
0100
0010
0001
1000
0010
0100
0001
,
1000
0001
1000
0001
1000
0001
1000
0001
0010
0100
0010
0100
0010
0100
0010
0100
,
1000
0001
1000
0001
1000
0001
1000
0001
1000
0000
1000
0000
0001
0010
0100
1000
,
0020
0230
0000
0000
,
0000
0000
0000
0000
0000
0302
0000
0000
,
2003
3200
0000
0000
,
0000
0000
0000
0302
0000
0203
0000
0000
,
2300
3020
0100
1000
,
1000
0000
0100
0000
1030
0002
0010
0000
,
2003
0000
0000
3200
0010
0000
0010
0000
,
1000
0000
0000
0000
1000
0000
0000
0000
0010
0000
0000
0000
0000
0000
1300
0001
,
0100
0010
1000
0001
0010
0001
0010
0100
,
0010
0001
0100
0010
1000
0001
0010
0100
,
1000
0010
0100
0001
1000
0100
0010
0100
,
1000
0001
0100
0001
1000
0010
0100
0010
,
2000
0000
0000
3200
0000
0000
0320
0000
0000
0230
0000
0000
0320
0000
0000
0032
,
0000
0000
0203
0000
0000
0320
0000
0000
2030
0000
0000
3002
0000
0000
0013
0000
,
0001
0100
0001
0100
0010
1000
0010
1000
0001
0010
0001
0010
0100
1000
0100
1000
,
0001
0000
0101
0000
1001
0000
1010
0000
1100
0000
0101
0000
,
0002
0000
0000
0000
0000
0103
0010
2000
,
0000
0000
3001
0000
0000
0000
1000
0000
0001
1000
0001
1000
0001
1000
0001
1000
,
0000
0000
0001
0000
0201
0000
0000
0000
0010
0000
0000
0000
0301
0000
1000
0100
,
0020
0000
0100
0000
0001
0000
0130
0010
,
0001
0010
0001
0020
0100
0000
0031
1000
,
0010
0000
1000
0000
0010
0000
2000
0000
0010
0000
0000
0000
3001
1000
0010
0100
,
0001
0000
0100
0001
0000
0100
0001
0000
0100
0001
0000
1000
0001
0000
1000
0000
,
0200
0000
0000
0000
0320
0000
0000
0000
0032
0000
0000
1003
0001
0100
0010
1000
,
0002
0000
0010
0000
1003
0001
0010
0200
,
0000
0000
0000
0000
0000
0000
1300
0000
0000
0001
0000
0000
1000
0000
0000
0001
0000
0000
0000
0000
0000
1000
0000
0000
0001
0000
0000
0000
0100
0000
0000
0000
0010
0000
0000
0000
1000
0000
0000
0000
0001
0000
0000
0000
0010
0000
0000
0000
,
2000
0000
3010
0000
0001
0000
1000
0010
,
0000
0000
1010
0000
0000
0101
0000
0000
1001
0000
0000
0000
1000
0100
1000
0100
,
0010
0001
0100
0002
0010
0000
1003
0010
,
0100
0000
0010
0000
1000
0000
0020
0000
0100
0000
0000
0000
1030
0001
0100
0010
,
1000
0000
0001
0010
0000
0100
1000
0000
0001
0100
0000
0010
1000
0000
0001
1000
,
0100
0000
0000
1000
0010
0000
0000
0100
1000
0000
0100
0000
0001
0010
0100
1000
,
0001
0100
0010
0000
1000
0100
0010
0000
1000
0010
0001
0000
1000
0000
0000
0000
,
2002
0000
0000
3003
,
0001
1000
0001
1000
0001
1000
0001
1000
0001
0000
0001
0000
0020
0000
0000
0000
,
0130
0000
1000
0000
0010
0000
0001
0000
0010
0000
0100
0000
0001
1000
0100
0000
,
0010
0001
0010
0001
0010
0001
0010
0001
0010
0000
0010
0000
0100
1000
0001
0100
,
0010
1000
0010
0100
1000
0100
0001
0000
,
1000
0100
1000
0100
1000
0100
1000
0100
1000
0000
1000
0000
0020
0000
0000
0000
,
0130
0000
0001
0000
0010
0000
1000
0000
0010
0000
0100
0000
1000
0001
0100
0000
,
0010
1000
0010
1000
0010
1000
0010
1000
0010
0000
0010
0000
1000
0001
0010
0100
,
0000
1000
0000
0000
1001
0000
0000
0000
0001
0000
0100
0000
0010
0000
0000
0000
,
1000
0001
1000
0001
1000
0001
1000
0001
1000
0000
1000
0000
0200
0000
0000
0000
,
0310
0000
0100
0000
1000
0000
0010
0000
0001
0000
0010
0000
1000
0001
0010
0000
,
0100
1000
0100
1000
0100
1000
0100
1000
0100
0000
0100
0000
0010
0001
1000
0010
,
0000
0000
0100
0001
1000
0000
0100
0000
0001
0000
0100
0000
1000
0000
0000
0000
,
0001
0100
0001
0100
0001
0100
0001
0100
0001
0000
0001
0000
0020
0000
0000
0000
,
0130
0000
1000
0000
0010
0000
0001
0000
0010
0000
0100
0000
0001
1000
0100
0000
,
1000
0010
1000
0010
1000
0010
1000
0010
0100
0010
0100
0010
0100
0010
0100
0010
,
0001
0010
0001
0010
0001
0010
0001
0010
1000
0000
1000
0000
0001
0100
0010
1000
,
0200
0300
0000
0000
0000
0000
0000
0000
;

//---------------dance-single - BU-, FS+, XO----------------
#NOTEDATA:;
#CHARTNAME:DR. No, FS.;
#CHARTHASH:3441691754;
#STEPSTYPE:dance-single;
#BANNER:;
#DESCRIPTION:BU-, FS+, XO;
#CHARTSTYLE:;
#DIFFICULTY:Edit;
#METER:19;
#METERF:19.000000;
#LASTSECONDHINT:141.452576;
#RADARVALUES:0.857386,1.167116,0.123464,0.397827,0.812802,875.000000,857.000000,18.000000,58.000000,0.000000,0.000000,0.000000,0.000000,0.000000,0.857386,1.167116,0.123464,0.397827,0.812802,875.000000,857.000000,18.000000,58.000000,0.000000,0.000000,0.000000,0.000000,0.000000;
#CREDIT:Yosefu feat. FS;
#NOTES:
0000
0000
0000
0000
,
0000
0000
0000
0000
,
0000
0000
0000
0000
,
0000
0000
0000
0000
,
1000
0100
0010
0100
1000
0001
0100
0001
,
1000
0100
0010
0001
1000
0010
0100
0010
,
1000
0100
0010
0001
0100
0010
1000
0001
,
0101
0000
1001
0000
1100
0000
1010
0000
1001
0000
0011
0000
,
0001
0100
0010
1000
0100
0010
0001
0000
,
0010
0010
0010
0010
0010
0010
0010
0010
1000
0000
1000
0000
0010
0000
0000
0000
,
1000
0000
0010
0000
0100
0000
0001
0000
0010
0000
0100
0000
1000
0001
0010
0000
,
0100
0100
0100
0100
0100
0100
0100
0100
0001
0000
0001
0000
0010
0100
1000
0001
,
1000
0010
0100
0001
0010
0100
1000
0000
,
0010
0010
0010
0010
0010
0010
0010
0010
0001
0000
0001
0000
0100
0000
0000
0000
,
0001
0000
0010
0000
0100
0000
1000
0000
0010
0000
0100
0000
0001
1000
0010
0000
,
0100
0100
0100
0100
0100
0100
0100
0100
1000
0000
1000
0000
0001
0100
0010
1000
,
0001
0010
1000
0010
0100
1000
0001
0000
,
0010
0010
0010
0010
0010
0010
0010
0010
1000
0000
1000
0000
0001
0000
0000
0000
,
1000
0000
0100
0000
0001
0000
0100
0000
0010
0000
0001
0000
1000
0001
0010
0000
,
0100
0100
0100
0100
0100
0100
0100
0100
0001
0000
0001
0000
0100
0010
1000
0001
,
0010
0100
0001
0100
1000
0010
1000
0000
,
0010
0010
0010
0010
0010
0010
0010
0010
0001
0000
0001
0000
0010
0000
0000
0000
,
0100
0000
0010
0000
1000
0000
0010
0000
0001
0000
1000
0000
0010
1000
0001
0000
,
0100
0100
0100
0100
0100
0100
0100
0100
0010
0000
0010
0000
0001
0010
0100
1000
,
0020
0000
0100
0000
1030
0001
0010
0200
,
0000
0000
0000
0000
1300
0000
0001
0000
0100
0000
0010
0000
1000
0000
0001
1000
,
0010
0000
0200
0000
0001
0000
0000
0000
0010
0000
0000
0000
0301
0000
1000
0001
,
0020
0000
0100
0000
0031
0000
0010
0100
,
1000
0100
1000
0200
0010
0000
1300
0010
,
1000
0000
0010
0000
1000
0000
0020
0000
0100
0000
0000
0000
1030
0001
0100
0010
,
1000
0000
0010
1000
0000
0010
1000
0000
0010
1000
0000
0001
1000
0000
0100
0000
,
0020
0000
0000
0000
0032
0000
0000
0000
2003
0000
0000
3001
0100
0010
1000
0001
,
0020
0000
0100
0000
0031
1000
0010
0100
,
0001
0000
0000
0000
0000
0000
1000
0000
0000
0001
0000
0000
1000
0000
0000
0001
0000
0000
0000
0000
0000
1000
0000
0000
0001
0000
0000
0000
1000
0000
0000
0000
0100
0000
0000
0000
1000
0000
0000
0000
0001
0000
0000
0000
0100
0000
0000
0000
,
2000
0000
3100
0000
0001
0000
0010
0100
,
0000
0000
1100
0000
0000
0110
0000
0000
1001
0000
0000
0000
1000
0010
1000
0010
,
0100
0010
1000
0020
0100
0000
1030
0100
,
0010
0000
0100
0000
1000
0000
0200
0000
0010
0000
0000
0000
1300
0001
0010
0100
,
1000
0000
0001
1000
0000
0001
0100
0000
0001
1000
0000
0100
1000
0000
0001
0100
,
0010
0000
0000
1000
0010
0000
0000
0100
1000
0000
0100
0000
0001
0000
0000
0000
,
1000
0000
0000
1000
0000
0000
1000
0000
0001
0010
0100
0000
0000
0000
1000
0000
,
0010
0000
0100
0000
0010
1000
0010
1000
0001
0100
0000
0000
2000
0000
0000
0000
,
3100
0000
0001
1000
0001
0020
0000
0000
0130
0000
0000
0100
0000
0000
0100
0000
,
1000
0000
0001
0000
0100
0001
0000
0000
1000
0000
1000
0000
0100
0000
0010
0000
,
0002
0000
1003
0010
0100
0000
0010
0000
1000
0001
0010
0000
0000
0000
0100
0000
,
1000
0000
0001
0000
0100
0001
0100
0001
1000
0100
0000
0000
0002
0000
0000
0000
,
0103
0000
1000
0001
1000
0010
0000
0000
0100
0000
0000
0100
0000
0000
0100
0000
,
0001
0000
0000
1000
0100
0010
0000
0000
0001
0100
0010
1000
0001
0000
0100
0000
,
0001
0000
0010
0000
0100
0000
0010
0000
0001
1000
0010
0000
0100
0000
0010
0000
,
1000
0001
0010
0000
0100
0000
0010
0000
0001
1000
0010
0000
0100
0000
0010
0000
,
1000
0010
1000
0010
0100
0001
1000
0001
1000
0100
0010
0001
1000
0010
0100
0001
,
0100
0100
0100
0100
0100
0100
0100
0100
0100
0100
0100
0100
0100
0100
0100
0100
,
0100
0100
0100
0100
0100
0100
0100
0100
1000
0000
1000
0000
0001
0010
0100
1000
,
0020
0230
0000
0000
,
0000
0000
0000
0000
0000
0302
0000
0000
,
2003
3200
0000
0000
,
0000
0000
0000
0320
0000
0032
0000
0000
,
2003
3020
0100
1000
,
1000
0000
0100
0000
1030
0002
0010
0000
,
2003
0000
0000
3200
0010
0000
0010
0000
,
1000
0000
0000
0000
1000
0000
0000
0000
0010
0000
0000
0000
0000
0000
1300
0001
,
0100
0010
1000
0001
0010
0001
0010
0100
,
0010
0001
0100
0010
1000
0001
0010
0100
,
1000
0010
0100
0001
1000
0100
0010
0100
,
1000
0001
0100
0001
1000
0010
0100
0010
,
2000
0000
0000
3200
0000
0000
0320
0000
0000
0230
0000
0000
0320
0000
0000
0032
,
0000
0000
0203
0000
0000
0320
0000
0000
2030
0000
0000
3002
0000
0000
0013
0000
,
0001
0100
0001
0100
0010
1000
0010
1000
0001
0010
0001
0010
0100
1000
0100
1000
,
0001
0000
0101
0000
1001
0000
1000
0000
1100
0000
1001
0000
,
0002
0000
0000
0000
0000
0103
0010
2000
,
0000
0000
3001
0000
0000
0000
1000
0000
0100
0100
0100
0100
0100
0100
0100
0100
,
0000
0000
0001
0000
0201
0000
0000
0000
0010
0000
0000
0000
0301
0000
1000
0100
,
0020
0000
0100
0000
0001
0000
0130
0010
,
0001
0010
0001
0020
0100
0000
0031
1000
,
0010
0000
1000
0000
0010
0000
2000
0000
0010
0000
0000
0000
3001
1000
0010
0100
,
0001
0000
0100
0001
0000
0100
0001
0000
0100
0001
0000
1000
0001
0000
1000
0000
,
0200
0000
0000
0000
0320
0000
0000
0000
0032
0000
0000
1003
0001
0100
0010
1000
,
0002
0000
0010
0000
1003
0001
0010
0200
,
0000
0000
0000
0000
0000
0000
1300
0000
0000
0001
0000
0000
1000
0000
0000
0001
0000
0000
0000
0000
0000
1000
0000
0000
0001
0000
0000
0000
0100
0000
0000
0000
0010
0000
0000
0000
1000
0000
0000
0000
0001
0000
0000
0000
0010
0000
0000
0000
,
2000
0000
3010
0000
0001
0000
1000
0010
,
0000
0000
1010
0000
0000
0101
0000
0000
1001
0000
0000
0000
1000
0100
1000
0100
,
0010
0001
0100
0002
0010
0000
1003
0010
,
0100
0000
0010
0000
1000
0000
0020
0000
0100
0000
0000
0000
1030
0001
0100
0010
,
1000
0000
0001
0010
0000
0100
1000
0000
0001
0100
0000
0010
1000
0000
0001
1000
,
0100
0000
0000
1000
0010
0000
0000
0100
1000
0000
0100
0000
0001
0010
0100
1000
,
0001
0100
0001
0100
0000
0000
0010
1000
0010
1000
0000
0000
0001
1000
0001
1000
0000
0000
0001
0000
0000
0000
0000
0000
,
1000
0100
0001
0100
0010
0001
1000
0000
,
0100
0100
0100
0100
0100
0100
0100
0100
0001
0000
0001
0000
0020
0000
0000
0000
,
0130
0000
1000
0000
0010
0000
0001
0000
0010
0000
0100
0000
0001
1000
0100
0000
,
0010
0010
0010
0010
0010
0010
0010
0010
1000
0000
1000
0000
0100
1000
0001
0100
,
0010
1000
0010
0100
1000
0100
0001
0000
,
0100
0100
0100
0100
0100
0100
0100
0100
1000
0000
1000
0000
0020
0000
0000
0000
,
0130
0000
0001
0000
0010
0000
1000
0000
0010
0000
0100
0000
1000
0001
0100
0000
,
0010
0010
0010
0010
0010
0010
0010
0010
0001
0000
0001
0000
1000
0001
0010
0100
,
0000
1000
0000
0000
1001
0000
0000
0000
0001
0000
0100
0000
0010
0000
0000
0000
,
0100
0100
0100
0100
0100
0100
0100
0100
1000
0000
1000
0000
0200
0000
0000
0000
,
0310
0000
0100
0000
1000
0000
0010
0000
0001
0000
0010
0000
1000
0001
0100
0000
,
0010
0010
0010
0010
0010
0010
0010
0010
0001
0000
0001
0000
0010
0001
1000
0010
,
0000
0000
0100
0001
1000
0000
0100
0000
0001
0000
0100
0000
1000
0000
0000
0000
,
0100
0100
0100
0100
0100
0100
0100
0100
0001
0000
0001
0000
0020
0000
0000
0000
,
0130
0000
1000
0000
0010
0000
0001
0000
0010
0000
0100
0000
0001
1000
0100
0000
,
0010
0010
0010
0010
0010
0010
0010
0010
0010
0010
0010
0010
0010
0010
0010
0010
,
0010
0010
0010
0010
0010
0010
0010
0010
1000
0000
1000
0000
0001
0100
0010
1000
,
0200
0300
0000
0000
0000
0000
0000
0000
;

//---------------dance-double - ----------------
#NOTEDATA:;
#CHARTNAME:;
#CHARTHASH:1883153879;
#STEPSTYPE:dance-double;
#BANNER:;
#DESCRIPTION:;
#CHARTSTYLE:;
#DIFFICULTY:Beginner;
#METER:5;
#METERF:0.000000;
#LASTSECONDHINT:141.281143;
#RADARVALUES:0.141101,0.247270,0.089168,0.130323,0.000000,144.000000,131.000000,13.000000,19.000000,0.000000,0.000000,0.000000,0.000000,0.000000,0.141101,0.247270,0.089168,0.130323,0.000000,144.000000,131.000000,13.000000,19.000000,0.000000,0.000000,0.000000,0.000000,0.000000;
#CREDIT:YOSEFU;
#NOTES:
00000000
00000000
00000000
00000000
,
00000000
00000000
00000000
00000000
,
00000000
00000000
00000000
00000000
,
00000000
00000000
00000000
00000000
,
00010000
00000000
00000000
00000000
,
00001000
00000000
00000000
00000000
,
00010000
00000000
00000000
00000000
,
00000100
00000000
00000000
00000000
,
00000110
00000000
00000010
00000000
,
00000002
00000000
00000003
00000000
,
00000100
00000000
00000010
00000000
,
00002000
00000000
00003000
00000000
,
00000010
00000000
00010000
00000000
,
00002000
00000000
00003000
00000000
,
00100000
00000000
00010000
00000000
,
20000000
00000000
30000000
00000000
,
10010000
00000000
00010000
00000000
,
02000000
00000000
03000000
00000000
,
00001000
00000000
00010000
00000000
,
00000200
00000000
00000300
00000000
,
00001000
00000000
00000001
00000000
,
00000200
00000000
00000300
00000000
,
00000010
00000000
00001000
00000000
,
00000002
00000000
00000003
00000000
,
00001001
00000000
00000000
00000000
,
00001000
00000000
00000000
00000000
,
00000100
00000000
00000000
00000000
,
00010000
00000000
00000000
00000000
,
00001000
00001000
00000000
00000000
,
00010000
00010000
00000000
00000000
,
00001000
00000000
01000000
00000000
,
00010000
00000000
10000000
00000000
,
10010000
00000000
00000000
00000000
,
00010000
00000000
00000000
00000000
,
00100000
00000000
00000000
00000000
00000000
00000000
00000000
01000000
,
00000000
00000000
00000000
00000000
,
10000000
10000000
00000000
00000000
,
00010000
00010000
00000000
00000000
,
01000000
00000000
00000000
00000000
,
00001000
00000000
00000000
00000000
,
00011000
00000000
00000000
00000000
,
00010000
00000000
00000000
00000000
,
00000100
00000000
00000000
00000000
,
00000010
00000000
00000000
00000000
,
00000001
00000000
00000000
00000000
,
00000100
00000000
00000000
00000000
,
00000010
00000000
00000000
00000000
,
00001000
00000000
00000000
00000000
,
00001001
00000000
00000001
00000000
,
00001000
00000000
00000010
00000000
,
00000100
00000000
00000010
00000000
,
00020000
00000000
00000000
00000000
,
00000000
00000000
00030000
00000000
,
00011000
00000000
00000000
00000000
,
00000000
00000000
00000000
00000000
,
00001000
00000000
00000000
00000000
,
00000000
00000000
00000000
00000000
,
00100000
00000000
00000000
00000000
,
00010000
00000000
00000000
00000000
,
10000000
00000000
00000000
00000000
,
00100000
00000000
00000000
00000000
,
01100000
00000000
00000000
00000000
,
01000000
00000000
00000000
00000000
,
00001000
00000000
00000000
00000000
,
00010000
00000000
00000000
00000000
,
00000100
00000000
00000000
00000000
,
00001000
00000000
00000000
00000000
,
00000010
00000000
00000010
00000000
,
00000010
00000000
00000000
00000000
,
00000110
00000000
00000000
00000000
00000000
00000000
00000000
00001001
,
00000000
00000000
00002000
00000000
,
00003000
00001000
00000000
00000000
,
00000010
00000000
00000000
00000000
,
00000100
00000100
00000000
00000000
,
00000001
00000001
00000000
00000000
,
00001000
00000000
00000100
00000000
,
00010000
00000000
00001000
00000000
,
00011000
00000000
00000000
00000000
,
01000000
00000000
00000000
00000000
,
00010000
00000000
00000000
00000000
00000000
00000000
00000000
10000000
,
00000000
00000000
00000000
00000000
,
00010000
00010000
00000000
00000000
,
01000000
01000000
00000000
00000000
,
00001000
00000000
00010000
00000000
,
00000100
00000000
00000010
00000000
,
00000100
00000100
00000100
00000000
,
00002002
00000000
00000000
00000000
,
00000000
00000000
00003003
00000000
,
00001000
00000000
00000010
00000000
,
00020000
00000000
00030000
00000000
,
00001000
00000000
00100000
00000000
,
00020000
00000000
00030000
00000000
,
10000000
00000000
00100000
00000000
,
02000000
00000000
03000000
00000000
,
00000000
00001000
00000000
00010000
,
00000200
00000000
00000300
00000000
,
00001000
00000000
00000001
00000000
,
00000200
00000000
00000300
00000000
,
00000000
00000010
00000000
00001000
,
00000200
00000000
00000300
00000000
,
00010000
00000000
00001000
00000000
,
02000000
00000000
00000000
00000000
,
00000000
00000000
03000000
00000000
,
01100000
00000000
00000000
00000000
;

//---------------dance-double - ----------------
#NOTEDATA:;
#CHARTNAME:;
#CHARTHASH:3487407215;
#STEPSTYPE:dance-double;
#BANNER:;
#DESCRIPTION:;
#CHARTSTYLE:;
#DIFFICULTY:Easy;
#METER:8;
#METERF:8.000000;
#LASTSECONDHINT:141.452576;
#RADARVALUES:0.282202,0.353672,0.041155,0.192054,0.000000,288.000000,282.000000,6.000000,28.000000,0.000000,0.000000,0.000000,0.000000,0.000000,0.282202,0.353672,0.041155,0.192054,0.000000,288.000000,282.000000,6.000000,28.000000,0.000000,0.000000,0.000000,0.000000,0.000000;
#CREDIT:YOSEFU;
#NOTES:
00000000
00000000
00000000
00000000
,
00000000
00000000
00000000
00000000
,
00000000
00000000
00000000
00000000
,
00000000
00000000
00000000
00000000
,
00010000
00000000
00001000
00000000
,
01000000
00000000
00010000
00000000
,
00100000
00000000
00001000
00000000
,
00010000
00000000
00000100
00000000
,
00010100
00000000
00010000
00000000
,
00000010
00010000
00000010
00000000
,
00000100
00000000
00000001
00000000
,
00000010
00000100
00000010
00000000
,
00000100
00000000
00010000
00000000
,
00001000
00010000
00001000
00000000
,
00100000
00000000
01000000
00000000
,
10000000
00010000
10000000
00000000
,
10010000
00000000
00010000
00000000
,
01000000
00010000
01000000
00000000
,
00001000
00000000
00010000
00000000
,
00000100
00010000
00000100
00000000
,
00010000
00000000
00001000
00000000
,
00100000
00001000
00100000
00000000
,
00010000
00000000
10000000
00000000
,
00100000
01000000
00100000
00000000
,
02000000
00000000
03010000
01000000
,
00001000
00000000
00010000
00000100
,
00001000
00000000
00000100
00000010
,
00000001
00000000
00001000
00000010
,
00001000
00000010
00000000
00001000
,
00000100
00010000
00000000
00001000
,
01000000
00001000
01000000
00100000
,
10000000
00010000
10000000
01000000
,
00200000
00000000
00301000
00010000
,
00000100
00000000
00001000
00000001
,
00002000
00000000
00000000
00000000
00003000
00000000
00000000
00000020
,
00000000
00000000
00000000
00000030
00000000
00000000
00001000
00000000
,
00000001
00001000
00000000
00000100
,
00010000
00001000
00000000
01000000
,
00010000
00100000
01000000
10000000
,
00010000
01000000
00100000
00000000
,
10000000
00000000
01000000
00000000
,
00100000
00000000
00001000
00000000
,
00010000
00000000
00000100
00000000
,
00000010
00000000
00000001
00000000
,
00000100
00000000
00000010
00000000
,
00001000
00000000
00000100
00000000
,
00010000
00000000
00001000
00000000
,
00100000
00000000
00010000
00000000
,
10000000
00010000
10000000
01000000
,
00100000
00001000
00010000
00000010
,
00001000
00000100
00000001
00000100
,
00001000
00000001
00001000
00000001
,
00001000
00000001
00001000
00000001
,
00000020
00000000
00000000
00000000
,
00000230
00000000
00000000
00000000
,
00020300
00000000
00000000
00000000
,
00032000
00000000
00000000
00000000
,
00103000
00010000
10000000
00100000
,
00100000
10000000
01000000
00100000
,
00020000
00000000
02030000
00000000
,
03020000
00000000
00000000
00000000
,
00130000
00001000
00010000
00000100
,
00000100
00001000
00000010
00001000
,
00000002
00000000
00000023
00000000
,
00000230
00000000
00010000
00000000
,
00010300
00000000
00001000
00000000
,
00100000
00000000
00010000
00000000
,
10000000
00100000
00010000
00100000
,
10000000
00000000
00010000
00000000
,
10020000
00000000
00000000
00000000
00000000
00000000
00000000
00230000
,
00000000
00000000
02300000
00000000
,
03000000
10000000
01000000
00100000
,
00001000
00010000
00000100
00000010
,
00000001
00000100
00000010
00001000
,
00000100
00010000
00001000
01000000
,
00010000
00100000
00010000
01000000
,
00100000
10000000
00010000
00100000
,
01000000
10000000
00010000
01000000
,
00010000
00001000
00000100
00000010
,
00000002
00000000
00000000
00000000
00000003
00000000
00000000
00002002
,
00000000
00000000
00000000
00003003
00000000
00000000
00001000
00000000
,
00000001
00000010
00000100
00010000
,
00001000
00100000
01000000
10000000
,
00010000
00100000
01000000
00100000
,
00010000
00000100
00000010
00000100
,
00010000
01000000
10000000
01000000
,
20020000
00000000
00000000
30030000
,
00010000
00100000
00010000
02000000
,
03001000
00000000
00010000
00000000
,
00000100
00001000
00000100
00000000
,
00010000
00000000
00000100
00000000
,
00000010
00000001
00000010
00000200
,
00010300
00000000
00001000
00000000
,
00100000
00010000
10000000
00000000
,
00000000
00100000
10000000
00010000
,
00100000
00001000
00010000
00000200
,
00001300
00000010
00000100
00000001
,
00000010
00000100
00010000
00001000
,
00100000
01000000
10000000
00100000
,
01000000
00001000
00010000
00000200
,
00001300
00000100
00000010
00000001
,
00000100
00010000
01000000
00001000
,
00100000
01000000
10000000
00000000
,
20020000
30030000
00000000
00000000
00000000
00000000
00000000
00000000
;

//---------------dance-double - ----------------
#NOTEDATA:;
#CHARTNAME:;
#CHARTHASH:1108389464;
#STEPSTYPE:dance-double;
#BANNER:;
#DESCRIPTION:;
#CHARTSTYLE:;
#DIFFICULTY:Medium;
#METER:13;
#METERF:13.000000;
#LASTSECONDHINT:141.452576;
#RADARVALUES:0.498754,0.601242,0.054873,0.384109,0.072020,509.000000,501.000000,8.000000,56.000000,0.000000,0.000000,0.000000,0.000000,0.000000,0.498754,0.601242,0.054873,0.384109,0.072020,509.000000,501.000000,8.000000,56.000000,0.000000,0.000000,0.000000,0.000000,0.000000;
#CREDIT:YOSEFU;
#NOTES:
00000000
00000000
00000000
00000000
,
00000000
00000000
00000000
00000000
,
00000000
00000000
00000000
00000000
,
00000000
00000000
00000000
00000000
,
00010000
00001000
00100000
00001000
,
00010000
00000100
00010000
00001000
,
00100000
00001000
00100000
00000000
00010000
01000000
00010000
00000000
,
10000000
00000000
10000000
00000000
10000000
00000000
01000000
00000000
01000000
00000000
01000000
00000000
,
00100000
00000000
00001000
00000000
00010000
00001000
00010000
00000000
,
00000100
00001000
00000100
00001000
00000100
00000000
00010000
00000000
,
00001000
00000000
00100000
00000000
00010000
10000000
00010000
00000000
,
10000000
00100000
10000000
00100000
10000000
00000000
01000000
00000000
,
00100000
00000000
00001000
00000000
00010000
00001000
00010000
00000000
,
00000100
00010000
00000100
00010000
00000100
00000000
00001000
00000000
,
00000100
00000000
00000010
00000000
00000001
00001000
00000001
00000000
,
00001000
00000010
00001000
00000010
00001000
00000000
00000100
00000000
,
00010000
00000000
00001000
00000000
00100000
00001000
00100000
00000000
,
00010000
10000000
00010000
10000000
00010000
00000000
10000000
00000000
,
01000000
00000000
00100000
00000000
00010000
10000000
00010000
00000000
,
01000000
00010000
01000000
00010000
01000000
00000000
00010000
00000000
,
00100000
00000000
00001000
00000000
00010000
00000100
00010000
00000000
,
00000010
00001000
00000010
00001000
00000010
00000000
00001000
00000000
,
00000100
00000000
00010000
00000000
00001000
00100000
00001000
00000000
,
01000000
00010000
01000000
00010000
01000000
00000000
00100000
10000000
,
00020000
00000000
00000000
00000000
00000000
00130000
01000000
20000000
,
00000000
00000000
00000000
31000000
00100000
00001000
00010000
00000100
,
00001000
00000002
00000000
00000000
00000000
00000000
00000000
00001003
,
00000020
00000000
00000000
00000000
00000030
00000000
00001000
00000100
,
00010000
00000100
00010000
00000200
00000000
00000000
00000000
00010300
,
00001000
00010000
00001000
00020000
00000000
00000000
00031000
00100000
,
01000000
00000000
00000000
10000000
00000000
00000000
01000000
00000000
00000000
10000000
00000000
00000000
01000000
00000000
00100000
00000000
,
00020000
00000000
20030000
00000000
30200000
00000000
01300000
00010000
,
00200000
00000000
00000000
00000000
00000000
00301000
00010000
00000200
,
00000000
00000000
00000000
00000000
00000000
00000000
00000000
00000000
00000000
00001300
00000000
00000000
00000001
00000000
00000000
00000000
00000001
00000000
00000100
00000000
00000000
00000000
00000100
00000000
,
00000020
00000000
00000000
00000000
00001030
00000000
00000100
00020000
,
00000000
00000000
00000000
00000000
00031000
00000000
01000000
00100000
,
10000000
00010000
10000000
00020000
00000000
00000000
00000000
00130000
,
00001000
00010000
00001000
00020000
00000000
00000000
00030100
00001000
,
00000001
00000000
00000000
00000000
00000100
00000000
00000010
00000000
00001000
00000000
00000000
00000100
00000000
00000000
00010000
00000000
,
00002000
00203000
00320000
00030000
,
01000000
00000000
00100000
00000000
10000000
01000000
00000000
10000000
,
00010000
00000000
00100000
00001000
00010000
00000100
00002000
00000000
,
00003100
00000010
00000001
00000000
00000100
00000000
00000010
00001000
,
00000100
00010000
00001000
00000000
00100000
01000000
10000000
00100000
,
01000000
00000000
00010000
00000000
00100000
00001000
00000000
00010000
,
00001000
00000000
00010000
00000100
00000010
00000001
00002000
00000000
,
00003010
00000100
00000001
00000000
00001000
00000000
00000100
00000000
,
00010000
00001000
00100000
01000000
10000000
00010000
01000000
00000000
,
00100000
10000000
00010000
00100000
01000000
00100000
00000000
00001000
,
00010000
00000100
00000000
00010000
00001000
00100000
00000000
00001000
,
00100000
00010000
00100000
00010000
10000000
00100000
01000000
00010000
,
00100000
01000000
00010000
01000000
10000000
00010000
00100000
00001000
,
00010000
00000100
00000010
00000001
00000100
00000000
00000010
00000000
,
00002000
00003200
00000000
00000000
,
00000000
00000000
00000000
00000000
00000000
00020300
00000000
00000000
,
00032000
00203000
00000000
00000000
,
00000000
00000000
00000000
02300000
00000000
23000000
00000000
00000000
,
30010000
01000000
00100000
10000000
,
10000000
01000000
00100000
00001000
,
00020000
00000000
00000000
00030200
00000000
00000000
00000000
00000000
,
00000000
00000000
00000000
00000320
00000000
00000032
00000000
00001003
,
00000010
00001000
00000100
00010000
,
00010000
00001000
00100000
01000000
,
20000000
00000000
00000000
30200000
00000000
00000000
01300000
00000000
,
00010000
00100000
00001000
00010000
,
00000100
00000000
00000000
00001000
00000000
00000000
00000001
00000000
00000000
00000000
00000100
00000000
00000010
00000000
00000000
00000000
,
00001000
00000000
00000000
00000100
00000000
00000000
00010000
00000000
00000000
00000000
00001000
00000000
00100000
00000000
00000000
00000000
,
00010000
00100000
01000000
10000000
00100000
01000000
00010000
00100000
,
00001000
00000000
00001000
00000000
00001000
00000000
00010000
00000000
00010000
00000000
00010000
00000000
,
00022000
00000000
00000000
00000000
00000000
00033000
00000000
00010100
,
00000000
00001100
00000000
00000000
00001000
00000100
00000001
00000100
,
00000000
00001000
00002001
00000000
00000100
00000000
00003001
00000100
,
00000020
00000000
00001000
00000000
00000100
00000000
00001030
00000010
,
00000100
00000001
00000100
00000002
00000000
00000000
00000013
00000100
,
00010000
00001000
00010000
00002000
00000000
00000000
00013000
00001000
,
00100000
00000000
00000000
00001000
00000000
00000000
00100000
00000000
00000000
00001000
00000000
00000000
00100000
00000000
00010000
00000000
,
02000000
00000000
03200000
00000000
20300000
00000000
31000000
00100000
,
00020000
00000000
01000000
00000000
10030000
01000000
00100000
00002000
,
00000000
00000000
00000000
00000000
00000000
00000000
00000000
00000000
00000000
00013000
00000000
00000000
00001000
00000000
00000000
00000000
00001000
00000000
00000100
00000000
00000000
00000000
00000100
00000000
,
00000020
00000000
00000000
00000000
00000030
00000000
00000001
00000200
,
00000000
00000000
00000000
00000000
00000300
00000000
00000010
00001000
,
00000100
00010000
00001000
00200000
00000000
00000000
00310000
10000000
,
00100000
01000000
00010000
02000000
00000000
00000000
03100000
10000000
,
00010000
00000000
00000000
00000000
00100000
00000000
00001000
00000000
00010000
00000000
00000000
00000100
00000000
00000000
00000010
00000000
,
00000002
00000203
00002300
00003200
,
00000301
00000100
00001000
00000100
00000001
00000010
00000100
00000000
,
00002002
00000000
00000000
00003003
,
00000001
00000100
00000001
00000100
00000001
00000000
00001000
00000000
,
00000100
00000000
00010000
00000000
00001000
00100000
00010000
00000000
,
01000000
00010000
01000000
00010000
01000000
00000000
00100000
00000000
,
10000000
00000000
01000000
00000000
00100000
00001000
00010000
00000000
,
00000100
00010000
00000100
00010000
00000100
00000000
00001000
00000000
,
00000100
00000000
00000010
00000000
00000001
00001000
00000010
00000000
,
00001000
00000100
00001000
00000100
00001000
00000000
00000100
00000000
,
00000000
00010000
00000000
00000000
00011000
00000000
00000000
00000000
00001000
00000000
00100000
00000000
01000000
00000000
00000000
00000000
,
10000000
00010000
10000000
00010000
10000000
00000000
00100000
00000000
,
01000000
00000000
00010000
00000000
00100000
00001000
00010000
00000000
,
00000100
00001000
00000100
00001000
00000100
00000000
00010000
00000000
,
00000000
00000100
00010100
00000000
00010000
00001000
00100000
00000000
,
00010000
01000000
00010000
01000000
00010000
00000000
10000000
00000000
,
01000000
00000000
00100000
00000000
00001000
00010000
00000010
00000000
,
00000100
00001000
00000100
00000001
00000010
00000100
00010000
00001000
,
01000000
00100000
00010000
00100000
10000000
00000000
00010000
00000000
,
20020000
30030000
00000000
00000000
00000000
00000000
00000000
00000000
;

//---------------dance-double - ----------------
#NOTEDATA:;
#CHARTNAME:;
#CHARTHASH:3513537537;
#STEPSTYPE:dance-double;
#BANNER:;
#DESCRIPTION:;
#CHARTSTYLE:;
#DIFFICULTY:Hard;
#METER:17;
#METERF:17.000000;
#LASTSECONDHINT:141.452576;
#RADARVALUES:0.688848,0.884179,0.178336,0.459559,0.401257,703.000000,677.000000,26.000000,67.000000,0.000000,0.000000,0.000000,0.000000,0.000000,0.688848,0.884179,0.178336,0.459559,0.401257,703.000000,677.000000,26.000000,67.000000,0.000000,0.000000,0.000000,0.000000,0.000000;
#CREDIT:YOSEFU;
#NOTES:
00000000
00000000
00000000
00000000
,
00000000
00000000
00000000
00000000
,
00000000
00000000
00000000
00000000
,
00000000
00000000
00000000
00000000
,
00010000
00000100
00001000
00000100
00000010
00000001
00001000
00000000
,
00000010
00001000
00000100
00010000
00001000
00100000
00010000
00000000
,
10000000
00100000
01000000
00010000
00100000
01000000
10000000
00010000
,
01010000
00000000
00110000
00000000
00101000
00000000
00011000
00000000
00010100
00000000
00000110
00000000
,
00000001
00001000
00000100
00000000
00001000
00000001
00000100
00000000
,
00000001
00001000
00000001
00000000
00001000
00000001
00001000
00000000
00000001
00000000
00000100
00000000
00000010
00000000
00000000
00000000
,
00001000
00000100
00010000
00000000
00001000
00100000
00010000
00000000
,
10000000
00010000
10000000
00000000
00010000
10000000
00010000
00000000
10000000
00000000
01000000
00000000
00100000
00000000
00000000
00000000
,
00001000
00010000
00000100
00000000
00001000
00000100
00000010
00000000
,
00000001
00001000
00000001
00000000
00001000
00000001
00001000
00000000
00000001
00000000
00000010
00000000
00000100
00000000
00000000
00000000
,
00010000
00001000
00100000
00000000
00010000
10000000
01000000
00000000
,
10000000
00010000
10000000
00000000
00010000
10000000
00010000
00000000
10000000
00000000
00100000
00000000
01000000
00000000
00000000
00000000
,
00010000
00100000
00001000
00000000
00010000
00000100
00000010
00000000
,
00000001
00000100
00000001
00000000
00000100
00000001
00000100
00000000
00000001
00000000
00001000
00000000
00000100
00000000
00000000
00000000
,
00010000
00001000
00100000
00000000
00010000
10000000
00100000
00000000
,
10000000
00010000
10000000
00000000
00010000
10000000
00010000
00000000
10000000
00000000
01000000
00000000
00100000
00000000
00000000
00000000
,
00001000
00010000
00000010
00000000
00000100
00000001
00001000
00000000
,
00000100
00000010
00000100
00000000
00000010
00000100
00000010
00000000
00000100
00000000
00001000
00000000
00000001
00000000
00000000
00000000
,
00000100
00000010
00001000
00000000
00000100
00010000
00001000
00000000
,
00100000
00010000
00100000
00000000
00010000
00100000
00010000
00000000
00100000
00000000
00000000
00000000
00010000
10000000
00010000
10000000
,
00020000
00000000
01000000
00000000
10030000
00100000
01000000
00020000
,
00000000
00000000
00000000
00000000
00130000
00000000
00010000
00000000
10000000
00000000
01000000
00000000
00100000
00000000
00001000
00010000
,
00001000
00000000
00020000
00000000
00000000
00000000
00000000
00000000
00000100
00000000
00000000
00000000
00001000
00000000
00030100
00010000
,
00002000
00000000
00100000
00000000
00013000
00000000
00001000
00010000
,
00000100
00000010
00000100
00000020
00000000
00000000
00000031
00001000
,
00000010
00000000
00001000
00000000
00000010
00000000
00002000
00000000
00000000
00000000
00000000
00000000
00003001
00001000
00000001
00001000
,
00000001
00000000
00001000
00000001
00000000
00001000
00000001
00000000
00001000
00000001
00000000
00000010
00000001
00000000
00001000
00000000
,
00000020
00000000
00000000
00000000
00002030
00000000
00000000
00000000
00003200
00000000
00000000
00000000
00010300
00001000
00010000
00001000
,
00020000
00000000
00000100
00000000
00031000
00100000
00010000
20000000
,
00000000
00000000
00000000
00000000
00000000
00000000
30100000
00000000
00000000
01000000
00000000
00000000
00010000
00000000
00100000
00000000
00001000
00000000
00000000
00000000
00000100
00000000
00000010
00000000
,
00000002
00000000
00000000
00000000
00000000
00000000
00001003
00000010
,
00000000
00000000
00001010
00000000
00000000
00001001
00000000
00000000
00000011
00000000
00000000
00000000
00000010
00000000
00000001
00000000
,
00001000
00000001
00001000
00000020
00000100
00000000
00001030
00000001
,
00000010
00000000
00000100
00000000
00000010
00000000
00000200
00000000
00001000
00000000
00000000
00000000
00000310
00000001
00000010
00000001
,
00000020
00000000
00000000
00000000
00000031
00001000
00000010
00000000
00001000
00000000
00000000
00000100
00000000
00000000
00010000
00000000
,
00020000
00032000
00003200
00002300
,
00013000
00000000
00001000
00100000
01000000
10000000
00000000
00100000
,
01000000
00000000
00010000
00000000
10000000
01000000
00000000
00100000
00010000
10000000
00000000
00000000
00200000
00000000
00000000
00000000
,
01300000
00000000
00010000
00000000
00100000
00001000
00000000
00000000
00010000
00000000
00000000
00010000
00000000
00000000
00010000
00000000
,
00000100
00000000
00001000
00000000
00000001
00000100
00000000
00000000
00000010
00000000
00000010
00000000
00002000
00000000
00003000
00000000
,
00000100
00010000
00001000
00100000
01000000
10000000
00000000
00100000
,
10000000
00000000
00010000
00000000
01000000
00100000
00000000
10000000
00010000
00100000
00000000
00000000
20000000
00000000
00000000
00000000
,
30100000
00000000
00010000
00000000
00100000
01000000
00000000
00000000
10000000
00000000
00000000
00010000
01000000
00000000
00000000
00000000
,
00100000
00000000
10000000
00000000
01000000
00000000
01000000
00000000
00100000
00010000
00100000
00010000
00100000
00000000
00000000
00000000
,
00001000
00001000
00010000
00010000
00000100
00000001
00000100
00001000
,
00000010
00000001
00000010
00001000
00000100
00000001
00000100
00001000
,
00000001
00000100
00000001
00000100
00000001
00000000
00000000
00000000
00001000
00000100
00001000
00000100
00001000
00000000
00000100
00000000
,
00010000
00001000
00010000
00000000
00001000
00100000
00001000
00000000
00100000
00010000
00100000
00000000
00010000
10000000
00010000
00000000
,
10000000
00100000
10000000
00000000
00100000
01000000
00100000
00000000
10000000
00000000
00010000
00000000
01000000
00000000
00000000
00000000
,
00200000
02300000
00000000
00000000
,
00000000
00000000
00000000
00000000
00000000
03020000
00000000
00000000
,
00230000
00302000
00000000
00000000
,
00000000
00000000
00000000
00003200
00000000
00002300
00000000
00000000
,
00023000
00030200
00010000
00001000
,
00001000
00000000
00010000
00000000
00000310
00000002
00000000
00000000
,
00000203
00000320
00001000
00000100
,
00001000
00000000
00000000
00000000
00000000
00000000
00000032
00000000
00000000
00000000
00000023
00000000
00000000
00000000
00001030
00000001
,
00001000
00000100
00000010
00000001
00000010
00000100
00000010
00000100
,
00010000
00001000
00100000
00010000
10000000
00100000
01000000
00010000
,
10000000
00000000
01000000
00100000
00020000
00000000
01000000
00000000
,
10000000
00000000
01030000
00010000
00000000
10000000
01000000
00000000
,
00100000
00000000
00000000
00001000
00000000
00000000
00011000
00000000
00000000
00000000
00010000
00000000
00010100
00000000
00000000
00000000
,
00000100
00000000
00000000
00000010
00000000
00000000
00000011
00000000
00000000
00000000
00000001
00000000
00000101
00000000
00000000
00000000
,
00000100
00000010
00000100
00000000
00000010
00001000
00000010
00000000
00001000
00000100
00001000
00000000
00000100
00010000
00000100
00000000
,
00010100
00000000
00011000
00000000
00101000
00000000
00110000
00000000
10010000
00000000
10100000
00000000
,
20000000
00000000
00000000
00000000
00000000
30100000
01000000
00020000
,
00000000
00000000
10030000
00000000
00000000
00000000
00010000
00000000
00100000
01000000
00100000
00000000
01000000
00100000
01000000
00000000
,
00000000
00000000
10000000
00000000
20010000
00000000
00000000
00000000
01000000
00000000
00000000
00000000
30010000
00000000
10000000
00100000
,
02000000
00000000
00100000
00000000
00010000
00000000
03100000
10000000
,
01000000
00100000
01000000
00200000
00000000
00000000
00301000
00010000
,
00000100
00000000
00010000
00000000
00000100
00000000
00020000
00000000
00000000
00000000
00000000
00000000
00030100
00010000
00000100
00010000
,
00000100
00000000
00010000
00000100
00000000
00010000
00000100
00000000
00010000
00000100
00000000
00001000
00000100
00000000
00000010
00000000
,
00000002
00000000
00000000
00000000
00000203
00000000
00000000
00000000
00000320
00000000
00000000
00000000
00001030
00000001
00001000
00000001
,
00002000
00000000
00000100
00000000
00003001
00000010
00000100
00020000
,
00000000
00000000
00000000
00000000
00000000
00000000
00031000
00000000
00000000
00100000
00000000
00000000
01000000
00000000
10000000
00000000
00010000
00000000
01000000
00000000
00001000
00000000
00010000
00000000
,
00000200
00000000
00000000
00000000
00000000
00000000
00000310
00000001
,
00000000
00000000
00000011
00000000
00000000
00001001
00000000
00000000
00001010
00000000
00000000
00000000
00001000
00000000
00000100
00000000
,
00010000
00001000
00100000
00020000
01000000
00000000
10030000
00100000
,
01000000
00000000
00010000
00000000
00100000
00000000
00002000
00000000
00010000
00000000
00000000
00000000
00013000
00000100
00010000
00000100
,
00020000
00000000
00000000
00000000
00031000
00000100
00000010
00000000
00000001
00000000
00000000
00000100
00000000
00000000
00000010
00000000
,
00000020
00000230
00002300
00003200
,
00000320
00002030
00003200
00000310
,
00000022
00000000
00000000
00000033
,
00000001
00000010
00000001
00000000
00000010
00000001
00000010
00000000
00000001
00000000
00001000
00000000
00000020
00000000
00000000
00000000
,
00000130
00000001
00001000
00000000
00000100
00010000
00001000
00000000
,
00010000
00001000
00010000
00000000
00001000
00100000
00001000
00000000
00100000
00000000
00100000
00000000
00010000
00000000
01000000
00000000
,
00100000
10000000
00010000
00000000
00100000
01000000
10000000
00000000
,
00010000
01000000
00010000
00000000
01000000
00100000
01000000
00000000
00010000
00000000
10000000
00000000
02000000
00000000
00000000
00000000
,
03100000
00001000
00010000
00000000
00001000
00000100
00000010
00000000
,
00000001
00001000
00000001
00000000
00001000
00000010
00001000
00000000
00000010
00000000
00000010
00000000
00001000
00000000
00000100
00000000
,
00000000
00010000
00000000
00000000
00011000
00000000
00000000
00000000
00001000
00000000
00100000
00000000
01000000
00000000
00000000
00000000
,
10000000
00010000
01000000
00000000
00010000
10000000
01000000
00000000
00100000
00000000
00010000
00000000
20000000
00000000
00000000
00000000
,
30100000
00010000
00001000
00000000
00001000
00010000
00100000
00000000
,
01000000
00010000
10000000
00000000
01000000
00100000
00010000
00000000
10000000
00000000
10000000
00000000
01000000
00000000
00100000
00000000
,
00000000
00000000
00001000
00010000
00000100
00000000
00000000
00000000
00000010
00000000
00000001
00000000
00001000
00000000
00000000
00000000
,
00000001
00000100
00000010
00000000
00001000
00000100
00000010
00000000
00000001
00000000
00000100
00000000
00000020
00000000
00000000
00000000
,
00000130
00001000
00010000
00000000
00001000
00100000
01000000
10000000
,
00010000
10000000
00100000
00000000
10000000
00010000
00100000
00000000
00001000
00010000
00000100
00000000
00001000
00000100
00000010
00000000
,
00000001
00000100
00000010
00000000
00001000
00000100
00000010
00000000
00000001
00000000
00000100
00000000
00000010
00000000
00010000
00000000
,
00022000
00033000
00000000
00000000
00000000
00000000
00000000
00000000
;

//---------------dance-double - DR+, XO+----------------
#NOTEDATA:;
#CHARTNAME:double the kawaii-ness;
#CHARTHASH:2774887594;
#STEPSTYPE:dance-double;
#BANNER:;
#DESCRIPTION:DR+, XO+;
#CHARTSTYLE:;
#DIFFICULTY:Challenge;
#METER:18;
#METERF:18.000000;
#LASTSECONDHINT:141.452576;
#RADARVALUES:0.849547,1.167116,0.137182,0.418404,0.802513,867.000000,847.000000,20.000000,61.000000,0.000000,0.000000,0.000000,0.000000,0.000000,0.849547,1.167116,0.137182,0.418404,0.802513,867.000000,847.000000,20.000000,61.000000,0.000000,0.000000,0.000000,0.000000,0.000000;
#CREDIT:YOSEFU;
#NOTES:
00000000
00000000
00000000
00000000
,
00000000
00000000
00000000
00000000
,
00000000
00000000
00000000
00000000
,
00000000
00000000
00000000
00000000
,
00010000
00001000
00100000
00001000
00010000
00000010
00001000
00000010
,
00010000
00001000
01000000
00001000
00010000
00000100
00001000
00000100
,
00010000
00001000
00000010
00000001
00001000
00000010
00010000
00001000
,
00011000
00000000
00101000
00000000
00110000
00000000
10010000
00000000
10100000
00000000
11000000
00000000
,
10000000
00010000
01000000
00001000
00010000
00000100
00001000
00000000
,
00000001
00001000
00000001
00001000
00000001
00001000
00000001
00001000
00000001
00000000
00000001
00000000
00000010
00000000
00000000
00000000
,
00000001
00000000
00001000
00000000
00000100
00000000
00010000
00000000
00001000
00000000
00100000
00000000
00010000
10000000
00100000
00000000
,
10000000
00010000
10000000
00010000
10000000
00010000
10000000
00010000
10000000
00000000
10000000
00000000
01000000
00100000
00010000
10000000
,
00010000
01000000
00001000
00010000
00000100
00001000
00000001
00000000
,
00001000
00000001
00001000
00000001
00001000
00000001
00001000
00000001
00001000
00000000
00001000
00000000
00000010
00000000
00000000
00000000
,
00001000
00000000
00000010
00000000
00010000
00000000
00001000
00000000
00100000
00000000
00010000
00000000
10000000
00010000
01000000
00000000
,
00010000
10000000
00010000
10000000
00010000
10000000
00010000
10000000
00010000
00000000
00010000
00000000
00100000
01000000
10000000
00010000
,
01000000
00001000
00010000
00000010
00001000
00000001
00000010
00000000
,
00000001
00001000
00000001
00001000
00000001
00001000
00000001
00001000
00000001
00000000
00000001
00000000
00000100
00000000
00000000
00000000
,
00000010
00000000
00001000
00000000
00000100
00000000
00010000
00000000
00001000
00000000
01000000
00000000
00010000
10000000
01000000
00000000
,
10000000
01000000
10000000
01000000
10000000
01000000
10000000
01000000
10000000
00000000
10000000
00000000
00010000
01000000
00100000
10000000
,
00010000
00100000
00001000
00010000
00000100
00001000
00000001
00000000
,
00000100
00000001
00000100
00000001
00000100
00000001
00000100
00000001
00000100
00000000
00000100
00000000
00000010
00000000
00000000
00000000
,
00001000
00000000
00000001
00000000
00000100
00000000
00001000
00000000
00010000
00000000
01000000
00000000
10000000
00010000
01000000
00000000
,
00010000
10000000
00010000
10000000
00010000
10000000
00010000
10000000
00010000
00000000
00010000
00000000
01000000
00100000
10000000
00010000
,
00200000
00000000
01000000
00000000
00310000
10000000
00010000
02000000
,
00000000
00000000
00000000
00000000
03001000
00000000
00010000
00000000
00000100
00000000
00000010
00000000
00000001
00000000
00001000
00000010
,
00010000
00000000
00000200
00000000
00001000
00000000
00000000
00000000
00000010
00000000
00000000
00000000
00001300
00000000
00000100
00010000
,
00002000
00000000
00010000
00000000
01003000
00000000
00001000
01000000
,
00100000
10000000
00100000
02000000
00100000
00000000
03010000
01000000
,
00001000
00000000
00010000
00000000
00000100
00000000
00020000
00000000
00001000
00000000
00000000
00000000
00031000
00010000
00000100
00001000
,
00000001
00000000
00000100
00000001
00000000
00000100
00000001
00000000
00000100
00000001
00000000
00001000
00000001
00000000
00001000
00000000
,
00000020
00000000
00000000
00000000
00002030
00000000
00000000
00000000
00003200
00000000
00000000
00001300
00000100
00010000
00001000
01000000
,
00200000
00000000
10000000
00000000
01300000
00010000
00100000
01000000
,
00100000
00000000
00000000
00000000
00000000
00000000
00010000
00000000
00000000
10000000
00000000
00000000
00010000
00000000
00000000
10000000
00000000
00000000
00000000
00000000
00000000
00010000
00000000
00000000
10000000
00000000
00000000
00000000
01000000
00000000
00000000
00000000
00100000
00000000
00000000
00000000
00001000
00000000
00000000
00000000
00010000
00000000
00000000
00000000
00000100
00000000
00000000
00000000
,
00000002
00000000
00000103
00000000
00010000
00000000
00001000
01000000
,
00000000
00000000
01010000
00000000
00000000
01001000
00000000
00000000
00101000
00000000
00000000
00000000
00001000
00010000
00001000
00010000
,
00000100
00000010
00000001
00000020
00000100
00000000
00000031
00001000
,
00000010
00000000
00000100
00000000
00000001
00000000
00000200
00000000
00000010
00000000
00000000
00000000
00000301
00001000
00000100
00010000
,
00001000
00000000
00100000
00001000
00000000
00100000
00010000
00000000
10000000
00010000
00000000
10000000
00100000
00000000
01000000
00001000
,
00010000
00000000
00000000
00000100
00001000
00000000
00000000
00000100
00000001
00000000
00000100
00000000
00001000
00000000
00000000
00000000
,
00000100
00000000
00000000
00000100
00000000
00000000
00000100
00000000
00010000
00001000
00100000
00000000
00000000
00000000
01000000
00000000
,
10000000
00000000
00010000
00000000
01000000
00010000
01000000
00010000
10000000
01000000
00000000
00000000
00020000
00000000
00000000
00000000
,
01030000
00000000
00100000
00010000
00100000
00002000
00000000
00000000
00013000
00000000
00000000
00010000
00000000
00000000
00010000
00000000
,
00000010
00000000
00001000
00000000
00000001
00000010
00000000
00000000
00000100
00000000
00000100
00000000
00010000
00000000
00001000
00000000
,
02000000
00000000
03010000
10000000
01000000
00000000
00100000
00000000
01000000
10000000
00010000
00000000
00000000
00000000
01000000
00000000
,
00001000
00000000
00010000
00000000
00000100
00010000
00000100
00010000
00001000
00100000
00000000
00000000
20000000
00000000
00000000
00000000
,
30100000
00000000
01000000
10000000
01000000
00200000
00000000
00000000
00301000
00000000
00000000
00001000
00010000
00000000
00000000
00000100
,
00001000
00000000
00000000
00000010
00000100
00000001
00000000
00000000
00001000
00000010
00010000
00001000
00100000
00000000
00010000
00000000
,
10000000
00000000
00100000
00000000
01000000
00000000
00001000
00000000
00010000
00000100
00000010
00000000
00000001
00000000
00001000
00000000
,
00000010
00010000
00001000
00000000
00100000
00000000
01000000
00000000
10000000
00010000
01000000
00000000
00001000
00000000
00010000
00000000
,
00000100
00010000
00000100
00010000
00001000
01000000
00001000
01000000
00010000
10000000
01000000
00100000
00001000
00010000
00000010
00000100
,
00000001
00000100
00000001
00000100
00000001
00000100
00000001
00000100
00000010
00001000
00000010
00001000
00000010
00001000
00000010
00001000
,
00000100
00010000
00000100
00010000
00000100
00010000
00000100
00010000
00000100
00000000
00000100
00000000
00010000
00001000
00100000
00010000
,
20000000
32000000
00000000
00000000
,
00000000
00000000
00000000
00000000
00000000
03200000
00000000
00000000
,
00320000
02030000
00000000
00000000
,
00000000
00000000
00000000
03002000
00000000
00023000
00000000
00000000
,
00030200
00000320
00000100
00000001
,
00000001
00000000
00000100
00000000
00000031
00001000
00000020
00000000
,
00020030
00000000
00000000
00032000
01000000
00000000
01000000
00000000
,
00010000
00000000
00000000
00000000
00010000
00000000
00000000
00000000
01000000
00000000
00000000
00000000
00000000
00000000
00013000
00001000
,
01000000
00100000
10000000
00010000
00100000
00001000
00100000
01000000
,
00100000
00001000
00010000
00000100
00000010
00000001
00000100
00000010
,
00010000
00001000
00100000
00010000
10000000
00100000
01000000
00001000
,
00010000
00000010
00000100
00000001
00000010
00000100
00001000
00000010
,
00020000
00000000
00000000
00032000
00000000
00000000
00003020
00000000
00000000
00002030
00000000
00000000
00023000
00000000
00000000
00230000
,
00000000
00000000
00320000
00000000
00000000
00032000
00000000
00000000
00003020
00000000
00000000
00002030
00000000
00000000
00013000
00000000
,
00001000
00010000
00001000
00010000
00000100
00001000
00000100
00001000
00000001
00000100
00000001
00000100
00000010
00001000
00000010
00001000
,
00000010
00000000
00001010
00000000
00010010
00000000
00011000
00000000
00101000
00000000
00110000
00000000
,
00020000
00000000
00000000
00000000
00000000
10030000
01000000
00200000
,
00000000
00000000
00310000
00000000
00000000
00000000
00100000
00000000
00001000
00010000
00001000
00010000
00001000
00010000
00001000
00010000
,
00000000
00000000
00001000
00000000
00021000
00000000
00000000
00000000
00000100
00000000
00000000
00000000
00031000
00000000
00010000
00000100
,
00002000
00000000
00000010
00000000
00000001
00000000
00003010
00001000
,
00000001
00001000
00000001
00002000
00000100
00000000
00003001
00001000
,
00000010
00000000
00000100
00000000
00000010
00000000
00000200
00000000
00000001
00000000
00000000
00000000
00000310
00001000
00000001
00000010
,
00000100
00000000
00001000
00000100
00000000
00001000
00000100
00000000
00001000
00000100
00000000
00010000
00000100
00000000
00010000
00000000
,
00002000
00000000
00000000
00000000
02003000
00000000
00000000
00000000
03200000
00000000
00000000
10300000
00010000
00100000
01000000
10000000
,
00200000
00000000
01000000
00000000
10300000
00100000
01000000
00020000
,
00000000
00000000
00000000
00000000
00000000
00000000
01030000
00000000
00000000
00001000
00000000
00000000
01000000
00000000
00000000
00001000
00000000
00000000
00000000
00000000
00000000
01000000
00000000
00000000
00001000
00000000
00000000
00000000
00100000
00000000
00000000
00000000
00001000
00000000
00000000
00000000
00010000
00000000
00000000
00000000
00000100
00000000
00000000
00000000
00000010
00000000
00000000
00000000
,
00002000
00000000
00003010
00000000
00000001
00000000
00000100
00000010
,
00000000
00000000
00000110
00000000
00000000
00001010
00000000
00000000
00001100
00000000
00000000
00000000
00001000
00000100
00001000
00000100
,
00000010
00000001
00001000
00000002
00000100
00000000
00001003
00000001
,
00001000
00000000
00000100
00000000
00010000
00000000
00000200
00000000
00001000
00000000
00000000
00000000
00010300
00000100
00100000
00001000
,
10000000
00000000
00010000
01000000
00000000
00001000
01000000
00000000
00001000
00010000
00000000
00000100
00010000
00000000
00000100
00001000
,
00000001
00000000
00000000
00000100
00000010
00000000
00000000
00000001
00000010
00000000
00001000
00000000
00000001
00000010
00000100
00001000
,
00000010
00010000
00001000
00000000
01000000
00100000
10000000
00000000
01000000
00010000
00001000
00000000
01000000
00000000
00000000
00000000
,
02020000
00000000
00000000
03030000
,
00010000
01000000
00010000
01000000
00010000
01000000
00010000
01000000
00010000
00000000
00010000
00000000
20000000
00000000
00000000
00000000
,
31000000
00000000
00010000
00000000
00001000
00000000
00000100
00000000
00000001
00000000
00000010
00000000
00000100
00001000
00000001
00000000
,
00001000
00000010
00001000
00000010
00001000
00000010
00001000
00000010
00001000
00000000
00001000
00000000
00000010
00001000
00000001
00000010
,
00000100
00010000
01000000
10000000
00100000
01000000
00010000
00000000
,
10000000
00100000
10000000
00100000
10000000
00100000
10000000
00100000
10000000
00000000
10000000
00000000
02000000
00000000
00000000
00000000
,
03100000
00000000
00010000
00000000
00000010
00000000
00000100
00000000
00001000
00000000
00000001
00000000
00001000
00000001
00000100
00000000
,
00000001
00000100
00000001
00000100
00000001
00000100
00000001
00000100
00000001
00000000
00000001
00000000
00000010
00000100
00001000
00000001
,
00000000
00001000
00000000
00000000
00001100
00000000
00000000
00000000
00000100
00000000
00010000
00000000
00001000
00000000
00000000
00000000
,
00100000
00001000
00100000
00001000
00100000
00001000
00100000
00001000
00100000
00000000
00100000
00000000
02000000
00000000
00000000
00000000
,
13000000
00000000
01000000
00000000
00010000
00000000
00001000
00000000
00000100
00000000
00000001
00000000
00001000
00000001
00000100
00000000
,
00000001
00001000
00000001
00001000
00000001
00001000
00000001
00001000
00000001
00000000
00000001
00000000
00000010
00000100
00001000
00000001
,
00000000
00000000
00001000
00000010
00010000
00000000
00001000
00000000
00100000
00000000
01000000
00000000
10000000
00000000
00000000
00000000
,
00010000
01000000
00010000
01000000
00010000
01000000
00010000
01000000
00010000
00000000
00010000
00000000
00200000
00000000
00000000
00000000
,
01300000
00010000
00000100
00000010
00000001
00000100
00000010
00000000
,
00010000
00000010
00010000
00000010
00010000
00000010
00010000
00000010
00100000
00001000
00100000
00001000
00100000
00001000
00100000
00001000
,
01000000
00010000
01000000
00010000
01000000
00010000
01000000
00010000
01000000
00000000
01000000
00000000
00100000
10000000
00010000
00100000
,
02000000
03000000
00000000
00000000
00000000
00000000
00000000
00000000
;

//---------------dance-double - BU, FS+, XO+----------------
#NOTEDATA:;
#CHARTNAME:Yeah this exists...;
#CHARTHASH:2595327188;
#STEPSTYPE:dance-double;
#BANNER:;
#DESCRIPTION:BU, FS+, XO+;
#CHARTSTYLE:;
#DIFFICULTY:Edit;
#METER:19;
#METERF:19.000000;
#LASTSECONDHINT:141.452576;
#RADARVALUES:0.852486,1.167116,0.137182,0.418404,0.812802,870.000000,850.000000,20.000000,61.000000,0.000000,0.000000,0.000000,0.000000,0.000000,0.852486,1.167116,0.137182,0.418404,0.812802,870.000000,850.000000,20.000000,61.000000,0.000000,0.000000,0.000000,0.000000,0.000000;
#CREDIT:Yosefu feat. FS;
#NOTES:
00000000
00000000
00000000
00000000
,
00000000
00000000
00000000
00000000
,
00000000
00000000
00000000
00000000
,
00000000
00000000
00000000
00000000
,
00010000
00001000
00100000
00001000
00010000
00000010
00001000
00000010
,
00010000
00001000
01000000
00001000
00010000
00000100
00001000
00000100
,
00010000
00001000
00000010
00000001
00001000
00000010
00010000
00001000
,
00011000
00000000
00101000
00000000
00110000
00000000
10010000
00000000
10100000
00000000
11000000
00000000
,
10000000
00010000
01000000
00001000
00010000
00000100
00001000
00000000
,
00000100
00000100
00000100
00000100
00000100
00000100
00000100
00000100
00000001
00000000
00000001
00000000
00000010
00000000
00000000
00000000
,
00000001
00000000
00001000
00000000
00000100
00000000
00010000
00000000
00001000
00000000
00100000
00000000
00010000
10000000
00100000
00000000
,
01000000
01000000
01000000
01000000
01000000
01000000
01000000
01000000
10000000
00000000
10000000
00000000
01000000
00100000
00010000
10000000
,
00010000
01000000
00001000
00010000
00000100
00001000
00000001
00000000
,
00000010
00000010
00000010
00000010
00000010
00000010
00000010
00000010
00001000
00000000
00001000
00000000
00000010
00000000
00000000
00000000
,
00001000
00000000
00000010
00000000
00010000
00000000
00001000
00000000
00100000
00000000
00010000
00000000
10000000
00010000
00100000
00000000
,
01000000
01000000
01000000
01000000
01000000
01000000
01000000
01000000
00010000
00000000
00010000
00000000
00100000
01000000
10000000
00010000
,
01000000
00001000
00010000
00000010
00001000
00000001
00000010
00000000
,
00000100
00000100
00000100
00000100
00000100
00000100
00000100
00000100
00000001
00000000
00000001
00000000
00000100
00000000
00000000
00000000
,
00000010
00000000
00001000
00000000
00000100
00000000
00010000
00000000
00001000
00000000
01000000
00000000
00010000
10000000
01000000
00000000
,
00100000
00100000
00100000
00100000
00100000
00100000
00100000
00100000
10000000
00000000
10000000
00000000
00010000
01000000
00100000
10000000
,
00010000
00100000
00001000
00010000
00000100
00001000
00000001
00000000
,
00000100
00000100
00000100
00000100
00000100
00000100
00000100
00000100
00001000
00000000
00001000
00000000
00000010
00000000
00000000
00000000
,
00001000
00000000
00000001
00000000
00000100
00000000
00001000
00000000
00010000
00000000
01000000
00000000
10000000
00010000
00100000
00000000
,
01000000
01000000
01000000
01000000
01000000
01000000
01000000
01000000
00010000
00000000
00010000
00000000
01000000
00100000
10000000
00010000
,
00200000
00000000
01000000
00000000
00310000
10000000
00010000
02000000
,
00000000
00000000
00000000
00000000
03001000
00000000
00010000
00000000
00000100
00000000
00000010
00000000
00000001
00000000
00001000
00000010
,
00010000
00000000
00000200
00000000
00001000
00000000
00000000
00000000
00000010
00000000
00000000
00000000
00001300
00000000
00000100
00010000
,
00002000
00000000
00010000
00000000
01003000
00000000
00001000
01000000
,
00100000
10000000
00100000
02000000
00100000
00000000
03010000
01000000
,
00001000
00000000
00010000
00000000
00000100
00000000
00020000
00000000
00001000
00000000
00000000
00000000
00031000
00010000
00000100
00001000
,
00000001
00000000
00000100
00000001
00000000
00000100
00000001
00000000
00000100
00000001
00000000
00001000
00000001
00000000
00001000
00000000
,
00000020
00000000
00000000
00000000
00002030
00000000
00000000
00000000
00003200
00000000
00000000
00001300
00000100
00010000
00001000
01000000
,
00200000
00000000
10000000
00000000
01300000
00010000
00100000
01000000
,
00100000
00000000
00000000
00000000
00000000
00000000
00010000
00000000
00000000
10000000
00000000
00000000
00010000
00000000
00000000
10000000
00000000
00000000
00000000
00000000
00000000
00010000
00000000
00000000
10000000
00000000
00000000
00000000
01000000
00000000
00000000
00000000
00100000
00000000
00000000
00000000
00001000
00000000
00000000
00000000
00010000
00000000
00000000
00000000
00000100
00000000
00000000
00000000
,
00000002
00000000
00000103
00000000
00010000
00000000
00001000
01000000
,
00000000
00000000
01010000
00000000
00000000
01001000
00000000
00000000
00101000
00000000
00000000
00000000
00001000
00010000
00001000
00010000
,
00000100
00000010
00000001
00000020
00000100
00000000
00000031
00001000
,
00000010
00000000
00000100
00000000
00000001
00000000
00000200
00000000
00000010
00000000
00000000
00000000
00000301
00001000
00000100
00010000
,
00001000
00000000
00100000
00001000
00000000
00100000
00010000
00000000
10000000
00010000
00000000
10000000
00100000
00000000
01000000
00001000
,
00010000
00000000
00000000
00000100
00001000
00000000
00000000
00000100
00000001
00000000
00000100
00000000
00001000
00000000
00000000
00000000
,
00000100
00000000
00000000
00000100
00000000
00000000
00000100
00000000
00010000
00001000
00100000
00000000
00000000
00000000
01000000
00000000
,
10000000
00000000
00010000
00000000
01000000
00010000
01000000
00010000
10000000
01000000
00000000
00000000
00020000
00000000
00000000
00000000
,
01030000
00000000
00100000
00010000
00100000
00002000
00000000
00000000
00013000
00000000
00000000
00010000
00000000
00000000
00010000
00000000
,
00000010
00000000
00001000
00000000
00000001
00000010
00000000
00000000
00000100
00000000
00000100
00000000
00010000
00000000
00001000
00000000
,
02000000
00000000
03010000
10000000
01000000
00000000
00100000
00000000
01000000
10000000
00010000
00000000
00000000
00000000
01000000
00000000
,
00001000
00000000
00010000
00000000
00000100
00010000
00000100
00010000
00001000
00100000
00000000
00000000
20000000
00000000
00000000
00000000
,
30100000
00000000
01000000
10000000
01000000
00200000
00000000
00000000
00301000
00000000
00000000
00001000
00010000
00000000
00000000
00000100
,
00001000
00000000
00000000
00000010
00000100
00000001
00000000
00000000
00001000
00000010
00010000
00001000
00100000
00000000
00010000
00000000
,
10000000
00000000
00100000
00000000
01000000
00000000
00001000
00000000
00010000
00000100
00000010
00000000
00000001
00000000
00001000
00000000
,
00000010
00010000
00001000
00000000
00100000
00000000
01000000
00000000
10000000
00010000
01000000
00000000
00001000
00000000
00010000
00000000
,
00000100
00010000
00000100
00010000
00001000
01000000
00001000
01000000
00010000
10000000
01000000
00100000
00001000
00010000
00000010
00000100
,
00000010
00000010
00000010
00000010
00000010
00000010
00000010
00000010
00000100
00000100
00000100
00000100
00000100
00000100
00000100
00000100
,
00000001
00000001
00000001
00000001
00000001
00000001
00000001
00000001
00000100
00000000
00000100
00000000
00010000
00001000
00100000
00010000
,
20000000
32000000
00000000
00000000
,
00000000
00000000
00000000
00000000
00000000
03200000
00000000
00000000
,
00320000
02030000
00000000
00000000
,
00000000
00000000
00000000
03002000
00000000
00023000
00000000
00000000
,
00030200
00000320
00000100
00000001
,
00000001
00000000
00000100
00000000
00000031
00001000
00000020
00000000
,
00020030
00000000
00000000
00032000
01000000
00000000
01000000
00000000
,
00010000
00000000
00000000
00000000
00010000
00000000
00000000
00000000
01000000
00000000
00000000
00000000
00000000
00000000
00013000
00001000
,
01000000
00100000
10000000
00010000
00100000
00001000
00100000
01000000
,
00100000
00001000
00010000
00000100
00000010
00000001
00000100
00000010
,
00010000
00001000
00100000
00010000
10000000
00100000
01000000
00001000
,
00010000
00000010
00000100
00000001
00000010
00000100
00001000
00000010
,
00020000
00000000
00000000
00032000
00000000
00000000
00003020
00000000
00000000
00002030
00000000
00000000
00023000
00000000
00000000
00230000
,
00000000
00000000
00320000
00000000
00000000
00032000
00000000
00000000
00003020
00000000
00000000
00002030
00000000
00000000
00013000
00000000
,
00001000
00010000
00001000
00010000
00000100
00001000
00000100
00001000
00000001
00000100
00000001
00000100
00000010
00001000
00000010
00001000
,
00000010
00000000
00001010
00000000
00010010
00000000
00011000
00000000
00101000
00000000
00110000
00000000
,
00020000
00000000
00000000
00000000
00000000
10030000
01000000
00200000
,
00000000
00000000
00310000
00000000
00000000
00000000
00100000
00000000
00001000
00010000
00001000
00010000
00001000
00010000
00001000
00010000
,
00000000
00000000
00001000
00000000
00021000
00000000
00000000
00000000
00000100
00000000
00000000
00000000
00031000
00000000
00010000
00000100
,
00002000
00000000
00000010
00000000
00000001
00000000
00003010
00001000
,
00000001
00001000
00000001
00002000
00000100
00000000
00003001
00001000
,
00000010
00000000
00000100
00000000
00000010
00000000
00000200
00000000
00000001
00000000
00000000
00000000
00000310
00001000
00000001
00000010
,
00000100
00000000
00001000
00000100
00000000
00001000
00000100
00000000
00001000
00000100
00000000
00010000
00000100
00000000
00010000
00000000
,
00002000
00000000
00000000
00000000
02003000
00000000
00000000
00000000
03200000
00000000
00000000
10300000
00010000
00100000
01000000
10000000
,
00200000
00000000
01000000
00000000
10300000
00100000
01000000
00020000
,
00000000
00000000
00000000
00000000
00000000
00000000
01030000
00000000
00000000
00001000
00000000
00000000
01000000
00000000
00000000
00001000
00000000
00000000
00000000
00000000
00000000
01000000
00000000
00000000
00001000
00000000
00000000
00000000
00100000
00000000
00000000
00000000
00001000
00000000
00000000
00000000
00010000
00000000
00000000
00000000
00000100
00000000
00000000
00000000
00000010
00000000
00000000
00000000
,
00002000
00000000
00003010
00000000
00000001
00000000
00000100
00000010
,
00000000
00000000
00000110
00000000
00000000
00001010
00000000
00000000
00001100
00000000
00000000
00000000
00001000
00000100
00001000
00000100
,
00000010
00000001
00001000
00000002
00000100
00000000
00001003
00000001
,
00001000
00000000
00000100
00000000
00010000
00000000
00000200
00000000
00001000
00000000
00000000
00000000
00010300
00000100
00100000
00001000
,
10000000
00000000
00010000
01000000
00000000
00001000
01000000
00000000
00001000
00010000
00000000
00000100
00010000
00000000
00000100
00001000
,
00000001
00000000
00000000
00000100
00000010
00000000
00000000
00000001
00000010
00000000
00001000
00000000
00000001
00000010
00000100
00001000
,
00000010
00001000
00000010
00001000
00000000
00000000
00000100
00010000
00000100
00010000
00000000
00000000
00001000
01000000
00001000
01000000
00000000
00000000
00100000
00000000
00000000
00000000
00000000
00000000
,
20200000
00000000
00000000
30300000
,
00100000
00100000
00100000
00100000
00100000
00100000
00100000
00100000
01000000
00000000
01000000
00000000
20000000
00000000
00000000
00000000
,
31000000
00000000
00010000
00000000
00001000
00000000
00000100
00000000
00000001
00000000
00000010
00000000
00000100
00001000
00000001
00000000
,
00000100
00000100
00000100
00000100
00000100
00000100
00000100
00000100
00001000
00000000
00001000
00000000
00000010
00001000
00000001
00000010
,
00000100
00010000
00100000
10000000
01000000
00100000
00010000
00000000
,
01000000
01000000
01000000
01000000
01000000
01000000
01000000
01000000
10000000
00000000
10000000
00000000
02000000
00000000
00000000
00000000
,
03100000
00000000
00010000
00000000
00001000
00000000
00000100
00000000
00000010
00000000
00000001
00000000
00001000
00000001
00000100
00000000
,
00000010
00000010
00000010
00000010
00000010
00000010
00000010
00000010
00000001
00000000
00000001
00000000
00000010
00000100
00001000
00000001
,
00000000
00001000
00000000
00000000
00001100
00000000
00000000
00000000
00000100
00000000
00010000
00000000
00001000
00000000
00000000
00000000
,
00100000
00100000
00100000
00100000
00100000
00100000
00100000
00100000
10000000
00000000
10000000
00000000
02000000
00000000
00000000
00000000
,
13000000
00000000
01000000
00000000
00010000
00000000
00001000
00000000
00000100
00000000
00000001
00000000
00001000
00000001
00000100
00000000
,
00000010
00000010
00000010
00000010
00000010
00000010
00000010
00000010
00000001
00000000
00000001
00000000
00000010
00000100
00001000
00000001
,
00000000
00000000
00001000
00000010
00010000
00000000
00001000
00000000
00100000
00000000
01000000
00000000
10000000
00000000
00000000
00000000
,
01000000
01000000
01000000
01000000
01000000
01000000
01000000
01000000
00010000
00000000
00010000
00000000
00200000
00000000
00000000
00000000
,
01300000
00010000
00000100
00000010
00000001
00000100
00000010
00000000
,
00010000
00010000
00010000
00010000
00010000
00010000
00010000
00010000
00100000
00100000
00100000
00100000
00100000
00100000
00100000
00100000
,
01000000
01000000
01000000
01000000
01000000
01000000
01000000
01000000
10000000
00000000
10000000
00000000
00100000
10000000
00010000
00100000
,
02000000
03000000
00000000
00000000
00000000
00000000
00000000
00000000
;
