#VERSION:0.83;
#TITLE:Line 4 Ruin;
#SUBTITLE:;
#ARTIST:Ryu☆;
#TITLETRANSLIT:;
#SUBTITLETRANSLIT:;
#ARTISTTRANSLIT:;
#GENRE:ELECTRO TECH;
#ORIGIN:beatmania IIDX 22 PENDUAL;
#TAGS:;
#CREDIT:;
#BANNER:Line 4 Ruin.png;
#BACKGROUND:Line 4 Ruin-bg.png;
#PREVIEWVID:;
#JACKET:Line 4 Ruin-jacket.png;
#CDIMAGE:;
#DISCIMAGE:;
#LYRICSPATH:;
#CDTITLE:../_YSD cdtitles/ysd sc2023 cdtitle.png;
#MUSIC:Line 4 Ruin.ogg;
#OFFSET:-0.084000;
#SAMPLESTART:71.572998;
#SAMPLELENGTH:13.617000;
#SELECTABLE:YES;
#BPMS:0.000000=141.000000
;
#STOPS:;
#DELAYS:;
#WARPS:;
#TIMESIGNATURES:0.000000=4=4
;
#TICKCOUNTS:0.000000=4
;
#COMBOS:0.000000=1
;
#SPEEDS:0.000000=1.000000=0.000000=0
;
#SCROLLS:0.000000=1.000000
;
#FAKES:;
#LABELS:0.000000=Song Start
;
#BGCHANGES:;
#KEYSOUNDS:;
#ATTACKS:
;

//---------------dance-single - ----------------
#NOTEDATA:;
#CHARTNAME:;
#CHARTHASH:618693513;
#STEPSTYPE:dance-single;
#BANNER:;
#DESCRIPTION:;
#CHARTSTYLE:;
#DIFFICULTY:Beginner;
#METER:2;
#METERF:0.000000;
#LASTSECONDHINT:111.998901;
#RADARVALUES:0.117701,0.172888,0.035060,0.008765,0.000000,94.000000,90.000000,4.000000,1.000000,0.000000,0.000000,0.000000,0.000000,0.000000,0.117701,0.172888,0.035060,0.008765,0.000000,94.000000,90.000000,4.000000,1.000000,0.000000,0.000000,0.000000,0.000000,0.000000;
#CREDIT:YOSEFU;
#NOTES:
// measure 0
0000
0000
0000
0000
,  // measure 1
0000
0000
0000
0000
,  // measure 2
0000
0000
0000
0000
,  // measure 3
0000
0000
0000
0000
,  // measure 4
0000
0000
0000
0000
,  // measure 5
0000
0000
0000
0000
,  // measure 6
0000
0000
0000
0000
,  // measure 7
0000
0000
0000
0000
,  // measure 8
0000
0000
0000
0000
,  // measure 9
1001
0000
0001
0000
,  // measure 10
1000
0000
0010
0000
,  // measure 11
1000
0000
0001
0000
,  // measure 12
0010
0000
0100
0000
,  // measure 13
1000
0000
0001
0000
,  // measure 14
0100
0000
0001
0000
,  // measure 15
1000
0000
0001
0000
,  // measure 16
1000
0000
0001
0000
,  // measure 17
0200
0000
0300
0000
,  // measure 18
0110
0000
0001
0000
,  // measure 19
1000
0000
0001
0000
,  // measure 20
0010
0000
0100
0000
,  // measure 21
0010
0000
0001
0000
,  // measure 22
1000
0000
0010
0000
,  // measure 23
0100
0000
0010
0000
,  // measure 24
1000
0000
0100
0000
,  // measure 25
0010
0000
0001
0000
,  // measure 26
1000
0000
0000
0000
0000
0000
0000
1000
,  // measure 27
0000
0000
0000
0000
,  // measure 28
0100
0000
0000
0000
0000
0000
0000
0100
,  // measure 29
0000
0000
0000
0000
,  // measure 30
0010
0000
0000
0000
0000
0000
0000
0010
,  // measure 31
0000
0000
0000
0000
,  // measure 32
0001
0000
0000
0000
0000
0000
0000
0001
,  // measure 33
0000
0000
0000
0000
,  // measure 34
0100
0000
0000
0000
,  // measure 35
0010
0000
0000
0000
,  // measure 36
1000
0000
0000
0000
,  // measure 37
0100
0000
0000
0000
,  // measure 38
0010
0000
0000
0000
,  // measure 39
0001
0000
0000
0000
,  // measure 40
1000
0000
0000
0000
,  // measure 41
0010
0000
0000
0000
,  // measure 42
0110
0000
0100
0000
,  // measure 43
0010
0000
1000
0000
,  // measure 44
0001
0000
0010
0000
,  // measure 45
0100
0000
1000
0000
,  // measure 46
0001
0000
0100
0000
,  // measure 47
0010
0000
0100
0000
,  // measure 48
0001
0000
1000
0000
,  // measure 49
0100
0000
0010
0000
,  // measure 50
1001
0000
0001
0000
,  // measure 51
0100
0000
0010
0000
,  // measure 52
1000
0000
0100
0000
,  // measure 53
0010
0000
0001
0000
,  // measure 54
1000
0000
0010
0000
,  // measure 55
0100
0000
0001
0000
,  // measure 56
1000
0000
0100
0000
,  // measure 57
0010
0000
0001
0000
,  // measure 58
1000
0000
0000
0000
0000
0000
0000
1000
,  // measure 59
0000
0000
0000
0000
,  // measure 60
0010
0000
0000
0000
0000
0000
0000
0010
,  // measure 61
0000
0000
0000
0000
,  // measure 62
0100
0000
0000
0000
0000
0000
0000
0100
,  // measure 63
0000
0000
0000
0000
,  // measure 64
0001
0000
0000
0000
0000
0000
0000
0010
,  // measure 65
0000
0000
0000
0100
;

//---------------dance-single - ----------------
#NOTEDATA:;
#CHARTNAME:;
#CHARTHASH:1128461812;
#STEPSTYPE:dance-single;
#BANNER:;
#DESCRIPTION:;
#CHARTSTYLE:;
#DIFFICULTY:Easy;
#METER:5;
#METERF:0.000000;
#LASTSECONDHINT:111.998901;
#RADARVALUES:0.246670,0.345777,0.113944,0.166534,0.000000,197.000000,184.000000,13.000000,19.000000,0.000000,0.000000,0.000000,0.000000,0.000000,0.246670,0.345777,0.113944,0.166534,0.000000,197.000000,184.000000,13.000000,19.000000,0.000000,0.000000,0.000000,0.000000,0.000000;
#CREDIT:YOSEFU;
#NOTES:
0000
0000
0000
0000
,
0000
0000
0000
0000
,
0000
0000
0000
0000
,
0000
0000
0000
0000
,
0000
0000
0000
0000
,
0000
0000
0000
0000
,
0000
0000
0000
0000
,
0000
0000
0000
0000
,
0000
0000
0000
0000
,
1000
0001
0100
0001
,
0011
0100
1010
1000
,
0001
0100
0001
1000
,
0100
0010
0001
1001
,
1000
0010
0100
0001
,
1001
0100
0110
0001
,
1000
0010
0100
0001
,
1000
0100
0010
0110
,
2000
0000
0000
3000
,
0002
0000
0203
0000
,
0310
1000
0101
0000
,
0001
0000
0000
1000
0000
1000
0000
0001
,
0000
0001
0000
0000
0002
0000
0000
0000
,
1003
0000
0000
0001
0000
0001
0000
0100
,
0000
0100
0000
0000
0010
0000
1000
0000
,
0100
0000
0000
0010
0000
0010
0000
0001
,
0000
0001
0000
0000
0000
0000
1001
0000
,
1000
0000
0000
0001
0000
0000
0000
1000
,
0000
0001
1000
0001
,
0100
0000
0000
0010
0000
0000
0000
1000
,
0000
0000
0100
0010
,
0001
0000
0000
0010
0000
0000
0000
0100
,
0000
1000
0100
0010
,
0001
0000
0000
0100
0000
0000
0000
0010
,
0000
0000
1000
0001
,
1000
0000
0001
0000
,
1000
0001
0100
0010
,
1000
0000
0100
0000
,
0010
0100
1000
0001
,
0100
1000
0100
0001
,
0010
1000
0010
0100
,
1000
0001
0100
0010
,
1000
0001
0010
0100
,
1100
1000
1001
0001
,
0100
0010
0001
0010
,
1000
0000
0000
0001
0000
0000
0000
1000
,
0000
0100
0010
0001
,
1001
1000
1010
0010
,
0001
0010
1000
0100
,
0010
0000
0000
0001
0000
0000
0000
1000
,
0000
0010
0100
0100
,
0101
0001
1000
0001
,
0010
0100
0001
0100
,
1000
0001
0100
0010
,
1000
0100
0001
0100
,
1000
0001
0100
0010
,
0001
0010
1000
0100
,
0001
1000
0010
0001
,
1000
0010
0001
0010
,
0200
0000
0302
0000
,
2003
0000
3200
0000
,
0320
0000
0032
0000
,
0203
0000
0320
0000
,
2030
0000
3002
0000
,
0023
0000
0230
0000
,
0302
0000
0203
0000
,
2300
0000
3010
0010
;

//---------------dance-single - ----------------
#NOTEDATA:;
#CHARTNAME:;
#CHARTHASH:1799161184;
#STEPSTYPE:dance-single;
#BANNER:;
#DESCRIPTION:;
#CHARTSTYLE:;
#DIFFICULTY:Medium;
#METER:10;
#METERF:0.000000;
#LASTSECONDHINT:111.998901;
#RADARVALUES:0.351849,0.489850,0.262948,0.157769,0.030677,281.000000,251.000000,30.000000,18.000000,0.000000,0.000000,0.000000,0.000000,0.000000,0.351849,0.489850,0.262948,0.157769,0.030677,281.000000,251.000000,30.000000,18.000000,0.000000,0.000000,0.000000,0.000000,0.000000;
#CREDIT:YOSEFU;
#NOTES:
0000
0000
0000
0000
,
0000
0000
0000
0000
,
0000
0000
0000
0000
,
0000
0000
0000
0000
,
0000
0000
0000
0000
,
0000
0000
0000
0000
,
0000
0000
0000
0000
,
0000
0000
0000
0000
,
0000
0000
0000
0000
,
1000
0001
0100
0000
0110
0000
1010
0000
,
1000
0100
0010
0000
0011
0000
1001
0000
,
0001
0100
0010
0000
1010
0000
1001
0000
,
0001
0010
0100
0000
1100
0000
1001
0000
,
0001
0100
0010
0000
1010
0000
1001
0000
,
0001
0010
0100
0000
1100
0000
1010
0000
,
0010
0100
0001
0000
0011
0000
1001
0000
,
1000
0100
0010
0000
0011
0000
1001
0000
,
2000
0000
0000
0000
,
3020
0000
0230
0000
,
0301
0100
1000
0100
0020
0000
1000
0000
,
0230
0000
0000
0001
0000
1000
0000
0010
,
0000
0301
2000
0000
0100
0000
3001
0000
,
0020
0000
0000
1000
0000
0100
0000
0001
,
0000
0130
2000
0000
0001
0000
3100
0000
,
0020
0000
0000
0001
0000
1000
0000
0001
,
0000
0130
2000
0000
0010
0000
3001
0001
,
0100
0000
0000
0010
0000
0010
0000
1000
,
0000
0001
0010
0100
,
1000
0000
0000
0001
0000
0001
0000
0100
,
0000
0100
0010
0000
0010
1000
1000
0000
,
0100
0000
0000
0010
0000
0010
0000
0001
,
0000
0100
0010
1000
,
0100
0000
0000
0001
0000
0000
0100
1000
,
0000
0001
0100
0000
0010
0000
0000
0000
,
1000
0010
0100
0001
,
1000
0100
0000
0100
0000
1000
0001
0000
,
0100
0000
0001
1000
0000
0001
0010
0000
,
0100
0000
1000
0001
0000
1000
0010
0000
,
0100
0001
1000
0100
,
0010
0100
0000
0100
0000
0010
0001
0000
,
1000
0000
0001
0100
0000
0001
1000
0000
,
0001
0000
0010
0100
0000
0000
1000
0000
,
1001
0000
0101
0000
1001
0000
1000
0100
,
0010
0011
1100
1001
,
0101
0000
0001
0100
0000
0001
1000
0000
,
0001
0000
0010
0001
0000
1000
0001
0000
,
0101
0000
1001
0000
1100
0000
0001
1000
,
0010
0110
0101
1100
,
1001
0000
0001
0100
0000
1000
0100
0000
,
0010
1000
0000
0001
0010
0000
0100
0000
,
2000
0001
0100
0010
,
3002
0100
0010
1000
,
0203
1000
0010
0001
,
0320
1000
0100
0001
,
2030
0100
0001
0010
,
3200
0001
0010
1000
,
0320
0001
0100
1000
,
0032
0010
0100
1000
,
0103
0000
0001
0000
0100
0000
0000
0001
0000
0000
0000
0000
1000
0000
0000
0000
,
0100
0000
0010
0000
0100
0000
0000
1000
0000
0000
0000
0000
0001
0000
0000
0000
,
0100
0000
0010
0000
0100
0000
0000
0010
0000
0000
0000
0000
1000
0000
0000
0000
,
0001
0010
0001
0000
0010
0000
0100
0000
,
1000
0000
0001
0000
1000
0000
0000
0100
0000
0000
0000
0000
0001
0000
0000
0000
,
0100
0000
1000
0000
0010
0000
0000
0100
0000
0000
0000
0000
0001
0000
0000
0000
,
0010
0000
0100
0000
0001
0000
0000
0100
0000
0000
0000
0000
1000
0000
0000
0000
,
0001
0000
0100
0000
0010
0000
0000
1000
0000
0000
0000
0000
0100
0000
0000
0000
;

//---------------dance-single - ----------------
#NOTEDATA:;
#CHARTNAME:;
#CHARTHASH:3090299760;
#STEPSTYPE:dance-single;
#BANNER:;
#DESCRIPTION:;
#CHARTSTYLE:;
#DIFFICULTY:Hard;
#METER:13;
#METERF:0.000000;
#LASTSECONDHINT:111.998901;
#RADARVALUES:0.524644,0.547480,0.113944,0.236653,0.315538,419.000000,406.000000,13.000000,27.000000,0.000000,0.000000,0.000000,0.000000,0.000000,0.524644,0.547480,0.113944,0.236653,0.315538,419.000000,406.000000,13.000000,27.000000,0.000000,0.000000,0.000000,0.000000,0.000000;
#CREDIT:Yosefu in Ruins;
#NOTES:
0000
0000
0000
0000
,
0000
0000
0000
0000
,
0000
0000
0000
0000
,
0000
0000
0000
0000
,
0000
0000
0000
0000
,
0000
0000
0000
0000
,
0000
0000
0000
0000
,
0000
0000
0000
0000
,
0000
0000
0000
0000
,
1000
0000
0001
0000
0100
0001
0000
1000
0000
0000
0001
0000
0010
0000
0001
0000
,
1000
0000
0010
0000
0100
0001
0000
1000
0000
0001
0010
0000
0100
0000
1000
0000
,
0001
0000
0100
0000
0010
1000
0000
0001
0000
0000
0010
0000
0100
0000
1000
0000
,
0001
0000
0100
0000
0010
0100
0000
0001
0000
1000
0100
0000
0010
0000
0100
0000
,
0001
0000
0100
0000
1000
0001
0000
0100
0000
0010
1000
0000
0001
0000
0010
0000
,
0100
0000
1000
0000
0001
0100
0000
0010
0000
1000
0001
0000
1000
0000
0100
0000
,
0001
0000
0100
0000
0010
0001
0000
1000
0000
0000
0010
0000
0100
0000
0001
0000
,
1000
0000
0100
0000
0010
0001
0000
1000
0000
0010
0100
0000
0002
0000
0000
0000
,
2003
0000
0000
0200
0300
0200
0300
3001
,
1002
0000
1003
0010
0002
0000
0023
0000
,
0130
0001
0100
0001
0100
0000
0000
0000
0020
0000
1030
0000
0001
0000
0000
0000
,
0012
0000
1003
0010
0100
0001
0010
1000
,
0010
0000
0001
0000
0200
0000
0000
0000
0301
1000
0001
1000
0002
0000
0000
0000
,
0103
0010
1000
0100
1000
0001
0100
1000
,
0100
0000
0001
0000
1000
0000
0100
0000
0010
0001
0010
0001
0020
0000
0000
0000
,
0031
0100
0010
1000
0001
1000
0100
0001
,
0100
0000
0010
0000
0001
0000
1000
0000
0001
1000
0001
1000
0001
0000
0100
0000
,
0002
0000
0000
0200
0300
0200
0300
2003
,
0000
0000
0020
0030
0002
0003
0100
0100
,
3002
0000
0000
0020
0030
0020
0030
0203
,
0000
0310
1000
0000
0001
0010
0010
0100
,
2000
0000
0000
0200
0300
0200
0300
3002
,
0000
0010
1000
0100
,
0023
0000
0000
0100
0000
0000
0031
1000
,
0000
0001
0100
0000
0010
0000
0000
0000
,
1000
0010
0001
0010
,
0100
0001
1000
0100
0000
0010
0001
0000
,
1000
0000
0001
0100
0000
0001
1000
0001
,
0100
0000
0010
1000
0010
0100
0001
0000
,
1000
0100
0001
0100
,
0010
0001
0100
0001
1000
0100
0001
0100
,
1000
0001
0010
0001
0100
0010
1000
0100
,
1000
0010
0100
0001
0010
0100
1000
0000
,
1010
1001
0011
0110
,
0100
1000
0001
0100
0010
1000
1001
0000
,
0011
0000
0010
0100
1000
0001
0100
0010
,
1010
0000
1000
0001
0010
0001
0100
0100
,
0110
1010
1001
0011
,
0010
0001
0100
0010
1000
0100
0001
0100
,
1000
0000
0001
1000
0010
0100
0001
0010
,
0001
0100
1000
0100
0010
1000
0100
0100
,
1000
0000
0001
0000
0010
0001
0000
1000
0000
0000
0001
0000
0100
0000
0001
0000
,
1000
0000
0100
0000
0010
0001
0000
1000
0000
0001
0100
0000
0010
0000
1000
0000
,
0001
0000
0010
0000
0100
1000
0000
0001
0000
0000
0100
0000
0010
0000
1000
0000
,
0001
0000
0010
0000
0100
0010
0000
0001
0000
1000
0010
0000
0100
0000
0010
0000
,
0001
0000
0010
0000
1000
0001
0000
0010
0000
0100
1000
0000
0001
0000
0100
0000
,
0010
0000
1000
0000
0001
0010
0000
0100
0000
1000
0001
0000
1000
0000
0010
0000
,
0001
0000
0010
0000
0100
0001
0000
1000
0000
0000
0100
0000
0010
0000
0001
0000
,
1000
0000
0010
0000
0100
0001
0000
1000
0000
0100
0010
0000
0001
0000
0001
0000
,
0100
0000
0010
0000
1000
0001
0000
0010
0000
0000
0100
0000
1000
0000
0001
0000
,
0100
0000
0001
0000
1000
0100
0000
0010
0000
0100
1000
0000
0001
0000
0100
0000
,
0010
0000
1000
0000
0001
0010
0000
0100
0000
0000
1000
0000
0010
0000
0100
0000
,
0001
0000
0010
0000
0001
1000
0000
0010
0000
0100
0001
0000
0010
0000
0100
0000
,
0001
0000
0100
0000
1000
0010
0000
0100
0000
0001
1000
0000
0100
0000
0010
0000
,
0001
0000
1000
0000
0010
0100
0000
0001
0000
0010
0100
0000
1000
0000
0010
0000
,
0001
0000
0010
0000
0100
0001
0000
1000
0000
0100
0010
0000
0001
0000
1000
0000
,
0010
0000
0100
0000
0001
0010
0000
0100
0000
1000
0001
0000
0100
0000
0000
0000
;

//---------------dance-double - ----------------
#NOTEDATA:;
#CHARTNAME:;
#CHARTHASH:4067039304;
#STEPSTYPE:dance-double;
#BANNER:;
#DESCRIPTION:;
#CHARTSTYLE:;
#DIFFICULTY:Beginner;
#METER:2;
#METERF:0.000000;
#LASTSECONDHINT:111.998901;
#RADARVALUES:0.117701,0.172888,0.035060,0.000000,0.000000,94.000000,90.000000,4.000000,0.000000,0.000000,0.000000,0.000000,0.000000,0.000000,0.117701,0.172888,0.035060,0.000000,0.000000,94.000000,90.000000,4.000000,0.000000,0.000000,0.000000,0.000000,0.000000,0.000000;
#CREDIT:YOSEFU;
#NOTES:
00000000
00000000
00000000
00000000
,
00000000
00000000
00000000
00000000
,
00000000
00000000
00000000
00000000
,
00000000
00000000
00000000
00000000
,
00000000
00000000
00000000
00000000
,
00000000
00000000
00000000
00000000
,
00000000
00000000
00000000
00000000
,
00000000
00000000
00000000
00000000
,
00000000
00000000
00000000
00000000
,
00010000
00000000
00001000
00000000
,
01000000
00000000
00010000
00000000
,
10000000
00000000
00010000
00000000
,
01000000
00000000
00001000
00000000
,
00010000
00000000
00000100
00000000
,
00001000
00000000
00000001
00000000
,
00000100
00000000
00000010
00000000
,
00001000
00000000
00000001
00000000
,
00000010
00000000
00000000
00000000
,
00000110
00000000
00001000
00000000
,
00000001
00000000
00000100
00000000
,
00000010
00000000
00010000
00000000
,
00001000
00000000
00100000
00000000
,
00010000
00000000
10000000
00000000
,
00100000
00000000
01000000
00000000
,
00010000
00000000
10000000
00000000
,
01000000
00000000
00100000
00000000
,
01100000
00000000
00000000
00000000
,
01000000
00000000
00000000
00000000
,
10000000
00000000
00000000
00000000
,
00010000
00000000
00000000
00000000
,
01000000
00000000
00000000
00000000
,
00001000
00000000
00000000
00000000
,
00010000
00000000
00000000
00000000
,
00000100
00000000
00000000
00000000
,
00000010
00000000
00000000
00000000
,
00000001
00000000
00000000
00000000
,
00001000
00000000
00000000
00000000
,
00000010
00000000
00000000
00000000
,
00000100
00000000
00000000
00000000
,
00000010
00000000
00000000
00000000
,
00010000
00000000
00000000
00000000
,
00001000
00000000
00000000
00000000
,
00011000
00000000
00010000
00000000
,
00001000
00000000
01000000
00000000
,
00010000
00000000
00100000
00000000
,
01000000
00000000
10000000
00000000
,
01000000
00000000
00100000
00000000
,
00010000
00000000
01000000
00000000
,
00100000
00000000
10000000
00000000
,
00010000
00000000
10000000
00000000
,
01100000
00000000
00010000
00000000
,
10000000
00000000
00010000
00000000
,
01000000
00000000
00001000
00000000
,
00010000
00000000
00000100
00000000
,
00001000
00000000
00000001
00000000
,
00000100
00000000
00000010
00000000
,
00001000
00000000
00000001
00000000
,
00001000
00000000
00000100
00000000
,
00010000
00000000
00000000
00000000
,
00001000
00000000
00000000
00000000
,
01000000
00000000
00000000
00000000
,
00100000
00000000
00000000
00000000
,
10000000
00000000
00000000
00000000
,
00010000
00000000
00000000
00000000
,
00100000
00000000
00000000
00000000
,
01000000
00000000
00000000
10000000
;

//---------------dance-double - ----------------
#NOTEDATA:;
#CHARTNAME:;
#CHARTHASH:1321991101;
#STEPSTYPE:dance-double;
#BANNER:;
#DESCRIPTION:;
#CHARTSTYLE:;
#DIFFICULTY:Easy;
#METER:5;
#METERF:0.000000;
#LASTSECONDHINT:111.998901;
#RADARVALUES:0.220375,0.403406,0.131474,0.026295,0.000000,176.000000,161.000000,15.000000,3.000000,0.000000,0.000000,0.000000,0.000000,0.000000,0.220375,0.403406,0.131474,0.026295,0.000000,176.000000,161.000000,15.000000,3.000000,0.000000,0.000000,0.000000,0.000000,0.000000;
#CREDIT:YOSEFU;
#NOTES:
00000000
00000000
00000000
00000000
,
00000000
00000000
00000000
00000000
,
00000000
00000000
00000000
00000000
,
00000000
00000000
00000000
00000000
,
00000000
00000000
00000000
00000000
,
00000000
00000000
00000000
00000000
,
00000000
00000000
00000000
00000000
,
00000000
00000000
00000000
00000000
,
00000000
00000000
00000000
00000000
,
00010000
00000000
00001000
00000000
,
00010000
00000100
00001000
00000000
,
00000010
00000000
00000100
00000000
,
00000001
00000010
00000100
00000000
,
00010000
00000000
00001000
00000000
,
00100000
00010000
01000000
00100000
,
10000000
00000000
01000000
00000000
,
00100000
00001000
00010000
00000010
,
00002000
00000000
00000000
00003000
,
00000001
00000000
00000100
00000000
,
00000010
00001000
00001100
00000000
,
00010000
00000000
00000000
00001000
00000000
00001000
00000000
00100000
,
00000000
00100000
00000000
00000000
00020000
00000000
00000000
00000000
,
10030000
00000000
00000000
01000000
00000000
01000000
00000000
00100000
,
00000000
00100000
00000000
00000000
00001000
00000000
00000000
00000000
,
00010000
00000000
00000000
00000010
00000000
00000010
00000000
00001000
,
00000000
00001000
00000000
00000000
00000002
00000000
00001003
00000000
,
00000001
00000000
00000000
00000100
00000000
00000000
00000000
00000010
,
00000000
00000000
00010000
00000000
,
00001000
00000000
00000000
00100000
00000000
00000000
00000000
00010000
,
00000000
00000000
10000000
00000000
,
01000000
00000000
00000000
00100000
00000000
00000000
00000000
00001000
,
00000000
00000000
00010000
00000000
,
00000010
00000000
00000000
00001000
00000000
00000000
00000000
00000001
,
00000000
00000000
00000010
00000000
,
00000100
00001000
00000010
00010000
,
00001000
00100000
00010000
10000000
,
00100000
01000000
10000000
01000000
,
00010000
00100000
01000000
10000000
,
01000000
00010000
00001000
00100000
,
00010000
01000000
00001000
00010000
,
00000100
00000010
00000100
00001000
,
00000001
00000100
00001000
00010000
,
00011000
00110000
00011000
01001000
,
00010000
10000000
01000000
00100000
,
00011000
00000000
00010010
00000000
,
00000010
00001000
00000001
00000010
,
00001100
00011000
00110000
10100000
,
10000000
00010000
00100000
01000000
,
11000000
00000000
10010000
00000000
,
01010000
00000000
00011000
00000000
,
00010000
00001000
00010000
00000000
,
00000010
00001000
00000001
00000010
,
00000100
00000000
00010000
00000000
,
00001000
00000000
00100000
00000000
,
00010000
00000000
01000000
00000000
,
00100000
10000000
01000000
00010000
,
00001000
00000000
00000010
00000000
,
00000001
00000100
00001000
00010000
,
00001000
00000000
00100000
00000000
,
01000000
00000000
10000000
00000000
,
00100000
00000000
01000000
00000000
,
00001000
00000000
00010000
00000000
,
00100000
00000000
00010000
00000000
,
00001000
00000000
00000010
00000000
,
00000001
00000000
00000100
00000000
,
00001000
00000000
00010000
00010000
;

//---------------dance-double - ----------------
#NOTEDATA:;
#CHARTNAME:;
#CHARTHASH:3850110556;
#STEPSTYPE:dance-double;
#BANNER:;
#DESCRIPTION:;
#CHARTSTYLE:;
#DIFFICULTY:Medium;
#METER:9;
#METERF:0.000000;
#LASTSECONDHINT:111.998901;
#RADARVALUES:0.326807,0.403406,0.113944,0.043825,0.000000,261.000000,248.000000,13.000000,5.000000,0.000000,0.000000,0.000000,0.000000,0.000000,0.326807,0.403406,0.113944,0.043825,0.000000,261.000000,248.000000,13.000000,5.000000,0.000000,0.000000,0.000000,0.000000,0.000000;
#CREDIT:YOSEFU;
#NOTES:
00000000
00000000
00000000
00000000
,
00000000
00000000
00000000
00000000
,
00000000
00000000
00000000
00000000
,
00000000
00000000
00000000
00000000
,
00000000
00000000
00000000
00000000
,
00000000
00000000
00000000
00000000
,
00000000
00000000
00000000
00000000
,
00000000
00000000
00000000
00000000
,
00000000
00000000
00000000
00000000
,
00001000
00010000
00000100
00000000
00001000
00000000
00000010
00000000
,
00000100
00000001
00001000
00000000
00001100
00000000
00000011
00000000
,
00000001
00000100
00000010
00000000
00001000
00000000
00000100
00000000
,
00010000
00001000
01000000
00000000
01010000
00000000
10100000
00000000
,
10000000
01000000
00100000
00000000
00010000
00000000
00100000
00000000
,
00001000
00010000
00000100
00000000
00001100
00000000
00000011
00000000
,
00000001
00001000
00000010
00000000
00000100
00000000
00000010
00000000
,
00010000
00001000
00010000
00000000
00001000
00000000
01000000
00000000
,
00200000
00000000
00000000
00300000
,
02000000
00000000
03200000
00000000
,
00310000
00100000
10000000
01000000
00010000
00000000
00001000
00000000
,
00010000
00000000
00000000
00000010
00000000
00000010
00000000
00001000
,
00000000
00001000
00000000
00000000
00000002
00000000
00000000
00000000
,
00000013
00000000
00000000
00000100
00000000
00000100
00000000
00010000
,
00000000
00010000
00001000
00000000
00100000
00000000
01100000
00000000
,
10000000
00000000
00000000
00100000
00000000
00100000
00000000
01000000
,
00000000
01000000
00001000
00000000
00020000
00000000
00031000
00001000
,
00010000
00000000
00000000
00000100
00000000
00000100
00000000
00000010
,
00000000
00000001
00000100
00001000
,
00010000
00000000
00000000
00100000
00000000
00100000
00000000
01000000
,
00000000
01000000
00010000
00000000
00010000
10000000
10000000
00000000
,
01000000
00000000
00000000
00010000
00000000
00001000
00000000
00100000
,
00000000
00001000
00010000
00000100
,
00001000
00000000
00000000
00000010
00000000
00000000
00000100
00000001
,
00000000
00001000
00000100
00000000
00010000
00000000
00000000
00000000
,
00001000
00100000
00010000
10000000
,
00100000
01000000
00000000
00010000
00000000
01000000
00010000
00000000
,
00100000
00000000
00001000
00010000
00000000
00001000
00000000
00010000
,
00000100
00000000
00001000
00000001
00000000
00001000
00000001
00000000
,
00000010
00000100
00001000
00000010
,
00001000
00000001
00000000
00000100
00000000
00001000
00010000
00000000
,
00100000
00000000
01000000
00010000
00000000
10000000
00000000
01000000
,
00000000
00100000
00010000
10000000
00000000
00000000
00100000
00000000
,
01000000
00010000
00100000
01000000
,
00010000
00001000
00100000
00000000
00001000
00000000
00010000
00000000
,
00000010
00000000
00001000
00000100
00000000
00001000
00000000
00000001
,
00000000
00000100
00000010
00000000
00001000
00000100
00000100
00000000
,
00010000
00001000
00100000
01000000
,
10000000
00010000
01000000
00000000
00001000
00000000
00010000
00000000
,
00001000
00000000
00010000
00000100
00000000
00000100
00000000
00001000
,
00000000
00000010
00000100
00000001
00000000
00000000
00000010
00000000
,
00000100
00010000
00001000
00000000
00100000
00000000
00010000
00000000
,
01000000
00100000
10000000
00000000
10100000
00000000
01010000
00000000
,
00010000
00100000
00001000
00000000
00010000
00000000
00000010
00000000
,
00000100
00000001
00001000
00000000
00001100
00000000
00011000
00000000
,
00100000
00001000
00010000
00000000
00001000
00000000
01000000
00000000
,
00100000
10000000
00010000
00000000
00110000
00000000
11000000
00000000
,
10000000
01000000
00100000
00000000
01000000
00000000
00010000
00000000
,
00001000
00010000
00000100
00000000
00001000
00000000
00000001
00000000
,
00000100
00001000
00010000
00100000
,
01000000
00010000
10000000
01000000
,
00010000
00001000
00000010
00000001
,
00000100
00001000
00010000
00100000
,
00001000
00010000
00100000
01000000
,
00010000
10000000
01000000
00010000
,
00001000
00100000
00010000
00001000
,
00100000
01000000
10000000
01000000
;

//---------------dance-double - ----------------
#NOTEDATA:;
#CHARTNAME:;
#CHARTHASH:529004198;
#STEPSTYPE:dance-double;
#BANNER:;
#DESCRIPTION:;
#CHARTSTYLE:;
#DIFFICULTY:Hard;
#METER:13;
#METERF:13.000000;
#LASTSECONDHINT:111.998901;
#RADARVALUES:0.467046,0.547480,0.087649,0.254183,0.166534,373.000000,363.000000,10.000000,29.000000,0.000000,0.000000,0.000000,0.000000,0.000000,0.467046,0.547480,0.087649,0.254183,0.166534,373.000000,363.000000,10.000000,29.000000,0.000000,0.000000,0.000000,0.000000,0.000000;
#CREDIT:Yosefu in Ruins;
#NOTES:
00000000
00000000
00000000
00000000
,
00000000
00000000
00000000
00000000
,
00000000
00000000
00000000
00000000
,
00000000
00000000
00000000
00000000
,
00000000
00000000
00000000
00000000
,
00000000
00000000
00000000
00000000
,
00000000
00000000
00000000
00000000
,
00000000
00000000
00000000
00000000
,
00000000
00000000
00000000
00000000
,
00010000
00000000
00001000
00000000
00100000
00000000
00000000
00010000
00000000
00000000
10000000
00000000
00100000
00000000
10000000
00000000
,
00010000
00000000
10000000
00000000
01000000
00000000
00000000
00100000
00000000
00000000
00001000
00000000
00010000
00000000
00000100
00000000
,
00000010
00000000
00000001
00000000
00001000
00000000
00000000
00000010
00000000
00000000
00000100
00000000
00000001
00000000
00000100
00000000
,
00000010
00000000
00001000
00000000
00000100
00000000
00000000
00010000
00000000
00000000
00001000
00000000
00100000
00000000
01000000
00000000
,
10000000
00000000
00010000
00000000
01000000
00010000
00000000
00100000
00000000
00000000
00001000
00000000
00100000
00000000
01000000
00000000
,
10000000
00000000
00010000
00000000
00100000
00001000
00000000
00010000
00000000
00000000
00000100
00000000
00000010
00000000
00000001
00000000
,
00001000
00000000
00000010
00000000
00000100
00000001
00000000
00001000
00000000
00000000
00000100
00000000
00010000
00000000
00001000
00000000
,
00100000
00000000
00010000
00000000
10000000
00100000
00000000
01000000
00000000
00000000
00010000
00000000
00200000
00000000
00000000
00000000
,
02300000
00000000
00000000
20000000
30000000
20000000
30000000
03100000
,
00210000
00000000
00301000
00010000
00000200
00000000
00002300
00000000
,
00003001
00000010
00000100
00010000
00002000
00103000
01000000
00000000
,
10000000
00010000
00000000
01000000
00000000
01000000
00010000
00100000
,
00001000
00010000
00000100
00000000
00000020
00000000
00000032
00000000
,
00001003
00000100
00000010
00000100
00010000
00001000
00100000
00010000
,
10000000
00100000
01000000
00000000
00020000
00000000
00230000
00000000
,
00301000
00010000
00000100
00000010
00000001
00000100
00000010
00001000
,
00000100
00010000
00001000
00000000
00100000
00000000
00010000
00010000
,
20000000
00000000
00000000
00200000
00300000
00200000
00300000
30020000
,
00000000
00000000
02000000
03000000
20000000
30000000
00100000
00100000
,
02030000
00000000
00000000
00200000
00300000
00200000
00300000
00020000
,
00030000
03010000
10000000
00000000
01000000
00100000
00100000
00001000
,
00020000
00000000
00000000
00002000
00003000
00002000
00003000
00030200
,
00000000
00000010
00001000
00010000
,
00002300
00000000
00000000
00003002
00000000
00000000
00001003
00000010
,
00000000
00010000
00001000
00000000
00200000
00000000
00300000
00000000
,
00001000
00100000
00010000
10000000
,
01000000
00100000
00001000
00010000
00000000
00000100
00001000
00000000
,
00000001
00000000
00001000
00000010
00000000
00000100
00000001
00000100
,
00000010
00000000
00001000
00000001
00001000
00000100
00010000
00000000
,
00001000
00100000
00010000
10000000
,
00100000
01000000
00010000
00100000
00000000
01000000
00010000
01000000
,
10000000
01000000
00100000
01000000
10000000
00010000
01000000
00000000
,
00001000
00100000
00001000
00010000
00000100
00001000
00000001
00000001
,
00001001
00001010
00001100
00010100
,
00010000
00000100
00100000
00010000
00000000
10000000
00010000
00000000
,
01010000
00000000
01000000
00010000
00000000
10000000
01000000
10000000
,
00100000
00000000
01000000
00010000
00100000
00001000
00010000
00010000
,
00010100
00001100
00001001
00000101
,
00000001
00001000
00000100
00000010
00000000
00000100
00000001
00000100
,
00010000
00000000
00001000
00000010
00001000
00010000
00100000
01000000
,
10000000
01000000
00010000
10000000
01000000
00100000
00001000
00001000
,
00010000
00000000
00001000
00000000
00100000
00000000
00000000
00010000
00000000
00000000
10000000
00000000
00100000
00000000
10000000
00000000
,
00010000
00000000
10000000
00000000
01000000
00000000
00000000
00100000
00000000
00000000
00001000
00000000
00010000
00000000
00000100
00000000
,
00000010
00000000
00000001
00000000
00001000
00000000
00000000
00000010
00000000
00000000
00000100
00000000
00000001
00000000
00000100
00000000
,
00000010
00000000
00001000
00000000
00000100
00000000
00000000
00010000
00000000
00000000
00001000
00000000
00100000
00000000
01000000
00000000
,
00010000
00000000
01000000
00000000
10000000
00010000
00000000
00100000
00000000
00000000
00001000
00000000
00010000
00000000
00100000
00000000
,
01000000
00000000
00010000
00000000
00100000
00001000
00000000
00010000
00000000
00000000
00000100
00000000
00000010
00000000
00000001
00000000
,
00001000
00000000
00000010
00000000
00000100
00000001
00000000
00001000
00000000
00000000
00000100
00000000
00010000
00000000
00001000
00000000
,
00000010
00000000
00001000
00000000
00010000
00001000
00000000
00100000
00000000
00000000
00010000
00000000
01000000
00000000
01000000
00000000
,
00100000
00000000
10000000
00000000
01000000
00000000
00000000
00100000
00000000
00000000
00001000
00000000
00010000
00000000
00000100
00000000
,
00000010
00000000
00000001
00000000
00001000
00000000
00000000
00000010
00000000
00000000
00001000
00000000
00000100
00000000
00010000
00000000
,
00001000
00000000
01000000
00000000
00100000
00000000
00000000
10000000
00000000
00000000
01000000
00000000
00100000
00000000
00010000
00000000
,
00100000
00000000
00001000
00000000
00010000
00000000
00000000
00000100
00000000
00000000
00000010
00000000
00000001
00000000
00000100
00000000
,
00000010
00000000
00000001
00000000
00000010
00001000
00000000
00000001
00000000
00000000
00000100
00000000
00000010
00000000
00000100
00000000
,
00001000
00000000
00010000
00000000
00100000
01000000
00000000
00100000
00000000
00000000
01000000
00000000
00010000
00000000
00100000
00000000
,
10000000
00000000
00100000
00000000
00010000
10000000
00000000
01000000
00000000
00100000
00001000
00000000
00010000
00000000
00100000
00000000
,
00010000
00000000
00001000
00000000
00000100
00000010
00000000
00001000
00000000
00000100
00010000
00000000
00001000
00000000
00000000
00000000
;
