#TITLE:L.F.O;
#SUBTITLE:;
#ARTIST:aran;
#TITLETRANSLIT:;
#SUBTITLETRANSLIT:;
#ARTISTTRANSLIT:;
#GENRE:UK HARDCORE;
#CREDIT:;
#BANNER:L.F.O.png;
#BACKGROUND:L.F.O-bg.png;
#LYRICSPATH:;
#CDTITLE:../_YSD cdtitles/ysd br2024 cdtitle.png;
#MUSIC:L.F.O.ogg;
#OFFSET:-0.507000;
#SAMPLESTART:76.174004;
#SAMPLELENGTH:21.333000;
#SELECTABLE:YES;
#DISPLAYBPM:90.000000:180.000000;
#BPMS:0.000000=180.000000
,132.000000=90.000000
,164.000000=180.000000
,192.000000=1080.000000
,194.000000=720.000000
,196.000000=540.000000
,198.000000=360.000000
,199.000000=270.000000
,200.000000=135.000000
,201.000000=180.000000
;
#STOPS:
;
#BGCHANGES:-4.000000=L.F.O.avi=1.000000=0=0=0=StretchNoLoop====,
99999=-nosongbg-=1.000=0=0=0 // don't automatically add -songbackground-
;
#KEYSOUNDS:;
#ATTACKS:;

//---------------dance-single - ----------------
#NOTES:
     dance-single:
     :
     Beginner:
     4:
     0.182776,0.288750,0.195035,0.156028,0.003901,164.000000,139.000000,25.000000,20.000000,0.000000,0.000000,0.182776,0.288750,0.195035,0.156028,0.003901,164.000000,139.000000,25.000000,20.000000,0.000000,0.000000:
// measure 0
0000
0000
0000
0000
,  // measure 1
0000
0000
0000
0000
,  // measure 2
0000
0000
0000
0000
,  // measure 3
0000
0000
0000
0000
,  // measure 4
0000
0000
0000
0000
,  // measure 5
1000
0000
0000
0000
,  // measure 6
0001
0000
0000
0000
,  // measure 7
1000
0000
0000
0000
,  // measure 8
0001
0000
0000
0000
,  // measure 9
1001
0000
0000
0000
,  // measure 10
1000
0000
0000
0000
,  // measure 11
0010
0000
0000
0000
,  // measure 12
0100
0000
0000
0000
,  // measure 13
0001
0000
0000
0000
,  // measure 14
0010
0000
0000
0000
,  // measure 15
0100
0000
0100
0000
,  // measure 16
0100
0000
0000
0000
,  // measure 17
1001
0000
1000
0000
,  // measure 18
0001
0000
1000
0000
,  // measure 19
0010
0000
0100
0000
,  // measure 20
0010
0000
0100
0100
,  // measure 21
0100
0000
0001
0000
,  // measure 22
0100
0000
0001
0000
,  // measure 23
1000
0000
0001
0000
,  // measure 24
1000
0000
0000
0000
,  // measure 25
1001
0000
0001
0000
,  // measure 26
1000
0000
0001
0000
,  // measure 27
0010
0000
0100
0000
,  // measure 28
1000
0000
0001
0000
,  // measure 29
0000
1001
0000
0110
,  // measure 30
0000
1001
0000
0100
,  // measure 31
0200
0000
0000
0300
,  // measure 32
0200
0000
0000
0300
,  // measure 33
1001
0000
0002
0003
,  // measure 34
2000
3000
0020
0030
,  // measure 35
0200
0300
0002
0003
,  // measure 36
0020
0030
0200
0300
,  // measure 37
1001
0000
2000
3000
,  // measure 38
0020
0030
0200
0300
,  // measure 39
0002
0003
0020
0030
,  // measure 40
0200
0300
2000
3000
,  // measure 41
1001
0000
0001
0000
,  // measure 42
1000
0000
0001
0000
,  // measure 43
0100
0000
0010
0000
,  // measure 44
0100
0000
0010
0000
,  // measure 45
1000
1000
1000
0000
,  // measure 46
0001
0001
0001
0000
,  // measure 47
0100
0100
0100
0100
,  // measure 48
0200
0000
0000
0000
,  // measure 49
0000
0000
0000
0000
,  // measure 50
0000
0000
0000
0000
0000
0000
0000
0000
0000
0000
0300
0000
0000
0000
0000
0000
0000
0000
0000
0000
0000
0000
0000
0000
0000
0000
0000
0000
0000
0000
0000
0000
0000
0000
0000
0000
0000
0000
0000
0000
0000
0000
0000
0000
0000
0000
0000
0000
1001
0000
0000
0000
0000
0000
0000
0000
0000
0000
0000
0000
0000
0000
0000
0000
0000
0000
0000
0000
0000
0000
0000
0000
0000
0000
0000
0000
0000
0000
0000
0000
0000
0000
0000
0000
0000
0000
0000
0000
0000
0000
0000
0000
0000
0000
0000
0000
0000
0000
0000
0000
0000
0000
0000
0000
0000
0000
0000
0000
0000
0000
0000
0000
0000
0000
0000
0000
0000
0000
0000
0000
0000
0000
0000
0000
0000
0000
0000
0000
0000
0000
0000
0000
0000
0000
0000
0000
0000
0000
0000
0000
0000
0000
0000
0000
0001
0000
0000
0000
0000
0000
0000
0000
0000
0000
0000
0000
0000
0000
0000
0000
0000
0000
0000
0000
0000
0000
0000
0000
0000
0000
0000
0000
0000
0000
0000
0000
0000
0000
0000
0000
0000
0000
0000
0000
0000
0000
0000
0000
0000
0000
0000
0000
,  // measure 51
0000
1000
0000
0010
,  // measure 52
0010
0010
0000
0100
,  // measure 53
0000
0010
0000
0100
,  // measure 54
0000
1001
0000
0001
,  // measure 55
0000
0010
0000
0100
,  // measure 56
0100
0100
0000
1000
,  // measure 57
0000
0100
0000
0010
,  // measure 58
0000
0000
1001
0000
,  // measure 59
0001
0000
1000
0000
,  // measure 60
0010
0010
0000
0100
,  // measure 61
0000
0010
0000
1000
,  // measure 62
0000
1001
0000
0001
,  // measure 63
0000
1001
0000
0100
,  // measure 64
0000
0110
0000
1001
,  // measure 65
0000
0200
0000
0000
,  // measure 66
0300
1001
0000
0000
,  // measure 67
0000
0001
0000
0000
,  // measure 68
0000
0100
0000
0000
,  // measure 69
0000
0010
0000
0000
,  // measure 70
0000
1001
0000
0001
,  // measure 71
0000
1001
0000
1000
,  // measure 72
0000
0110
0000
0010
,  // measure 73
0000
0110
0000
0000
,  // measure 74
0000
0000
1000
0000
,  // measure 75
0001
0000
1000
1000
,  // measure 76
1000
0000
0001
0000
,  // measure 77
0010
0000
0100
0100
,  // measure 78
0100
0000
0110
0000
,  // measure 79
1001
0000
0110
0000
,  // measure 80
1000
2000
0000
0000
,  // measure 81
3000
0002
0000
0000
,  // measure 82
0003
1001
0000
0000
;

//---------------dance-single - ----------------
#NOTES:
     dance-single:
     :
     Easy:
     9:
     0.373353,0.449166,0.351063,0.343262,0.003901,335.000000,290.000000,45.000000,44.000000,0.000000,0.000000,0.373353,0.449166,0.351063,0.343262,0.003901,335.000000,290.000000,45.000000,44.000000,0.000000,0.000000:
0000
0000
0000
0000
,
0000
0000
0000
0000
,
0000
0000
0000
0000
,
0000
0000
0000
0000
,
0000
0000
0000
0000
,
1000
0000
0000
0000
,
0001
0000
0000
0000
,
0100
0000
0001
0000
,
1000
0200
0320
0032
,
2003
0010
0010
0010
,
3200
0010
0010
0001
,
1300
0001
1000
1000
,
0001
0000
1000
0000
0001
0000
0100
0100
,
0020
1000
1000
1000
,
0230
0001
0001
1000
,
0310
1000
0010
1000
,
0001
0020
0130
1001
,
1001
1000
0010
0100
,
1001
0001
0010
0100
,
1001
1000
0100
0010
,
0110
0000
0010
0000
0001
0001
0010
0000
,
1001
0001
0100
0010
,
1010
1000
0100
0010
,
0011
0001
1000
0010
,
1010
0020
0230
0302
,
0013
0000
0010
0000
0100
0100
1000
0000
,
0010
0000
0010
0000
0100
0100
0001
0000
,
0010
0000
0010
0000
0001
0001
0100
0000
,
1000
0100
0001
0010
,
0100
1001
0010
0110
,
0010
1001
0001
1000
,
0100
0001
0100
1000
,
0002
0000
0000
0103
,
0020
0000
2030
0000
,
3200
0000
0302
0203
,
2300
0000
3020
0000
,
0230
0000
2300
3200
,
0301
0000
0010
0000
0100
1000
0100
0000
,
0010
0001
0100
0000
0010
1000
0100
0001
,
0100
0000
1000
0000
0010
0100
1000
0000
,
0100
0001
0010
0000
0200
0000
2300
0000
,
3001
0100
0001
0100
,
0010
1000
0010
1000
,
0001
0010
0001
0010
,
0100
1000
0100
1000
,
0001
0100
1000
0100
,
0001
0010
1000
0010
,
0001
1000
0001
0000
1000
0001
1000
0000
,
0220
0000
0000
0000
,
0000
0000
0000
0000
,
0000
0000
0000
0000
0000
0330
0000
0000
0000
0000
0000
0000
0000
0000
0000
0000
0000
0000
0000
0000
0000
0000
0000
0000
1001
0000
0000
0000
0000
0000
0000
0000
0000
0000
0000
0000
0000
0000
0000
0000
0000
0000
0000
0000
0000
0000
0000
0000
1000
0000
0000
0000
0000
0000
0000
0000
0000
0000
0000
0000
0000
0000
0000
0000
0000
0000
0000
0000
0000
0000
0000
0000
0010
0000
0000
0000
0000
0000
0000
0000
0000
0000
0000
0000
0000
0000
0000
0000
0000
0000
0000
0000
0000
0000
0000
0000
,
0100
0000
0101
0000
0001
0000
1000
1000
,
0100
0110
0010
0011
,
1001
0010
0110
1000
,
0001
0011
0010
0100
,
1000
0000
1001
0000
0001
0000
0100
0100
,
0001
0011
0010
0110
,
0100
1001
2000
3020
,
0230
0300
0101
0001
,
0010
0000
0110
0000
0100
0000
1000
1000
,
0001
0101
0100
0110
,
1001
1000
1100
0100
,
0010
0011
0001
1000
,
0010
0000
0110
0000
0100
0000
0001
0001
,
1000
0000
1100
0000
0000
0100
0100
0000
,
1000
2002
0000
0000
,
3003
0002
0000
0000
,
0000
0000
0203
0320
,
2030
0000
0000
0000
,
0000
0000
3200
0320
,
0032
0103
0010
0011
,
0001
1000
0010
0110
,
0100
0000
0001
0000
1000
0000
0001
0001
,
0010
0100
2000
3001
,
1001
0000
0000
1000
1000
0000
0001
0000
,
0100
0110
0020
2030
,
3001
0011
0010
0100
,
1000
1001
0002
0203
,
0310
1000
1001
0010
,
0101
0010
1001
0100
,
1001
0000
0001
0000
1000
0000
0100
0100
,
0100
0020
0000
0000
,
0031
1001
0000
0000
;

//---------------dance-single - ----------------
#NOTES:
     dance-single:
     :
     Medium:
     13:
     0.505977,0.641666,0.117021,0.218439,0.117021,454.000000,439.000000,15.000000,28.000000,0.000000,0.000000,0.505977,0.641666,0.117021,0.218439,0.117021,454.000000,439.000000,15.000000,28.000000,0.000000,0.000000:
0000
0000
0000
0000
,
0000
0000
0000
0000
,
0000
0000
0000
0000
,
0000
0000
0000
0000
,
0000
0000
0000
0000
,
1000
0000
0000
0000
0000
0000
0000
0001
,
0100
0000
0000
0000
0000
0000
0000
0000
0000
0001
1000
0001
,
1000
0000
0000
0100
1000
0000
0000
0001
,
0100
0000
0010
0000
1000
0000
0100
0010
,
0002
0000
0010
0000
0010
0000
0013
0001
,
2000
0000
0010
0000
3010
0001
0010
1000
,
0001
0000
0001
0010
0100
0000
0100
0000
,
0100
1000
0010
0000
0010
0100
0001
0010
,
0200
0000
1000
0000
1000
0000
1300
0001
,
0200
0000
0010
0000
0310
0001
0010
1000
,
0001
0010
0001
0010
0100
1000
0100
1000
,
0010
0200
0301
1001
,
1000
0001
0000
0001
0100
0001
0000
0001
,
0010
0100
0000
0100
0010
0100
0000
0100
,
1000
0010
0000
0010
0100
0010
0000
0010
,
1000
0001
0000
0001
0010
0010
0100
1000
,
0010
0100
0000
0100
0001
0010
0000
0010
,
0100
1000
0000
1000
0001
0100
0000
0100
,
0001
0010
0000
0010
0100
1000
0000
1000
,
0010
0200
0302
2003
,
3100
0010
0001
1000
0100
0010
0001
1000
,
0010
0100
0001
1000
0010
0100
0001
1000
,
0010
0100
0010
1000
0001
0010
0001
1000
,
0100
0001
0100
1000
0001
0100
1000
0100
,
0001
1001
0010
0101
,
0010
1001
0100
1001
,
1000
0010
0001
0010
1000
0100
0010
0001
,
0200
0000
0000
0310
,
2001
0000
0000
0000
0000
0100
0000
0100
0000
0000
0000
0000
0000
0010
0000
3020
,
0000
0000
0000
0000
0000
0100
0000
0100
0000
0000
0000
1000
0000
1000
0000
2030
,
0000
0000
0000
0000
0000
0000
0000
0100
0000
0000
0000
0000
0000
0000
0000
0000
3200
0000
0000
0000
0000
0000
0000
0010
0000
0000
0000
0000
0000
0000
0000
0000
,
0320
0000
0000
0000
0000
0000
0000
0001
0000
0000
0000
0000
0000
0000
0000
0000
0032
0000
0000
0000
0000
0000
0000
0203
0000
0000
0000
0000
0000
0000
0000
0000
,
0310
0000
0000
0000
0000
0000
0000
0000
1000
0000
0000
1000
0000
0000
0000
0000
0001
0000
0001
0000
0001
0000
0000
0000
0010
0000
0000
0010
0000
0000
0000
0000
,
0100
0000
0100
0000
0100
0000
0000
0000
1000
0000
0000
1000
0000
0000
0000
0000
0010
0000
0010
0000
0010
0000
0000
0000
0001
0000
0000
0010
0000
0000
1000
0000
,
0001
0000
0000
0000
0000
0000
0000
0000
0010
0000
0000
0010
0000
0000
0000
0000
0100
0000
0100
0000
0100
0000
0000
0000
1000
0000
0000
1000
0000
0000
0000
0000
,
0010
0000
0000
0000
0010
0000
0000
0000
0100
0000
0000
0100
0000
0000
0000
0000
2000
0000
0000
0000
0000
0000
0000
0000
3200
0000
0000
0000
0000
0000
0000
0000
,
0301
0010
0000
0001
1000
0010
0000
0100
,
0001
1000
0000
0100
1000
0001
0000
0010
,
0001
0100
0000
0010
1000
0100
0000
0010
,
0100
0001
0000
0100
0010
0001
0000
0100
,
0010
1000
0100
0010
0001
0100
0010
1000
,
0001
0100
0010
1000
0100
0010
0001
1000
,
0010
0001
0010
1000
0001
0010
1000
0010
,
0002
0000
0000
0000
,
0000
0000
0000
0000
,
0000
0000
0000
0000
0000
0003
0000
0000
0000
0000
0000
0000
0000
0000
0000
0000
0000
0000
0000
0000
0000
0000
0000
0000
1000
0000
0000
0000
0000
0000
0000
0000
0000
0000
0000
0000
0001
0000
0000
0000
0000
0000
0000
0000
0000
0000
0000
0000
0100
0000
0000
0000
0000
0000
0000
0000
0000
0000
0000
0000
0000
0000
0000
0000
0000
0000
0000
0000
0000
0000
0000
0000
0001
0000
0000
0000
0000
0000
0000
0000
0000
0000
0000
0000
1000
0000
0000
0000
0000
0000
0000
0000
0000
0000
0000
0000
,
0100
0000
0010
0001
0100
0000
1000
0100
,
0001
0010
0100
0000
0100
1000
0010
0000
,
0110
0000
0100
0001
0010
0000
0100
0001
,
0100
1000
0001
0100
0010
0000
1000
0100
,
0010
0000
0001
0100
0010
0000
0001
0010
,
1000
0100
0010
0000
0001
0100
0010
0000
,
1000
0100
0010
0000
0002
0000
0203
0000
,
0320
0000
0030
1000
1000
0000
0100
0010
,
0001
0000
1000
0010
0100
0000
1000
0100
,
0001
0010
0100
0000
1000
0001
0100
0000
,
0110
0000
0010
1000
0100
0000
0001
0100
,
1000
0001
0100
0010
1000
0000
0100
0010
,
0001
0000
0100
0010
0001
0000
0010
1000
,
0100
0001
0100
1000
0001
0000
0100
1000
,
0100
0001
0020
0000
0000
0000
0000
0000
,
0130
0000
0000
1000
0000
1000
0000
0001
,
0000
0001
0000
0100
0000
0100
0000
1000
,
0000
1000
0000
0100
0000
0100
0000
0001
,
0000
0001
0000
0010
0000
0010
0000
1000
,
0000
0000
1000
0000
0010
0000
0000
0000
0100
0000
0000
0000
1100
0000
0000
1000
,
0000
0001
0100
0000
0002
0000
0023
0000
,
0230
0000
1300
0010
0001
0010
0100
0001
,
0010
0100
1000
0000
0020
0000
0130
0000
,
0101
0000
0000
0000
0000
0000
0001
0100
0001
0000
0100
0000
0010
0000
1000
0000
,
0100
0010
1000
0010
0001
0100
0010
1000
,
0100
0010
1000
0010
0001
1000
0010
0001
,
1000
0100
0010
1000
0100
0010
0001
0100
,
0010
1000
0100
0000
0011
0000
0100
0000
,
1001
0010
1001
0100
,
1001
0000
1000
0100
0001
0100
1000
0010
,
0001
0010
0200
0000
0000
0000
0000
0000
,
0310
1001
0000
0000
;

//---------------dance-single - ----------------
#NOTES:
     dance-single:
     L.M.F.A.O:
     Hard:
     16:
     0.665349,0.834165,0.117021,0.288652,0.483687,597.000000,582.000000,15.000000,37.000000,0.000000,0.000000,0.665349,0.834165,0.117021,0.288652,0.483687,597.000000,582.000000,15.000000,37.000000,0.000000,0.000000:
0000
0000
0000
0000
,
0000
0000
0000
0000
,
0000
0000
0000
0000
,
0000
0000
0000
0000
,
0000
0000
0000
0000
,
0001
0000
0000
0000
0000
0000
0000
0000
0000
0000
0000
0000
0000
0000
1000
0001
,
0100
0000
0000
0000
0000
0000
0000
0000
0000
0010
1000
0100
,
0010
0000
0000
0000
0000
0000
0001
1000
0010
0000
0000
0000
0000
0000
0100
0001
,
1000
0000
0200
0000
0320
0000
0031
1000
,
0020
0000
0100
0000
0100
0000
0130
0001
,
2000
0000
3001
0010
0100
0001
0100
1000
,
0002
0000
1003
0100
2000
0000
0100
0000
,
3001
0100
0002
0000
1003
0100
0010
0001
,
0200
0000
0001
0000
0001
0000
0301
0100
,
0020
0000
1030
0100
0010
1000
0010
0001
,
1000
0010
1000
0010
0100
0000
0001
0000
1000
0100
1000
0100
0010
0000
0001
0000
,
0100
0020
1030
1001
,
0001
0000
0100
0000
0000
0000
0100
0000
0001
0000
1000
0100
0000
0000
1000
0000
,
0001
0000
0010
0000
0000
0000
0010
0000
0001
0000
1000
0010
0000
0000
1000
0000
,
0100
0000
0010
0000
0000
0000
0010
0000
0100
0000
1000
0001
0000
0000
0100
0000
,
0010
1000
0000
1000
0100
0100
1000
0010
,
0100
0000
0001
0000
0000
0000
1000
0000
0001
0000
0010
0100
0000
0000
1000
0000
,
0001
0000
0100
0000
0000
0000
0001
0000
1000
0000
0100
0010
0000
0000
0001
0000
,
0010
0000
0100
0000
0000
0000
1000
0000
0001
0000
1000
0010
0000
0000
0100
0000
,
0001
0200
2300
3200
,
0301
0000
0100
0000
0001
0000
0010
0000
0100
0000
1000
0100
1000
0000
0001
1000
,
0001
0000
0010
0000
0100
0000
1000
0000
0010
0000
1000
0001
1000
0000
0001
0100
,
0001
0000
0100
0000
0001
0000
0010
0000
0100
0000
1000
0100
1000
0000
0001
0100
,
0001
0000
0010
0000
0100
0000
0001
0000
0100
0010
0000
0001
1000
0000
0010
0000
,
1010
0000
1001
0000
0100
0000
1001
0001
,
0001
0000
0000
0000
1001
0000
0000
0000
1000
0000
0000
0100
0010
0000
0001
0000
,
1000
0000
0010
0000
0001
0000
0010
0000
1000
0010
1000
0010
0100
0001
0100
0001
,
0020
0000
0000
0130
,
2000
0000
0000
0000
0000
0100
0000
0100
3002
0000
0000
0000
0000
1000
0000
1000
,
0203
0000
0000
0000
0000
0001
0000
0001
0320
0000
0000
0000
2030
0000
0000
0000
,
3200
0000
0000
0000
0010
0000
0000
0010
0000
0000
0000
0000
0000
0000
0000
0000
0320
0000
0000
0000
0001
0000
0000
0001
0000
0000
0000
0000
0000
0000
0000
0000
,
0032
0000
0000
0000
0100
0000
0000
0100
0000
0000
0100
0000
0000
0000
0000
0000
0203
0000
0000
0000
0010
0000
0000
0320
0000
0000
1000
0000
0000
0000
1000
0000
,
2030
0000
0000
0000
0001
0000
0000
0000
0100
0000
0000
0100
0000
0000
0100
0000
3002
0000
1000
0000
1000
0000
0000
0000
0010
0000
0000
0010
0000
0000
0010
0000
,
2003
0000
0100
0000
0100
0000
0000
0000
0010
0000
0000
0010
0000
0000
0010
0000
3001
0000
0001
0000
0100
0000
0100
0000
1000
0000
0000
0100
0000
0010
0100
0000
,
0001
0000
0000
0000
0001
0000
0000
0000
0100
0000
0000
0100
0000
0000
0100
0000
0010
0000
0010
0000
0010
0000
0000
0000
0001
0000
0000
0001
0000
0000
0001
0000
,
0010
0000
0000
0000
0010
0000
0000
0000
1000
0000
0000
1000
0000
0000
1000
0000
0200
0000
0000
0000
0000
0000
0000
0000
0340
0000
0000
0000
0000
0000
0000
0000
,
0031
0100
0001
0100
0010
1000
0010
1000
,
0100
0010
0100
0010
0001
1000
0001
1000
,
0010
0100
0010
0100
1000
0100
1000
0100
,
0001
0100
0001
0010
1000
0010
1000
0010
,
0001
1000
0001
0000
0100
0000
0010
0000
1000
0001
1000
0000
0100
0000
0010
0000
,
0001
0100
0001
0000
0010
0000
0100
0000
1000
0010
1000
0000
0100
0000
0010
0000
,
0001
0100
0001
0000
1000
0100
1000
0000
0001
0010
0001
0000
1000
0010
1000
0010
,
0200
0000
0000
0000
,
0000
0000
0000
0000
,
0000
0000
0000
0000
0000
0300
0000
0000
0000
0000
0000
0000
0000
0000
0000
0000
0000
0000
0000
0000
0000
0000
0000
0000
0001
0000
0000
0000
0000
0000
0000
0000
0000
0000
0000
0000
0100
0000
0000
0000
0000
0000
0000
0000
0000
0000
0000
0000
0010
0000
0000
0000
0000
0000
0000
0000
0000
0000
0000
0000
0100
0000
0000
0000
0000
0000
0001
0000
0000
0000
0000
0000
0010
0000
0000
0000
0000
0000
0000
0000
0000
0000
0000
0000
0100
0000
0000
0000
0000
0000
0000
0000
0000
0000
0000
0000
,
1000
0000
0100
1000
0010
0000
0100
0000
0001
0000
0100
0001
0010
0000
1000
0000
,
0010
0000
0001
0000
0100
0010
1000
0000
0100
0000
0001
0000
0100
0010
0001
0000
,
0100
0000
0000
0000
0010
0100
1000
0000
0100
0000
0000
0000
0010
0100
1000
0000
,
0100
0000
0001
0000
0010
0000
0001
0000
0100
0000
0001
0010
0100
0000
1000
0000
,
0010
0000
1000
0100
0010
0000
0100
0000
1000
0000
0001
1000
0010
0000
0001
0000
,
0010
0000
1000
0000
0100
0010
0001
0000
0100
0000
1000
0000
0100
0010
1000
0000
,
0100
0001
0100
1000
0020
1030
0002
0013
,
0200
0000
0300
0000
0000
0000
1000
0000
1000
0000
0010
1000
0100
0000
0010
0000
,
0001
0000
0100
0001
0010
0000
0100
0000
1000
0000
0010
1000
0100
0000
0001
0000
,
0100
0000
0010
0000
0001
0010
0100
0000
0010
0000
1000
0000
0010
0100
1000
0000
,
0001
0000
0000
0000
0100
0010
0001
0000
0010
0000
0000
0000
0100
0010
0001
0000
,
0010
0000
1000
0000
0001
0000
0010
0000
0100
0000
0010
0001
0100
0000
0010
0000
,
1000
0000
0100
1000
0010
0000
0100
0000
0001
0000
0010
0001
0100
0000
1000
0000
,
0100
0000
0001
0000
0010
0000
0001
0000
1000
0000
0000
0010
0001
0000
0010
0000
,
0100
0000
0001
1000
0100
0000
0000
0000
0020
0000
0000
0000
0032
0000
0000
0000
,
2003
0000
3000
0010
0000
0010
0000
0100
,
0000
0100
0000
0001
0000
0001
0000
0010
,
0000
1000
0000
0010
0000
0010
0000
0100
,
0000
0100
0000
1000
0000
1000
0000
0010
,
0000
0000
0001
0000
0010
0000
0000
0000
1010
0000
0000
0000
1001
0000
0000
0001
,
0000
0000
0010
0000
0110
0000
0000
0000
1100
0000
0000
0000
1001
0000
0000
1000
,
0000
0000
0010
0000
0100
0000
1000
0000
0100
0000
0010
0000
1000
0001
1000
0001
,
0010
0100
1000
0001
0100
0000
0000
0000
0020
0000
0000
0000
0130
0000
0000
0000
,
0101
0000
0000
0000
0100
0000
1000
0100
0001
0000
0010
0000
0100
1000
0100
0010
,
0100
0000
1000
0000
0001
1000
0010
1000
0001
0000
0010
0000
0100
0010
0001
0010
,
0100
0000
1000
0000
0100
0010
0100
0001
0100
0000
0010
0000
0001
1000
0010
0100
,
1000
0000
0100
0000
0001
1000
0100
0010
0100
0000
1000
0000
0010
0100
1000
0100
,
0010
0000
0100
0000
0101
0000
0000
0000
0010
0000
0000
0000
1001
0000
0000
0100
,
0000
0000
0010
0000
1001
0000
0000
0000
0001
0000
1000
0100
0010
0000
0001
0010
,
1000
0000
0010
0001
1000
0000
0010
0000
0001
0000
0010
0000
1000
0010
1000
0010
,
0100
0001
0100
0001
0020
0000
0000
0000
0000
0000
0000
0000
0000
0000
0000
0000
,
0130
1001
0000
0000
;

//---------------dance-double - ----------------
#NOTES:
     dance-double:
     :
     Beginner:
     5:
     0.181661,0.288750,0.187234,0.156028,0.000000,163.000000,139.000000,24.000000,20.000000,0.000000,0.000000,0.181661,0.288750,0.187234,0.156028,0.000000,163.000000,139.000000,24.000000,20.000000,0.000000,0.000000:
00000000
00000000
00000000
00000000
,
00000000
00000000
00000000
00000000
,
00000000
00000000
00000000
00000000
,
00000000
00000000
00000000
00000000
,
00000000
00000000
00000000
00000000
,
00010000
00000000
00000000
00000000
,
00001000
00000000
00000000
00000000
,
00100000
00000000
00000000
00000000
,
01000000
00000000
00000000
00000000
,
01100000
00000000
00000000
00000000
,
00100000
00000000
00000000
00000000
,
00010000
00000000
00000000
00000000
,
10000000
00000000
00000000
00000000
,
00100000
00000000
00000000
00000000
,
01000000
00000000
00000000
00000000
,
00001000
00000000
00001000
00000000
,
00001000
00000000
00000000
00000000
,
00011000
00000000
00001000
00000000
,
00010000
00000000
00001000
00000000
,
00010000
00000000
00000100
00000000
,
00010000
00000000
00000100
00000100
,
00000100
00000000
00001000
00000000
,
00000001
00000000
00001000
00000000
,
00000001
00000000
00001000
00000000
,
00000001
00000000
00000000
00000000
,
00001001
00000000
00001000
00000000
,
00000010
00000000
00010000
00000000
,
00001000
00000000
00100000
00000000
,
00010000
00000000
10000000
00000000
,
00000000
10010000
00000000
01100000
,
00000000
10010000
00000000
01000000
,
02000000
00000000
00000000
03000000
,
02000000
00000000
00000000
03000000
,
01100000
00000000
20000000
30000000
,
00020000
00030000
02000000
03000000
,
00002000
00003000
00020000
00030000
,
00000200
00000300
00000020
00000030
,
00001001
00000000
00000002
00000003
,
00000200
00000300
00000020
00000030
,
00020000
00030000
00002000
00003000
,
00200000
00300000
02000000
03000000
,
10010000
00000000
10000000
00000000
,
00010000
00000000
01000000
00000000
,
00001000
00000000
00010000
00000000
,
00000010
00000000
00001000
00000000
,
00000100
00000100
00000100
00000000
,
00010000
00010000
00010000
00000000
,
00001000
00001000
00001000
00001000
,
00002000
00000000
00000000
00000000
,
00000000
00000000
00000000
00000000
,
00003000
00011000
00000000
00010000
,
00000000
00001000
00000000
01000000
,
01000000
01000000
00000000
00010000
,
00000000
10000000
00000000
01000000
,
00000000
01100000
00000000
00100000
,
00000000
00010000
00000000
01000000
,
01000000
01000000
00000000
00001000
,
00000000
00010000
00000000
00000100
,
00000000
00000000
00000110
00000000
,
00000010
00000000
00000001
00000000
,
00001000
00001000
00000000
00000010
,
00000000
00000100
00000000
00000001
,
00000000
00001001
00000000
00000100
,
00000000
00000110
00000000
00000001
,
00000000
00001001
00000000
00001000
,
00000000
00000200
00000000
00000300
,
00000000
00011000
00000000
00000000
,
00000000
00010000
00000000
00000000
,
00000000
00001000
00000000
00000000
,
00000000
01000000
00000000
00000000
,
00000000
01010000
00000000
00010000
,
00000000
10010000
00000000
10000000
,
00000000
11000000
00000000
01000000
,
00000000
01100000
00000000
00000000
,
00000000
00000000
00010000
00000000
,
01000000
00000000
00001000
00001000
,
00001000
00000000
00010000
00000000
,
00000100
00000000
00000010
00000010
,
00000010
00000000
00001001
00000000
,
00000110
00000000
00001001
00000000
,
00001000
00002000
00000000
00000000
,
00003000
00000002
00000000
00000000
,
00000003
00001001
00000000
00000000
;

//---------------dance-double - ----------------
#NOTES:
     dance-double:
     :
     Easy:
     9:
     0.325430,0.417083,0.179432,0.397872,0.003901,292.000000,269.000000,23.000000,51.000000,0.000000,0.000000,0.325430,0.417083,0.179432,0.397872,0.003901,292.000000,269.000000,23.000000,51.000000,0.000000,0.000000:
00000000
00000000
00000000
00000000
,
00000000
00000000
00000000
00000000
,
00000000
00000000
00000000
00000000
,
00000000
00000000
00000000
00000000
,
00000000
00000000
00000000
00000000
,
00001000
00000000
00000000
00000000
,
00010000
00000000
00000000
00000000
,
00000010
00000000
00001000
00000000
,
00000100
00000010
00000001
00000100
,
00000020
00001000
00001000
00001000
,
00000230
00000001
00000301
00001000
,
00000200
00001000
00010000
00010000
,
00001000
00010000
00001000
00010300
,
00002000
01000000
01000000
01000000
,
00023000
00001000
00031000
00100000
,
00010000
00100000
10000000
00100000
,
00010000
00200000
00301000
00011000
,
00010000
00001000
00010000
00000010
,
00001000
00000001
00000010
00000100
,
00010000
00001000
00100000
00001000
,
00010000
00001000
00011000
00011000
,
00101000
00100000
00010000
10000000
,
00100000
01000000
00001000
00010000
,
00000100
00001000
00000010
00000100
,
00000001
00000200
00000320
00002030
,
00003100
00010000
00001000
01000000
,
00100000
10000000
01000000
00100000
,
00001000
00010000
00100000
00010000
,
00001000
00000020
00000032
00000203
,
00000300
00000101
00000000
00001010
,
00000000
00011000
00000000
00101000
,
02001000
00000000
03010000
10000000
,
12000000
00000000
00000000
03100000
,
00210000
00000000
00302000
00000000
,
00023000
00000000
00030020
00000230
,
00000302
00000000
00000023
00000000
,
00000230
00000000
00020300
00032000
,
00103000
00000000
00010000
00000000
01000000
00010000
01000000
00000000
,
00100000
00000000
10000000
00000000
01000000
00100000
00010000
01000000
,
00001000
00000000
00010000
00000000
00000100
00001000
00000100
00000000
,
00000010
00000001
00000200
00000320
,
00001030
00000010
00001000
00000010
,
00010000
00000010
00010000
00000010
,
00010000
00001000
00010000
00001000
,
00100000
00001000
00100000
00001000
,
00100000
01000000
10000000
00100000
,
01000000
00001000
00010000
00001000
,
00000010
00000001
00000100
00001000
,
00020000
00000000
00000000
00000000
,
00000000
00000000
00000000
00000000
,
00000000
00000000
00000000
00000000
00000000
00030000
00000000
00000000
00000000
00000000
00000000
00000000
00000000
00000000
00000000
00000000
00000000
00000000
00000000
00000000
00000000
00000000
00000000
00000000
00001000
00000000
00000000
00000000
00000000
00000000
00000000
00000000
00000000
00000000
00000000
00000000
00000000
00000000
00000000
00000000
00000000
00000000
00000000
00000000
00000000
00000000
00000000
00000000
00010000
00000000
00000000
00000000
00000000
00000000
00000000
00000000
00000000
00000000
00000000
00000000
00000000
00000000
00000000
00000000
00000000
00000000
00000000
00000000
00000000
00000000
00000000
00000000
00100000
00000000
00000000
00000000
00000000
00000000
00000000
00000000
00000000
00000000
00000000
00000000
00000000
00000000
00000000
00000000
00000000
00000000
00000000
00000000
00000000
00000000
00000000
00000000
,
10000000
01000000
00010000
00001000
,
00000010
00000001
00000001
00000100
,
00000100
00000010
00000010
00010000
,
00010000
00001000
00000010
00001000
,
00010000
00100000
10000000
01000000
,
00010000
00001000
01000000
00100000
,
00010000
00001000
00020000
00030200
,
00000320
00000030
00000001
00000100
,
00001000
00010000
00000010
00000100
,
00001000
00010000
00010000
00001000
,
00001000
01000000
01000000
00100000
,
00100000
10000000
01000000
00010000
,
00001000
00000010
00000001
00000100
,
00001000
00010000
01000000
10000000
,
00100000
10100000
20000000
32000000
,
03200000
00302000
00000000
00000000
,
00000000
00000000
00023000
00230000
,
00320000
00000000
00000000
00000000
,
00000000
00000000
00032000
00003020
,
00002030
00013000
00010000
00011000
,
00101000
00100000
00020000
02030000
,
03200000
00310000
00001000
00011000
,
00001100
00001001
00000002
00000103
,
00000110
00000000
00000010
00000100
,
00001000
00010000
00000020
00000230
,
00002300
00013000
00100000
01000000
,
00010000
00100000
02000000
03020000
,
00032000
01003000
01010000
00000000
,
00011000
00000000
00001100
00000000
,
00001001
00000001
00000100
00001000
,
00010000
02000000
00000000
00000000
,
13000000
10010000
00000000
00000000
;

//---------------dance-double - ----------------
#NOTES:
     dance-double:
     :
     Medium:
     13:
     0.470313,0.705832,0.085815,0.273049,0.120922,422.000000,411.000000,11.000000,35.000000,0.000000,0.000000,0.470313,0.705832,0.085815,0.273049,0.120922,422.000000,411.000000,11.000000,35.000000,0.000000,0.000000:
00000000
00000000
00000000
00000000
,
00000000
00000000
00000000
00000000
,
00000000
00000000
00000000
00000000
,
00000000
00000000
00000000
00000000
,
00000000
00000000
00000000
00000000
,
00010000
00000000
00000000
00000000
00000000
00000000
00000000
00001000
,
01000000
00000000
00000000
00000000
00000000
00000000
00000000
00000000
00000000
00010000
01000000
00010000
,
01000000
00000000
00000000
00010000
10000000
00000000
00000000
01000000
,
00100000
00002000
00023000
00030200
,
00001300
00000000
00001000
00000000
00001000
00000000
00001000
00000010
,
00000100
00000000
00000100
00000001
00000010
00000100
00001000
00000001
,
00000100
00000000
00000100
00000010
00001000
00000000
00001000
00000000
,
00001000
00000100
00010000
00000000
00010000
00001000
01000000
00010000
,
00100000
00000000
00100000
00000000
00100000
00000000
00100000
01000000
,
10000000
00000000
10000000
00010000
01000000
00100000
01000000
00001000
,
00010000
00000000
00010000
00000100
00001000
00000000
00001000
00000001
,
00000100
00000020
00020030
00031000
,
00100000
00001000
00000000
00001000
01000000
00010000
00000000
00010000
,
10000000
01000000
00000000
01000000
00100000
00010000
00000000
00010000
,
00100000
00001000
00000000
00001000
00010000
00000010
00000000
00000010
,
00001000
00000001
00000000
00000001
00000010
00000010
00000100
00001000
,
00000001
00000100
00000000
00000100
00000010
00001000
00000000
00001000
,
00000100
00010000
00000000
00010000
00001000
00100000
00000000
00100000
,
01000000
10000000
00000000
10000000
00100000
01000000
00000000
01000000
,
00020000
00230000
02300000
23000000
,
31000000
00100000
00010000
10000000
00010000
00000000
01000000
00000000
,
00001000
00010000
00000100
00001000
00000001
00000000
00000100
00000000
,
00000010
00001000
00000100
00010000
00001000
00000000
01000000
00000000
,
00100000
10000000
01000000
00100000
00010000
01000000
00100000
10000000
,
00010000
00110000
00100000
00101000
,
00001000
00011000
00010000
00010010
,
00000010
00001000
00000010
00001000
00000001
00000010
00000100
00010000
,
00002000
00000000
00000000
00013000
,
00002000
00000000
00000000
00000000
00000000
00010000
00000000
00023000
00000000
00000000
00000000
00000000
00000000
00000100
00000000
00000200
,
00030000
00000000
00000000
00000000
00000000
00010000
00000000
00020300
00000000
00000000
00000000
00001000
00000000
00100000
00000000
00032000
,
00000000
00000000
00000000
00000000
00000000
00000000
00000000
01000000
00000000
00000000
00000000
00000000
00000000
00000000
00000000
00000000
02003000
00000000
00000000
00000000
00000000
00000000
00000000
00100000
00000000
00000000
00000000
00000000
00000000
00000000
00000000
00000000
,
03200000
00000000
00000000
00000000
00000000
00000000
00000000
10000000
00000000
00000000
00000000
00000000
00000000
00000000
00000000
00000000
20300000
00000000
00000000
00000000
00000000
00000000
00000000
00010000
00000000
00000000
00000000
00000000
00000000
00000000
00000000
00000000
,
31000000
00000000
00000000
00000000
00000000
00000000
00000000
00000000
00100000
00000000
00000000
00100000
00000000
00000000
00000000
00000000
00001000
00000000
00001000
00000000
00001000
00000000
00000000
00000000
00010000
00000000
00000000
00010000
00000000
00000000
00000000
00000000
,
00000010
00000000
00000010
00000000
00000010
00000000
00000000
00000000
00001000
00000000
00000000
00001000
00000000
00000000
00000000
00000000
00000100
00000000
00000100
00000000
00000010
00000000
00000010
00000000
00000001
00000000
00000000
00000001
00000000
00000000
00000001
00000000
,
00000100
00000000
00000000
00000000
00000100
00000000
00000000
00000000
00000010
00000000
00000000
00000010
00000000
00000000
00000000
00000000
00010000
00000000
00010000
00000000
00010000
00000000
00000000
00000000
00001000
00000000
00000000
00001000
00000000
00000000
00000000
00000000
,
00100000
00000000
00000000
00000000
00100000
00000000
00000000
00000000
00010000
00000000
00000000
00010000
00000000
00000000
00000000
00000000
02000000
00000000
00000000
00000000
00000000
00000000
00000000
00000000
03200000
00000000
00000000
00000000
00000000
00000000
00000000
00000000
,
10300000
00000000
00100000
00000000
10000000
00000000
00010000
01000000
,
00100000
00000000
01000000
00000000
00001000
00000000
00010000
00000100
,
00001000
00000000
00000100
00000000
00000010
00000000
00000001
00000100
,
00000010
00000000
00001000
00000000
00000100
00000000
00010000
00001000
,
00100000
00000000
00010000
10000000
00100000
00000000
01000000
00010000
,
00100000
00000000
01000000
10000000
00010000
00000000
01000000
00001000
,
00010000
00100000
00010000
00001000
00010000
00000100
00001000
00000001
,
00000200
00000000
00000000
00000000
,
00000000
00000000
00000000
00000000
,
00000000
00000000
00000000
00000000
00000000
00000300
00000000
00000000
00000000
00000000
00000000
00000000
00000000
00000000
00000000
00000000
00000000
00000000
00000000
00000000
00000000
00000000
00000000
00000000
00000010
00000000
00000000
00000000
00000000
00000000
00000000
00000000
00000000
00000000
00000000
00000000
00000000
00000000
00000000
00000000
00000000
00000000
00000000
00000000
00000000
00000000
00000000
00000000
00000010
00000000
00000000
00000000
00000000
00000000
00000000
00000000
00000000
00000000
00000000
00000000
00000000
00000000
00000000
00000000
00000000
00000000
00000000
00000000
00000000
00000000
00000000
00000000
00000010
00000000
00000000
00000000
00000000
00000000
00000000
00000000
00000000
00000000
00000000
00000000
00000000
00000000
00000000
00000000
00000000
00000000
00000000
00000000
00000000
00000000
00000000
00000000
,
00001000
00000010
00010000
00000000
00001000
00000000
00010000
00100000
,
00010000
00001000
01000000
00000000
01000000
00010000
00100000
00000000
,
00100000
00000000
00100000
01000000
10000000
00000000
10000000
00100000
,
01000000
00010000
00100000
00000000
00100000
00000000
00100000
00000000
,
00001000
00010000
00000010
00000000
00010000
00000000
00001000
00000010
,
00001000
00010000
00000100
00000000
00000100
00001000
00000010
00000000
,
00000010
00000100
00000001
00000000
00000020
00000000
00000230
00000000
,
00020300
00000000
00030000
00001000
00001000
00000000
00001000
00000000
,
00010000
00100000
01000000
00000000
00010000
00000000
01000000
00100000
,
00010000
00001000
00010000
00000000
00010000
00000010
00001000
00000000
,
00001000
00000000
00001000
00000100
00000010
00000000
00000010
00000001
,
00000100
00000010
00001000
00000000
00001000
00000000
00001000
00000000
,
00000100
00010000
00001000
00000000
00010000
00000000
00100000
00010000
,
00001000
00000010
00001000
00000000
00010000
00100000
01000000
00000000
,
01100000
10010000
20000000
32000000
,
03200000
00000000
00300000
00010000
00000000
00010000
00000000
01000000
,
00000000
01000000
00000000
00001000
00000000
00001000
00000000
00010000
,
00000000
00010000
00000000
00000100
00000000
00000100
00000000
00001000
,
00000000
00001000
00000000
00000010
00000000
00000010
00000000
00000100
,
00000000
00000000
00000100
00000000
00000010
00000000
00000000
00000000
00000010
00000000
00000000
00000000
00001000
00000000
00000000
00001000
,
00000000
00000000
00001000
00000000
00000100
00000000
00000000
00000000
00000100
00000000
00000000
00000000
00010000
00000000
00000000
00010000
,
00000000
00010000
00001000
00100000
00010000
01000000
00100000
10000000
,
01000000
00100000
00001000
00000000
00020000
00000000
00032000
00000000
,
00003010
00000000
00000001
00000100
00000010
00000000
00000100
00000010
,
00001000
00000000
00000100
00010000
00002000
00000000
00023000
00000000
,
00230000
00000000
01300000
00010000
10000000
00000000
01000000
00100000
,
00010000
00000000
01000000
00100000
00020000
00000000
00032000
00000000
,
00003010
00000100
00001000
00000000
00001100
00000000
00000001
00000000
,
00000101
00001000
00010100
00000100
,
00011000
00000000
00100000
00001000
00010000
00001000
00000010
00000100
,
00001000
00000010
00000200
00000000
00000000
00000000
00000000
00000000
,
00000301
00001001
00000000
00000000
;

//---------------dance-double - ----------------
#NOTES:
     dance-double:
     2.X L.M.F.A.O:
     Hard:
     15:
     0.609624,0.802082,0.117021,0.234042,0.347163,547.000000,532.000000,15.000000,30.000000,0.000000,0.000000,0.609624,0.802082,0.117021,0.234042,0.347163,547.000000,532.000000,15.000000,30.000000,0.000000,0.000000:
00000000
00000000
00000000
00000000
,
00000000
00000000
00000000
00000000
,
00000000
00000000
00000000
00000000
,
00000000
00000000
00000000
00000000
,
00000000
00000000
00000000
00000000
,
00010000
00000000
00000000
00000000
00000000
00000000
00000000
00000000
00000000
00000000
00000000
00000000
00000000
00000000
00001000
00010000
,
00000100
00000000
00000000
00000000
00000000
00000000
00000000
00000000
00000000
00000010
00000001
00001000
,
00000010
00000000
00000000
00000000
00000000
00000000
00001000
00000100
00010000
00000000
00000000
00000000
00000000
00000000
00001000
01000000
,
00010000
20000000
32000000
03100000
,
00210000
00000000
00010000
00000000
00010000
00000000
00310000
00100000
,
02000000
00000000
10000000
00000000
13000000
01000000
00010000
00001000
,
01000000
00000000
01000000
00010000
00100000
00000000
00100000
00000000
,
00100000
00001000
00010000
00000000
00010000
00000100
00001000
00000010
,
00000200
00000000
00000001
00000000
00000001
00000000
00000301
00001000
,
00000200
00000000
00000010
00000000
00000310
00001000
00010000
01000000
,
00100000
00000000
00010000
00000000
01000000
00000000
00100000
10000000
01000000
00000000
00100000
00000000
00001000
00000000
00010000
00000100
,
00001000
00000200
00000310
00000011
,
00000001
00000000
00000100
00000000
00000000
00000000
00000100
00000000
00000010
00000000
00001000
00000001
00000000
00000000
00001000
00000000
,
00000100
00000000
00010000
00000000
00000000
00000000
00010000
00000000
00001000
00000000
01000000
00010000
00000000
00000000
10000000
00000000
,
01000000
00000000
00100000
00000000
00000000
00000000
00100000
00000000
01000000
00000000
10000000
00010000
00000000
00000000
01000000
00000000
,
00010000
00100000
00000000
00100000
01000000
01000000
00010000
00001000
,
00000010
00000000
00000100
00000000
00000000
00000000
00000100
00000000
00001000
00000000
00000001
00000100
00000000
00000000
00000001
00000000
,
00001000
00000000
00000100
00000000
00000000
00000000
00000100
00000000
00010000
00000000
00001000
00100000
00000000
00000000
00010000
00000000
,
01000000
00000000
00100000
00000000
00000000
00000000
00100000
00000000
10000000
00000000
00010000
00100000
00000000
00000000
01000000
00000000
,
00100000
00020000
00032000
00003020
,
00000130
00000001
00000010
00000100
00001000
00000010
00010000
00001000
,
00100000
01000000
10000000
00100000
01000000
00010000
00100000
00001000
,
00010000
00000100
00000010
00000001
00000100
00000010
00001000
00000100
,
00001000
00010000
00100000
01000000
10000000
00100000
00010000
00001000
,
00100000
00000000
00101000
00000000
00001000
00000000
00011000
00010000
,
00000100
00000000
00000000
00000000
00000110
00000000
00000000
00000000
00000001
00000000
00000000
00001000
00000000
00000000
00000010
00000000
,
00000100
00000000
00001000
00000000
00010000
00000000
01000000
00000000
10000000
00010000
10000000
00010000
01000000
00010000
01000000
00010000
,
00200000
00000000
00000000
01300000
,
21000000
00000000
00000000
00000000
00000000
00000000
00000000
00000000
00000000
00000000
30010000
01000000
00000000
00000000
00010000
00000000
02000000
00000000
00000000
00000000
00000000
00000000
00000000
00000000
03000000
00000000
00001000
00010000
00000000
00000000
00001000
00000000
,
00020000
00000000
00000000
00000000
00000000
00000000
00000000
00000000
00000000
00000000
00030100
00001000
00000000
00000000
00000100
00000000
00002000
00000000
00000000
00000000
00000000
00000000
00003001
00000100
00000000
00000000
00000001
00000100
00000000
00000000
00000001
00000000
,
00000020
00000000
00000000
00000000
00000100
00000000
00000000
00000100
00000000
00000000
00000100
00000000
00000000
00000000
00000000
00000000
00000032
00000000
00000000
00000000
00000100
00000000
00000000
00000100
00000000
00000000
00000100
00000000
00000000
00000000
00000000
00000000
,
00002003
00000000
00000000
00000000
00000100
00000000
00000000
00000100
00000000
00000000
00000100
00000000
00000000
00000000
00000000
00000000
00003020
00000000
00000000
00000000
00000100
00000000
00000000
00000230
00000000
00000000
00000001
00000000
00000000
00000000
00000001
00000000
,
00000301
00000000
00000000
00000000
00000001
00000000
00000000
00000000
00000100
00000000
00000000
00000100
00000000
00000000
00000100
00000000
00001000
00000000
00001000
00000000
00001000
00000000
00000000
00000000
00010000
00000000
00000000
00010000
00000000
00000000
00010000
00000000
,
00001000
00000000
00001000
00000000
00001000
00000000
00000000
00000000
01000000
00000000
00000000
01000000
00000000
00000000
01000000
00000000
00100000
00000000
00100000
00000000
01000000
00000000
01000000
00000000
10000000
00000000
00000000
01000000
00000000
00000000
00010000
00000000
,
00100000
00000000
00000000
00000000
00100000
00000000
00000000
00000000
01000000
00000000
00000000
01000000
00000000
00000000
01000000
00000000
00010000
00000000
00010000
00000000
00010000
00000000
00000000
00000000
00001000
00000000
00000000
00001000
00000000
00000000
00001000
00000000
,
00000010
00000000
00000000
00000000
00000010
00000000
00000000
00000000
00000100
00000000
00000000
00000100
00000000
00000000
00000100
00000000
00002000
00000000
00000000
00000000
00000000
00000000
00000000
00000000
00003040
00000000
00000000
00000000
00000000
00000000
00000000
00000000
,
00000130
00000001
00000100
00000001
00000010
00000001
00000010
00000001
,
00001000
00000010
00001000
00000010
00010000
00000010
00010000
00000010
,
00010000
00001000
00010000
00001000
00100000
00001000
00100000
00001000
,
00100000
00010000
00100000
00010000
10000000
00100000
10000000
00100000
,
01000000
00001000
00010000
00000100
00000010
00000001
00000100
00000010
,
00001000
00010000
00100000
01000000
10000000
00100000
01000000
00001000
,
00010000
00001000
00010000
00000000
00000100
00000010
00000100
00000000
00001000
00000001
00001000
00000000
00000010
00010000
00000010
00000000
,
00002000
00000000
00000000
00000000
,
00000000
00000000
00000000
00000000
,
00000000
00000000
00000000
00000000
00000000
00003000
00000000
00000000
00000000
00000000
00000000
00000000
00000000
00000000
00000000
00000000
00000000
00000000
00000000
00000000
00000000
00000000
00000000
00000000
00000100
00000000
00000000
00000000
00000000
00000000
00000000
00000000
00000000
00000000
00000000
00000000
00000010
00000000
00000000
00000000
00000000
00000000
00000000
00000000
00000000
00000000
00000000
00000000
00000001
00000000
00000000
00000000
00000000
00000000
00000000
00000000
00000000
00000000
00000000
00000000
00000100
00000000
00000000
00000000
00000000
00000000
00000000
00000000
00000000
00000000
00000000
00000000
00000010
00000000
00000000
00000000
00000000
00000000
00000000
00000000
00000000
00000000
00000000
00000000
00010000
00000000
00000000
00000000
00000000
00000000
00000000
00000000
00000000
00000000
00000000
00000000
,
00001000
00000000
00100000
00001000
00100000
00000000
00010000
00000000
01000000
00000000
00100000
00000000
00010000
00000000
00001000
00000000
,
00000100
00000000
00000001
00000000
00000010
00000000
00000000
00000000
00000010
00000000
00001000
00000010
00000100
00000000
00000000
00000000
,
00000100
00000000
00000000
00000000
00001000
00000000
00000100
00010000
00001000
00000000
00000000
00000000
00001000
00000000
00010000
00000000
,
00100000
10000000
00010000
00100000
00010000
10000000
00100000
01000000
,
00001000
00010000
00000100
00001000
00000010
00000100
00001000
00010000
,
00100000
00000000
10000000
00000000
01000000
00000000
00000000
00000000
01000000
00000000
00010000
01000000
00100000
00000000
00000000
00000000
,
00100000
00000000
00010000
10000000
00100000
00000000
00000000
00000000
00020000
00000000
00000000
00000000
00032000
00000000
00000000
00000000
,
00003020
00000000
00000030
00000001
00000001
00000100
00000001
00001000
,
00000100
00010000
00001000
01000000
00100000
00010000
00001000
00000100
,
00000001
00000000
00000010
00000000
00000100
00000000
00000000
00000000
00000100
00000000
00000001
00000100
00000010
00000000
00000000
00000000
,
00000010
00000000
00000000
00000000
00000001
00000000
00000100
00000010
00000001
00000000
00000000
00000000
00000010
00000000
00001000
00000000
,
00000100
00000010
00000001
00000100
00000010
00001000
00000100
00010000
,
00001000
01000000
00100000
10000000
01000000
00100000
00010000
00001000
,
00000100
00000000
00000010
00000000
00000001
00000000
00000100
00000000
00000010
00000000
00000000
00000100
00001000
00000000
00010000
00000000
,
00000100
00010000
00001000
00000000
00200000
00000000
02300000
00000000
,
23000000
00000000
30000000
00100000
00000000
00100000
00000000
01000000
,
00000000
01000000
00000000
00010000
00000000
00010000
00000000
00001000
,
00000000
00001000
00000000
00000010
00000000
00000010
00000000
00000100
,
00000000
00000100
00000000
00001000
00000000
00001000
00000000
00010000
,
00000000
00000000
00010000
00000000
00100000
00000000
00000000
00000000
01100000
00000000
00000000
00000000
01010000
00000000
00000000
00010000
,
00000000
00000000
00100000
00000000
00001000
00000000
00000000
00000000
00011000
00000000
00000000
00000000
00010100
00000000
00000000
00010000
,
00000000
00000000
00000100
00000000
00000010
00000000
00000001
00000000
00000100
00000000
00000010
00000000
00001000
00000001
00001000
00000001
,
00000010
00000100
00001000
00000001
00000100
00000000
00000000
00000000
00000020
00000000
00000000
00000000
00001030
00000000
00000000
00000000
,
00001010
00000000
00000000
00000000
00000000
00000000
00001000
00000100
00000010
00000000
00000001
00000000
00000100
00000000
00000010
00000000
,
00001000
00000000
00000100
00000000
00010000
00001000
01000000
00000000
00100000
00000000
00010000
00000000
00001000
00000000
00000010
00000000
,
00000001
00000000
00000100
00000000
00000010
00001000
00000100
00000000
00000001
00000000
00000100
00000000
00010000
00000000
00001000
00000000
,
01000000
00000000
00100000
00000000
10000000
01000000
00100000
00000000
00001000
00000000
00010000
00000000
00100000
00000000
00001000
00000000
,
00000010
00001000
00000001
00000000
00001001
00000000
00000100
00000000
,
00010010
00000000
00000000
00000000
00001000
00000000
00000000
00000000
00010001
00000000
00000000
00000000
00000001
00000000
00000010
00000100
,
00001000
00000000
00000100
00010000
00001000
00000000
01000000
00000000
00100000
00000000
00010000
00000000
00001000
00010000
00001000
00010000
,
00000010
00001000
00000010
00001000
00000200
00000000
00000000
00000000
00000000
00000000
00000000
00000000
00000000
00000000
00000000
00000000
,
00000310
00001001
00000000
00000000
;
