#VERSION:0.83;
#TITLE:犬に雨傘;
#SUBTITLE:;
#ARTIST:OSTER project feat. そらこ;
#TITLETRANSLIT:Inu ni amagasa;
#SUBTITLETRANSLIT:;
#ARTISTTRANSLIT:OSTER project feat. Sorako;
#GENRE:FRENCH POP;
#ORIGIN:beatmania IIDX 28 BISTROVER;
#TAGS:;
#CREDIT:;
#BANNER:Inu ni amagasa.png;
#BACKGROUND:Inu ni amagasa-bg.png;
#PREVIEWVID:;
#JACKET:Inu ni amagasa-jacket.png;
#CDIMAGE:;
#DISCIMAGE:;
#LYRICSPATH:;
#CDTITLE:../_YSD cdtitles/ysd br2024 cdtitle.png;
#MUSIC:Inu ni amagasa.ogg;
#OFFSET:-0.025000;
#SAMPLESTART:65.265999;
#SAMPLELENGTH:24.000000;
#SELECTABLE:YES;
#BPMS:0.000000=240.000000
;
#STOPS:;
#DELAYS:;
#WARPS:;
#TIMESIGNATURES:0.000000=5=4
,5.000000=6=4
;
#TICKCOUNTS:0.000000=4
;
#COMBOS:0.000000=1
;
#SPEEDS:0.000000=1.000000=0.000000=0
;
#SCROLLS:0.000000=1.000000
;
#FAKES:;
#LABELS:0.000000=Song Start
;
#BGCHANGES:0.500000=Inu ni amagasa.avi=1.000000=0=0=0=StretchNoLoop====,
99999=-nosongbg-=1.000=0=0=0 // don't automatically add -songbackground-
;
#KEYSOUNDS:;
#ATTACKS:
;

//---------------dance-single - ----------------
#NOTEDATA:;
#CHARTNAME:;
#CHARTHASH:2021710861;
#STEPSTYPE:dance-single;
#BANNER:;
#DESCRIPTION:;
#CHARTSTYLE:;
#DIFFICULTY:Beginner;
#METER:4;
#METERF:0.000000;
#LASTSECONDHINT:125.775002;
#RADARVALUES:0.202303,0.380913,0.318059,0.068155,0.011359,187.000000,145.000000,42.000000,9.000000,0.000000,0.000000,0.000000,0.000000,0.000000,0.202303,0.380913,0.318059,0.068155,0.011359,187.000000,145.000000,42.000000,9.000000,0.000000,0.000000,0.000000,0.000000,0.000000;
#CREDIT:YOSEFU;
#NOTES:
// measure 0
0000
0000
0000
0000
,  // measure 1
0000
0000
0000
0000
,  // measure 2
0000
0000
0000
0000
,  // measure 3
0000
0000
0000
0000
,  // measure 4
0000
0000
0000
0000
,  // measure 5
0000
0000
0000
0000
,  // measure 6
0000
0000
0000
0000
,  // measure 7
0000
1000
0000
0000
,  // measure 8
0001
0000
0000
1000
,  // measure 9
0000
0000
0010
0000
,  // measure 10
0000
0110
0000
0000
,  // measure 11
1001
0000
0000
0110
,  // measure 12
0000
0000
0000
0000
,  // measure 13
0000
1000
0000
0000
,  // measure 14
0001
0000
0000
1000
,  // measure 15
0000
0000
0001
0000
,  // measure 16
0000
0100
0000
0000
,  // measure 17
0010
0000
0000
0100
,  // measure 18
0000
0000
0001
0000
,  // measure 19
0000
0010
0000
0000
,  // measure 20
0100
0000
0000
0010
,  // measure 21
0000
0000
0001
0000
,  // measure 22
0000
1000
0000
0000
,  // measure 23
0010
0000
0000
0100
,  // measure 24
0000
0000
0001
0000
,  // measure 25
0000
1000
0000
1000
,  // measure 26
0000
1000
0000
1000
,  // measure 27
0000
0000
0000
0001
,  // measure 28
0000
0001
0000
0001
,  // measure 29
0000
0001
0000
0001
,  // measure 30
0000
0000
0000
0100
,  // measure 31
0000
0100
0000
0000
,  // measure 32
0100
0000
0000
0010
,  // measure 33
0000
0000
0010
0000
,  // measure 34
0000
1000
0000
0000
,  // measure 35
0001
0000
0000
1001
,  // measure 36
0000
0000
0000
0000
,  // measure 37
0000
0110
0000
0000
,  // measure 38
0000
0000
0000
1000
,  // measure 39
0000
0000
0001
0000
,  // measure 40
0000
0100
0000
0000
,  // measure 41
0001
0000
0000
1001
,  // measure 42
0000
0000
1000
0000
,  // measure 43
0000
0100
0000
0000
,  // measure 44
0010
0000
0000
0110
,  // measure 45
0000
0000
0100
0000
,  // measure 46
0000
1000
0000
0000
,  // measure 47
0001
0000
0000
1001
,  // measure 48
0000
0000
1000
0000
,  // measure 49
0000
0010
0000
0000
,  // measure 50
0100
0000
0000
0110
,  // measure 51
0000
0000
0000
1001
,  // measure 52
0000
1001
0000
0000
,  // measure 53
0000
0110
0000
0110
,  // measure 54
0000
0000
0100
0000
,  // measure 55
0000
0010
0000
0000
,  // measure 56
0100
0000
0000
2002
,  // measure 57
0000
0000
0000
0000
,  // measure 58
0000
0000
0000
0000
,  // measure 59
0000
0000
0000
3003
0000
0000
0000
0000
0000
0000
0000
1000
,  // measure 60
0000
0000
0000
0000
0000
0000
0000
0000
0001
0000
0000
0000
,  // measure 61
0000
1000
0000
0000
,  // measure 62
0001
0000
0000
0220
,  // measure 63
0000
0000
0000
0000
,  // measure 64
0000
0000
0000
0000
,  // measure 65
0330
0000
0000
1001
,  // measure 66
0000
0000
0001
0000
,  // measure 67
0000
1000
0000
0000
,  // measure 68
0100
0000
0000
0010
,  // measure 69
0000
0000
0001
0000
,  // measure 70
0000
1000
0000
0000
,  // measure 71
0100
0000
0000
0110
,  // measure 72
0000
0000
0010
0000
,  // measure 73
0000
0001
0000
0000
,  // measure 74
1000
0000
0000
1001
,  // measure 75
0000
0000
0001
0000
,  // measure 76
0000
0100
0000
0000
,  // measure 77
0010
0000
0000
1001
,  // measure 78
0000
0000
1000
0000
,  // measure 79
0000
0100
0000
0000
,  // measure 80
0010
0000
0000
0001
,  // measure 81
0000
0000
0100
0000
,  // measure 82
0000
0010
0000
0000
,  // measure 83
0000
0000
0000
1001
,  // measure 84
0000
0000
1000
0000
,  // measure 85
0000
1001
0000
0000
,  // measure 86
0001
0000
0000
0110
,  // measure 87
0000
0000
0100
0000
,  // measure 88
0000
1001
0000
0000
,  // measure 89
0110
0000
0000
1001
,  // measure 90
0000
0000
1000
0000
,  // measure 91
0000
0001
0000
0000
,  // measure 92
0100
0000
0000
0010
,  // measure 93
0000
0000
0100
0000
,  // measure 94
0000
0001
0000
0000
,  // measure 95
1000
0000
0000
1001
,  // measure 96
0000
0000
0001
0000
,  // measure 97
0000
0100
0000
0000
,  // measure 98
0001
0000
0000
1001
,  // measure 99
0000
0000
0110
0000
,  // measure 100
0000
1001
0000
0000
,  // measure 101
0110
0000
0000
1001
,  // measure 102
0000
1001
0000
0000
,  // measure 103
0000
0010
0000
0000
,  // measure 104
0100
0000
0000
1001
,  // measure 105
0000
1001
0000
0000
,  // measure 106
0000
0020
0000
0000
,  // measure 107
0000
0000
0000
0000
0000
0030
0000
0000
0000
1001
0000
0000
,  // measure 108
0000
0000
0110
0000
,  // measure 109
0000
1001
0000
0000
,  // measure 110
1001
0000
0000
0110
,  // measure 111
0000
0000
0110
0000
,  // measure 112
0000
2002
0000
0000
,  // measure 113
0000
0000
0000
0000
,  // measure 114
0000
0000
3003
0000
,  // measure 115
0000
0020
0000
0000
,  // measure 116
0000
0000
0000
0000
,  // measure 117
0030
0000
1001
0000
,  // measure 118
0000
1000
0000
0100
,  // measure 119
0000
0000
0010
0000
,  // measure 120
0001
0001
0000
1000
,  // measure 121
1000
0001
0000
0000
,  // measure 122
0100
0000
0100
0200
,  // measure 123
0000
0000
0000
0000
,  // measure 124
0000
0000
0000
0000
,  // measure 125
0000
0000
0000
0300
;

//---------------dance-single - ----------------
#NOTEDATA:;
#CHARTNAME:;
#CHARTHASH:270384818;
#STEPSTYPE:dance-single;
#BANNER:;
#DESCRIPTION:;
#CHARTSTYLE:;
#DIFFICULTY:Easy;
#METER:7;
#METERF:0.000000;
#LASTSECONDHINT:125.775002;
#RADARVALUES:0.307241,0.428528,0.174175,0.287768,0.045437,284.000000,261.000000,23.000000,38.000000,0.000000,0.000000,0.000000,0.000000,0.000000,0.307241,0.428528,0.174175,0.287768,0.045437,284.000000,261.000000,23.000000,38.000000,0.000000,0.000000,0.000000,0.000000,0.000000;
#CREDIT:YOSEFU;
#NOTES:
0000
0000
0000
0000
,
0000
0000
0000
0000
,
0000
0000
0000
0000
,
0000
0000
0000
0000
,
0000
0000
0000
0000
,
0000
0000
0000
0000
,
0000
0000
0000
0000
,
0000
1000
0001
0000
,
1000
0010
0000
0100
,
0001
0010
0200
0000
,
0300
1100
0000
0000
,
1001
0000
0000
0202
,
0000
0000
0303
0000
,
0000
0100
0000
0000
,
0001
0000
0100
0001
,
0000
0000
1000
0000
,
0100
0010
0000
0100
,
0000
0000
1000
0001
,
0100
0000
0000
0001
,
0010
0100
0000
0000
,
1000
0200
0000
1300
,
0002
0000
0103
0002
,
0000
0013
0200
0000
,
0000
1300
0001
0002
,
0000
0000
0003
0100
,
0010
2000
0000
3002
,
0000
0013
0100
2000
,
0000
0000
3000
0010
,
0100
0002
0000
0023
,
0000
0130
1000
0002
,
0000
0000
0000
0103
,
0010
2000
0000
0000
,
3002
0000
0000
0023
,
0000
0000
0230
0000
,
0000
1300
0001
0100
,
0010
0100
0001
1000
,
0000
0000
0100
0000
,
0010
0002
0000
0000
,
0203
0000
0000
0310
,
1000
0000
1010
0000
,
0000
0010
0100
0000
,
0101
0000
0000
0001
,
0000
0000
1001
0000
,
1000
0100
0000
0000
,
0110
0000
0000
0010
,
0001
0000
1001
0000
,
0000
1000
0010
0000
,
0110
0000
0000
0101
,
0000
0000
0000
0001
,
1000
0001
0000
0000
,
1000
0000
0000
1100
,
0000
0000
0000
0101
,
0000
0011
0000
0000
,
0000
1010
0000
1000
,
0100
0000
1000
0001
,
0000
1000
0001
0000
,
0100
0010
1000
0002
,
0000
0000
0000
0000
,
0000
1003
0100
0000
,
1000
0000
0000
0001
0000
0000
0000
0000
0000
0000
0000
1000
,
0000
0000
0000
0001
0000
0000
0000
0000
1000
0000
0000
0000
,
0001
1000
0000
0000
,
0001
0000
0000
0220
,
0000
0000
0000
0000
,
0000
0000
0000
0330
,
1001
0000
0000
1000
,
0010
0000
0100
0001
,
0000
0010
0100
0000
,
1000
0001
0100
0020
,
0000
0030
1000
0001
,
0010
0200
0000
0300
,
1000
0000
0000
0000
0000
0001
0000
0000
0000
0100
0000
0000
,
0001
0000
1000
0100
,
0000
0010
0001
0000
,
1000
0010
0100
0002
,
0000
0003
0000
0010
,
0100
0010
0000
0001
,
1000
0000
0010
0100
,
0000
0000
0001
0100
,
0000
0000
0000
0010
0000
0000
0000
0000
0010
0000
0000
0000
,
1000
0000
0000
0000
0000
1000
0000
0000
0000
0001
0000
0000
,
0000
0010
0100
0000
,
0010
0002
0000
0000
,
0000
0000
1003
0001
,
0100
0000
0001
1000
,
0000
0100
0100
0100
,
1000
1000
1000
0001
,
0100
0000
0001
0001
,
0100
0200
0000
0300
,
2020
0000
3030
1000
,
0001
0000
0100
0001
,
0000
1000
0100
0000
,
0010
0100
1000
0001
,
0000
0100
0001
0000
,
1000
0100
0000
0010
,
0100
1000
0001
0101
,
0000
0100
0001
0100
,
0010
0100
0000
0001
,
1000
0000
0100
0010
,
0000
0000
0010
0000
0000
0000
0001
0000
0000
0000
0000
0001
,
0000
0200
0000
0000
,
0310
1000
0001
0011
,
0010
0001
0000
1000
,
0010
0200
0000
0000
,
0301
0010
0000
0110
,
0000
1001
0000
0000
,
1000
0020
0000
0000
,
0000
0000
0000
0000
0000
0130
0000
0000
0000
0001
0000
0000
,
0100
0000
0001
1000
,
0000
0100
0100
0100
,
0010
0010
0010
0001
,
0000
0000
1001
0000
0000
0000
1000
0000
0000
1000
0000
0000
,
0010
0020
0000
0000
,
0000
0000
0000
0000
,
0000
0000
0130
0100
,
0100
0002
0000
0000
,
0000
0000
0000
0000
,
0000
0003
2000
0000
,
3100
0010
0000
0001
,
0000
0000
0001
0000
0000
0000
1000
0000
0000
0000
0000
1000
,
0000
0000
0000
0010
0000
0000
0000
0000
0010
0000
0000
0000
,
0100
0100
0001
0000
,
1000
0001
1000
2002
,
0000
0000
0000
0000
,
0000
0000
0000
0000
,
0000
0000
0000
3003
;

//---------------dance-single - ----------------
#NOTEDATA:;
#CHARTNAME:;
#CHARTHASH:935511337;
#STEPSTYPE:dance-single;
#BANNER:;
#DESCRIPTION:;
#CHARTSTYLE:;
#DIFFICULTY:Medium;
#METER:11;
#METERF:0.000000;
#LASTSECONDHINT:125.775002;
#RADARVALUES:0.405687,0.618984,0.151457,0.401360,0.140097,375.000000,355.000000,20.000000,53.000000,0.000000,0.000000,0.000000,0.000000,0.000000,0.405687,0.618984,0.151457,0.401360,0.140097,375.000000,355.000000,20.000000,53.000000,0.000000,0.000000,0.000000,0.000000,0.000000;
#CREDIT:YOSEFU;
#NOTES:
0000
0000
0000
0000
,
0000
0000
0000
0000
,
0000
0000
0000
0000
,
0000
0000
0000
0000
,
0000
0000
0000
0000
,
0000
0000
0000
0000
,
0000
0000
0000
0000
,
0000
1000
0010
0100
,
0001
0010
0100
0010
,
0001
1000
0020
0000
,
0130
0101
0000
0000
,
1001
0000
0000
2200
,
0000
0000
0300
0000
,
0000
3001
0000
0000
,
0100
0001
1000
0100
,
0010
0001
0200
0000
,
0301
2000
0000
3200
,
0000
0000
1300
0001
,
0200
0000
0300
0001
,
0010
0100
1000
0010
,
0100
0001
1000
0200
,
0000
0300
0020
0000
,
0030
0001
0200
0000
,
0000
1300
0100
0002
,
0000
0000
0003
0010
,
0100
2000
0000
3002
,
0000
0103
0001
0020
,
0000
0000
0030
1000
,
0010
0002
0000
0203
,
0000
0310
1000
0200
,
0000
0000
0300
0010
,
0001
1000
1000
1000
,
0001
0001
0001
0100
,
0100
0100
0010
0010
,
0010
0100
0001
0010
,
0100
1000
0010
0200
,
0000
0000
0010
0000
,
0000
0302
0000
0000
,
0023
0000
0000
0130
,
0020
0000
0031
1000
,
0010
0100
0020
0000
,
1030
0100
0010
2000
,
0000
0000
3000
0010
,
0001
2000
0000
3000
,
0010
0100
0010
1000
,
0002
0000
0013
0100
,
0010
0001
0200
0000
,
0310
1000
0100
0002
,
0000
0000
0003
0100
,
0010
0001
0100
0010
,
1000
0100
0010
0001
,
0000
0000
0011
0000
0000
0000
0000
0000
0000
1001
0000
0000
,
0000
0000
0000
1000
0000
0000
0000
0000
1010
0000
0000
0000
,
0010
1001
0000
1000
,
0010
0000
0100
0001
,
0010
0100
1000
0010
,
0100
0001
1000
0200
,
0000
0000
0010
0000
,
0000
1300
0001
0100
,
0010
0000
0000
0100
0000
0000
0001
0000
0000
0000
0000
0010
,
0000
0000
0000
0110
0000
0000
0000
0000
1000
0000
0000
0000
,
1001
0001
0100
0010
,
0100
0001
0010
0220
,
0000
0000
0000
0000
,
0330
0000
0000
1000
0000
0000
0001
0000
0000
0100
0000
0001
,
0100
0000
0000
0001
,
0100
0001
1000
0100
,
1000
0001
0100
0001
,
0010
0100
0010
2000
,
0000
3000
0010
0001
,
0100
0020
0000
0030
,
1000
0000
0000
0000
0000
0001
0000
0000
0000
0010
0000
0000
,
0100
1000
0100
0010
,
0001
0100
0010
1000
,
0100
0010
0100
0002
,
0000
0000
0003
0100
,
1000
0010
0100
0001
,
0010
0100
1000
0002
,
0000
0003
0100
0010
,
1000
0002
0000
0000
,
0023
0000
0000
0000
0000
0130
0000
0000
0000
1000
0000
0000
,
0000
0010
0100
0001
,
0010
2000
0000
0000
,
0000
0000
3010
0001
,
0100
0010
1000
0100
,
0010
0000
0000
0001
0000
0000
0100
0000
0001
1000
0000
0000
,
0100
0000
0000
1000
0000
0001
0100
0000
0000
0010
0000
0000
,
1000
0100
0010
0001
,
0100
0220
0000
0330
,
2020
0000
0000
0000
0000
3030
0000
0000
0000
1002
0000
0000
,
0000
0000
1003
0100
,
0010
0001
0100
0010
,
1000
0001
0010
0200
,
0000
1300
0001
0100
,
0010
0000
0000
0100
0000
0000
0001
0000
1000
0001
0000
0000
,
1000
0000
0000
0001
0000
0100
0001
0000
0000
0010
0000
0000
,
0000
0100
0010
0001
,
0100
2000
0000
3100
,
0010
1000
0100
0010
,
0000
0000
0011
0000
0000
0000
1001
0000
0000
0000
0000
1000
,
0000
2020
0000
3030
,
0010
0000
1000
0010
0000
1000
0001
0000
1000
0100
0000
0000
,
1000
0000
0001
0100
0000
0000
0000
0000
0000
0001
0000
0000
,
0010
0200
0000
0000
,
1300
0001
0100
0110
,
0000
1001
1000
0001
,
0010
2000
0000
0000
,
0000
0000
0000
0000
0000
3010
0000
0000
0000
0001
0000
0000
,
0100
0010
1000
0100
,
0010
0000
0000
0001
0000
0000
0100
0000
0001
0010
0000
0000
,
0100
0000
0000
1000
0000
0010
0100
0000
0000
0001
0000
0000
,
0000
0000
0101
0000
0000
0000
0100
0000
0000
0001
0000
0000
,
0010
0000
0100
2000
0000
0000
0000
0000
0100
0000
0000
0000
,
0001
0000
0100
3001
,
0010
0000
0000
0100
0000
0000
0010
0000
0001
1000
0000
0001
,
0100
0000
0001
0020
0000
0000
0000
0000
0000
0000
0000
0000
,
0000
0000
0000
0000
,
0000
0030
2000
0000
,
3010
0000
0000
0100
0000
0010
0000
0000
0000
0001
0000
0000
,
1000
0000
0010
0000
0000
0000
0100
0000
0000
0001
0000
1000
,
0000
0000
0100
1000
0000
0000
0001
0000
0100
0000
0000
0010
,
1000
0000
0000
0001
0000
1000
0100
0000
1000
0000
0000
0001
,
0100
0000
0001
0000
0000
0000
0010
0000
0000
0022
0000
0000
,
0000
0000
0000
0000
,
0000
0000
0000
0000
,
0000
0000
0000
0033
;

//---------------dance-single - ----------------
#NOTEDATA:;
#CHARTNAME:kinda fitting for a slice of life opening;
#CHARTHASH:3269722427;
#STEPSTYPE:dance-single;
#BANNER:;
#DESCRIPTION:;
#CHARTSTYLE:;
#DIFFICULTY:Hard;
#METER:15;
#METERF:0.000000;
#LASTSECONDHINT:125.775002;
#RADARVALUES:0.573372,0.952284,0.181748,0.408933,0.484661,530.000000,506.000000,24.000000,54.000000,0.000000,0.000000,0.000000,0.000000,0.000000,0.573372,0.952284,0.181748,0.408933,0.484661,530.000000,506.000000,24.000000,54.000000,0.000000,0.000000,0.000000,0.000000,0.000000;
#CREDIT:ヨセフ;
#NOTES:
0000
0000
0000
0000
,
0000
0000
0000
0000
,
0000
0000
0000
0000
,
0000
0000
0000
0000
,
0000
0000
0000
0000
,
0000
0000
0000
0000
,
0000
0000
0000
0000
,
0000
1000
0100
0010
,
0001
1000
0001
0100
,
0010
0000
0000
0100
0000
0000
2000
0000
0000
0000
0000
3100
,
0010
0110
0000
0000
,
0101
0000
0000
2002
,
0000
0003
0200
0000
,
3000
1300
0000
0000
,
0010
0100
0010
1000
,
0001
0010
0200
0000
,
1300
0020
0000
2030
,
0000
3001
0010
0100
,
1000
0010
0100
0001
,
0010
0100
1000
0001
,
0100
0010
1000
0001
,
2000
0000
3001
0020
,
0000
0130
2000
0000
,
3010
0001
0010
0200
,
0000
0000
0301
0010
,
0100
2000
0100
0100
,
0100
3100
1000
0002
,
0100
0100
0100
0103
,
0001
0020
0100
0100
,
0100
0130
0010
0002
,
0100
0100
0100
0103
,
0010
0000
0000
1000
0000
0000
0001
0000
0100
0001
0000
0000
,
1000
0000
0000
0100
0000
1000
0001
0000
0000
0100
0000
0000
,
0001
0000
0010
0100
0000
0000
1000
0000
0001
0000
0000
0100
,
0001
0010
0001
0100
,
0010
0001
0010
1000
,
0100
0010
1000
0010
,
0001
1000
0001
0200
0000
0000
0000
0000
0000
0000
0000
0000
,
0320
0000
0000
1030
,
0002
0000
0000
0000
0000
0013
0001
0000
0000
0100
0000
0000
,
0001
0000
0000
1000
0000
0000
0002
0000
0000
0000
0000
1003
,
0100
0010
0001
0100
,
1000
0000
0000
0100
0000
0010
0100
0000
0000
0001
0000
0000
,
1000
0000
0000
0010
0000
0000
0100
0000
0001
0000
0000
1000
,
0001
0000
0000
1000
0000
0100
0000
0000
1000
0001
0000
0000
,
0200
0000
0000
0000
0000
0301
1000
0000
0000
0100
0000
0000
,
0010
0000
0000
0100
0000
0000
2000
0000
0000
0000
0000
3001
,
0100
0000
0000
0001
1000
0010
0100
0000
0000
2000
0000
0000
,
0000
0000
3100
0010
,
1000
0100
0010
0001
,
0100
0000
0000
0010
0000
0000
1000
0000
0000
0001
0000
1000
,
0000
0000
0001
1000
0000
0000
0100
0000
0000
1100
0000
0000
,
0000
0000
0000
1000
0000
0001
0000
0000
0100
0001
1000
0001
,
0010
0011
0000
0001
,
1000
0001
1000
0010
,
0001
0010
1000
0010
,
0100
0001
0010
0002
,
0000
0000
0100
1000
,
0013
0000
0001
1000
0000
0001
1000
0000
0000
0010
0000
0000
,
0100
0000
0000
0001
0000
0000
1000
0100
0010
0001
0000
0010
,
0000
0000
0001
1000
0000
0000
0100
0000
1000
0000
0000
0001
,
1000
0001
0100
0001
0000
0000
0010
0000
0000
0100
0000
0000
,
1000
0010
0100
0202
,
0000
0000
0000
0000
,
0303
0000
0000
0001
0100
0010
1000
0010
0100
0001
1000
0100
,
0010
0000
0000
1001
,
0001
0000
0000
0000
0100
0000
0001
0000
0000
0000
0000
0000
0010
0000
0000
0001
0000
0000
1000
0000
0000
0000
0001
0000
,
0010
0000
0000
0001
0000
0000
0100
0000
0010
1000
0000
0000
,
0001
0000
0000
0100
0010
1000
0001
0000
0000
0021
0000
0000
,
0100
0001
0230
2300
,
3002
0203
0010
0301
,
1000
0000
0000
0100
0000
1000
0000
0000
0001
1000
0000
0000
,
0001
0000
0101
0000
0100
0001
1000
0001
,
0100
0000
0001
0010
0100
0010
0001
0000
,
0100
0010
1000
1200
,
0010
1000
0000
0320
,
0032
0203
0320
0032
,
0023
2030
3010
2020
,
0000
0000
0000
3030
0000
0000
1000
0000
0100
0000
0000
0000
,
0010
0000
0000
0002
0000
0000
0000
0000
1000
0000
0000
0000
,
0100
0000
0000
0000
0000
0013
0000
0000
0000
0001
0000
0000
,
0100
0001
1000
0100
,
1000
0020
0100
0100
,
0000
0000
0000
0000
0100
0000
0000
0000
0000
0000
0000
0000
0031
0000
0000
0000
0000
0000
0010
0000
0000
0100
0000
0000
,
0010
0000
0000
0100
0000
0000
0001
0000
0000
0000
0000
0000
1000
0000
0000
0000
0000
0000
0100
0000
0000
0000
1000
0000
,
0010
0000
0000
0001
0000
0000
0010
0000
0100
0001
0000
0000
,
0100
0000
0000
0000
0000
0000
0010
0000
0000
0000
1000
0000
0100
0000
0000
0000
0000
0000
0010
0000
0000
0001
0000
0000
,
0100
0001
0010
0000
0110
0000
1100
0000
,
1001
0201
0000
0000
,
1000
0000
0000
0000
0000
0010
0000
0000
0000
0302
0000
0000
,
0000
0000
1003
0100
,
1000
0000
0001
0100
0000
0000
0001
0000
0000
1000
0100
1000
,
0010
0000
0000
0100
0001
1000
0100
0000
0010
0002
0000
0000
,
0000
0000
0000
0103
0000
0001
0010
0000
0100
0000
0000
1000
,
0000
0000
0001
0100
0000
0001
1000
0000
0100
1000
0000
0001
,
0100
0000
0001
0010
0100
1000
0010
0100
0001
0020
0000
0000
,
0000
1000
0100
0031
,
1000
0010
0100
0001
0000
0000
1000
0100
0010
0100
0000
1000
,
0001
0000
0100
0001
0000
1000
0100
0000
0010
0001
0000
0000
,
0000
0000
0011
0000
0000
0000
0101
0000
0000
0000
0000
1010
,
0000
0000
0000
1100
0000
0000
1000
0000
0100
1000
0000
0001
,
0100
0010
0100
0010
1000
0001
0010
0100
1000
0100
0000
0010
,
0001
0000
1000
0001
0000
0000
0100
0000
0001
1000
0000
0000
,
0100
0000
0000
2000
0000
0000
0000
0000
0100
0000
0000
0000
,
0010
0002
3003
1001
,
0000
1001
1000
0100
,
1000
0020
0000
0000
,
0000
0000
0000
0030
0000
0001
0000
0000
0000
0010
0000
0000
,
0100
0000
0001
1000
0000
0000
0100
0000
0000
0010
0000
0001
,
0100
0000
0000
1000
0000
0000
0100
0000
0010
0100
0000
0000
,
0001
0000
0000
0000
0000
0000
0100
0000
0000
0000
0010
0000
1000
0000
0000
0000
0000
0000
0001
0000
0000
0100
0000
0000
,
1000
0100
0010
0000
0110
0000
0101
0000
,
0001
0010
0100
2000
0000
0000
0000
0000
0100
0000
0000
0000
,
0001
0000
0000
3000
0000
0001
1000
0000
0010
0100
0000
0001
,
1000
0000
0100
0010
0000
0001
1000
0010
0100
0001
0010
0100
,
1000
0001
0100
0020
0000
0000
0000
0000
0000
0000
0000
0000
,
0000
0000
0000
0000
,
0000
0030
0002
0000
,
0013
0000
0000
1000
0000
0010
0000
0000
1000
0100
0000
0000
,
0010
0000
0001
0000
0000
0100
0001
0000
0000
0010
0000
0100
,
0010
0000
1000
0010
0000
0000
0100
0000
1000
0010
0000
1000
,
0001
0000
0000
0100
0000
0001
0010
0000
0100
0000
0000
1000
,
0001
0000
0100
0001
0000
0010
0100
0000
0000
2200
0000
0000
,
0000
0000
0000
0000
,
0000
0000
0000
0000
,
0000
0000
0000
3300
;

//---------------dance-double - ----------------
#NOTEDATA:;
#CHARTNAME:;
#CHARTHASH:4122560794;
#STEPSTYPE:dance-double;
#BANNER:;
#DESCRIPTION:;
#CHARTSTYLE:;
#DIFFICULTY:Beginner;
#METER:4;
#METERF:0.000000;
#LASTSECONDHINT:122.775002;
#RADARVALUES:0.175257,0.371826,0.166602,0.053010,0.007573,162.000000,140.000000,22.000000,7.000000,0.000000,0.000000,0.000000,0.000000,0.000000,0.175257,0.371826,0.166602,0.053010,0.007573,162.000000,140.000000,22.000000,7.000000,0.000000,0.000000,0.000000,0.000000,0.000000;
#CREDIT:YOSEFU;
#NOTES:
00000000
00000000
00000000
00000000
,
00000000
00000000
00000000
00000000
,
00000000
00000000
00000000
00000000
,
00000000
00000000
00000000
00000000
,
00000000
00000000
00000000
00000000
,
00000000
00000000
00000000
00000000
,
00000000
00000000
00000000
00000000
,
00000000
00010000
00000000
00000000
,
00001000
00000000
00000000
00010000
,
00000000
00000000
00001000
00000000
,
00000000
00011000
00000000
00000000
,
00101000
00000000
00000000
00011000
,
00000000
00000000
00000000
00000000
,
00000000
00010000
00000000
00000000
,
00001000
00000000
00000000
00010000
,
00000000
00000000
00001000
00000000
,
00000000
00010000
00000000
00000000
,
00000010
00000000
00000000
00001000
,
00000000
00000000
00000010
00000000
,
00000000
00000100
00000000
00000000
,
00000001
00000000
00000000
00001000
,
00000000
00000000
00000100
00000000
,
00000000
00010000
00000000
00000000
,
00001000
00000000
00000000
01000000
,
00000000
00000000
00010000
00000000
,
00000000
10000000
00000000
10000000
,
00000000
10000000
00000000
01000000
,
00000000
00000000
00000000
00000000
,
00000000
00100000
00000000
00100000
,
00000000
00100000
00000000
00001000
,
00000000
00000000
00000000
00010000
,
00000000
00010000
00000000
00000000
,
00010000
00000000
00000000
00000100
,
00000000
00000000
00000100
00000000
,
00000000
00001000
00000000
00000000
,
00000001
00000000
00000000
00000100
,
00000000
00000000
00000000
00000000
,
00000000
00000110
00000000
00000000
,
00000000
00000000
00000000
00001000
,
00000000
00000000
00000001
00000000
,
00000000
00001000
00000000
00000000
,
00000010
00000000
00000000
00010000
,
00000000
00000000
00001000
00000000
,
00000000
00100000
00000000
00000000
,
00010000
00000000
00000000
10000000
,
00000000
00000000
00100000
00000000
,
00000000
01000000
00000000
00000000
,
00010000
00000000
00000000
10000000
,
00000000
00000000
01000000
00000000
,
00000000
00100000
00000000
00000000
,
01000000
00000000
00000000
01100000
,
00000000
00000000
00000000
01100000
,
00000000
10010000
00000000
00000000
,
00000000
00011000
00000000
00011000
,
00000000
00000000
00010000
00000000
,
00000000
00000010
00000000
00000000
,
00001000
00000000
00000000
00000002
,
00000000
00000000
00000000
00000000
,
00000000
00000000
00000000
00000000
,
00000000
00000000
00000000
00000003
00000000
00000000
00000000
00000000
00000000
00000000
00000000
00001000
,
00000000
00000000
00000000
00000000
00000000
00000000
00000000
00000000
00000001
00000000
00000000
00000000
,
00000000
00001000
00000000
00000000
,
00000001
00000000
00000000
00002002
,
00000000
00000000
00000000
00000000
,
00000000
00000000
00000000
00000000
,
00003003
00000000
00000000
00001001
,
00000000
00000000
00001000
00000000
,
00000000
00000010
00000000
00000000
,
00010000
00000000
00000000
00001000
,
00000000
00000000
00100000
00000000
,
00000000
01000000
00000000
00000000
,
10000000
00000000
00000000
10010000
,
00000000
00000000
00010000
00000000
,
00000000
01000000
00000000
00000000
,
00001000
00000000
00000000
00010000
,
00000000
00000000
00001000
00000000
,
00000000
00010000
00000000
00000000
,
00000100
00000000
00000000
00010100
,
00000000
00000000
00010000
00000000
,
00000000
00000100
00000000
00000000
,
00001000
00000000
00000000
00000010
,
00000000
00000000
00000100
00000000
,
00000000
00000002
00000000
00000000
,
00000000
00000003
00000000
00001001
,
00000000
00000000
00001000
00000000
,
00000000
00000010
00000000
00000000
,
00000100
00000000
00000000
00000001
,
00000000
00000000
00001000
00000000
,
00000000
00000100
00000000
00000000
,
00010000
00000000
00000000
00011000
,
00000000
00000000
00001000
00000000
,
00000000
01000000
00000000
00000000
,
00100000
00000000
00000000
01000000
,
00000000
00000000
00010000
00000000
,
00000000
10000000
00000000
00000000
,
01000000
00000000
00000000
01100000
,
00000000
00000000
00100000
00000000
,
00000000
00010000
00000000
00000000
,
10000000
00000000
00000000
00100000
,
00000000
00000000
01000000
00000000
,
00000000
00001000
00000000
00000000
,
00010000
00000000
00000000
00011000
,
00000000
00000000
00001000
00000000
,
00000000
00010000
00000000
00000000
,
00000100
00000000
00000000
00000110
,
00000000
00000110
00000000
00000000
,
00000000
00000002
00000000
00000000
,
00000000
00000003
00000000
00001001
,
00000000
00000000
00000100
00000000
,
00000000
00000110
00000000
00000000
,
00000001
00000000
00000000
00001001
,
00000000
00000000
00001000
00000000
,
00000000
00000200
00000000
00000000
,
00000000
00000000
00000000
00000000
,
00000000
00000000
00000000
00000300
,
00000000
00020000
00000000
00000000
,
00000000
00000000
00000000
00000000
,
00000000
00000000
00030000
00000000
,
00000000
00001000
00000000
00000000
,
01000000
00000000
00000000
00001000
,
00000000
00000000
00100000
00000000
,
00000000
01000000
00000000
00000000
,
00100000
00000000
00100000
00100000
;

//---------------dance-double - ----------------
#NOTEDATA:;
#CHARTNAME:;
#CHARTHASH:3329520833;
#STEPSTYPE:dance-double;
#BANNER:;
#DESCRIPTION:;
#CHARTSTYLE:;
#DIFFICULTY:Easy;
#METER:8;
#METERF:0.000000;
#LASTSECONDHINT:125.775002;
#RADARVALUES:0.298586,0.428528,0.166602,0.287768,0.053010,276.000000,254.000000,22.000000,38.000000,0.000000,0.000000,0.000000,0.000000,0.000000,0.298586,0.428528,0.166602,0.287768,0.053010,276.000000,254.000000,22.000000,38.000000,0.000000,0.000000,0.000000,0.000000,0.000000;
#CREDIT:YOSEFU;
#NOTES:
00000000
00000000
00000000
00000000
,
00000000
00000000
00000000
00000000
,
00000000
00000000
00000000
00000000
,
00000000
00000000
00000000
00000000
,
00000000
00000000
00000000
00000000
,
00000000
00000000
00000000
00000000
,
00000000
00000000
00000000
00000000
,
00000000
00010000
00001000
00000000
,
00100000
00010000
00000000
01000000
,
00100000
00000000
10000000
00000000
,
00000000
10100000
00000000
00000000
,
01010000
00000000
00000000
00022000
,
00000000
00000000
00000000
00033000
,
00000000
00010000
00000000
00000000
,
00000100
00000000
00000000
00001000
,
00000000
00000000
00000100
00000000
,
00000010
00000001
00000000
00000100
,
00000000
00000000
00000010
00010000
,
00001000
00000000
00000000
00010000
,
00001000
01000000
00000000
00000000
,
00100000
02000000
00000000
13000000
,
00020000
00000000
00130000
00002000
,
00000000
00013000
00000020
00000000
,
00000000
00000130
00000001
00000002
,
00000000
00000000
00000003
00000100
,
00000010
00001000
00000000
00000100
,
00000000
00010000
00001000
02000000
,
00000000
00000000
00000000
03100000
,
01000000
00020000
00000000
00230000
,
00000000
01300000
10000000
00020000
,
00000000
00000000
00000000
01030000
,
00001000
00020000
00000000
00000000
,
00032000
00000000
00000000
00023000
,
00000000
00000000
00030200
00000000
,
00000000
00001300
00000100
00000010
,
00000001
00000100
00000010
00001000
,
00000000
00000000
00000100
00000000
,
00010000
00000020
00000000
00000000
,
00002030
00000000
00000000
00003100
,
00010000
00000000
00011000
00000000
,
00000000
00001000
01000000
00000000
,
01010000
00000000
00000000
00010000
,
00000000
00000000
10010000
00000000
,
10000000
01000000
00000000
00000000
,
00110000
00000000
00000000
00100000
,
00001000
00000000
00011000
00000000
,
00000000
00010000
00000100
00000000
,
00000110
00000000
00000000
00001001
,
00000000
00000000
00000000
00000001
,
00000100
00000010
00000000
00000000
,
00001000
00000000
00000000
00001100
,
00000000
00000000
00000000
00011000
,
00000000
00110000
00000000
00000000
,
00000000
10100000
00000000
10000000
,
01000000
00000000
10000000
00010000
,
00000000
00100000
00010000
00000000
,
00100000
00001000
00010000
00000020
,
00000000
00000000
00000000
00000000
,
00000000
00000000
00000000
00000000
,
00000000
00000000
00000000
00000000
00000000
00000000
00000000
00000000
00000000
00000030
00000000
00000100
,
00000000
00000000
00000000
00000100
00000000
00000000
00000000
00000000
00000010
00000000
00000000
00000000
,
00000010
00001000
00000000
00000000
,
00000100
00000000
00000000
00022000
,
00000000
00000000
00000000
00000000
,
00000000
00000000
00000000
00033000
,
00011000
00000000
00000000
00100000
,
00010000
00000000
01000000
00010000
,
00000000
00100000
01000000
00000000
,
10000000
01000000
00100000
00002000
,
00000000
00003000
00010000
00000100
,
00000010
00000002
00000000
00000003
,
00000100
00000000
00000000
00000000
00000000
00000010
00000000
00000000
00000000
00001000
00000000
00000000
,
00000100
00000000
00010000
00001000
,
00000000
01000000
00010000
00000000
,
10000000
00100000
01000000
00020000
,
00000000
00030000
00000000
00100000
,
01000000
10000000
00000000
00010000
,
01000000
00000000
00001000
00010000
,
00000000
00000000
00000100
00001000
,
00000000
00000000
00000000
00000001
00000000
00000000
00000000
00000000
00000001
00000000
00000000
00000000
,
00000100
00000000
00000000
00000000
00000000
00000100
00000000
00000000
00000000
00000010
00000000
00000000
,
00000000
00001000
00000001
00000000
,
00000010
00000200
00000000
00000000
,
00000000
00000000
00001300
00000010
,
00010000
00000000
00001000
00010000
,
00000000
00001000
00001000
00001000
,
01000000
01000000
01000000
00010000
,
01000000
00000000
00010000
00010000
,
10000000
20000000
00000000
30000000
,
20200000
00000000
30300000
10000000
,
00010000
00000000
01000000
00010000
,
00000000
00100000
00010000
00000000
,
00100000
00001000
00010000
00000020
,
00000000
00001030
00000001
00000000
,
00000010
00000100
00000000
00001000
,
00000010
00010000
00001000
00200000
,
00300000
01000000
00100000
01000000
,
10000000
00200000
00000000
00000000
,
01300000
00000000
00010000
00100000
,
00000000
00000000
00100000
00000000
00000000
00000000
01000000
00000000
00000000
00000000
00000000
01000000
,
00000000
20000000
00000000
00000000
,
30000000
00000000
00010000
00000000
00000000
00010000
00000000
00000000
00000000
01000000
00000000
00000000
,
00010000
01000000
00000000
00010000
,
00100000
02000000
00000000
00000000
,
13000000
10100000
00000000
01010000
,
00000000
00011000
00000000
00010000
,
00001000
00000020
00000000
00000000
,
00000000
00000000
00000000
00000000
00000000
00000130
00000000
00000000
00000000
00001000
00000000
00000000
,
00000001
00000000
00000100
00000010
,
00000000
00010000
00010000
00010000
,
00001000
00001000
00001000
00100000
,
00000000
00000000
00110000
00000000
00000000
00000000
00001000
00000000
00000000
01000000
00000000
00000000
,
00100000
20000000
00000000
00000000
,
00000000
00000000
00000000
00000000
,
00000000
00000000
31000000
00010000
,
00001000
00200000
00000000
00000000
,
00000000
00000000
00000000
00000000
,
00000000
00300000
00002000
00000000
,
00013000
00000100
00000000
00000100
,
00000000
00000000
00001000
00000000
00000000
00000000
00001000
00000000
00000000
00000000
00000000
00000010
,
00000000
00000000
00000000
00000010
00000000
00000000
00000000
00000000
00000100
00000000
00000000
00000000
,
00000100
00000100
00000001
00000000
,
00000100
00000010
00001000
00002020
,
00000000
00000000
00000000
00000000
,
00000000
00000000
00000000
00000000
,
00000000
00000000
00000000
00003030
;

//---------------dance-double - ----------------
#NOTEDATA:;
#CHARTNAME:;
#CHARTHASH:1772428308;
#STEPSTYPE:dance-double;
#BANNER:;
#DESCRIPTION:;
#CHARTSTYLE:;
#DIFFICULTY:Medium;
#METER:12;
#METERF:0.000000;
#LASTSECONDHINT:125.775002;
#RADARVALUES:0.399196,0.618984,0.151457,0.340777,0.136311,369.000000,349.000000,20.000000,45.000000,0.000000,0.000000,0.000000,0.000000,0.000000,0.399196,0.618984,0.151457,0.340777,0.136311,369.000000,349.000000,20.000000,45.000000,0.000000,0.000000,0.000000,0.000000,0.000000;
#CREDIT:YOSEFU;
#NOTES:
00000000
00000000
00000000
00000000
,
00000000
00000000
00000000
00000000
,
00000000
00000000
00000000
00000000
,
00000000
00000000
00000000
00000000
,
00000000
00000000
00000000
00000000
,
00000000
00000000
00000000
00000000
,
00000000
00000000
00000000
00000000
,
00000000
00001000
00100000
00010000
,
01000000
00100000
10000000
00010000
,
00100000
01000000
00020000
00000000
,
00031000
00011000
00000000
00000000
,
00001100
00000000
00000000
00002002
,
00000000
00000000
00003000
00000000
,
00000000
00000103
00000000
00000000
,
00000010
00001000
00000100
00000010
,
00000001
00001000
00000020
00000000
,
00010030
00000020
00000000
00000230
,
00000000
00000000
00001300
00010000
,
00000200
00000000
00000000
00010300
,
00001000
00100000
01000000
10000000
,
00100000
01000000
00010000
00200000
,
00000000
00300000
02000000
00000000
,
03000000
10000000
00020000
00000000
,
00000000
01030000
00001000
00002000
,
00000000
00000000
00003000
00010000
,
00000100
00000020
00000000
00000032
,
00000000
00000103
00000010
00002000
,
00000000
00000000
00003000
00000010
,
00000100
00002000
00000000
00023000
,
00000000
00030010
00000100
00002000
,
00000000
00000000
00003000
00010000
,
00001000
00100000
00100000
00100000
,
00010000
00010000
00010000
01000000
,
01000000
01000000
00100000
00100000
,
00100000
10000000
00010000
01000000
,
00001000
00010000
00000100
00002000
,
00000000
00000000
00000000
00000000
,
00000000
00003020
00000000
00000000
,
00000230
00000000
00000000
00000301
,
00001000
00000000
00000100
00000010
,
00000001
00001000
00000010
00000000
,
00010000
00001000
00000100
00000001
,
00000000
00000000
00000000
00000010
,
00000100
00001000
00000000
00000000
,
00000010
00000100
00001000
00010000
,
00001000
00000000
01000000
00010000
,
10000000
01000000
00100000
00000000
,
01000000
10000000
00100000
00010000
,
00000000
00000000
00000000
00100000
,
10000000
01000000
00010000
00001000
,
00100000
00001000
00010000
00001000
,
00000000
00000000
00101000
00000000
00000000
00000000
00000000
00000000
00000000
00011000
00000000
00000000
,
00000000
00000000
00000000
00010000
00000000
00000000
00000000
00000000
00010010
00000000
00000000
00000000
,
00000000
00011000
00000000
00001000
,
00010000
00000000
00100000
10000000
,
01000000
00010000
01000000
10000000
,
00100000
00010000
00001000
00200000
,
00000000
00000000
00000000
00000000
,
00000000
00310000
01000000
00100000
,
10000000
00000000
00000000
01000000
00000000
00000000
00100000
00000000
00000000
00000000
00000000
00010000
,
00000000
00000000
00000000
00110000
00000000
00000000
00000000
00000000
00001000
00000000
00000000
00000000
,
00011000
00010000
00000100
00001000
,
00000010
00000100
00000001
00000022
,
00000000
00000000
00000000
00000000
,
00000033
00000000
00000000
00000001
00000000
00000000
00000100
00000000
00000000
00001000
00000000
00000100
,
00000010
00000000
00000000
00001000
,
00000100
00010000
00001000
00100000
,
01000000
10000000
00100000
01000000
,
00010000
00100000
10000000
00100000
,
00000000
00000000
00010000
01000000
,
00100000
10000000
00000000
00000000
,
01000000
00000000
00000000
00000000
00000000
00010000
00000000
00000000
00000000
01000000
00000000
00000000
,
10000000
00100000
01000000
00001000
,
00010000
00000100
00000010
00000001
,
00000100
00001000
00010000
00000200
,
00000000
00000000
00000300
00010000
,
00001000
00100000
00010000
01000000
,
00100000
10000000
01000000
00200000
,
00000000
00300000
00010000
01000000
,
00100000
20000000
00000000
00000000
,
32000000
00000000
00000000
00000000
00000000
03100000
00000000
00000000
00000000
00001000
00000000
00000000
,
00000000
00100000
01000000
00010000
,
00001000
00000020
00000000
00000000
,
00000000
00000000
00000031
00000100
,
00000010
00001000
00000010
00000100
,
00001000
00000000
00000000
00010000
00000000
00000000
00001000
00000000
00100000
00001000
00000000
00000000
,
00010000
00000000
00000000
00000010
00000000
00001000
00000010
00000000
00000000
00010000
00000000
00000000
,
00001000
00100000
01000000
10000000
,
00100000
02200000
00000000
03300000
,
02020000
00000000
00000000
00000000
00000000
03030000
00000000
00000000
00000000
00022000
00000000
00000000
,
00000000
00033000
00010000
00000100
,
00000010
00000001
00000100
00000010
,
00000100
00000000
00000000
00001000
00000000
00000000
00010000
00000000
00001000
02000000
00000000
00000000
,
00000000
00000000
00000000
03010000
00000000
00000000
10000000
00000000
01000000
00000000
00000000
00100000
,
00000000
00000000
00010000
10000000
00000000
00000000
01000000
00000000
00000000
00010000
00000000
00000000
,
00001000
00000000
00000000
00000010
00000000
00000000
00000001
00000000
00000100
00000010
00000000
00000000
,
00000000
00000100
00000001
00000100
,
00000010
00000002
00000000
00000013
,
00001000
00000100
00010000
00001000
,
00000000
00000000
00011000
00000000
00000000
00000000
00101000
00000000
00000000
00000000
00000000
00100000
,
00000000
00220000
00000000
00330000
,
00010000
00000000
10000000
00000000
00000000
10100000
00000000
00000000
00100000
01000000
00000000
00010000
,
01000000
00000000
00010000
01000000
00000000
00000000
00010000
00000000
00000000
00100000
00000000
00000000
,
01000000
20000000
00000000
00000000
,
30100000
01000000
00010000
00110000
,
00000000
00011000
00010000
00001000
,
00000010
00000002
00000000
00000000
,
00000000
00000000
00000000
00000000
00000000
00000103
00000000
00000000
00000000
00000001
00000000
00000000
,
00000100
00000010
00010000
00001000
,
00100000
00000000
00000000
01000000
00000000
00000000
10000000
00000000
00010000
01000000
00000000
00000000
,
00100000
00000000
00000000
10000000
00000000
01000000
00100000
00000000
00000000
01000000
00000000
00000000
,
00010000
00001000
00100000
00010000
,
01000000
00002000
00000000
00000000
,
00000000
00000000
00000000
00013000
,
00000100
00000000
00000000
00000010
00000000
00000000
00000001
00000000
00001000
00000001
00000000
00001000
,
00000010
00000000
00001000
00000002
00000000
00000000
00000000
00000000
00000000
00000000
00000000
00000000
,
00000000
00000000
00000000
00000000
,
00000000
00000003
00000200
00000000
,
00001300
00000000
00000000
00010000
00000000
00001000
00000000
00000000
00000000
00100000
00000000
00000000
,
00001000
00000000
00010000
00000000
00000000
00000000
00000010
00000000
00000000
00010000
00000000
00001000
,
00000000
00000000
00000000
01000000
00000000
00000000
00001000
00000000
00010000
00000000
00000000
00000000
,
00000100
00000000
00000000
00010000
00000000
00001000
00100000
00000000
00001000
00000000
00000000
00010000
,
00001000
00000000
01000000
00010000
00000000
00000000
10000000
00000000
00000000
20200000
00000000
00000000
,
00000000
00000000
00000000
00000000
,
00000000
00000000
00000000
00000000
,
00000000
00000000
00000000
30300000
;

//---------------dance-double - ----------------
#NOTEDATA:;
#CHARTNAME:;
#CHARTHASH:3534640290;
#STEPSTYPE:dance-double;
#BANNER:;
#DESCRIPTION:;
#CHARTSTYLE:;
#DIFFICULTY:Hard;
#METER:15;
#METERF:0.000000;
#LASTSECONDHINT:122.775002;
#RADARVALUES:0.494398,0.883087,0.219612,0.340777,0.310486,457.000000,428.000000,29.000000,45.000000,0.000000,0.000000,0.000000,0.000000,0.000000,0.494398,0.883087,0.219612,0.340777,0.310486,457.000000,428.000000,29.000000,45.000000,0.000000,0.000000,0.000000,0.000000,0.000000;
#CREDIT:ヨセフ;
#NOTES:
00000000
00000000
00000000
00000000
,
00000000
00000000
00000000
00000000
,
00000000
00000000
00000000
00000000
,
00000000
00000000
00000000
00000000
,
00000000
00000000
00000000
00000000
,
00000000
00000000
00000000
00000000
,
00000000
00000000
00000000
00000000
,
00000000
00010000
00001000
00010000
,
00000100
00000010
00000001
00001000
,
00000010
00000000
00000000
00000100
00000000
00000000
00002000
00000000
00000000
00000000
00000000
00003100
,
00000010
00001010
00000000
00000000
,
00010100
00000000
00000000
00202000
,
00000000
00000000
00003000
00000000
,
00000000
00310000
00000000
00000000
,
01000000
00100000
10000000
00010000
,
00100000
01000000
20000000
00000000
,
30100000
02000000
00000000
03020000
,
00000000
00030000
00100000
00001000
,
00010000
00000100
00001000
00000001
,
00000100
00000010
00001000
00000100
,
00000010
00000001
00001000
00000020
,
00000000
00000000
00020030
00000000
,
00000000
00030100
00020000
00000000
,
00000000
01030000
10000000
20000000
,
00000000
00000000
30000000
00100000
,
02000000
00010000
00010000
00010000
,
03010000
00100000
00002000
00010000
,
00010000
00010000
00013000
00000100
,
00002000
00000010
00000010
00000010
,
00003010
00000100
00000002
00001000
,
00001000
00001000
00001003
00000001
,
00000100
00000010
00000010
00000010
,
00001000
00001000
00001000
00000100
,
00000100
00000100
00010000
00010000
,
00010000
00001000
00100000
00010000
,
01000000
00100000
10000000
01000000
,
00100000
00010000
10000000
01000000
,
00100000
00210000
00000000
00000000
,
02300000
00000000
00000000
13000000
,
00010000
00000000
00000000
00000000
00000000
00100000
00001000
00000000
00000000
00010000
00000000
00000000
,
00000100
00000000
00000000
00001000
00000000
00000000
00000001
00000000
00000000
00000000
00000000
00000100
,
00000001
00000100
00000010
00002000
,
00000000
00000000
00003000
00000100
,
00010000
00000000
00000000
00001000
00000000
00000000
00100000
00000000
01000000
00000000
00000000
00000000
,
00100000
00000000
00000000
00010000
00000000
01000000
00000000
00000000
00000000
00100000
00000000
00000000
,
10000000
00000000
00000000
00000000
00000000
01000000
00100000
00000000
00000000
00010000
00000000
00000000
,
01000000
00000000
00000000
00010000
00000000
00000000
00100000
00000000
00000000
00000000
00000000
00001000
,
00010000
00000010
00000100
00002000
,
00000000
00000000
00003100
00000010
,
00010000
00001000
00100000
01000000
,
10000000
00100000
01000000
01100000
,
00000000
00000000
10010000
00000000
00000000
00000000
00000000
00000000
00000000
01001000
00000000
00000000
,
00000000
00000000
00000000
00110000
00000000
00000000
00000000
00000000
00011000
00000000
00000000
00000000
,
00000000
00010100
00000000
00010000
,
00000100
00000000
00001000
00000010
,
00000001
00000010
00001000
00000100
,
00010000
00001000
01000000
00200000
,
00000000
00000000
01000000
00000000
,
00000000
10300000
00010000
00100000
,
00001000
00000000
00000000
01000000
00000000
00000000
00100000
00000000
00000000
00000000
00000000
10100000
,
00000000
00000000
00000000
10010000
00000000
00000000
00000000
00000000
00101000
00000000
00000000
00000000
,
00011000
00010000
00000100
00001000
,
00000010
00000100
00000001
00000022
,
00000000
00000000
00000000
00000000
,
00000000
00000000
00000000
00000033
00000000
00000000
00000001
00000000
00000000
00000010
00000100
00001000
,
00000001
00000000
00000000
00001001
,
00001000
00000000
00000000
00000010
00000000
00000000
00000100
00000000
00000000
00000010
00000000
00001000
,
00000100
00000000
00000000
00010000
00000000
00000000
00001000
00000000
00100000
00001000
00000000
00000000
,
00010000
00001000
01000000
00200000
,
00000000
00000000
01300000
00010000
,
00100000
02000000
00000000
00000000
,
13000000
00000000
00000000
00000000
00000000
00100000
00000000
00000000
00000000
01000000
00000000
00000000
,
00010000
00000000
10000000
00000000
01000000
00100000
01000000
00100000
,
00010000
00000000
00100000
00001000
00100000
00001000
00010000
00000000
,
00000010
00001000
00000010
00000200
,
00000000
00000000
00000000
00000302
,
00000023
00000230
00000320
00000032
,
00000203
00000320
00002030
00003200
,
00000000
00000000
00000000
00000000
00000000
00000000
00010300
00000000
00001000
00000000
00000000
00000000
,
00100000
00000000
00000000
00010000
00000000
00000000
00000000
00000000
01000000
00000000
00000000
00000000
,
00100000
10000000
01000000
00100000
,
00000000
01000000
10000000
01000000
,
00010000
00002000
00000000
00000000
,
00000000
00000000
00000000
00000000
00003010
00000000
00000001
00001000
,
00000001
00000000
00000000
00001000
00000000
00000000
00000010
00000000
00000000
00000000
00000000
00000000
00001000
00000000
00000000
00000000
00000000
00000000
00000100
00000000
00000000
00000000
00000010
00000000
,
00000100
00000000
00000000
00010000
00000000
00000000
00001000
00000000
00100000
00001000
00000000
00000000
,
01000000
00000000
00000000
00000000
00000000
00000000
00010000
00000000
00000000
00000000
10000000
00000000
01000000
00000000
00000000
00000000
00000000
00000000
00100000
00000000
00000000
00001000
00000000
00000000
,
00010000
00001000
00100000
00000000
00110000
00000000
00011000
00000000
,
00001100
00000220
00000000
00000330
,
00001001
00000000
00000000
00000000
00000000
00000001
00000000
00000000
00000000
00000102
00000000
00000000
,
00000000
00000000
00000013
00000100
,
00010000
00000000
00001000
00100000
00000000
00000000
00010000
00000000
00000000
01000000
00000000
00000000
,
00100000
00000000
00000000
10000000
00100000
01000000
00100000
00000000
00000000
01000000
00000000
00000000
,
00010000
00000000
00000000
00100000
00000000
00001000
00010000
00000000
00001000
00000000
00000000
00010000
,
00000000
00000000
00000100
00010000
00000000
00000100
00001000
00000000
00000100
00000010
00000000
00000100
,
00001000
00000000
00000001
00001000
00000000
00000010
00001000
00000000
00000001
00000020
00000000
00000000
,
00000000
00000130
00001000
00000100
,
00010000
00000100
00010000
00001000
00000000
00000000
00010000
00001000
00100000
00001000
00000000
00100000
,
00001000
00000000
00100000
00010000
00000000
10000000
00010000
00000000
01000000
00010000
00000000
00000000
,
10000000
00000000
00100000
00000000
00000000
01000000
00010000
00000000
00000000
00100000
00000000
00001000
,
00000000
00000000
00010000
00000100
00000000
00001000
00000100
00000000
00001000
00000001
00000000
00001000
,
00000010
00000000
00000100
00000001
00000010
00000100
00000010
00000100
00001000
00000100
00000000
00010000
,
00001000
00000000
01000000
00001000
00000000
00000000
00000000
00000000
00000000
00100000
00000000
00000000
,
00010000
00000000
00000000
02000000
00000000
00000000
00000000
00000000
10000000
00000000
00000000
00000000
,
03010000
02000000
03010000
01010000
,
00000000
00101000
00100000
01000000
,
00010000
00002000
00000000
00000000
,
00000000
00000000
00000000
00000000
00000000
00003010
00000000
00000000
00000000
00000001
00000000
00000000
,
00001000
00000000
00000001
00001000
00000000
00000000
00000100
00000000
00000000
00000010
00000000
00000100
,
00001000
00000000
00000000
00000010
00000000
00000000
00010000
00000000
00001000
00010000
00000000
00000000
,
00001000
00000000
00000000
00000000
00000000
00000000
00100000
00000000
00000000
00000000
01000000
00000000
00100000
00000000
00000000
00000000
00000000
00000000
00010000
00000000
00000000
01000000
00000000
00000000
,
00100000
00010000
00001000
00000000
00011000
00000000
00001100
00000000
,
00001001
00002020
00000000
00000000
,
00000000
00000000
00000000
00000000
,
00000000
00000000
00000000
00003030
00000000
00000000
00001000
00000010
00001000
00000010
00010000
00001000
,
00010000
00001000
00100000
00020000
00000000
00000000
00000000
00000000
00000000
00000000
00000000
00000000
,
00000000
00000000
00000000
00000000
,
00000000
00030000
00002000
00000000
,
00003000
00000000
00000000
00000010
00000000
00000100
00000000
00000000
00000001
00001000
00000000
00000000
,
00000100
00000000
00010000
00000000
00000000
00001000
00010000
00000000
00000000
00001000
00000000
01000000
,
00000000
00000000
00100000
10000000
00000000
00000000
01000000
00000000
00010000
00000000
00000000
00001000
,
00100000
00000000
00000000
00001000
00000000
00010000
00000010
00000000
00000100
00000000
00000000
00001000
,
00000100
00000000
00000010
00010000
00000000
00000100
00001000
00000000
00000000
00001100
00000000
00000000
;
