#VERSION:0.83;
#TITLE:Infinite cave;
#SUBTITLE:;
#ARTIST:猫又Master+;
#TITLETRANSLIT:;
#SUBTITLETRANSLIT:;
#ARTISTTRANSLIT:Nekomata Master+;
#GENRE:DRUM'N'BASS;
#ORIGIN:beatmania IIDX 13 DistorteD CS;
#TAGS:;
#CREDIT:;
#BANNER:Infinite cave.png;
#BACKGROUND:Infinite cave-bg.png;
#PREVIEWVID:;
#JACKET:Infinite cave-jacket.png;
#CDIMAGE:;
#DISCIMAGE:;
#LYRICSPATH:;
#CDTITLE:../_YSD cdtitles/ysd hypo-scvip cdtitle.png;
#MUSIC:Infinite cave.ogg;
#OFFSET:0.000000;
#SAMPLESTART:51.632000;
#SAMPLELENGTH:20.211000;
#SELECTABLE:YES;
#BPMS:0.000000=190.000000
,292.000000=95.000000
,310.000000=190.000000
;
#STOPS:;
#DELAYS:;
#WARPS:;
#TIMESIGNATURES:0.000000=4=4
,292.000000=2=4
,310.000000=4=4
;
#TICKCOUNTS:0.000000=4
;
#COMBOS:0.000000=1
;
#SPEEDS:0.000000=1.000000=0.000000=0
;
#SCROLLS:0.000000=1.000000
;
#FAKES:;
#LABELS:0.000000=Song Start
;
#BGCHANGES:0.000=Infinite cave.avi=1.000=1=0=0=StretchNoLoop==CrossFade==,
99999=-nosongbg-=1.000=0=0=0 // don't automatically add -songbackground-
;
#KEYSOUNDS:;
#ATTACKS:
;

//---------------dance-single - ----------------
#NOTEDATA:;
#CHARTNAME:200 Meters Deep;
#CHARTHASH:2495491078;
#STEPSTYPE:dance-single;
#BANNER:;
#DESCRIPTION:;
#CHARTSTYLE:;
#DIFFICULTY:Beginner;
#METER:5;
#METERF:0.000000;
#LASTSECONDHINT:114.947372;
#RADARVALUES:0.221429,0.288333,0.091667,0.050000,0.000000,186.000000,175.000000,11.000000,6.000000,0.000000,0.000000,0.000000,0.000000,0.000000,0.221429,0.288333,0.091667,0.050000,0.000000,186.000000,175.000000,11.000000,6.000000,0.000000,0.000000,0.000000,0.000000,0.000000;
#CREDIT:YOSEFU;
#NOTES:
0000
0000
0000
0000
,
0000
0000
0000
0000
,
0000
0000
0000
0000
,
0000
0000
0000
0000
,
0000
0000
0000
0000
,
0000
1000
0000
0001
,
0000
1000
0000
0001
,
0000
1000
0000
0001
,
0100
0100
0100
0000
,
1001
0000
0001
0000
,
0100
0000
0001
0001
,
0001
0000
1000
0000
,
0100
0000
1000
1000
,
1000
0000
0010
0000
,
0100
0000
0001
0001
,
0001
0000
0010
0000
,
0100
0000
1000
1000
,
1001
0000
0001
0000
,
0100
0000
0010
0010
,
0010
0000
1000
0000
,
0100
0000
0010
0010
,
0010
0000
0001
0000
,
1000
0000
0010
0010
,
0010
0000
0100
0000
,
0001
0000
1000
1000
,
1001
0000
0001
0000
,
1000
0000
0001
0000
,
0000
0100
0100
0000
,
0000
0000
0000
0000
,
0000
0001
0000
1000
,
1000
0000
0100
0100
,
0010
0010
0000
0000
,
0000
0000
0000
0000
,
0000
0001
0000
1000
,
0000
0010
0000
0100
,
0000
0001
0000
1000
,
0000
0100
0000
0010
,
0000
0100
0000
0010
,
0000
0001
0000
1000
,
0000
0010
0000
0100
,
0100
0100
0100
0000
,
1001
0000
0001
0000
,
0010
0000
0100
0100
,
0100
0000
1000
0000
,
0001
0001
0001
0001
,
0001
0000
0100
0000
,
0010
0000
1000
1000
,
1000
0000
0001
0000
,
0010
0010
0010
0010
,
0110
0000
0100
0000
,
1000
0000
0001
0001
,
0001
0000
1000
0000
,
0010
0010
0010
0010
,
0010
0000
0110
0000
,
0100
0000
0001
0001
,
0001
0000
1000
0000
,
0100
0100
0100
0100
,
0110
0000
0000
0010
,
0000
0000
0001
0001
,
0000
0000
1000
0000
,
0001
0000
1000
0000
,
1001
0000
0000
0001
,
0000
0000
0100
0000
,
0010
0000
0000
0010
,
0000
0000
0010
0000
,
0110
0000
0000
0100
,
0000
0000
0001
0001
,
0001
0000
1000
0000
,
0001
0000
0100
0000
,
0110
0000
0000
0010
,
0000
0000
1000
1000
,
1000
0000
0100
0000
,
0010
0000
0001
0000
,
2002
0000
0000
3003
0000
0000
0001
0000
,
0200
0000
0000
0300
0000
0000
0010
0000
,
2000
0000
0000
3000
0000
0000
0100
0000
,
0020
0000
0000
0030
0000
0000
0000
0000
,
0001
0000
0000
0000
1000
0000
0000
1000
,
0000
1000
0000
0000
,
0010
0000
0000
0000
0100
0000
0000
0100
,
0000
0100
0000
0000
,
0001
0000
0000
0000
0010
0000
0000
0010
,
0000
0010
0000
0000
,
0100
0000
0000
0000
1000
0000
0000
0010
,
0000
0200
0000
0000
,
0000
0000
0000
0000
,
0000
0000
0300
0000
;

//---------------dance-single - ----------------
#NOTEDATA:;
#CHARTNAME:400 Meters Deep;
#CHARTHASH:741122856;
#STEPSTYPE:dance-single;
#BANNER:;
#DESCRIPTION:;
#CHARTSTYLE:;
#DIFFICULTY:Easy;
#METER:11;
#METERF:0.000000;
#LASTSECONDHINT:114.947372;
#RADARVALUES:0.403571,0.540625,0.091667,0.300000,0.029167,339.000000,328.000000,11.000000,36.000000,0.000000,0.000000,0.000000,0.000000,0.000000,0.403571,0.540625,0.091667,0.300000,0.029167,339.000000,328.000000,11.000000,36.000000,0.000000,0.000000,0.000000,0.000000,0.000000;
#CREDIT:YOSEFU;
#NOTES:
0000
0000
0000
0000
,
0000
0000
0000
0000
,
0000
0000
0000
0000
,
0000
0000
0000
0000
,
0000
0000
0000
0000
,
1000
0000
0001
0000
1000
0010
0000
0100
,
0001
1000
0100
0010
,
0100
0000
1000
0000
0001
0100
0000
0010
,
1000
1000
1000
1000
,
1100
0000
0100
0000
0010
0100
0000
1000
,
0001
0100
0010
0100
,
0001
0000
0010
0000
0100
1000
0000
0001
,
0100
0001
0100
0010
,
1000
0000
0100
0000
0010
0001
0000
1000
,
0010
0100
0001
0010
,
0100
0000
1000
0000
0001
0100
0000
0010
,
1000
0000
0001
1000
0100
0000
0010
0000
,
0011
0000
0001
0000
1000
0010
0000
0100
,
0001
1000
0100
0010
,
0001
0000
1000
0000
0010
0100
0000
0001
,
0010
0100
0010
0001
,
0101
0000
0100
0000
0010
1000
0000
0001
,
1000
0010
0100
0001
,
0010
0000
0100
0000
1000
0010
0000
0100
,
0001
0000
0010
0001
0100
0000
0010
0000
,
1000
0200
2300
3200
,
0320
0230
2300
3002
,
0203
0320
2030
0000
,
0000
0000
0000
0000
,
0000
3200
0320
0032
,
2003
3020
0230
0320
,
2030
3002
0000
0000
,
0003
0010
0100
0000
1000
0000
0001
0000
,
0100
0000
0010
0000
1000
0001
0000
0000
,
0010
0000
0100
0000
0010
0001
0000
0000
,
0100
0000
0010
0000
1000
0001
0000
0000
,
1000
0000
0000
0000
0100
0000
0000
0000
0010
0000
0000
0010
0000
0000
0001
0000
,
0000
0000
0100
0000
0001
1000
0000
0000
,
0100
0000
0010
0000
0001
0100
0000
0000
,
0001
0000
1000
0000
0100
0010
0000
0000
,
0100
1000
0001
0100
,
0101
0000
0001
0000
0010
0001
0000
1000
,
0001
0100
0010
0100
,
0001
0000
1000
0000
0100
0010
0000
0100
,
0010
0001
1000
0001
,
0100
0010
1010
1000
,
0001
1000
0100
0010
,
0001
0000
1000
0000
0010
1000
0010
1000
,
0000
0001
1000
0000
0100
0010
0001
0000
,
0011
0000
0001
0000
1000
0010
0000
1000
,
0010
0100
0001
0010
,
0100
0000
1000
0000
0001
0100
0000
0001
,
0100
0001
0000
0010
0000
0100
0000
1100
,
0000
0000
0110
0000
0001
0100
0000
0001
,
0100
0010
1000
0100
,
0010
0000
0001
0000
1000
0100
1000
0100
,
0000
1000
0001
0000
1000
0000
0100
0000
,
0010
0000
0000
0001
0000
0000
0010
0000
,
0000
0001
0000
0000
1000
0000
0010
0000
,
0100
0000
0002
0000
,
0203
0000
0320
0000
,
1030
0000
0000
0100
0000
0000
0010
0000
,
0000
0100
0000
0000
1000
0000
0001
0000
,
0100
0000
0000
0000
0010
0000
0000
0100
,
0000
0001
1000
0000
,
0100
0000
0000
0010
0000
0000
0001
0000
,
0000
0010
0000
0000
0100
0000
1000
0000
,
0001
0100
0010
0100
,
0001
1000
0100
0010
,
0001
0000
0000
1000
0000
0000
0001
0000
,
0000
0100
0000
0000
0010
0000
1000
0000
,
0001
0100
1000
0100
,
0001
0000
1000
0000
0010
0100
0010
0000
,
2000
0000
0000
3002
0000
0000
0203
0000
0000
0000
0000
0000
0000
0000
0000
0000
,
0320
0000
0000
2030
0000
0000
3002
0000
0000
0000
0000
0000
0000
0000
0000
0000
,
0023
0000
0000
0230
0000
0000
2300
0000
0000
0000
0000
0000
0000
0000
0000
0000
,
3020
0000
0000
0230
0000
0000
0302
0000
0000
0000
0000
0000
0000
0000
0000
0000
,
1003
0000
0000
0000
0100
0010
0001
1000
0010
0000
0000
0000
0100
0000
0001
0000
,
0000
1000
0100
0010
0000
0100
1000
0001
,
1000
0000
0001
0000
0100
0000
0010
1000
,
0000
0010
1000
0000
0001
0010
0001
0000
,
1000
0010
0100
0000
0001
0000
1000
0100
,
0000
0010
0100
1000
0000
0001
0100
0010
,
0100
0001
1000
0000
1100
0000
0000
0011
,
0000
0202
0000
0000
,
0000
0000
0000
0000
,
0003
0000
0000
0310
1000
0000
0000
0000
;

//---------------dance-single - ----------------
#NOTEDATA:;
#CHARTNAME:600 Meters Deep;
#CHARTHASH:2536364078;
#STEPSTYPE:dance-single;
#BANNER:;
#DESCRIPTION:;
#CHARTSTYLE:;
#DIFFICULTY:Medium;
#METER:13;
#METERF:0.000000;
#LASTSECONDHINT:114.947372;
#RADARVALUES:0.591667,0.648750,0.075000,0.583333,0.112500,497.000000,488.000000,9.000000,70.000000,0.000000,0.000000,0.000000,0.000000,0.000000,0.591667,0.648750,0.075000,0.583333,0.112500,497.000000,488.000000,9.000000,70.000000,0.000000,0.000000,0.000000,0.000000,0.000000;
#CREDIT:YOSEFU;
#NOTES:
0000
0000
0000
0000
,
0000
0000
0000
0000
,
0000
0000
0000
0000
,
0000
0000
0000
0000
,
0000
0000
0000
0000
,
2000
0000
3001
0100
0001
0010
0100
2000
,
0000
3001
0100
0010
1000
0001
0020
0000
,
0230
0000
1300
0010
0100
0001
0010
0100
,
1000
0000
0000
0000
1000
0000
0000
0000
1000
0000
0001
1000
0001
0000
1000
0000
,
1020
0000
0130
0001
0100
1000
0100
0020
,
0000
1030
0100
0010
0100
1000
0001
0100
,
0002
0000
1003
0100
0010
0001
0100
0020
,
0000
1030
0001
0010
0100
0010
0001
0000
,
0102
0000
1003
0100
0010
1000
0010
0200
,
0000
1300
0001
0100
0010
0100
0001
1000
,
0200
0000
0310
0001
0100
0010
1000
0002
,
0000
0000
1003
0000
0100
0000
0010
0000
0001
1000
0001
0000
1000
0000
0100
0000
,
1200
0000
0310
0001
0010
1000
0010
0200
,
0000
1300
0010
0100
0010
1000
0001
0010
,
0002
0000
1003
0001
0100
1000
0100
0002
,
0000
1003
0001
0010
0100
0010
0001
0000
,
0012
0000
1003
0001
0100
1000
0100
0020
,
0000
1030
0001
0010
0100
0010
0001
1000
,
0020
0000
0130
0001
0010
0100
1000
0002
,
0000
0000
1003
0000
0010
0000
0100
0000
0001
1000
0001
0000
1000
0000
0010
0000
,
0100
0002
0023
0032
,
2003
3020
0230
0302
,
0000
2003
3200
0010
,
0000
0000
1000
0000
0000
0000
0310
0001
,
1000
0020
0230
0302
,
2003
0000
3200
0302
,
0203
2300
0000
0010
,
0000
3100
0010
1000
0010
0001
1000
0010
,
0100
0000
0001
0000
1000
0010
0000
0010
,
0100
0000
0001
0000
0010
0100
0000
0100
,
1000
0000
0001
0000
1000
0010
0000
0010
,
0100
0000
0000
0000
0001
0000
0000
0000
0010
0000
0000
0010
0000
0000
0110
0000
,
0000
0000
1001
0000
1000
0010
0000
0010
,
0100
0000
0001
0000
1000
0100
0000
0100
,
0010
0000
0100
0000
1000
0010
0000
0010
,
0100
0000
0001
0000
0010
0000
0100
0000
0010
0000
0001
0000
1000
0001
1000
0000
,
0020
0000
1030
0001
0100
1000
0100
0020
,
0000
0130
0001
1000
0100
0010
0100
1000
,
0002
0000
1003
0001
0010
1000
0010
0100
,
1000
0001
0000
0100
0000
0001
0000
1001
,
0000
1000
0100
0010
1000
0010
0001
2000
,
0000
3010
0100
0001
0010
0100
1000
0001
,
0200
0000
0301
0010
1000
0001
0100
2000
,
0000
0000
3010
0000
1000
0000
0001
0000
0100
0001
0100
0000
0010
0000
1000
0000
,
0200
0000
1300
0001
0010
1000
0010
0200
,
0000
0310
0001
1000
0010
0100
0010
1000
,
0002
0000
1003
0001
0100
1000
0100
0010
,
1000
0001
0000
0010
0000
0001
0000
1001
,
0000
1000
0010
0100
1000
0100
0001
2000
,
0000
3100
0010
0001
0100
0010
1000
0001
,
0020
0000
0031
0100
1000
0001
0010
2000
,
0000
0000
3100
0000
1000
0000
0001
0000
0010
0001
0010
0000
0100
0000
1000
0000
,
0001
0100
0001
0020
0000
0000
0031
0100
,
0001
0020
0000
0000
0130
1000
0010
0000
,
0100
0001
0100
1000
,
0100
0010
1000
0001
,
1000
0100
1000
0020
0000
0000
1030
0100
,
1000
0020
0000
0000
0130
0001
0010
0000
,
0001
1000
0000
0001
0100
0000
0001
1000
,
0000
0100
1000
0000
0001
0100
0010
0100
,
0001
0010
0100
0020
0000
0000
0031
0100
,
0010
0200
0000
0000
0301
1000
0100
0010
,
0001
0000
0000
1000
0001
0000
1000
0000
0010
0000
0100
0000
0100
0000
0000
0000
,
0001
1000
0100
0010
0100
1000
0001
0000
,
0100
0010
1000
0200
0000
0000
0310
0001
,
0100
0020
0000
0000
1030
0100
0010
0000
,
0001
1000
0000
0000
0010
0000
0000
0000
0100
0001
0000
0000
1000
0000
0000
0000
,
0100
0010
0000
0000
0100
1000
0000
0000
0001
0100
0000
0000
1001
0000
0000
0000
,
2000
0000
0000
3200
0000
0000
0320
0000
0000
0000
0000
0000
0000
0000
0000
0000
,
0032
0000
0000
0203
0000
0000
0320
0000
0000
0000
0000
0000
0000
0000
0000
0000
,
0032
0000
0000
0023
0000
0000
2030
0000
0000
0000
0000
0000
0000
0000
0000
0000
,
3200
0000
0000
0320
0000
0000
0032
0000
0000
0000
0000
0000
0000
0000
0000
0000
,
1003
0000
0000
0000
0010
0000
0100
0000
0001
0000
0000
1000
0001
0000
0100
0000
,
0000
0001
1000
0000
0100
0000
0010
0000
0000
0000
0100
0000
1000
0000
0001
0000
,
0100
0000
0010
0000
0100
0000
0001
0000
1000
0000
0000
0100
0010
0000
0001
0000
,
0000
1000
0010
0000
0100
0000
0001
0000
1000
0000
0100
0000
0010
0000
0100
0000
,
1000
0000
0001
0000
0100
0000
1000
0000
0100
0000
0000
0001
0100
0000
0001
0000
,
0000
1000
0100
0000
0010
0000
0001
0000
1000
0000
0010
0000
0100
0001
0100
0000
,
0010
0000
1000
0000
0001
0000
0010
0000
0001
0000
0000
0100
0010
0000
1000
0000
,
0000
0001
0010
0000
0200
0000
0000
0000
0000
0000
0000
0000
0000
0000
0000
0000
,
0000
0000
0000
0000
,
0000
0000
0000
0000
0000
0000
1300
0001
1000
0000
0000
0000
0000
0000
0000
0000
;

//---------------dance-single - ----------------
#NOTEDATA:;
#CHARTNAME:800 Meters Deep;
#CHARTHASH:3314380496;
#STEPSTYPE:dance-single;
#BANNER:;
#DESCRIPTION:;
#CHARTSTYLE:;
#DIFFICULTY:Hard;
#METER:15;
#METERF:0.000000;
#LASTSECONDHINT:114.947372;
#RADARVALUES:0.692857,0.792917,0.058333,0.558333,0.291667,582.000000,575.000000,7.000000,67.000000,0.000000,0.000000,0.000000,0.000000,0.000000,0.692857,0.792917,0.058333,0.558333,0.291667,582.000000,575.000000,7.000000,67.000000,0.000000,0.000000,0.000000,0.000000,0.000000;
#CREDIT:YOSEFU;
#NOTES:
0000
0000
0000
0000
,
0000
0000
0000
0000
,
0000
0000
0000
0000
,
0000
0000
0000
0000
,
0000
0000
0000
0000
,
0001
0000
1000
0010
0100
1000
0100
0010
,
0000
1000
0001
0010
0100
1000
0001
0100
,
0010
0000
1000
0100
0010
1000
0010
0100
,
1000
0000
0000
0000
1000
0000
0000
0000
1000
0000
0001
0100
0010
0000
1000
0010
,
0200
0000
0301
1000
0100
0001
0100
2000
,
0000
0000
3001
0000
0100
0000
0000
0010
1000
0000
0001
0000
0010
0000
0100
0000
,
0020
0000
0031
1000
0010
0100
0001
0200
,
0000
0000
0310
0000
1000
0001
0000
1000
0100
0000
0010
0000
0200
0000
0000
0000
,
2300
0000
3001
1000
0010
0001
0010
0200
,
0000
0000
0301
0000
1000
0000
0100
0010
0001
0000
1000
0000
0001
0000
0100
0000
,
0020
0000
0130
0001
0010
0100
1000
0002
,
0000
0000
0103
0000
0010
0000
1000
0000
0010
0100
0010
0000
0100
0001
1000
0000
,
0200
0000
1300
0001
0100
1000
0100
0002
,
0000
0000
1003
0000
0100
0000
0000
0010
0001
0000
1000
0000
0010
0000
0100
0000
,
0020
0000
1030
0001
0010
1000
0010
0200
,
0000
0000
0310
0000
0001
1000
0000
0001
0100
0000
0010
0000
0200
0000
0000
0000
,
0301
0000
1000
0001
0010
1000
0010
0200
,
0000
0000
1300
0000
0001
0000
0100
0010
1000
0000
0001
0000
1000
0000
0100
0000
,
0020
0000
0130
1000
0010
0100
0001
2000
,
0000
0000
3100
0000
0010
0001
0000
0000
1000
0010
1000
0010
1000
0000
0000
0000
,
0001
0200
0320
0230
,
0302
2003
3200
0320
,
0000
0230
2300
0010
,
3100
0010
0001
0010
0100
1000
0001
0100
,
0010
0200
0302
0023
,
0230
0320
2030
3020
,
0031
1000
0020
0000
0100
0000
1030
0010
,
0000
0001
0010
1000
0001
0010
0100
1000
,
0010
0000
1000
0100
1000
0001
1000
0010
,
1000
0000
0001
0010
0001
0100
0001
1000
,
0001
0000
0010
0100
0010
0001
0010
0100
,
0010
0000
0000
0000
0001
0000
1000
0000
0010
0000
1000
0010
0000
1000
0001
0000
,
0010
0000
0100
1000
0100
0010
0100
0001
,
0100
0000
1000
0010
1000
0001
0100
0010
,
0100
0000
0010
1000
0010
0001
0010
0100
,
0010
0000
1000
0000
0001
0000
0010
0000
0100
0000
1000
0001
1000
0001
1000
0000
,
0020
0000
0130
0001
0010
1000
0010
0001
,
1000
0000
0010
0000
0100
0000
0001
0010
0100
0000
1000
0000
0001
0000
1000
0000
,
0200
0000
0310
0001
0100
1000
0100
0001
,
0100
0010
0000
0110
0000
1001
0000
2100
,
0000
0000
3010
1000
0100
0001
0100
0010
,
0001
0000
1000
0000
0010
0000
0100
0001
1000
0000
0100
0000
0010
0000
0100
0000
,
1000
0000
0001
0100
1000
0001
0010
1000
,
0001
0000
0010
0000
0100
0000
1000
0001
0100
0010
1000
0000
0001
0000
0010
0000
,
0200
0000
0310
0001
0100
1000
0100
0001
,
1000
0000
0100
0000
0010
0000
0001
0100
0010
0000
1000
0000
0001
0000
1000
0000
,
0020
0000
0000
0000
0130
0000
0001
0000
0010
0000
1000
0000
0010
0000
0001
1000
,
0010
0100
0000
0110
0000
1001
0000
2010
,
0000
0000
3001
0010
0100
0000
1000
0000
0010
0000
0001
0000
0010
0000
0100
0000
,
0001
0000
1000
0000
0100
0000
0010
0001
1000
0000
0010
0000
0100
0000
0010
0000
,
1000
0000
0001
0010
1000
0001
0100
1000
,
0001
0000
0100
0000
0010
0000
1000
0001
0010
0100
1000
0000
0001
0000
0100
0000
,
0010
0100
0010
0002
0000
0000
0013
0100
,
0010
2000
0000
0000
3100
0010
0001
0000
,
1000
0000
0000
0001
0100
0000
0010
0000
0100
0000
0001
0000
0001
0000
0000
0000
,
1000
0100
0010
0100
0100
0000
1000
0001
,
0100
0010
0100
2000
0000
0000
3100
0010
,
0100
0000
0000
0000
0000
0000
0000
0000
0002
0000
0000
0000
0000
0000
0000
0000
0000
0000
0000
0000
0000
0000
0000
0000
0000
0000
0000
0000
0000
0000
0000
0003
0010
0000
0000
0000
0000
0000
0000
0000
0100
0000
0000
0000
0000
0000
0000
0000
1000
0000
0000
0000
0000
0000
0000
0000
0000
0000
0000
0000
0000
0000
0000
0000
,
0001
0000
0100
0000
0000
0000
0010
1000
0010
0000
0000
0000
0100
0001
0100
0000
,
0000
0000
0001
1000
0001
0000
0000
0000
0010
0000
0100
0000
1000
0000
0001
0000
,
1000
0100
0001
0200
0000
0000
1300
0010
,
0001
0020
0000
0000
0130
0001
1000
0100
,
0010
0000
0000
0001
1000
0000
0010
0000
0100
0001
1000
0000
0001
0000
0010
0100
,
1000
0000
0001
0100
0001
0000
0010
0000
0100
1000
0100
1000
0100
0000
0010
0000
,
0001
0100
1000
0200
0000
0000
0310
1000
,
0100
0002
0000
0000
0103
1000
0001
0000
,
1000
0001
0000
1000
0001
0000
1000
0000
0100
0010
0100
0000
1000
0000
0001
0100
,
0001
0000
0010
0100
1000
0000
0001
0100
0001
0100
0010
0000
1000
0000
0000
0000
,
0002
0000
0000
0023
0000
0000
0230
0000
0000
0000
0000
0000
2300
0000
3020
0000
,
0230
0000
0000
0302
0000
0000
0023
0000
0000
0000
0000
0000
0032
0000
0203
0000
,
2300
0000
0000
3200
0000
0000
0320
0000
0000
0000
0000
0000
0230
0000
0302
0000
,
2003
0000
0000
3002
0000
0000
0023
0000
0000
0000
0000
0000
0000
0000
0000
0000
,
0130
0000
0000
0000
0000
1000
0000
0000
0000
0000
0100
0000
0000
0000
0000
0000
1000
0000
0000
0000
0010
0000
0000
0000
0100
0000
0000
0000
0001
0000
0000
0000
1000
0000
0000
0000
0000
0000
0000
0000
0000
0000
0000
0000
0100
0000
0000
0000
0010
0000
0000
0000
0000
0000
0000
0000
0100
0000
0000
0000
0000
0000
0000
0000
,
1000
0000
0010
0100
0001
0000
1000
0000
0000
0000
0001
0000
0010
0100
1000
0100
,
0010
0000
0001
0000
0100
0000
0010
0000
1000
0000
0000
0010
0100
0000
1000
0000
,
0000
0100
0010
0000
1000
0000
0001
0000
0010
0000
0100
0000
0010
0000
0001
0000
,
0010
0000
0001
0000
0100
0010
1000
0001
1000
0000
0000
0000
0100
0000
0001
0000
,
0100
0000
1000
0000
0001
0000
0100
0000
0010
0000
1000
0000
0001
0010
0001
0010
,
0100
1000
0100
1000
0001
0000
0100
0000
0010
0000
0000
1000
0001
0000
0010
0000
,
0000
0001
0100
0000
0201
0000
0000
0000
0000
0000
0000
0000
0000
0000
0000
0000
,
0000
0000
0000
0000
,
0000
0000
0000
0000
0000
0000
0310
1000
0100
0000
0000
0000
0000
0000
0000
0000
;

//---------------dance-single - ----------------
#NOTEDATA:;
#CHARTNAME:1000 Meters Deep;
#CHARTHASH:1566849570;
#STEPSTYPE:dance-single;
#BANNER:;
#DESCRIPTION:;
#CHARTSTYLE:Pad Singles;
#DIFFICULTY:Challenge;
#METER:17;
#METERF:17.000000;
#LASTSECONDHINT:114.947372;
#RADARVALUES:0.828571,1.045208,0.241667,0.450000,0.537500,696.000000,667.000000,29.000000,54.000000,0.000000,0.000000,0.000000,0.000000,0.000000,0.828571,1.045208,0.241667,0.450000,0.537500,696.000000,667.000000,29.000000,54.000000,0.000000,0.000000,0.000000,0.000000,0.000000;
#CREDIT:ヨセフ;
#NOTES:
0000
0000
0000
0000
,
0000
0000
0000
0000
,
0000
0000
0000
0000
,
0000
0000
0000
0000
,
0000
0000
0000
0000
,
2000
0000
3001
0100
0010
0001
0010
0200
,
0000
0301
0100
0010
1000
0100
0010
0001
,
2000
0000
3001
0010
0100
0001
0100
0010
,
0001
0000
0000
0000
0001
0000
0000
0000
0001
0000
1000
0100
0010
0100
0010
0100
,
1000
0000
1001
0001
1000
0010
0001
0020
,
0000
0000
0130
0000
0001
0000
0010
0100
1000
0000
0100
0000
0010
0000
0001
1000
,
0010
0000
1010
1000
0001
0010
0100
1200
,
0000
0000
1300
0000
0001
0010
0100
1000
0001
0000
0100
0000
0101
0000
0000
0000
,
1001
0000
0011
0001
0010
1000
0010
0002
,
0000
0000
0103
0000
0001
0000
0010
0100
1000
0000
0100
0000
0010
0000
0100
1000
,
0001
0000
0101
0100
0010
1000
0001
0012
,
0000
0000
0013
0000
0100
0000
1000
0001
0100
0010
1000
0000
0100
0010
0001
0000
,
1001
0000
0101
0001
1000
0100
0001
0200
,
0000
0000
0310
0000
0001
0000
0100
0010
1000
0000
0010
0000
0100
0000
0001
1000
,
0100
0000
1100
1000
0010
0001
0010
2000
,
0000
0000
3001
0000
1000
0100
0010
0001
1000
0000
0010
0000
0110
0000
0000
0000
,
1001
0000
0101
0001
0100
1000
0100
0002
,
0000
0000
0013
0000
0001
0000
0100
0010
1000
0000
0010
0000
0100
0000
0010
1000
,
0001
0000
0011
0010
0100
0001
0100
2000
,
0000
0000
3100
0000
0010
0001
1000
0000
0010
1000
0100
0010
0001
0000
0000
0000
,
1001
0000
0001
0100
0020
0000
1030
0100
,
0020
0000
0130
1000
0002
0000
0103
0010
,
1000
0010
0001
0010
0200
0000
0301
0200
,
0000
0310
1000
0010
0100
0001
1000
0100
,
2000
0000
3100
0010
0002
0000
0103
0010
,
2000
0000
3100
0010
0001
0010
0100
1000
,
0001
0100
0020
0000
0130
1000
0100
0020
,
0000
0031
0010
1000
0001
0010
1000
0010
,
0001
0000
0000
0000
0100
0000
0000
0001
1000
0000
0100
0000
0010
0000
0100
0000
,
1000
0000
0000
0000
0001
0000
0000
0100
0001
0000
0010
0000
0100
0000
1000
0000
,
0001
0000
0000
0000
0100
0000
0000
0010
1000
0000
0001
0000
0010
0000
0100
0000
,
1000
0000
0000
0000
0001
0000
0000
0100
0001
0000
1000
0100
0000
1000
0010
0000
,
2000
0000
0000
0000
3010
0100
0001
0000
1000
0000
0100
0000
0010
0000
0001
1000
,
0010
0000
0100
0000
0001
0000
0010
0000
0100
0000
1000
0001
0100
0000
0010
0000
,
1000
0001
0010
0000
0100
0000
1000
0001
0100
0000
0010
0000
1000
0001
0010
0000
,
0100
0000
0001
0000
0100
0000
1000
0000
0001
0000
0100
0010
0100
0001
1000
0100
,
0010
0000
0000
0000
0011
0000
0000
0001
0100
0000
1000
0000
0100
0000
0010
0000
,
0100
0000
0001
1000
0100
0000
0010
0001
1000
0001
0010
0000
0100
0000
2000
0000
,
3001
0000
0000
0000
0101
0000
0100
0001
1000
0001
0100
0000
0010
0000
1000
0000
,
0010
0000
0100
0001
1000
0000
0100
0010
0001
0000
0100
0000
0001
0000
1001
0000
,
0000
0000
1000
0010
0100
0000
0010
0000
0001
0010
0100
0000
0001
0000
2000
0000
,
0000
0000
3100
0000
0010
0000
0001
1000
0010
1000
0001
0000
0010
0000
0200
0000
,
1300
0000
0000
0000
1010
0000
0010
0100
1000
0100
0010
0000
1000
0000
0001
0000
,
0010
0000
0100
0000
0010
0000
0001
1000
0010
0100
0001
1000
0100
0000
0010
0000
,
0011
0000
0000
0000
0101
0000
0000
0001
0010
0000
1000
0000
0010
0000
0100
0000
,
0010
0000
0001
1000
0010
0000
0100
0001
1000
0001
0100
0000
0010
0000
2000
0000
,
3001
0000
0000
0000
0011
0000
0010
0001
1000
0001
0010
0000
0100
0000
1000
0100
,
0010
0001
1000
0010
0001
0010
1000
1010
,
0000
0000
0010
1000
0100
0000
0010
0000
1000
0000
0010
0000
0001
0000
1000
0000
,
0000
0000
0100
0010
0001
0000
1000
0001
0100
0001
1000
0000
0010
0000
0200
0000
,
0301
0000
0000
0000
0101
0000
0100
0010
0001
0010
0100
0000
0001
0000
1000
0000
,
0100
0000
0010
0000
0100
0000
1000
0001
0100
0010
1000
0001
0010
0000
0100
0000
,
1000
0010
0001
0020
0000
1030
0001
0010
,
1000
0020
0000
0031
0100
0010
0001
0010
,
0100
0000
0000
0001
0100
0000
0001
0000
1000
0000
0010
0000
1000
0000
0000
0000
,
0001
0010
0001
0000
1000
0100
1000
0000
,
0001
0100
1000
0200
0000
0301
1000
0100
,
0001
0200
0000
1300
0010
0100
1000
0100
,
0010
0000
1000
0000
0000
0000
0001
1000
0010
0000
0000
0000
1000
0001
0100
0000
,
0000
0000
0001
1000
0100
0000
0000
0000
0010
0000
0001
1000
0010
0000
0000
0000
,
1000
0010
0001
0020
0000
1030
0100
0001
,
0100
0000
2000
0000
0000
0000
3001
0000
0100
0000
1000
0000
0100
0000
0001
1000
,
0100
0000
0010
0001
1000
0000
0010
0000
0100
0001
1000
0001
0100
0010
1000
0010
,
0100
0000
0001
1000
0100
1000
0001
0000
0010
0100
1000
0100
0010
0000
0001
1000
,
0010
0001
0010
2000
0000
3001
0010
1000
,
0010
0002
0000
1003
0010
0100
1000
0100
,
0001
0100
0010
0100
0001
0000
1000
0100
0010
0100
1000
0100
0010
0000
0001
1000
,
0010
0100
0010
1000
0001
1000
0100
0010
0100
1000
0001
0100
0010
0000
0000
0000
,
2000
0000
0000
3200
0000
0000
0320
0000
0000
0000
0000
0000
0032
0000
0203
0000
,
0320
0000
0000
0230
0000
0000
0302
0000
0000
0000
0000
0000
2003
0000
3200
0000
,
0302
0000
0000
0203
0000
0000
2300
0000
0000
0000
0000
0000
3002
0000
0203
0000
,
0320
0000
0000
2030
0000
0000
3200
0000
0000
0000
0000
0000
0000
0000
0000
0310
,
0001
0000
0000
0000
0000
1000
0000
0000
0000
0000
0010
0000
0000
0000
0000
0000
1000
0000
0001
0000
1000
0000
0000
0000
0100
0000
0000
0000
0010
0000
0000
0000
0001
0000
0000
0000
0000
0000
0000
0000
0000
0000
0000
0000
1000
0000
0000
0000
0010
0000
0000
0000
0000
0000
0000
0000
0100
0000
0000
0000
0000
0000
0000
0000
,
0001
0000
1000
0100
0010
0000
0011
0000
0000
0000
0001
0100
0010
0100
0001
1000
,
0100
0000
0010
0100
1000
0000
0001
0000
0101
0000
0000
0100
0001
0000
1000
0000
,
0100
0000
0010
0000
0001
0000
0100
0010
1000
0000
0001
0010
0100
0010
0001
1000
,
0010
0000
1000
0000
0001
0010
0100
0010
1000
0000
0010
0000
0001
0000
1000
0000
,
0010
0000
0001
0000
0010
0000
1000
0000
0100
0000
0010
0000
0001
1000
0010
0100
,
0010
1000
0001
0010
0100
1000
0001
0100
0010
0000
0000
0100
0001
0000
1001
0000
,
0000
1000
0100
0000
1200
0000
0000
0000
0000
0000
0000
0000
0000
0000
0000
0000
,
0000
0000
0000
0000
,
0000
0000
0000
0000
0000
0000
0301
0100
1000
0000
0000
0000
0000
0000
0000
0000
;

//---------------dance-double - ----------------
#NOTEDATA:;
#CHARTNAME:1200 Meters Deep;
#CHARTHASH:2943258653;
#STEPSTYPE:dance-double;
#BANNER:;
#DESCRIPTION:;
#CHARTSTYLE:;
#DIFFICULTY:Beginner;
#METER:4;
#METERF:0.000000;
#LASTSECONDHINT:114.947372;
#RADARVALUES:0.158333,0.216250,0.075000,0.041667,0.000000,133.000000,124.000000,9.000000,5.000000,0.000000,0.000000,0.000000,0.000000,0.000000,0.158333,0.216250,0.075000,0.041667,0.000000,133.000000,124.000000,9.000000,5.000000,0.000000,0.000000,0.000000,0.000000,0.000000;
#CREDIT:YOSEFU;
#NOTES:
// measure 0
00000000
00000000
00000000
00000000
,  // measure 1
00000000
00000000
00000000
00000000
,  // measure 2
00000000
00000000
00000000
00000000
,  // measure 3
00000000
00000000
00000000
00000000
,  // measure 4
00000000
00000000
00000000
00000000
,  // measure 5
00010000
00000000
00000000
00000000
,  // measure 6
00001000
00000000
00000000
00000000
,  // measure 7
00100000
00000000
00000000
00000000
,  // measure 8
00010000
00000000
00000000
00000000
,  // measure 9
10010000
00000000
00000000
00000000
,  // measure 10
10000000
00000000
00100000
00000000
,  // measure 11
01000000
00000000
00000000
00000000
,  // measure 12
00010000
00000000
01000000
00000000
,  // measure 13
00001000
00000000
00000000
00000000
,  // measure 14
00010000
00000000
00000100
00000000
,  // measure 15
00001000
00000000
00000000
00000000
,  // measure 16
00000001
00000000
00000100
00000000
,  // measure 17
00000110
00000000
00000000
00000000
,  // measure 18
00000010
00000000
00001000
00000000
,  // measure 19
00000001
00000000
00000000
00000000
,  // measure 20
00000010
00000000
00000100
00000000
,  // measure 21
00001000
00000000
00000000
00000000
,  // measure 22
00000100
00000000
00010000
00000000
,  // measure 23
00001000
00000000
00000000
00000000
,  // measure 24
01000000
00000000
00010000
00000000
,  // measure 25
10000000
00000000
00000000
00000000
,  // measure 26
00010000
00000000
00000000
00000000
,  // measure 27
01000000
00000000
00000000
00000000
,  // measure 28
00001000
00000000
00000000
00000000
,  // measure 29
00010000
00000000
00000000
00000000
,  // measure 30
00000100
00000000
00000000
00000000
,  // measure 31
00001000
00000000
00000000
00000000
,  // measure 32
00000001
00000000
00000000
00000000
,  // measure 33
00000100
00000000
00000000
00000000
,  // measure 34
00000010
00000000
00000000
00000000
,  // measure 35
00001000
00000000
00000000
00000000
,  // measure 36
00000010
00000000
00000000
00000000
,  // measure 37
00010000
00000000
00000000
00000000
,  // measure 38
00001000
00000000
00000000
00000000
,  // measure 39
00100000
00000000
00000000
00000000
,  // measure 40
01000000
00000000
00000000
00000000
,  // measure 41
10010000
00000000
10000000
00000000
,  // measure 42
00010000
00000000
01000000
00000000
,  // measure 43
00001000
00000000
00010000
00000000
,  // measure 44
00000100
00000000
00001000
00000000
,  // measure 45
00000001
00000000
00000110
00000000
,  // measure 46
00001000
00000000
00000001
00000000
,  // measure 47
00000010
00000000
00000100
00000000
,  // measure 48
00010000
00000000
00001000
00000000
,  // measure 49
00011000
00000000
00010000
00000000
,  // measure 50
00001000
00000000
00100000
00000000
,  // measure 51
00010000
00000000
10000000
00000000
,  // measure 52
00100000
00000000
01000000
00000000
,  // measure 53
00010000
00000000
10010000
00000000
,  // measure 54
10000000
00000000
01000000
00000000
,  // measure 55
00100000
00000000
00001000
00000000
,  // measure 56
00010000
00000000
00000010
00000000
,  // measure 57
00000110
00000000
00000000
00001000
,  // measure 58
00000000
00000000
00000001
00000000
,  // measure 59
00000001
00000000
00000000
00000000
,  // measure 60
00001000
00000000
00000000
00000000
,  // measure 61
00000100
00000000
00000000
00001000
,  // measure 62
00000000
00000000
00000100
00000000
,  // measure 63
00000100
00000000
00000000
00000000
,  // measure 64
00010000
00000000
00000000
00000000
,  // measure 65
00011000
00000000
00000000
00001000
,  // measure 66
00000000
00000000
01000000
00000000
,  // measure 67
00010000
00000000
10000000
00000000
,  // measure 68
00100000
00000000
01000000
00000000
,  // measure 69
10010000
00000000
00000000
00010000
,  // measure 70
00000000
00000000
10000000
00000000
,  // measure 71
01000000
00000000
00100000
00000000
,  // measure 72
00001000
00000000
00010000
00000000
,  // measure 73
00000020
00000000
00000000
00000030
00000000
00000000
00000100
00000000
,  // measure 74
00000002
00000000
00000000
00000003
00000000
00000000
00000010
00000000
,  // measure 75
00000200
00000000
00000000
00000300
00000000
00000000
00010000
00000000
,  // measure 76
00002000
00000000
00000000
00003000
00000000
00000000
00000000
00000000
,  // measure 77
00010000
00000000
00001000
00000000
01000000
00000000
00000000
01000000
,  // measure 78
00000000
01000000
00000000
00000000
,  // measure 79
00100000
00000000
00000000
00000000
10000000
00000000
00000000
10000000
,  // measure 80
00000000
10000000
00000000
00000000
,  // measure 81
01000000
00000000
00000000
00000000
00100000
00000000
00000000
00100000
,  // measure 82
00000000
00100000
00000000
00000000
,  // measure 83
00001000
00000000
00000000
00000000
00010000
00000000
00000000
00000010
,  // measure 84
00000000
00002000
00000000
00000000
,  // measure 85
00000000
00000000
00000000
00000000
,  // measure 86
00000000
00000000
00003000
00000000
;

//---------------dance-double - ----------------
#NOTEDATA:;
#CHARTNAME:1400 Meters Deep;
#CHARTHASH:3444776691;
#STEPSTYPE:dance-double;
#BANNER:;
#DESCRIPTION:;
#CHARTSTYLE:;
#DIFFICULTY:Easy;
#METER:11;
#METERF:0.000000;
#LASTSECONDHINT:114.947372;
#RADARVALUES:0.376190,0.504583,0.091667,0.541667,0.020833,316.000000,305.000000,11.000000,65.000000,0.000000,0.000000,0.000000,0.000000,0.000000,0.376190,0.504583,0.091667,0.541667,0.020833,316.000000,305.000000,11.000000,65.000000,0.000000,0.000000,0.000000,0.000000,0.000000;
#CREDIT:YOSEFU;
#NOTES:
// measure 0
00000000
00000000
00000000
00000000
,  // measure 1
00000000
00000000
00000000
00000000
,  // measure 2
00000000
00000000
00000000
00000000
,  // measure 3
00000000
00000000
00000000
00000000
,  // measure 4
00000000
00000000
00000000
00000000
,  // measure 5
00010000
00000000
00001000
00000000
00100000
00000000
00000000
00010000
,  // measure 6
00000000
10000000
00100000
01000000
,  // measure 7
00001000
00000000
00010000
00000000
00000100
00000000
00000000
00001000
,  // measure 8
00000001
00000001
00000001
00001000
,  // measure 9
00001010
00000000
00000010
00000000
00000100
00000000
00000000
00000001
,  // measure 10
00000000
00001000
00000100
00010000
,  // measure 11
00001000
00000000
00000010
00000000
00001000
00000000
00000000
00010000
,  // measure 12
00000000
00100000
01000000
00010000
,  // measure 13
10000000
00000000
01000000
00000000
00100000
00000000
00000000
01000000
,  // measure 14
00000000
10000000
00010000
01000000
,  // measure 15
00100000
00000000
00010000
00000000
00001000
00000000
00000000
00000010
,  // measure 16
00000000
00000100
00001000
00000001
,  // measure 17
00000101
00000000
00000100
00000000
00000010
00000000
00000000
00001000
,  // measure 18
00000000
00000100
00000010
00000001
,  // measure 19
00000100
00000000
00001000
00000000
00010000
00000000
00000000
00100000
,  // measure 20
00000000
01000000
00010000
00100000
,  // measure 21
01000000
00000000
00100000
00000000
00010000
00000000
00000000
10000000
,  // measure 22
00000000
00100000
01000000
00100000
,  // measure 23
00010000
00000000
00001000
00000000
00000010
00000000
00000000
00000100
,  // measure 24
00000000
00001000
00000001
00000100
,  // measure 25
00000020
00020030
00030020
00002030
,  // measure 26
00003020
00020030
00032000
00203000
,  // measure 27
00000000
02300000
03200000
00000000
,  // measure 28
00000000
00000000
00000000
00000000
,  // measure 29
00000000
00302000
00023000
00030020
,  // measure 30
00020030
00000000
00032000
00203000
,  // measure 31
00320000
20030000
00000000
00000000
,  // measure 32
30000000
00100000
01000000
00000000
00100000
00000000
00010000
00000000
,  // measure 33
00001000
00000000
00010000
00000000
00000010
00001000
00000000
00001000
,  // measure 34
00000000
00000000
00000001
00000000
00000010
00000100
00000000
00000100
,  // measure 35
00000000
00000000
00010000
00000000
00001000
01000000
00000000
01000000
,  // measure 36
00000000
00000000
00000000
00000000
00010000
00000000
00000000
00000000
00010000
00000000
00000000
00010000
00000000
00000000
10000000
00000000
,  // measure 37
00000000
00000000
01000000
00000000
00100000
00001000
00000000
00001000
,  // measure 38
00000000
00000000
00010000
00000000
00000010
00001000
00000000
00001000
,  // measure 39
00000000
00000000
00000001
00000000
00000010
00000100
00000000
00000100
,  // measure 40
00000000
00010000
00001000
00000000
01000000
00000000
00100000
00000000
,  // measure 41
10100000
00000000
10000000
00000000
00010000
00000000
00100000
01000000
,  // measure 42
00000000
00100000
00010000
00000000
10000000
00000000
00100000
00000000
,  // measure 43
01000000
00100000
00010000
00001000
,  // measure 44
00010000
00000100
00000000
00000010
00000000
00000001
00000000
00001000
,  // measure 45
00000000
00000000
00000010
00000000
00000110
00000000
00000100
00000001
,  // measure 46
00000000
00001000
00000001
00000000
00001000
00000000
00000100
00000000
,  // measure 47
00000010
00000000
00001000
00000000
00010000
00001000
00010000
00001000
,  // measure 48
00000000
00010000
00100000
00000000
01100000
00000000
01010000
00000000
,  // measure 49
10010000
00000000
10000000
00000000
01000000
00000000
00100000
00010000
,  // measure 50
00000000
10000000
00010000
00000000
01000000
00000000
00001000
00000000
,  // measure 51
00010000
00000000
00000100
00000000
00000010
00000001
00000000
00000010
,  // measure 52
00000100
00001000
00000000
00000100
00000000
00000010
00000000
00001000
,  // measure 53
00000000
00010000
00001000
00000000
00011000
00000000
00010000
00001000
,  // measure 54
00000000
00100000
00001000
00000000
00100000
00000000
00010000
00000000
,  // measure 55
10000000
00000000
00100000
00000000
00010000
00001000
00010000
00001000
,  // measure 56
00000000
00010000
00000100
00000000
00001100
00000000
00001001
00000000
,  // measure 57
00000102
00000000
00000000
00002003
00000000
00000000
00003200
00000000
,  // measure 58
00000000
00020300
00000000
00000000
00032000
00000000
02003000
00000000
,  // measure 59
03100000
00000000
00020000
00000000
,  // measure 60
00230000
00000000
20300000
00000000
,  // measure 61
32000000
00000000
00000000
03200000
00000000
00000000
00302000
00000000
,  // measure 62
00000000
00023000
00000000
00000000
00030020
00000000
00000230
00000000
,  // measure 63
00000301
00001000
00000000
00000000
00000010
00000000
00001000
00000001
,  // measure 64
00000000
00000000
00000010
00000000
00000100
00001000
00000000
00000000
,  // measure 65
00000200
00000000
00000000
00000302
00000000
00000000
00000203
00000000
,  // measure 66
00000000
00002300
00000000
00000000
00003200
00000000
00020300
00000000
,  // measure 67
00031000
00010000
00100000
01000000
,  // measure 68
00010000
00000000
10000000
00000000
01000000
00000000
00100000
00010000
,  // measure 69
20000000
00000000
00000000
30200000
00000000
00000000
00320000
00000000
,  // measure 70
00000000
00032000
00000000
00000000
00003020
00000000
00000032
00000000
,  // measure 71
00001003
00000100
00000010
00001000
,  // measure 72
00010000
00000000
00100000
00000000
01000000
00010000
10000000
00000000
,  // measure 73
00200000
00000000
00000000
02300000
00000000
00000000
03020000
00000000
00000000
00000000
00000000
00000000
10030000
00000000
01000000
00000000
,  // measure 74
00200000
00000000
00000000
00302000
00000000
00000000
00023000
00000000
00000000
00000000
00000000
00000000
00130000
00000000
00010000
00000000
,  // measure 75
00002000
00000000
00000000
00003020
00000000
00000000
00000032
00000000
00000000
00000000
00000000
00000000
00000103
00000000
00001000
00000000
,  // measure 76
00020000
00000000
00000000
02030000
00000000
00000000
23000000
00000000
00000000
00000000
00000000
00000000
00000000
00000000
00000000
00000000
,  // measure 77
00000000
00000000
00000000
00000000
30010000
00000000
01000000
00100000
,  // measure 78
00000000
01000000
00020000
00000000
00000000
00000000
01030000
00000000
,  // measure 79
00002000
00000000
00023000
00000000
00030100
00000000
00000010
00000100
,  // measure 80
00000000
00001000
00000020
00000000
00000000
00000000
00000130
00000000
,  // measure 81
00002000
00000000
00023000
00000000
01030000
00000000
10000000
00100000
,  // measure 82
00000000
00010000
00200000
00000000
00000000
01300000
00010000
10000000
,  // measure 83
01000000
00000000
00010000
00000000
00001000
00000000
00000100
00000001
,  // measure 84
00000000
00000010
00000200
00000000
00000000
00000000
00000000
00000000
,  // measure 85
00000000
00000000
00000000
00000000
,  // measure 86
00000000
00000000
00000000
00001300
00010000
00000000
00000000
00000000
;

//---------------dance-double - ----------------
#NOTEDATA:;
#CHARTNAME:1600 Meters Deep;
#CHARTHASH:3251120363;
#STEPSTYPE:dance-double;
#BANNER:;
#DESCRIPTION:;
#CHARTSTYLE:;
#DIFFICULTY:Medium;
#METER:13;
#METERF:0.000000;
#LASTSECONDHINT:114.947372;
#RADARVALUES:0.555952,0.576667,0.116667,0.716667,0.033333,467.000000,453.000000,14.000000,86.000000,0.000000,0.000000,0.000000,0.000000,0.000000,0.555952,0.576667,0.116667,0.716667,0.033333,467.000000,453.000000,14.000000,86.000000,0.000000,0.000000,0.000000,0.000000,0.000000;
#CREDIT:YOSEFU;
#NOTES:
// measure 0
00000000
00000000
00000000
00000000
,  // measure 1
00000000
00000000
00000000
00000000
,  // measure 2
00000000
00000000
00000000
00000000
,  // measure 3
00000000
00000000
00000000
00000000
,  // measure 4
00000000
00000000
00000000
00000000
,  // measure 5
00020000
00000000
00031000
00100000
00010000
10000000
00100000
02000000
,  // measure 6
00000000
03001000
00010000
00001000
00100000
00001000
00010000
00000010
,  // measure 7
00002000
00000000
00003010
00000100
00000001
00001000
00000100
00010000
,  // measure 8
00001000
00000000
00001000
00000000
00001000
00010000
00100000
01000000
,  // measure 9
00020000
00000000
10030000
01000000
00100000
01000000
10000000
00020000
,  // measure 10
00000000
01030000
00001000
00010000
00000100
00001000
00000010
00000100
,  // measure 11
00000002
00000000
00000103
00001000
00010000
00100000
01000000
00020000
,  // measure 12
00000000
10030000
01000000
00100000
01000000
10000000
00020000
00000000
,  // measure 13
02030000
00000000
03100000
10000000
00010000
00100000
00001000
00020000
,  // measure 14
00000000
00030010
00001000
00000001
00000010
00000100
00000010
00000001
,  // measure 15
00002000
00000000
00003010
00000100
00001000
00010000
00100000
02000000
,  // measure 16
00000000
00000000
03010000
00000000
00100000
00000000
01000000
00000000
10000000
00010000
10000000
00000000
02000000
00000000
00000000
00000000
,  // measure 17
03200000
00000000
00310000
10000000
00010000
01000000
00001000
00020000
,  // measure 18
00000000
00030100
00000010
00000100
00001000
00000001
00000100
00000010
,  // measure 19
00002000
00000000
00003100
00000010
00001000
00010000
00100000
02000000
,  // measure 20
00000000
03010000
10000000
01000000
00100000
00010000
02000000
00000000
,  // measure 21
03200000
00000000
10300000
00010000
00100000
00001000
00100000
00020000
,  // measure 22
00000000
00130000
00001000
00010000
00000010
00000100
00000001
00001000
,  // measure 23
00000200
00000000
00000310
00001000
00010000
00100000
10000000
00020000
,  // measure 24
00000000
00130000
01000000
10000000
00100000
01000000
00010000
00000000
,  // measure 25
01020000
00230000
00302000
00023000
,  // measure 26
00230000
20300000
32000000
03020000
,  // measure 27
00000000
00032000
00023000
00001000
,  // measure 28
00000000
00000100
00000000
00001000
,  // measure 29
00030100
00002000
00003020
00000230
,  // measure 30
00000302
00000000
00002003
00003200
,  // measure 31
00020300
00032000
00000000
01000000
,  // measure 32
00000000
00013000
01000000
00100000
00010000
01000000
00100000
10000000
,  // measure 33
00010000
00000000
10000000
00000000
00100000
01000000
00000000
01000000
,  // measure 34
00001000
00000000
00010000
00000000
00000100
00001000
00000000
00001000
,  // measure 35
00000001
00000000
00000100
00000000
00000010
00010000
00000000
00010000
,  // measure 36
00001000
00000000
00000000
00000000
00100000
00000000
00000000
00000000
00010000
00000000
00000000
00010000
00000000
00000000
10010000
00000000
,  // measure 37
00000000
00000000
10000000
00000000
00100000
01000000
00000000
01000000
,  // measure 38
00001000
00000000
00010000
00000000
00000100
00000010
00000000
00000010
,  // measure 39
00000001
00000000
00000100
00000000
00000010
00010000
00000000
00010000
,  // measure 40
00001000
00100000
00010000
10000000
00100000
00000000
01100000
00000000
,  // measure 41
01020000
00000000
10030000
01000000
00010000
01000000
00100000
00002000
,  // measure 42
00000000
00013000
00001000
00010000
00000100
00001000
00000001
00000100
,  // measure 43
00000020
00000000
00001030
00000100
00000001
00000100
00000010
00000001
,  // measure 44
00000100
00001000
00000000
00010000
00000000
01000000
00000000
20000000
,  // measure 45
00000000
00000000
30100000
01000000
10000000
01000000
00010000
20000000
,  // measure 46
00000000
31000000
00100000
00010000
01000000
00001000
00010000
00000100
,  // measure 47
00000020
00000000
00000031
00000100
00001000
00010000
01000000
20000000
,  // measure 48
00000000
30010000
01000000
00000000
01100000
00000000
01010000
00000000
,  // measure 49
00120000
00000000
10030000
00100000
00010000
00100000
01000000
00002000
,  // measure 50
00000000
00013000
00001000
00010000
00000010
00001000
00000001
00000010
,  // measure 51
00000200
00000000
00001300
00000010
00000001
00000010
00000100
00000001
,  // measure 52
00000010
00001000
00000000
00011000
00000000
00110000
00000000
20100000
,  // measure 53
00000000
00000000
31000000
00100000
10000000
00100000
00010000
20000000
,  // measure 54
00000000
30100000
01000000
00010000
00100000
00001000
00010000
00000010
,  // measure 55
00000200
00000000
00000301
00000010
00001000
00010000
00100000
20000000
,  // measure 56
00000000
30010000
00100000
00000000
01100000
00000000
00110000
00000000
,  // measure 57
00010000
10000000
00100000
02000000
00000000
00000000
03001000
00010000
,  // measure 58
00000100
00000020
00000000
00000000
00000031
00000000
00001000
00000000
,  // measure 59
00000020
00000000
00000230
00000000
,  // measure 60
00002300
00000000
00023000
00000000
,  // measure 61
01030000
10000000
00010000
02000000
00000000
00000000
03010000
00100000
,  // measure 62
00001000
00020000
00000000
00000000
00030010
00000000
00001000
00000000
,  // measure 63
00000001
00000010
00000000
00000100
00001000
00000000
00000100
00010000
,  // measure 64
00000000
00001000
01000000
00000000
00100000
10000000
00010000
00000000
,  // measure 65
00100000
10000000
00100000
00020000
00000000
00000000
00130000
00001000
,  // measure 66
00010000
00200000
00000000
00000000
00310000
00000000
00001000
00000000
,  // measure 67
00000010
00000100
00001000
00000000
00000010
00000100
00000001
00000000
,  // measure 68
00001000
00000100
00000010
00000000
00001000
00010000
00001000
00000000
,  // measure 69
00010000
00100000
01000000
00020000
00000000
00000000
10030000
01000000
,  // measure 70
00010000
00002000
00000000
00000000
00013000
00000000
00000010
00000000
,  // measure 71
00000100
00000001
00000010
00000000
00000100
00001000
00000010
00000000
,  // measure 72
00000100
00001000
00010000
00100000
01000000
00010000
10000000
00000000
,  // measure 73
00200000
00000000
00000000
02300000
00000000
00000000
03002000
00000000
00000000
00000000
00000000
00000000
00023000
00000000
00030200
00000000
,  // measure 74
00000320
00000000
00000000
00000032
00000000
00000000
00000203
00000000
00000000
00000000
00000000
00000000
00002300
00000000
00023000
00000000
,  // measure 75
02030000
00000000
00000000
23000000
00000000
00000000
30200000
00000000
00000000
00000000
00000000
00000000
00320000
00000000
00032000
00000000
,  // measure 76
00003020
00000000
00000000
00000032
00000000
00000000
00000203
00000000
00000000
00000000
00000000
00000000
00000000
00000000
00000000
00000000
,  // measure 77
00000310
00000000
00000000
00000000
00001000
00000010
00010000
00001000
00010000
00000000
00000000
00000000
00001000
00000000
01000000
00000000
,  // measure 78
00000000
01000000
00100000
00000000
10000000
00010000
00100000
01000000
,  // measure 79
00010000
00001000
00000100
00000010
00001000
00000000
00000001
00000010
,  // measure 80
00000000
00001000
00000010
00000000
00000001
00000100
00000010
00000100
,  // measure 81
00001000
00010000
00100000
01000000
00100000
00000000
10000000
00010000
,  // measure 82
00000000
00100000
01000000
00000000
00100000
00010000
10000000
00100000
,  // measure 83
00010000
00001000
00000010
00000001
00000100
00000000
00000000
00010010
,  // measure 84
00000000
00020200
00000000
00000000
,  // measure 85
00000000
00000000
00000000
00000000
,  // measure 86
00000300
00000000
00000000
00031000
01000000
00000000
00000000
00000000
;

//---------------dance-double - ----------------
#NOTEDATA:;
#CHARTNAME:1800 Meters Deep;
#CHARTHASH:556370725;
#STEPSTYPE:dance-double;
#BANNER:;
#DESCRIPTION:;
#CHARTSTYLE:;
#DIFFICULTY:Hard;
#METER:16;
#METERF:0.000000;
#LASTSECONDHINT:114.947372;
#RADARVALUES:0.639286,0.756875,0.100000,0.600000,0.225000,537.000000,525.000000,12.000000,72.000000,0.000000,0.000000,0.000000,0.000000,0.000000,0.639286,0.756875,0.100000,0.600000,0.225000,537.000000,525.000000,12.000000,72.000000,0.000000,0.000000,0.000000,0.000000,0.000000;
#CREDIT:YOSEFU;
#NOTES:
// measure 0
00000000
00000000
00000000
00000000
,  // measure 1
00000000
00000000
00000000
00000000
,  // measure 2
00000000
00000000
00000000
00000000
,  // measure 3
00000000
00000000
00000000
00000000
,  // measure 4
00000000
00000000
00000000
00000000
,  // measure 5
00020000
00000000
00031000
00010000
00001000
00000010
00001000
00020000
,  // measure 6
00000000
00031000
00010000
00100000
01000000
00100000
10000000
00010000
,  // measure 7
00200000
00000000
01300000
00100000
01000000
00010000
00001000
00010000
,  // measure 8
00000010
00000000
00000000
00000000
00000010
00000000
00000000
00000000
00000010
00000000
00001000
00000001
00000100
00000000
00000010
00000000
,  // measure 9
00002000
00000000
00003100
00000010
00001000
00010000
00001000
00200000
,  // measure 10
00000000
00000000
00310000
00000000
01000000
00000000
00000000
00010000
10000000
00000000
01000000
00000000
00100000
00000000
00010000
00000000
,  // measure 11
20000000
00000000
30100000
01000000
00100000
00010000
00001000
00000200
,  // measure 12
00000000
00000000
00000310
00000000
00001000
00000001
00000000
00001000
00000010
00000000
00000100
00000000
00000002
00000000
00000000
00000000
,  // measure 13
00000023
00000000
00000130
00000010
00000100
00001000
00010000
00002000
,  // measure 14
00000000
00000000
00013000
00000000
00000010
00000000
00000000
00001000
00000010
00000000
00000100
00000000
00000010
00000000
00010000
00000000
,  // measure 15
00000200
00000000
00000310
00001000
00010000
01000000
00100000
00020000
,  // measure 16
00000000
00000000
01030000
00000000
00100000
10000000
00010000
00000000
01000000
00100000
10000000
00000000
00010000
00000000
00000000
00000000
,  // measure 17
10020000
00000000
01030000
00100000
10000000
01000000
00100000
00020000
,  // measure 18
00000000
00000000
00130000
00000000
00001000
00000000
00000000
00010000
00000010
00000000
00001000
00000000
00000001
00000000
00000010
00000000
,  // measure 19
00000200
00000000
00000310
00001000
00010000
00100000
01000000
00020000
,  // measure 20
00000000
00000000
00130000
00000000
01000000
10000000
00000000
00010000
10000000
00000000
00100000
00000000
01000000
00000000
00000000
00000000
,  // measure 21
02010000
00000000
03100000
10000000
01000000
00100000
00001000
00020000
,  // measure 22
00000000
00000000
00030010
00000000
00001000
00000000
00000000
00000100
00000010
00000000
00000001
00000000
00001000
00000000
00000010
00000000
,  // measure 23
00000200
00000000
00000301
00000100
00001000
00010000
01000000
00200000
,  // measure 24
00000000
00000000
00310000
00000000
10000000
00000000
00000000
00000000
00100000
01000000
00100000
01000000
00100000
00000000
00000000
00000000
,  // measure 25
20010000
30200000
02300000
03002000
,  // measure 26
00023000
00030200
00000320
00000032
,  // measure 27
00000000
00000203
00000320
00001000
,  // measure 28
00000000
00000000
00000130
00000001
00001000
00000100
00010000
00001000
,  // measure 29
01000000
00200000
00320000
00032000
,  // measure 30
00003020
00000000
00000031
00000100
,  // measure 31
00001000
00010000
00200000
00000000
01000000
00000000
10300000
00010000
,  // measure 32
00000000
10000000
00100000
00010000
00001000
00000100
00000001
00001000
,  // measure 33
00000100
00000000
00001000
00000010
00000100
00000001
00000010
00000100
,  // measure 34
00000000
00000000
00001000
00000100
00000010
00001000
00010000
00100000
,  // measure 35
00000000
00000000
01000000
00100000
10000000
00010000
00100000
01000000
,  // measure 36
00000000
00000000
00000000
00000000
10000000
00000000
00010000
00000000
01000000
00000000
10000000
01000000
00000000
00100000
01000000
00000000
,  // measure 37
00000000
00000000
00010000
10000000
01000000
00100000
00001000
00010000
,  // measure 38
00000000
00000000
00100000
00010000
00001000
00000010
00000100
00001000
,  // measure 39
00000000
00000000
00000001
00000100
00001000
00010000
00100000
01000000
,  // measure 40
00010000
00000000
00100000
00000000
10000000
00000000
00100000
00000000
00010000
00000000
10000000
00010000
01000000
00000000
00100000
00000000
,  // measure 41
20000000
00000000
30010000
00100000
10000000
00100000
00010000
10000000
,  // measure 42
00010000
00000000
01000000
00000000
00001000
00000000
00010000
00000100
00001000
00000000
00000100
00000000
00000000
00000000
00000010
00000000
,  // measure 43
00000001
00000000
00000100
00001000
00000100
00000001
00000010
00000100
,  // measure 44
00010000
00001000
00000000
01001000
00000000
01100000
00000000
20010000
,  // measure 45
00000000
00000000
31000000
00010000
00001000
00010000
00000010
00000100
,  // measure 46
00000001
00000000
00000010
00000000
00000100
00000000
00000010
00000001
00000100
00000000
00000010
00000000
00001000
00000000
00000010
00000000
,  // measure 47
00020000
00000000
00130000
10000000
01000000
00010000
00000100
00002000
,  // measure 48
00000000
00000000
01003000
00000000
00010000
00000000
00001000
00000000
00000010
00000100
00001000
00000000
00000001
00000000
00000000
00000000
,  // measure 49
00000102
00000000
00001003
00000100
00000001
00000100
00001000
00000001
,  // measure 50
00001000
00000000
00000010
00000000
00010000
00000000
00001000
00100000
00010000
00000000
00100000
00000000
00000000
00000000
01000000
00000000
,  // measure 51
10000000
00000000
00000000
00000000
00100000
00000000
00010000
00000000
00100000
00000000
10000000
00000000
01000000
00000000
00100000
00001000
,  // measure 52
00010000
00000010
00000000
00010010
00000000
00000110
00000000
00001002
,  // measure 53
00000000
00000000
00000013
00001000
00010000
00001000
01000000
00100000
,  // measure 54
10000000
00000000
01000000
00000000
00100000
00000000
01000000
10000000
00100000
00000000
01000000
00000000
00010000
00000000
01000000
00000000
,  // measure 55
00002000
00000000
00003100
00000001
00000010
00001000
00100000
00020000
,  // measure 56
00000000
00000000
00030010
00000000
00001000
00000000
00010000
00000000
01000000
00100000
00010000
00000000
20000000
00000000
00000000
00000000
,  // measure 57
30100000
01000000
00100000
00020000
00000000
00000000
00031000
00000010
,  // measure 58
00000100
00002000
00000000
00000000
00003010
00000100
00000001
00000000
,  // measure 59
00000010
00000100
00001000
00000000
00000010
00000100
00001000
00000000
,  // measure 60
00010000
00100000
01000000
00000000
00010000
00100000
01000000
00000000
,  // measure 61
00010000
00001000
00010000
00200000
00000000
00000000
00310000
00001000
,  // measure 62
00000010
00000200
00000000
00000000
00001300
00000001
00000100
00000000
,  // measure 63
00000010
00000000
00001000
00000000
00000000
00000000
00000000
00000010
00010000
00000000
00000000
00000000
00000000
00001000
00100000
00000000
,  // measure 64
00000000
00000000
00000000
00010000
10000000
00000000
00000000
00000000
00100000
00000000
01000000
00000000
00010000
00000000
00000000
00000000
,  // measure 65
10000000
01000000
00010000
00002000
00000000
00000000
00013000
00001000
,  // measure 66
00000010
00000002
00000000
00000000
00001003
00000010
00000100
00000000
,  // measure 67
00000010
00000000
00000000
00001000
00000100
00000000
00000000
00000010
00000001
00000000
00001000
00000000
00000010
00000000
00000100
00000001
,  // measure 68
00001000
00000000
00000100
00000000
00010000
00001000
01000000
00000000
00100000
00000000
10000000
01000000
00100000
00000000
00010000
00000000
,  // measure 69
10000000
01000000
00010000
00002000
00000000
00000000
00013000
00001000
,  // measure 70
00000100
00000002
00000000
00000000
00000103
00000010
00001000
00000000
,  // measure 71
00000001
00000010
00000100
00000000
00001000
00000000
00000000
00000000
00000010
00000100
00001000
00000000
00010000
00000000
00000000
00100000
,  // measure 72
01000000
00000000
00000000
00100000
10000000
00000000
00000000
00000000
01000000
00000000
00100000
00000000
00020000
00000000
00000000
00000000
,  // measure 73
02030000
00000000
00000000
03200000
00000000
00000000
00320000
00000000
00000000
00000000
00000000
00000000
00032000
00000000
00003020
00000000
,  // measure 74
00000032
00000000
00000000
00000203
00000000
00000000
00002300
00000000
00000000
00000000
00000000
00000000
00023000
00000000
00230000
00000000
,  // measure 75
20300000
00000000
00000000
32000000
00000000
00000000
03002000
00000000
00000000
00000000
00000000
00000000
00003200
00000000
00000320
00000000
,  // measure 76
00020030
00000000
00000000
00230000
00000000
00000000
02300000
00000000
00000000
00000000
00000000
00000000
00000000
00000000
00000000
00000000
,  // measure 77
13000000
00000000
00000000
00000000
00000000
00010000
00000000
00000000
00000000
00000000
01000000
00000000
00000000
00000000
00000000
00000000
00100000
00000000
00000000
00000000
00010000
00000000
00000000
00000000
00001000
00000000
00000000
00000000
00000100
00000000
00000000
00000000
00000010
00000000
00000000
00000000
00000000
00000000
00000000
00000000
00000000
00000000
00000000
00000000
00001000
00000000
00000000
00000000
00000001
00000000
00000000
00000000
00000000
00000000
00000000
00000000
00000010
00000000
00000000
00000000
00000000
00000000
00000000
00000000
,  // measure 78
00000000
00001000
00010000
00000000
00100000
00000000
01000000
00000000
00000000
00000000
00010000
10000000
01000000
00000000
00100000
00010000
,  // measure 79
01000000
00000000
00100000
00000000
00010000
00000000
00001000
00000000
00000010
00000000
00000000
00000001
00001000
00000000
00000010
00000000
,  // measure 80
00000000
00000001
00000010
00000000
00001000
00000000
00000000
00000000
00000100
00000000
00000001
00000000
00000100
00000000
00001000
00000000
,  // measure 81
00000010
00000000
00000100
00000000
00001000
00000000
01000000
00000000
00010000
00000000
00000000
00100000
10000000
00000000
00100000
00000000
,  // measure 82
00000000
01000000
10000000
00000000
00100000
00000000
00010000
00000000
00000000
00000000
00001000
00000000
00010000
00000100
00010000
00000100
,  // measure 83
00010000
00001000
00000010
00010000
00100000
00000000
00000000
00110000
,  // measure 84
00000000
02010000
00000000
00000000
,  // measure 85
00000000
00000000
00000000
00000000
,  // measure 86
00000000
00000000
00000000
00000000
00000000
00000000
03100000
00010000
00001000
00000000
00000000
00000000
00000000
00000000
00000000
00000000
;

//---------------dance-double - ----------------
#NOTEDATA:;
#CHARTNAME:2000 Meters Deep;
#CHARTHASH:159400013;
#STEPSTYPE:dance-double;
#BANNER:;
#DESCRIPTION:;
#CHARTSTYLE:;
#DIFFICULTY:Challenge;
#METER:18;
#METERF:0.000000;
#LASTSECONDHINT:114.947372;
#RADARVALUES:0.788095,0.937083,0.100000,0.533333,0.508333,662.000000,650.000000,12.000000,64.000000,0.000000,0.000000,0.000000,0.000000,0.000000,0.788095,0.937083,0.100000,0.533333,0.508333,662.000000,650.000000,12.000000,64.000000,0.000000,0.000000,0.000000,0.000000,0.000000;
#CREDIT:ヨセフ;
#NOTES:
// measure 0
00000000
00000000
00000000
00000000
,  // measure 1
00000000
00000000
00000000
00000000
,  // measure 2
00000000
00000000
00000000
00000000
,  // measure 3
00000000
00000000
00000000
00000000
,  // measure 4
00000000
00000000
00000000
00000000
,  // measure 5
00020000
00000000
00031000
00010000
00100000
10000000
01000000
00200000
,  // measure 6
00000000
00310000
01000000
00100000
01000000
00010000
00100000
01000000
,  // measure 7
20000000
00000000
30100000
00010000
00001000
00000100
00000010
00001000
,  // measure 8
00000100
00000000
00000000
00000000
00000100
00000000
00000000
00000000
00000100
00000000
00000010
00000001
00000010
00000100
00001000
00000100
,  // measure 9
00001000
00000000
00000001
00000100
00001000
00010000
00001000
00000200
,  // measure 10
00000000
00000000
00000310
00000000
00001000
00000000
00000100
00000010
00000001
00000000
00000010
00000000
00000100
00000000
00010000
00001000
,  // measure 11
02000000
00000000
03100000
00010000
00001000
00000010
00001000
00020000
,  // measure 12
00000000
00000000
00130000
00000000
10000000
01000000
00100000
01000000
10000000
00000000
00010000
00000000
01000000
00000000
00000000
00000000
,  // measure 13
02010000
00000000
03100000
00010000
00001000
00010000
01000000
20000000
,  // measure 14
00000000
00000000
31000000
00000000
00010000
00000000
00001000
00010000
00000100
00000000
00000010
00000000
00000001
00000000
00001000
00000010
,  // measure 15
00000200
00000000
00000301
00000100
00001000
00010000
01000000
20000000
,  // measure 16
00000000
00000000
31000000
00000000
00010000
00000000
00001000
00000010
00000100
00001000
00000001
00000000
00000100
00000010
00001000
00000000
,  // measure 17
00002001
00000000
00003001
00000010
00001000
00010000
00001000
00000020
,  // measure 18
00000000
00000000
00000130
00000000
00001000
00000000
00000010
00000100
00000001
00000000
00000100
00000000
00000010
00000000
00010000
00001000
,  // measure 19
00200000
00000000
01300000
00010000
00001000
00000010
00001000
00020000
,  // measure 20
00000000
00000000
01030000
00000000
10000000
00100000
01000000
00100000
10000000
00000000
00010000
00000000
00100000
00000000
00000000
00000000
,  // measure 21
00210000
00000000
01300000
00010000
00001000
00010000
00100000
20000000
,  // measure 22
00000000
00000000
30100000
00000000
00010000
00000000
00001000
00010000
00000010
00000000
00000100
00000000
00000001
00000000
00001000
00000100
,  // measure 23
00000020
00000000
00000031
00000010
00001000
00010000
01000000
20000000
,  // measure 24
00000000
00000000
30100000
00000000
00010000
00000000
00001000
00000100
00000010
00001000
00000001
00000000
00001000
00000000
00000000
00000000
,  // measure 25
00001100
00000000
00001000
00000010
00000200
00000000
00000301
00000010
,  // measure 26
00000200
00000000
00000310
00001000
00020000
00000000
00130000
02000000
,  // measure 27
00000000
00000000
03010000
00100000
02000000
00000000
10000000
00000000
,  // measure 28
00000000
03100000
00010000
10000000
00100000
01000000
00001000
00010000
,  // measure 29
00000200
00000000
00000310
00000001
00000200
00000000
00000310
00001000
,  // measure 30
00000200
00000000
00000000
00000000
00001300
00010000
00200000
00000000
,  // measure 31
01300000
10000000
00020000
00000000
01030000
00100000
00010000
00002000
,  // measure 32
00000000
00003010
00001000
00010000
00100000
00001000
00100000
01000000
,  // measure 33
00010000
00000000
00000000
00000000
10000000
00000000
00000000
01000000
00100000
00000000
10000000
00000000
00100000
00000000
00010000
00000000
,  // measure 34
00100000
00000000
00000000
00000000
00001000
00000000
00000000
00010000
00000010
00000000
00000100
00000000
00001000
00000000
00000100
00000000
,  // measure 35
00000010
00000000
00000000
00000000
00000100
00000000
00000000
00000001
00000010
00000000
00001000
00000000
00010000
00000000
01000000
00000000
,  // measure 36
00100000
00000000
00000000
00000000
00010000
00000000
00000000
10000000
00100000
00000000
01000000
00001000
00000000
00010000
00000100
00000000
,  // measure 37
00000000
00000000
00000000
00000000
00000010
00001000
00010000
00000000
00100000
00000000
01000000
00000000
00010000
00000000
10000000
01000000
,  // measure 38
00100000
00000000
01000000
00000000
00010000
00000000
00001000
00000000
00000100
00000000
00000010
00001000
00000001
00000000
00000010
00000000
,  // measure 39
00000100
00000010
00000001
00000000
00000100
00000000
00000010
00010000
00001000
00000000
00010000
00000000
00100000
01000000
00010000
00000000
,  // measure 40
10000000
00000000
01000000
00000000
00010000
00000000
00001000
00000000
00000010
00000000
00000001
00000100
00000010
00001000
00000010
00010000
,  // measure 41
00001000
00000000
00000000
00000000
00011000
00000000
00000000
00010000
00100000
00000000
01000000
00000000
00010000
00000000
00100000
00000000
,  // measure 42
01000000
00000000
10000000
00000000
00010000
00000000
01000000
00100000
10000000
00010000
00100000
00000000
10000000
00000000
00100000
00000000
,  // measure 43
00020000
00000000
00000000
00000000
01030000
00000000
00100000
00010000
00001000
00010000
00001000
00000000
00010000
00000000
00000100
00000000
,  // measure 44
00000010
00000000
00000001
00000000
00000100
00000000
00000010
00001000
00000100
00000000
00000010
00000001
00000100
00000000
00000210
00000000
,  // measure 45
00000000
00000000
00000301
00000010
00000100
00000000
00000010
00001000
00010000
00000000
01000000
00000000
00100000
00000000
00020000
00000000
,  // measure 46
00000000
00000000
10030000
00000000
00100000
00000000
01000000
00010000
00100000
01000000
10000000
00000000
00010000
00000000
01000000
00000000
,  // measure 47
00100000
00000000
00000000
00000000
01100000
00000000
01000000
00100000
00010000
00001000
00000100
00000000
00000001
00000000
00001000
00000000
,  // measure 48
00000000
00000000
00000010
00000000
00000100
00000000
00000001
00000010
00000100
00010000
00000100
00000000
00010000
00000000
00001000
00000000
,  // measure 49
00010000
00000000
00000000
00000000
00011000
00000000
00000000
00001000
00000100
00000000
00000010
00000000
00001000
00000000
00000100
00000000
,  // measure 50
00000010
00000000
00000001
00000000
00001000
00000000
00000010
00000100
00000001
00001000
00000100
00000000
00000001
00000000
00000100
00000000
,  // measure 51
00002000
00000000
00000000
00000000
00003010
00000000
00000100
00001000
00010000
00001000
00010000
00000000
00001000
00000000
00100000
01000000
,  // measure 52
10000000
00100000
01000000
10100000
01000000
00110000
10000000
01020000
,  // measure 53
00000000
00000000
10030000
01000000
00100000
00000000
01000000
00010000
00001000
00000000
00000010
00000000
00000100
00000000
00002000
00000000
,  // measure 54
00000000
00000000
00003001
00000000
00000100
00000000
00000010
00001000
00000100
00000010
00000001
00000000
00001000
00000000
00000010
00000000
,  // measure 55
00000100
00000000
00000000
00000000
00000110
00000000
00000010
00000100
00001000
00010000
01000000
00000000
10000000
00000000
00010000
00000000
,  // measure 56
00000000
00000000
01000000
00000000
00100000
00000000
10000000
01000000
00100000
00001000
00100000
00000000
00001000
00000000
00010000
00000000
,  // measure 57
00001000
00000010
00000001
00000200
00000000
00001300
00010000
00100000
,  // measure 58
10000000
02000000
00000000
03010000
00001000
00000010
00000100
00000000
,  // measure 59
00001000
00000000
00000000
00000010
00001000
00000000
00000001
00000000
00001000
00000000
00000001
00000000
00000001
00000000
00000010
00000100
,  // measure 60
00001000
00000000
00000100
00000000
00010000
00000000
00000100
00000000
00000100
00000000
00010000
00001000
00010000
00000000
00001000
00000000
,  // measure 61
00010000
00100000
10000000
02000000
00000000
03010000
00001000
00000010
,  // measure 62
00000001
00000200
00000000
00001300
00010000
00100000
01000000
00000000
,  // measure 63
00010000
00000000
10000000
00000000
00000000
00000000
01000000
00100000
00010000
00000000
00000000
00100000
01000000
10000000
00010000
00000000
,  // measure 64
00000000
01000000
00100000
10000000
00010000
00000000
00000000
00000000
10000000
00000000
01000000
00000000
00100000
00000000
00001000
00000000
,  // measure 65
00010000
00100000
10000000
02000000
00000000
03010000
00001000
00000100
,  // measure 66
00000001
00000000
00000020
00000000
00000000
00000000
00001030
00000000
00010000
00000000
00100000
00000000
10000000
00000000
00000000
01000000
,  // measure 67
00100000
00000000
00010000
01000000
00100000
00000000
10000000
00000000
10000000
00010000
00100000
00001000
00010000
00000000
00000010
00001000
,  // measure 68
00000001
00000000
00001000
00000100
00000010
00000001
00001000
00000000
00000010
00010000
00001000
00100000
00010000
00000000
00001000
00010000
,  // measure 69
00001000
00000010
00000001
00000200
00000000
00001300
00010000
01000000
,  // measure 70
10000000
00200000
00000000
00310000
00001000
00000010
00000002
00000000
,  // measure 71
00000103
00000010
00000100
00001000
00010000
00000000
00001000
00010000
01000000
00100000
00010000
00100000
01000000
00000000
10000000
00010000
,  // measure 72
01000000
00000000
00100000
10000000
00010000
00000000
00100000
00000000
10000000
00000000
00100000
00000000
00002000
00000000
00000000
00000000
,  // measure 73
00023000
00000000
00000000
00230000
00000000
00000000
20300000
00000000
00000000
00000000
00000000
00000000
32000000
00000000
03020000
00000000
,  // measure 74
00030200
00000000
00000000
00000302
00000000
00000000
00000203
00000000
00000000
00000000
00000000
00000000
00002300
00000000
00003020
00000000
,  // measure 75
00000230
00000000
00000000
00002300
00000000
00000000
00203000
00000000
00000000
00000000
00000000
00000000
20300000
00000000
30020000
00000000
,  // measure 76
02030000
00000000
00000000
03020000
00000000
00000000
00030200
00000000
00000000
00000000
00000000
00000000
00000000
00000000
00000000
00000310
,  // measure 77
00000001
00000000
00000000
00000000
00000000
00000100
00000000
00000000
00000000
00000000
00001000
00000000
00000000
00000000
00000000
00000000
00010000
00000000
00100000
00000000
01000000
00000000
00000000
00000000
00100000
00000000
00000000
00000000
10000000
00000000
00000000
00000000
00010000
00000000
00000000
00000000
00000000
00000000
00000000
00000000
00000000
00000000
00000000
00000000
01000000
00000000
00000000
00000000
00010000
00000000
00000000
00000000
00000000
00000000
00000000
00000000
10000000
00000000
00000000
00000000
00000000
00000000
00000000
00000000
,  // measure 78
01000000
00000000
00010000
00001000
00010000
00000000
00000010
00000000
00000000
00000000
00000100
00001000
00010000
00100000
01000000
00010000
,  // measure 79
10000000
01000000
00100000
00010000
10000000
00000000
00100000
00000000
00010000
00000000
00000000
00001000
00010000
00000000
00001000
00000000
,  // measure 80
00000010
00000000
00000001
00000000
00000100
00000000
00010000
00000000
01000000
00010000
10000000
00000000
01000000
00100000
01000000
00010000
,  // measure 81
00001000
00000000
00000010
00000000
00000001
00000100
00001000
00010000
01000000
00000000
00000000
10000000
01000000
00000000
00100000
00000000
,  // measure 82
00010000
00000000
00001000
00000000
00000100
00000000
00000010
00000000
00000001
00000000
00000100
00000000
00001000
00010000
00100000
01000000
,  // measure 83
00100000
10000000
01000000
00100000
01000000
00010000
00001000
00000010
00000100
00000000
00000000
00010000
00001000
00000000
00000010
00000000
,  // measure 84
00000000
00010000
00100000
00000000
02000000
00000000
00000000
00000000
00000000
00000000
00000000
00000000
00000000
00000000
00000000
00000000
,  // measure 85
00000000
00000000
00000000
00000000
,  // measure 86
00000000
00000000
00000000
00000000
00000000
00000000
03010000
01000000
10000000
00000000
00000000
00000000
00000000
00000000
00000000
00000000
;
