#VERSION:0.83;
#TITLE:イガク;
#SUBTITLE:;
#ARTIST:原口沙輔 ft. 重音テト;
#TITLETRANSLIT:Igaku;
#SUBTITLETRANSLIT:;
#ARTISTTRANSLIT:Haraguchi Sasuke ft. Kasane Teto;
#GENRE:VOCALOID;
#ORIGIN:Single Release (2024);
#TAGS:;
#CREDIT:;
#BANNER:Igaku.png;
#BACKGROUND:Igaku-bg.png;
#PREVIEWVID:;
#JACKET:Igaku-jacket.png;
#CDIMAGE:;
#DISCIMAGE:;
#LYRICSPATH:;
#CDTITLE:../_YSD cdtitles/ysd sc2024 cdtitle.png;
#MUSIC:Igaku.ogg;
#OFFSET:-0.351000;
#SAMPLESTART:46.951000;
#SAMPLELENGTH:22.587999;
#SELECTABLE:YES;
#DISPLAYBPM:170.000000;
#BPMS:0.000000=170.000000
,328.000000=680.000000
,328.500000=170.000000
;
#STOPS:328.500000=0.264706
;
#DELAYS:;
#WARPS:;
#TIMESIGNATURES:0.000000=4=4
;
#TICKCOUNTS:0.000000=4
;
#COMBOS:0.000000=1
;
#SPEEDS:0.000000=1.000000=0.000000=0
;
#SCROLLS:0.000000=1.000000
,260.000000=2.000000
,262.500000=0.000000
,262.750000=1.000000
,263.000000=0.000000
,263.250000=1.000000
,263.500000=0.000000
,263.750000=1.000000
;
#FAKES:;
#LABELS:0.000000=Song Start
;
#LASTSECONDHINT:118.939240;
#BGCHANGES:-1.000000=Igaku.avi=1.000000=1=0=0=StretchNoLoop==CrossFade==,
99999.000000=-nosongbg-=1.000000=0=0=0=StretchNoLoop====
;
#KEYSOUNDS:;
#ATTACKS:
;

//---------------dance-single - ----------------
#NOTEDATA:;
#CHARTNAME:;
#CHARTHASH:1012291245;
#STEPSTYPE:dance-single;
#BANNER:;
#DESCRIPTION:;
#CHARTSTYLE:;
#DIFFICULTY:Beginner;
#METER:4;
#METERF:0.000000;
#RADARVALUES:0.174488,0.340667,0.149561,0.066472,0.000000,147.000000,129.000000,18.000000,8.000000,0.000000,0.000000,0.000000,0.000000,0.000000,0.174488,0.340667,0.149561,0.066472,0.000000,147.000000,129.000000,18.000000,8.000000,0.000000,0.000000,0.000000,0.000000,0.000000;
#CREDIT:YOSEFU;
#NOTES:
// measure 0
0000
0000
0000
0000
,  // measure 1
0000
0000
0000
0000
,  // measure 2
0000
0000
0000
0000
,  // measure 3
0000
0000
0000
0000
,  // measure 4
0000
0000
0000
0000
,  // measure 5
1000
0000
0000
0000
,  // measure 6
0001
0000
0000
0000
,  // measure 7
1000
0000
0000
0000
0000
0001
0000
0000
,  // measure 8
0000
1000
0000
0000
0001
0000
0000
0000
,  // measure 9
1001
0000
0000
0000
,  // measure 10
1000
0000
0000
0000
,  // measure 11
0001
0000
0000
0000
,  // measure 12
0100
0000
0000
0000
,  // measure 13
0010
0000
1000
0000
,  // measure 14
0010
0000
0100
0000
,  // measure 15
0001
0000
0000
0000
0000
1000
0000
0000
,  // measure 16
0000
0001
0000
0000
0000
0000
0000
0000
,  // measure 17
1000
0000
0010
0000
,  // measure 18
0100
0000
0000
0000
,  // measure 19
0001
0000
1000
0000
,  // measure 20
0100
0000
0000
0000
,  // measure 21
0010
0000
0001
0000
,  // measure 22
0100
0000
0000
0000
,  // measure 23
0010
0000
0000
0000
0000
1000
0000
0000
,  // measure 24
0000
0010
0000
0000
1000
0000
0000
0000
,  // measure 25
0002
0000
0003
0000
,  // measure 26
2000
0000
3000
0000
,  // measure 27
0200
0000
0300
0000
,  // measure 28
0020
0000
0030
0000
,  // measure 29
0110
0000
0110
0000
,  // measure 30
1001
0000
1001
0000
,  // measure 31
0110
0000
1001
0000
,  // measure 32
0110
0000
1001
0000
,  // measure 33
0110
0000
1000
0000
,  // measure 34
0001
0000
0100
0000
,  // measure 35
0010
0000
1000
0000
,  // measure 36
0001
0000
0010
0000
,  // measure 37
0100
0000
1000
0000
,  // measure 38
0001
0000
0010
0000
,  // measure 39
0100
0000
1000
1000
,  // measure 40
0000
0001
0001
0000
,  // measure 41
1001
0000
1000
0000
,  // measure 42
0010
0000
0100
0000
,  // measure 43
0001
0000
1000
0000
,  // measure 44
0100
0000
0010
0000
,  // measure 45
0001
0000
1000
0000
,  // measure 46
0010
0000
0100
0000
,  // measure 47
0001
0000
1000
1000
,  // measure 48
0000
0001
0001
0000
,  // measure 49
1001
0000
0000
0000
,  // measure 50
1000
0000
0000
0000
,  // measure 51
0001
0000
0000
0000
,  // measure 52
0100
0000
0000
0000
,  // measure 53
0010
0000
0000
0000
,  // measure 54
1000
0000
0000
0000
,  // measure 55
0200
0000
0000
0000
,  // measure 56
0000
0000
0300
0000
,  // measure 57
0220
0000
0000
0000
,  // measure 58
0000
0000
0000
0000
,  // measure 59
0000
0000
0000
0000
,  // measure 60
0330
0000
0000
0000
,  // measure 61
0001
0000
1000
0000
,  // measure 62
0001
0000
1000
0000
,  // measure 63
0010
0000
0100
0000
,  // measure 64
0010
0000
0100
0000
,  // measure 65
0002
0000
0000
0000
0000
0003
0000
0000
,  // measure 66
1001
0000
0000
0000
,  // measure 67
0110
0000
0000
0000
,  // measure 68
1001
0000
1000
0000
,  // measure 69
0010
0000
0100
0000
,  // measure 70
0001
0000
1000
0000
,  // measure 71
0100
0000
0010
0000
,  // measure 72
0001
0000
1000
1000
,  // measure 73
0000
0001
0001
0000
,  // measure 74
1001
0000
1000
0000
,  // measure 75
0100
0100
0100
0000
,  // measure 76
0010
0000
0001
0000
,  // measure 77
1000
1000
1000
0000
,  // measure 78
0010
0000
0100
0000
,  // measure 79
0001
0001
0001
0000
,  // measure 80
1000
0000
0001
0001
,  // measure 81
0000
1000
1000
0000
,  // measure 82
1001
0000
0000
0000
;

//---------------dance-single - ----------------
#NOTEDATA:;
#CHARTNAME:fack times 4 (times 2);
#CHARTHASH:18455665;
#STEPSTYPE:dance-single;
#BANNER:;
#DESCRIPTION:;
#CHARTSTYLE:;
#DIFFICULTY:Medium;
#METER:12;
#METERF:0.000000;
#RADARVALUES:0.530586,0.580017,0.166179,0.232651,0.000000,447.000000,427.000000,20.000000,28.000000,0.000000,0.000000,0.000000,0.000000,0.000000,0.530586,0.580017,0.166179,0.232651,0.000000,447.000000,427.000000,20.000000,28.000000,0.000000,0.000000,0.000000,0.000000,0.000000;
#CREDIT:YOSEFU;
#NOTES:
0000
0000
0000
0000
,
0000
0000
0000
0000
,
0000
0000
0000
0000
,
0000
0000
0000
0000
,
0000
0000
0000
0000
,
0000
1000
0100
0010
0001
0000
0000
1000
,
0010
0100
0001
0010
0100
1000
0001
0000
,
0100
0000
0010
0000
0000
0100
0000
0010
,
0000
0100
0000
0010
0100
0010
1000
0000
,
1001
0000
0001
0000
0010
0100
1000
0200
,
0000
0010
0000
0000
1000
0000
0000
0000
,
0310
0000
0010
0000
0001
1000
0010
0200
,
0000
0000
0010
0000
0301
0010
0100
1000
,
0001
0000
0001
0000
0100
0010
1000
0002
,
0000
0010
0000
0000
0100
0000
1003
0000
,
0001
0000
0100
0000
0000
0001
0000
0100
,
0000
0001
0000
0100
0001
0100
0010
1000
,
0001
0000
0001
0000
0010
0100
1000
0002
,
0100
0010
0100
1000
,
0103
0000
0100
0000
0010
1000
0100
0020
,
0001
0000
1000
0000
0130
1000
0001
0100
,
0010
0000
0010
0000
1000
0100
0010
0002
,
0100
0010
1000
0100
,
0013
0000
0100
0000
0000
0010
0000
0100
,
0000
1000
0000
0001
1000
0001
0100
0000
,
0010
1000
0000
0001
0010
0000
0100
1000
,
0001
0100
0000
0001
1000
0000
1100
0000
,
1000
0010
0000
0100
0001
0000
1000
0100
,
0010
0001
0000
1000
0010
0000
0100
0001
,
1000
1000
1000
1000
1000
0000
0100
0010
,
0001
0001
0001
0001
0001
0000
0100
0010
,
1000
0000
0100
0010
0001
0000
0100
0010
,
0100
0001
0010
0100
2000
0000
3001
0000
,
0100
0001
0100
0000
0010
1000
0010
0000
,
0210
0001
1000
0310
,
0100
0010
0100
0000
0001
1000
0001
0000
,
0101
0011
2100
3001
,
0100
0001
0100
0000
0010
1000
0001
0000
,
0021
1000
0001
0130
,
1000
0001
1000
0001
1000
0000
0001
1000
,
0001
1000
0001
0000
1001
0000
1000
0000
,
0100
0010
0100
0000
1000
0001
0100
0000
,
0120
1000
0100
1030
,
0001
0010
0001
0000
1000
0010
0100
0000
,
0101
1010
1200
0310
,
0001
0100
0001
0000
0010
0001
1000
0000
,
0201
1000
0010
0301
,
1000
0100
1000
0100
1000
0000
0001
0100
,
0001
0100
0001
0000
0110
0000
1001
0000
,
1000
0100
0010
0100
1000
0000
0000
0001
,
0100
0010
0100
0001
1000
0100
0010
0000
,
0000
0001
0100
0010
0100
0001
0000
1000
,
0100
0010
0001
0100
0010
0001
0010
1000
,
0100
0010
0001
1000
0010
0100
0000
0001
,
0010
0100
1000
0001
0100
0010
1000
0000
,
0002
0000
0000
0023
0000
0000
2030
0000
,
0000
3200
0000
0000
0302
0000
0003
0000
,
1000
0000
1000
0000
0100
0010
0001
2000
,
0000
0010
0000
0000
0010
0000
0000
0000
,
3001
0000
0001
0000
0010
0000
0100
1000
,
0000
1000
0010
0100
0001
0010
1000
0010
,
0001
0100
1000
0100
0010
1000
0100
0010
,
1000
0010
0001
0100
0010
0001
0010
1000
,
0100
0000
0010
0000
0000
0100
0000
1000
,
0000
0001
0000
0200
0000
0000
0310
0000
,
2002
0000
0000
0000
0000
0000
0003
3000
,
0001
0100
1000
0100
0010
1000
0000
0100
,
0001
0100
1000
0010
0200
0000
0301
0000
,
1000
0100
0010
0000
1000
0010
0100
1000
,
0020
0000
0001
0000
1030
0100
0010
0000
,
0001
0100
0010
0000
0001
0010
1000
0001
,
0020
1000
0001
0130
,
1000
0001
1000
0010
0100
0000
0001
1000
,
0001
0010
0100
0000
1100
0000
0101
0000
,
0001
0100
1000
0100
0010
1000
0100
0001
,
0100
0010
0100
1000
0020
0000
0001
0000
,
0130
0001
0010
0100
1000
0010
0100
0001
,
0100
1000
0100
0001
0010
0100
1000
0000
,
0001
0100
0010
0000
0001
0010
0100
0001
,
1000
0100
0010
0000
0011
0000
0001
1000
,
0010
0100
0010
1000
0001
0000
0010
0100
,
1000
0010
0100
0000
0102
0000
0013
0100
,
2000
3000
0000
0000
0000
0000
0000
0000
;

//---------------dance-single - ----------------
#NOTEDATA:;
#CHARTNAME:;
#CHARTHASH:4278515368;
#STEPSTYPE:dance-single;
#BANNER:;
#DESCRIPTION:;
#CHARTSTYLE:;
#DIFFICULTY:Easy;
#METER:8;
#METERF:0.000000;
#RADARVALUES:0.358472,0.511001,0.191106,0.141252,0.000000,302.000000,279.000000,23.000000,17.000000,0.000000,0.000000,0.000000,0.000000,0.000000,0.358472,0.511001,0.191106,0.141252,0.000000,302.000000,279.000000,23.000000,17.000000,0.000000,0.000000,0.000000,0.000000,0.000000;
#CREDIT:YOSEFU;
#NOTES:
0000
0000
0000
0000
,
0000
0000
0000
0000
,
0000
0000
0000
0000
,
0000
0000
0000
0000
,
0000
0000
0000
0000
,
0000
1000
0000
0000
0001
0000
0000
1000
,
0000
0001
0100
0001
,
1000
0000
0001
0000
0000
1000
0000
0001
,
0000
1000
0000
0000
0001
0000
0100
0000
,
0101
0001
0000
0010
,
0100
1000
0000
0010
,
0100
0001
0000
1000
,
0100
0010
0001
0010
,
0110
0100
0010
0001
,
1000
0001
0100
0010
,
1000
0000
0001
0000
0000
1000
0000
0001
,
0000
1000
0000
0001
0000
0000
1000
0000
,
0001
0010
0100
0010
,
0001
1000
0010
0100
,
0010
1000
0001
0010
,
0100
1000
0100
0001
,
0100
1000
0001
0100
,
0010
0100
0001
1000
,
0100
0000
0010
0000
0000
0100
0000
0010
,
0000
0100
0000
0010
0000
0000
0100
0000
,
2001
0000
0000
0010
0000
0000
0010
0000
,
3002
0000
0000
0010
0000
0000
0010
0000
,
2003
0000
0000
0100
0000
0000
0100
0000
,
3002
0000
0000
0100
0000
0000
0100
0000
,
1003
0000
0010
1000
0010
0000
0000
0000
,
1000
0000
0001
1000
0001
0000
0000
0000
,
1001
0000
0110
0000
,
1001
0001
0010
0100
,
1100
1000
0001
0100
,
0010
0100
0002
0003
,
1000
0100
0010
0001
,
0100
0010
2000
3000
,
0010
0100
0001
0010
,
0100
1000
0002
0003
,
0100
0100
0110
0001
,
0001
1001
1000
0100
,
0011
0001
0100
0010
,
1000
0100
0020
0030
,
0001
0100
0010
0100
,
0001
1000
0200
0300
,
0010
0001
0100
0010
,
1000
0001
0010
0100
,
1000
1000
1001
0010
,
0010
0110
1000
0001
,
1000
0001
0000
0000
1000
0000
0000
0001
,
0000
1000
0001
0100
,
0000
0010
0000
0000
1000
0000
0000
0010
,
0000
1000
0100
0010
,
0001
1000
0000
0000
0001
0000
0000
1000
,
0000
0001
0100
0010
,
1000
0000
0000
0100
0000
0000
0010
0000
,
0000
0001
0000
0000
1000
0000
0001
0000
,
2001
0000
0010
0000
0000
0010
0000
0000
,
3002
0010
0000
0000
0010
0000
0000
0000
,
2003
0000
0010
0000
0000
0010
0000
0000
,
3001
0001
0100
0010
,
0001
0010
0100
0001
,
0010
0000
0100
0000
1000
0000
0001
0100
,
0010
0000
1000
0000
0000
0010
0000
1000
,
0000
0001
0000
0010
0000
0000
0000
0000
,
0220
0000
0000
0000
0000
0330
0000
0000
,
1001
0000
0110
0000
0000
1001
0000
0010
,
0100
0010
0000
0000
1001
0000
0110
0000
,
1001
1000
0100
0010
,
0001
0100
0010
1000
,
0001
0010
0100
0010
,
0001
0100
0010
1000
,
0001
0001
1001
0100
,
0100
0110
2002
3003
,
0001
0100
1000
0001
,
0010
1000
0001
1000
,
0100
0001
1000
0010
,
0001
1000
0010
0100
,
0001
0010
0100
1000
,
0010
0001
0010
1000
,
0001
0000
1000
0001
1000
0000
0001
0000
,
1000
0001
1000
0000
0020
0000
0130
0001
,
1000
0000
0000
0000
;

//---------------dance-single - ----------------
#NOTEDATA:;
#CHARTNAME:ユ !;
#CHARTHASH:2838047705;
#STEPSTYPE:dance-single;
#BANNER:;
#DESCRIPTION:;
#CHARTSTYLE:Pad Singles;
#DIFFICULTY:Hard;
#METER:14;
#METERF:0.000000;
#RADARVALUES:0.665904,0.853129,0.432066,0.257578,0.166179,561.000000,509.000000,52.000000,31.000000,48.000000,0.000000,0.000000,0.000000,0.000000,0.665904,0.853129,0.432066,0.257578,0.166179,561.000000,509.000000,52.000000,31.000000,48.000000,0.000000,0.000000,0.000000,0.000000;
#CREDIT:ヨセフ;
#NOTES:
0000
0000
0000
0000
,
0000
0000
0000
0000
,
0000
0000
0000
0000
,
0000
0000
0000
0000
,
0000
0000
0000
0000
,
0001
0100
1000
0100
0001
1000
0000
0001
,
0010
1000
0010
0001
0010
0100
1000
0000
,
1100
0000
0011
0000
0000
1100
0000
0011
,
0000
1100
0000
0001
0100
0010
MMMM
0000
,
1000
0001
0010
0000
0001
1000
0100
0010
,
0000
0100
2000
0000
0001
0000
3100
0000
,
1000
0000
1000
0000
0001
0100
0010
2000
,
0000
0000
3001
0000
0010
0000
0000
0000
0001
0100
0001
0000
1000
0100
1000
0000
,
0001
0100
0010
0000
0001
0010
1000
0100
,
0010
0001
0200
0000
1000
0000
0301
0000
,
0101
0000
1010
0000
0000
0101
0000
1010
,
0000
0000
0101
0000
0000
0000
1000
0000
0100
0000
0010
0000
0010
0000
0001
1000
,
0001
0100
0010
0000
1000
0100
0010
0001
,
0100
0010
2000
0000
0010
0000
0100
0000
,
3001
1000
0100
0000
0001
0100
1000
0010
,
0200
0000
0000
0000
1000
0000
0000
0000
0301
1000
0001
0000
1000
0100
1000
0000
,
0010
0100
0001
0000
0010
1000
0010
0001
,
0100
0010
2000
0000
0001
0000
3100
0000
,
1010
0000
0011
0000
0000
1010
0000
0011
,
0000
1100
0000
0001
1000
0001
MMMM
0000
,
1000
0100
0001
0100
1000
0000
0010
0100
,
0001
0010
0100
1000
0002
0000
0103
0000
,
0001
0010
1000
0010
0001
0000
1000
0010
,
0100
0001
0010
0100
1000
0000
0001
1000
,
1100
1100
1100
1100
1100
0000
1000
0001
,
0101
0101
0101
0101
0101
0000
0200
0300
,
0011
0001
2000
3000
0101
0001
0020
0030
,
1100
0100
0010
0001
1001
0000
MMMM
0000
,
1010
1000
0100
0000
0001
0100
1000
0010
,
0200
0001
0310
0000
0110
0000
0101
0000
,
0001
0010
0100
0000
0001
0100
1000
0001
,
0200
0000
0010
0000
0301
0000
0000
0000
1000
0001
1000
0000
MMMM
0000
0000
0000
,
1000
0010
0100
0000
1000
0100
0001
0010
,
0200
1000
0310
0000
0011
0000
1010
0010
,
1000
0001
1000
0000
0001
1000
0001
0000
1000
0000
0000
0000
0001
0100
0001
0000
,
0100
0001
0100
0000
0001
0000
0000
0000
0010
0000
0100
0000
1000
0100
0010
0000
,
0011
0001
0100
0000
1000
0100
0001
0010
,
0200
0010
1300
0000
1001
0000
0101
0000
,
0100
0010
0001
0000
0010
1000
0100
0010
,
0002
0000
0100
0000
1003
0000
0000
0000
0001
0010
0100
0000
MMMM
0000
0000
0000
,
1001
0010
0100
0000
1001
0001
0010
0100
,
2000
0010
3001
0000
0101
0000
0100
0010
,
1000
0001
1000
0000
0001
0010
0001
0000
1000
0000
0000
0000
0001
0100
0001
0000
,
1000
0001
1000
0000
0100
0000
0000
0000
0010
0001
1000
0000
0010
0000
0100
0000
,
0010
0001
0010
1000
0001
0100
0000
1000
,
0100
0001
0010
0100
1000
0001
0200
0000
,
0310
0001
0010
1000
0100
0010
0000
1000
,
0010
0000
0001
0000
0100
0000
0010
0000
1000
0010
1000
0000
0001
0010
0001
0000
,
0100
1000
0100
0001
0010
0100
0000
0001
,
0100
1000
0010
0100
0001
0010
0100
0000
,
2000
0000
0000
3200
0000
0000
0302
0000
,
0000
0023
0000
0000
1030
1000
MMMM
0000
,
0001
0000
0100
0000
1000
0100
0001
0020
,
0000
1000
0000
0000
0001
0000
0130
1000
,
0001
0000
0001
0000
0100
0001
0010
0100
,
0100
0000
0100
0000
0010
0000
0001
1000
0010
0000
0000
0000
0100
0000
0000
0000
,
0001
0000
1000
0000
0100
0000
0000
0010
0100
0000
1000
0000
0001
0100
0001
0000
,
1000
0100
1000
0000
0001
0010
0001
0000
1000
0010
1000
0000
0001
0000
0010
0000
,
0100
1000
0001
0000
0100
0010
1000
0001
,
0000
0010
0100
2000
0000
0000
3001
0000
,
0220
0000
0000
0000
0000
0030
0300
0000
,
1001
0000
0010
0000
0100
0000
MMMM
MMMM
MMMM
0000
1001
0000
0000
0000
0001
0000
,
0101
0000
1010
0000
1000
0010
1000
0000
0100
0000
0010
0000
0200
0000
0300
0000
,
1100
0100
0010
0000
1000
0010
0001
0100
,
0020
0000
1000
0000
0130
0000
0000
0000
0001
1000
0010
0000
MMMM
0000
0000
0000
,
1000
0100
0010
0100
0001
0100
1000
0010
,
0200
0001
0310
0000
1010
0000
0011
0001
,
1000
0001
0100
0000
0001
1000
0100
0000
0010
0000
0000
0000
0001
1000
0010
0000
,
1000
0001
0010
0000
0100
0000
0000
0000
1000
0100
0010
0000
0001
0100
0010
0000
,
1000
0001
0001
0010
1000
0010
0010
0001
,
1000
0100
0001
1000
0010
0001
0100
0000
,
0010
1000
1000
0100
0010
0010
0001
0100
,
1000
0000
0001
0000
0010
0000
1000
0000
0001
1000
0010
0000
MMMM
0000
0000
0000
,
1010
0001
0010
0100
1000
0010
0100
0001
,
0020
0100
0031
0000
1010
0000
0101
MMMM
,
0001
0100
0010
0000
0001
0010
0100
0000
0001
0000
0000
0000
1000
0100
0010
0000
,
1000
0010
0100
0000
1000
0000
0000
0000
2010
0000
0000
0000
3100
0000
0010
0000
,
0002
0000
0000
0000
0000
0000
0000
0000
0000
0003
0000
0000
0000
0000
0000
0000
0000
0000
0000
0000
0000
0000
0000
0000
0000
0000
0000
0000
0000
0000
0000
0000
0000
0000
0000
0000
0000
0000
0000
0000
0000
0000
0000
0000
0000
0000
0000
0000
0000
0000
0000
0000
0000
0000
0000
0000
0000
0000
0000
0000
0000
0000
0000
0000
;

//---------------dance-double - ----------------
#NOTEDATA:;
#CHARTNAME:;
#CHARTHASH:418853429;
#STEPSTYPE:dance-double;
#BANNER:;
#DESCRIPTION:;
#CHARTSTYLE:;
#DIFFICULTY:Beginner;
#METER:4;
#METERF:0.000000;
#RADARVALUES:0.151935,0.340667,0.116325,0.182797,0.000000,128.000000,114.000000,14.000000,22.000000,0.000000,0.000000,0.000000,0.000000,0.000000,0.151935,0.340667,0.116325,0.182797,0.000000,128.000000,114.000000,14.000000,22.000000,0.000000,0.000000,0.000000,0.000000,0.000000;
#CREDIT:YOSEFU;
#NOTES:
00000000
00000000
00000000
00000000
,
00000000
00000000
00000000
00000000
,
00000000
00000000
00000000
00000000
,
00000000
00000000
00000000
00000000
,
00000000
00000000
00000000
00000000
,
00010000
00000000
00000000
00000000
,
00001000
00000000
00000000
00000000
,
00010000
00000000
00000000
00000000
00000000
00001000
00000000
00000000
,
00000000
00010000
00000000
00000000
00000000
00000000
00000000
00000000
,
00001000
00000000
00000000
00000000
,
00010000
00000000
00000000
00000000
,
00001000
00000000
00000000
00000000
,
01000000
00000000
00000000
00000000
,
00010000
00000000
00000000
00000000
,
10000000
00000000
00000000
00000000
,
01000000
00000000
00000000
00000000
00000000
00100000
00000000
00000000
,
00000000
01000000
00000000
00000000
00000000
00000000
00000000
00000000
,
00100000
00000000
00000000
00000000
,
00001000
00000000
00000000
00000000
,
00010000
00000000
00000000
00000000
,
00000010
00000000
00000000
00000000
,
00001000
00000000
00000000
00000000
,
00000001
00000000
00000000
00000000
,
00000100
00000000
00000000
00000000
00000000
00000010
00000000
00000000
,
00000000
00000100
00000000
00000000
00000000
00000000
00000000
00000000
,
00000020
00000000
00000030
00000000
,
00002000
00000000
00003000
00000000
,
00000020
00000000
00000030
00000000
,
00020000
00000000
00030000
00000000
,
00011000
00000000
00011000
00000000
,
00011000
00000000
00011000
00000000
,
01100000
00000000
01100000
00000000
,
01100000
00000000
02000000
03000000
,
10010000
00000000
10000000
00000000
,
00010000
00000000
01000000
00000000
,
00001000
00000000
00010000
00000000
,
00000100
00000000
00002000
00003000
,
00000001
00000000
00000100
00000000
,
00000010
00000000
00001000
00000000
,
00000002
00000000
00000003
00002000
,
00000000
00003000
00000001
00000000
,
00001001
00000000
00001000
00000000
,
00000100
00000000
00010000
00000000
,
00001000
00000000
01000000
00000000
,
00010000
00000000
20000000
30000000
,
00010000
00000000
10000000
00000000
,
01000000
00000000
00100000
00000000
,
00020000
00000000
00030000
20000000
,
00000000
30000000
00010000
00000000
,
01000000
00000000
00000000
00000000
,
00010000
00000000
00000000
00000000
,
01000000
00000000
00000000
00000000
,
00001000
00000000
00000000
00000000
,
00010000
00000000
00000000
00000000
,
00000100
00000000
00000000
00000000
,
00000020
00000000
00000000
00000000
,
00000000
00000000
00000030
00000000
,
00000002
00000000
00000003
00000000
,
00002000
00000000
00003000
00000000
,
00000020
00000000
00000030
00000000
,
00020000
00000000
00030000
00000000
,
00001000
00000000
00010000
00000000
,
00001000
00000000
00010000
00000000
,
00100000
00000000
00000000
00000000
00000000
01000000
00000000
00000000
,
00000000
00010000
00000000
00000000
00000000
00000000
00000000
00000000
,
20020000
00000000
30030000
00000000
,
10010000
00000000
00000000
00000000
,
01100000
01100000
00000000
00000000
,
10000000
00000000
00010000
00000000
,
01000000
00000000
00001000
00000000
,
00010000
00000000
00000100
00000000
,
00000010
00000000
00000001
00000000
,
00002000
00000000
00003000
00000002
,
00000000
00000003
00001000
00000000
,
00000010
00000000
00000100
00000000
,
00000010
00000000
00010000
00000000
,
00001000
00000000
00100000
00000000
,
00010000
00000000
10000000
00000000
,
00100000
00000000
01000000
00000000
,
00010000
00000000
01000000
00000000
,
00002000
00000000
00003000
00020000
,
00000000
00030000
00001000
00000000
,
00011000
00000000
00000000
00000000
;

//---------------dance-double - ----------------
#NOTEDATA:;
#CHARTNAME:;
#CHARTHASH:136053651;
#STEPSTYPE:dance-double;
#BANNER:;
#DESCRIPTION:;
#CHARTSTYLE:;
#DIFFICULTY:Easy;
#METER:7;
#METERF:0.000000;
#RADARVALUES:0.331171,0.442868,0.124634,0.166179,0.000000,279.000000,264.000000,15.000000,20.000000,0.000000,0.000000,0.000000,0.000000,0.000000,0.331171,0.442868,0.124634,0.166179,0.000000,279.000000,264.000000,15.000000,20.000000,0.000000,0.000000,0.000000,0.000000,0.000000;
#CREDIT:YOSEFU;
#NOTES:
00000000
00000000
00000000
00000000
,
00000000
00000000
00000000
00000000
,
00000000
00000000
00000000
00000000
,
00000000
00000000
00000000
00000000
,
00000000
00000000
00000000
00000000
,
00000000
00010000
00000000
00000000
00001000
00000000
00000000
00010000
,
00000000
00001000
00100000
00010000
,
10000000
00000000
00100000
00000000
00000000
10000000
00000000
00100000
,
00000000
10000000
00000000
00000000
00100000
00000000
10000000
00000000
,
00010000
00000000
01000000
00000000
00001000
00000000
00000000
00010000
,
00000000
00000100
00000000
00000000
00000100
00000000
00000000
00000000
,
00001000
00000000
00000100
00000000
00000010
00000000
00000000
00000001
,
00000000
00001000
00000010
00000100
,
00000001
00001000
00000100
00001000
,
00000001
00000100
00000010
00010000
,
00001000
00000000
00010000
00000000
00000000
00001000
00000000
00010000
,
00000000
00001000
00000000
00000000
00010000
00000000
00001000
00000000
,
00100000
00010000
10000000
00100000
,
01000000
00010000
10000000
01000000
,
00100000
01000000
00100000
00001000
,
00010000
00000010
00001000
00000001
,
00000100
00000010
00001000
00000001
,
00000010
00000100
00010000
00001000
,
00100000
00000000
00010000
00000000
00000000
00100000
00000000
00010000
,
00000000
00100000
00000000
00000000
00010000
00000000
10000000
00000000
,
00020000
00000000
00000000
01000000
00000000
00000000
01000000
00000000
,
20030000
00000000
00000000
01000000
00000000
00000000
01000000
00000000
,
30020000
00000000
00000000
00100000
00000000
00000000
00100000
00000000
,
20030000
00000000
00000000
00100000
00000000
00000000
00100000
00000000
,
30010000
00100000
00110000
00000000
,
00001000
00010000
00011000
00000000
,
00010010
00000000
00001010
00000000
,
00001001
00000011
00001100
00000000
,
00001001
00000001
00000100
00000010
,
00010000
00001000
00200000
00300000
,
00010000
10000000
00100000
01000000
,
00001000
00010000
00000200
00000300
,
00001000
00000100
00000010
00000001
,
00000100
00000010
00010000
00001000
,
00100000
00010000
01000000
00010000
,
10000000
00100000
02000000
03000000
,
00010000
10000000
01000000
00100000
,
00010000
10000000
00200000
00300000
,
01000000
00001000
00010000
00000100
,
00001000
00000001
00000020
00000030
,
00000100
00000010
00000001
00001000
,
00000010
00010000
00001000
00100000
,
00010000
10000000
00100000
01000000
,
00010000
10000000
02000000
03000000
,
00000000
00100000
00000000
00000000
00010000
00000000
00000000
00100000
,
00000000
00001000
00010000
00000010
,
00000000
00001000
00000000
00000000
00000010
00000000
00000000
00001000
,
00000000
00000001
00001000
00000100
,
00000000
00000010
00000000
00000000
00000001
00000000
00000000
00001000
,
00000000
00000010
00000100
00000001
,
00002000
00000000
00000000
00003000
00000000
00000000
00000200
00000000
,
00000000
00000300
00000000
00000000
00010000
00000000
00001000
00000000
,
00010000
00000000
00010000
00000000
00001000
00000000
00000000
02000000
,
00000000
00010000
00000000
00000000
00010000
00000000
00000000
00000000
,
03100000
00000000
00100000
00000000
10000000
00000000
00010000
00200000
,
00000000
00000000
01300000
10000000
,
00100000
00010000
00001000
00000010
,
00000001
00000100
00001000
00010000
,
01000000
00000000
10000000
00000000
00000000
00010000
00000000
10000000
,
00000000
00010000
00000000
01000000
00000000
00000000
00001000
00000000
,
00022000
00000000
00000000
00000000
00000000
00003000
00030000
00000000
,
00011000
00000000
00010010
00000000
00000000
00001010
00000000
00000000
,
00000101
00001001
00001000
00000100
,
00000010
00000001
00001000
00000010
,
00010000
00001000
00200000
00300000
,
00010000
10000000
00100000
01000000
,
00001000
00010000
00000100
00001000
,
00000001
00000100
00000010
00001000
,
00000001
00000010
00000200
00000300
,
00001000
00000100
00000010
00001000
,
00010000
00100000
02000000
03000000
,
00010000
00100000
01000000
00010000
,
00001000
00000100
00000020
00000030
,
00000100
00001000
00000100
00000001
,
00001000
00000100
00010000
00001000
,
01000000
00100000
10000000
01000000
,
00100000
00010000
10000000
00100000
,
01010000
00000000
00000000
00000000
;

//---------------dance-double - ----------------
#NOTEDATA:;
#CHARTNAME:;
#CHARTHASH:1640830020;
#STEPSTYPE:dance-double;
#BANNER:;
#DESCRIPTION:;
#CHARTSTYLE:;
#DIFFICULTY:Medium;
#METER:13;
#METERF:0.000000;
#RADARVALUES:0.516343,0.545899,0.124634,0.257578,0.000000,435.000000,420.000000,15.000000,31.000000,0.000000,0.000000,0.000000,0.000000,0.000000,0.516343,0.545899,0.124634,0.257578,0.000000,435.000000,420.000000,15.000000,31.000000,0.000000,0.000000,0.000000,0.000000,0.000000;
#CREDIT:YOSEFU;
#NOTES:
00000000
00000000
00000000
00000000
,
00000000
00000000
00000000
00000000
,
00000000
00000000
00000000
00000000
,
00000000
00000000
00000000
00000000
,
00000000
00000000
00000000
00000000
,
00000000
00010000
00001000
01000000
00001000
00000000
00000000
00010000
,
00000100
00010000
00001000
00010000
00001000
00100000
00010000
00000000
,
01000000
00000000
00100000
00000000
00000000
01000000
00000000
00100000
,
00000000
01000000
00000000
00100000
01000000
00100000
10000000
00000000
,
00010000
00100000
01000000
00000000
00100000
00010000
10000000
00200000
,
00000000
01000000
00000000
00000000
10000000
00000000
00000000
00000000
,
01300000
00000000
01000000
00000000
00010000
01000000
00001000
00020000
,
00000000
00000000
00031000
00000000
00010000
00000100
00000010
00000001
,
00001000
00000000
00001000
00000000
00000010
00000100
00000001
00002000
,
00000000
00000010
00000000
00000000
00000100
00000000
00003010
00000000
,
00001000
00000000
00000010
00000000
00000000
00001000
00000000
00000010
,
00000000
00001000
00000000
00000010
00001000
00000010
00010000
00001000
,
00010000
00001000
00100000
00000000
00010000
10000000
00100000
02000000
,
00100000
00010000
00001000
00010000
,
03100000
00000000
00100000
00000000
10000000
01000000
00100000
00002000
,
00010000
00000000
00100000
00000000
00013000
00000100
00000010
00000001
,
00001000
00000000
00001000
00000000
00000010
00000100
00000001
00002000
,
00000100
00000010
00000001
00003010
,
00001000
00000000
00000001
00000000
00000000
00001000
00000000
00000001
,
00000000
00001000
00000000
00000001
00001000
00000001
00000010
00000000
,
00000100
00000000
00001000
00000100
00000000
00010000
00000100
00000000
,
00011000
00000000
00001000
01000000
00000000
00001000
00010000
00000000
,
00011000
00000000
00001000
00100000
00000000
00010000
00100000
00000000
,
00110000
00000000
00010000
10000000
00100000
00000000
01000000
00010000
,
10000000
10000000
10000000
10000000
10000000
00000000
01000000
00100000
,
00010000
00010000
00010000
00010000
00010000
00000000
01000000
00100000
,
10000000
00000000
00100000
01000000
00001000
00000000
00010000
00000100
,
00001000
00001100
00000011
00000001
,
00001000
00000010
00000100
00000000
00000001
00000100
00000010
00000000
,
00000200
00000010
00002300
00013000
,
00001000
00100000
00010000
00000000
00100000
00010000
10000000
00000000
,
00200000
00000000
00010000
00000000
01300000
00001000
00010000
00000000
,
00001000
00010000
00000100
00000000
00001000
00000001
00000010
00000000
,
00000200
00000001
00020300
00031000
,
00001000
00100000
00001000
00100000
00001000
00000000
00100000
01000000
,
00100000
01000000
00100000
00000000
00010000
00000000
10000000
00100000
,
01000000
00010000
10000000
00000000
01000000
00100000
00010000
00000000
,
02000000
10000000
03002000
00013000
,
00000100
00000010
00000001
00000000
00001000
00000010
00000100
00000000
,
00000002
00000000
00000100
00000000
00001003
00000100
00010000
00000000
,
00001000
00100000
00010000
00000000
00100000
00010000
01000000
00000000
,
00200000
00000000
01000000
00000000
00320000
00000000
00031000
00010000
,
00000100
00010000
00000100
00010000
00000100
00000000
00001000
00000001
,
00001000
00000001
00001000
00000000
00000020
00000000
00000130
00000001
,
00001000
00000100
00000010
00000001
00001000
00000000
00000000
00000001
,
00000100
00000010
00001000
00000001
00001000
00000100
00000010
00000000
,
00000000
00000100
00010000
00001000
00010000
00000000
00000000
00001000
,
01000000
00001000
00010000
00001000
00100000
00010000
10000000
00010000
,
01000000
00100000
10000000
00010000
01000000
00000000
00000000
00010000
,
00100000
01000000
10000000
01000000
00100000
00001000
00010000
00000000
,
00002000
00000000
00000000
00003020
00000000
00000000
00000032
00000000
,
00000000
00000203
00000000
00000000
00000320
00000000
00000030
00000000
,
00001000
00000000
00001000
00000000
00000010
00000000
00000100
00000002
,
00000000
00001000
00000000
00000000
00001000
00000000
00000000
00000000
,
00001003
00000000
00001000
00000000
00000100
00000010
00000100
00020000
,
00000000
00000000
00031000
00010000
00100000
00000000
01000000
00000000
,
00010000
10000000
01000000
00000000
00100000
00010000
00100000
01000000
,
10000000
01000000
00100000
00010000
10000000
00100000
01000000
00001000
,
00010000
00000000
00010100
00000000
00000000
00010000
00000000
00010010
,
00000000
00000010
00000000
00000110
00000000
00000000
00001001
00000000
,
00000220
00000000
00000000
00000000
00000000
00000030
00000300
00000000
,
00001001
00000001
00000100
00000000
00000010
00000001
00000000
00000010
,
00001000
00000100
00010000
00000000
00001000
01000000
00100000
00000000
,
10000000
01000000
00100000
00000000
00010000
01000000
00100000
00000000
,
02000000
00000000
10000000
00000000
03010000
01000000
00001000
00000000
,
00010000
00000100
00001000
00000000
00000100
00000010
00000001
00000000
,
00000200
00000000
00001000
00000000
00000320
00000000
00010030
00001000
,
00100000
00001000
00100000
00001000
00100000
00000000
00001000
00010000
,
00001000
00010000
00001000
00000000
00100000
00000000
00110000
00000000
,
00010000
01000000
00100000
01000000
10000000
01000000
00100000
00010000
,
00001000
00000000
00010000
00001000
00000010
00000001
00001000
00000000
,
00000001
00000100
00000001
00001000
00000001
00000010
00000100
00000010
,
00001000
00010000
00001000
01000000
00100000
00000000
10100000
00000000
,
10000000
01000000
00100000
00000000
00010000
01000000
00100000
00010000
,
00001000
00000000
00010100
00000000
00000110
00000000
00000001
00001000
,
00000001
00000100
00001000
00010000
00001000
00000000
00010000
01000000
,
10000000
00100000
00010000
00000000
00002000
00000000
00013000
00100000
,
02000000
03000000
00000000
00000000
00000000
00000000
00000000
00000000
;

//---------------dance-double - ----------------
#NOTEDATA:;
#CHARTNAME:;
#CHARTHASH:409257708;
#STEPSTYPE:dance-double;
#BANNER:;
#DESCRIPTION:;
#CHARTSTYLE:;
#DIFFICULTY:Hard;
#METER:15;
#METERF:0.000000;
#RADARVALUES:0.648099,0.853129,0.299123,0.232651,0.174488,546.000000,510.000000,36.000000,28.000000,96.000000,0.000000,0.000000,0.000000,0.000000,0.648099,0.853129,0.299123,0.232651,0.174488,546.000000,510.000000,36.000000,28.000000,96.000000,0.000000,0.000000,0.000000,0.000000;
#CREDIT:ヨセフ;
#NOTES:
00000000
00000000
00000000
00000000
,
00000000
00000000
00000000
00000000
,
00000000
00000000
00000000
00000000
,
00000000
00000000
00000000
00000000
,
00000000
00000000
00000000
00000000
,
00001000
00010000
00100000
10000000
01000000
00010000
00000000
00001000
,
00010000
01000000
10000000
00100000
00010000
00001000
00010000
00000000
,
00011000
00000000
00010010
00000000
00000000
00011000
00000000
00010010
,
00000000
00011000
00000000
00010000
00000010
00001000
MMMMMMMM
00000000
,
00000001
00000010
00000100
00000000
00001000
00000001
00000100
00000010
,
00000000
00010000
00002000
00000000
00100000
00000000
00013000
00000000
,
00100000
00000000
00100000
00000000
00010000
01000000
00100000
20000000
,
00000000
00000000
00000000
00000000
30010000
00000000
00000000
00000000
10000000
01000000
10000000
00000000
00010000
01000000
00010000
00000000
,
10000000
01000000
00100000
00000000
10000000
00100000
00010000
00100000
,
00001000
00000000
00010000
00000000
00000020
00000000
00000000
00000000
00001000
00000000
00000000
00000000
00000130
00000001
00000000
00000000
,
00000101
00000000
00001010
00000000
00000000
00000101
00000000
00001010
,
00000000
00000000
00000101
00000000
00000000
00000000
00001000
00000000
00000100
00000000
00010000
00000000
00010000
00000000
00001000
00010000
,
00001000
01000000
00010000
00000000
10000000
01000000
00100000
00010000
,
10000000
00100000
02000000
00000000
00010000
00000000
00001000
00000000
,
03010000
00000000
00010000
00000000
01000000
00001000
00010000
00000100
,
00000020
00000000
00000000
00000000
00000100
00000000
00000000
00000000
00000031
00000010
00000001
00000000
00001000
00000010
00001000
00000000
,
00000001
00000100
00000010
00000000
00000001
00000010
00001000
00000010
,
00010000
00001000
00200000
00000000
00010000
00000000
01300000
00000000
,
11000000
00000000
00110000
00000000
00000000
11000000
00000000
00110000
,
00000000
11000000
00000000
10000000
00010000
10000000
MMMMMMMM
00000000
,
00010000
00100000
10000000
00100000
00010000
00000000
01000000
00001000
,
00010000
00100000
00010000
00001000
00020000
00000000
00030100
00000000
,
00000010
00001000
00000010
00000001
00001000
00000000
00000010
00010000
,
00001000
00000010
00001000
00010000
00001000
00000000
00010000
00001000
,
00101000
00101000
00101000
00101000
00101000
00000000
00001000
00010000
,
00010010
00010010
00010010
00010010
00010010
00000000
00010000
00001000
,
00100000
00100000
00001000
01000000
00100000
00100000
01000000
00001000
,
00010000
01000000
00010000
00001000
00011000
00000000
MMMMMMMM
00000000
,
00011000
00010000
00100000
00000000
00010000
00100000
10000000
01000000
,
00200000
01000000
00310000
00000000
10000000
00000000
00100000
01000000
,
00001000
00010000
00000100
00000000
00000001
00000100
00001000
00000010
,
00000200
00000000
00000001
00000000
00000310
00000000
00000000
00000000
00001000
00000001
00001000
00000000
MMMMMMMM
00000000
00000000
00000000
,
00000001
00000100
00000010
00000000
00000001
00000010
00001000
00000010
,
00020000
00000010
00031000
00000000
00010000
00000000
00001000
01000000
,
00010000
10000000
00010000
00000000
10000000
00010000
10000000
00000000
01000000
00000000
00000000
00000000
00100000
00010000
00100000
00000000
,
00010000
00100000
00010000
00000000
10000000
00000000
00000000
00000000
00100000
00000000
01000000
00000000
00001000
00010000
00001000
00000000
,
00011000
00001000
00000010
00000000
00001000
00000010
00000001
00000100
,
00000020
00000100
00001030
00000000
00000001
00000000
00000010
00000100
,
00010000
00001000
01000000
00000000
10000000
01000000
00010000
00100000
,
02000000
00000000
10000000
00000000
03100000
00000000
00000000
00000000
00010000
10000000
00010000
00000000
MMMMMMMM
00000000
00000000
00000000
,
10000000
01000000
00100000
00000000
10000000
00100000
00010000
00100000
,
00002000
00100000
00013000
00000000
00001000
00000000
00010000
00000100
,
00001000
00000001
00001000
00000000
00000001
00001000
00000001
00000000
00000100
00000000
00000000
00000000
00000010
00001000
00000010
00000000
,
00001000
00000010
00001000
00000000
00000001
00000000
00000000
00000000
00000100
00000010
00010000
00000000
00000010
00000000
00010000
00000000
,
00001000
00000010
00000001
00000100
00001000
00010000
00000000
00001000
,
00000100
00000001
00000010
00001000
00010000
00001000
00200000
00000000
,
00301000
00010000
00100000
10000000
01000000
00010000
00000000
00001000
,
00000100
00000000
00000001
00000000
00000010
00000000
00001000
00000000
00010000
00001000
00010000
00000000
00001000
00010000
00001000
00000000
,
00010000
00100000
10000000
01000000
00010000
00001000
00000000
00010000
,
00100000
10000000
01000000
00010000
00001000
00010000
00000020
00000000
,
00000032
00000000
00000000
00000203
00000000
00000000
00002300
00000000
,
00000000
00003020
00000000
00000000
00010030
00010000
MMMMMMMM
00000000
,
00001000
00000000
00010000
00000000
00100000
10000000
01000000
00200000
,
00000000
10000000
00000000
00000000
00010000
00000000
01300000
00100000
,
00001000
00000000
00001000
00000000
00010000
00001000
00000010
00000100
,
00000100
00000000
00000100
00000000
00000010
00000000
00000001
00001000
00000010
00000000
00000000
00000000
00000100
00000000
00000000
00000000
,
00000001
00000000
00001000
00000000
00000100
00000000
00000000
00010000
00001000
00000000
00010000
00000000
00001000
00100000
00001000
00000000
,
00010000
00000010
00010000
00000000
00001000
00010000
00001000
00000000
00010000
00000000
00010000
00000000
01000000
00000000
00100000
00000000
,
10000000
00010000
00100000
00000000
00000000
01000000
10000000
00100000
,
00000000
01000000
00001000
00010000
00000000
00000000
00001000
00000000
,
00200020
00000000
00000000
00000000
00000000
00000030
00300000
00000000
,
00011000
00000000
00001000
00000000
01000000
00000000
MMMMMMMM
MMMMMMMM
MMMMMMMM
00000000
10100000
00000000
00000000
00000000
10000000
00000000
,
11000000
00000000
00110000
00000000
00010000
10000000
00010000
00000000
01000000
00000000
00100000
00000000
02000000
00000000
03000000
00000000
,
01001000
00001000
00010000
00000000
00001000
00000010
00000001
00000100
,
00002000
00000000
00000010
00000000
00003001
00000000
00000000
00000000
00001000
00000100
00001000
00000000
MMMMMMMM
00000000
00000000
00000000
,
00010100
00000100
00000010
00000000
00001000
00000010
00000001
00000100
,
00002000
00000100
00013000
00000000
00001000
00000000
00100000
00010000
,
10000000
00100000
10000000
00000000
00100000
10000000
00100000
00000000
10000000
00000000
00000000
00000000
00010000
00100000
00010000
00000000
,
00100000
00010000
00100000
00000000
00010000
00000000
00000000
00000000
10000000
00100000
01000000
00000000
00001000
00010000
00000000
00000000
,
00001000
00000010
00000010
00000001
00000100
00000100
00001000
00010000
,
01000000
10000000
00100000
00010000
00001000
00000010
00000001
00000000
,
00000100
00001000
00001000
00010000
01000000
01000000
10000000
00100000
,
00010000
00000000
00001000
00000000
00000010
00000000
00000001
00000000
00001000
00000010
00000100
00000000
MMMMMMMM
00000000
00000000
00000000
,
00000101
00000001
00000010
00000000
00001000
00010000
00100000
10000000
,
02000000
00000000
00010000
00000000
03100000
00000000
00000000
00000000
01000000
10000000
00000000
10000000
00010000
00000000
MMMMMMMM
00000000
,
01000000
00010000
00100000
00000000
01000000
00010000
00001000
00000000
00010000
00000000
00000000
00000000
00000100
00001000
00000010
00000000
,
00000100
00001000
00010000
00000000
00001000
00000000
00000000
00000000
00200000
00000000
00000000
00000000
01300000
00000000
10000000
00000000
,
00200000
00000000
00000000
00000000
00000000
00000000
00000000
00000000
00000000
00300000
00000000
00000000
00000000
00000000
00000000
00000000
00000000
00000000
00000000
00000000
00000000
00000000
00000000
00000000
00000000
00000000
00000000
00000000
00000000
00000000
00000000
00000000
00000000
00000000
00000000
00000000
00000000
00000000
00000000
00000000
00000000
00000000
00000000
00000000
00000000
00000000
00000000
00000000
00000000
00000000
00000000
00000000
00000000
00000000
00000000
00000000
00000000
00000000
00000000
00000000
00000000
00000000
00000000
00000000
;
