#VERSION:0.83;
#TITLE:Hot In It;
#SUBTITLE:;
#ARTIST:Tiƫsto & Charli XCX;
#TITLETRANSLIT:;
#SUBTITLETRANSLIT:;
#ARTISTTRANSLIT:;
#GENRE:Dance-pop;
#ORIGIN:Single Release (2022);
#TAGS:;
#CREDIT:skeleton made by t7r;
#BANNER:Hot In It.png;
#BACKGROUND:Hot In It-bg.png;
#PREVIEWVID:;
#JACKET:Hot In It-jacket.png;
#CDIMAGE:;
#DISCIMAGE:;
#LYRICSPATH:;
#CDTITLE:../_YSD cdtitles/ysd sale2 cdtitle.png;
#MUSIC:Hot In It.ogg;
#OFFSET:0.000000;
#SAMPLESTART:47.561001;
#SAMPLELENGTH:15.610000;
#SELECTABLE:YES;
#BPMS:0.000000=123.000000
;
#STOPS:128.000000=0.976000
;
#DELAYS:;
#WARPS:;
#TIMESIGNATURES:0.000000=4=4
,128.000000=2=4
,130.000000=4=4
;
#TICKCOUNTS:0.000000=4
;
#COMBOS:0.000000=1
;
#SPEEDS:0.000000=1.000000=0.000000=0
;
#SCROLLS:0.000000=1.000000
;
#FAKES:;
#LABELS:0.000000=Song Start
;
#BGCHANGES:;
#KEYSOUNDS:;
#ATTACKS:
;

//---------------dance-single - ----------------
#NOTEDATA:;
#CHARTNAME:;
#CHARTHASH:3390222000;
#STEPSTYPE:dance-single;
#BANNER:;
#DESCRIPTION:;
#CHARTSTYLE:;
#DIFFICULTY:Beginner;
#METER:2;
#METERF:2.000000;
#LASTSECONDHINT:125.854050;
#RADARVALUES:0.115179,0.144673,0.022605,0.000000,0.000000,107.000000,104.000000,3.000000,0.000000,0.000000,0.000000,0.000000,0.000000,0.000000,0.115179,0.144673,0.022605,0.000000,0.000000,107.000000,104.000000,3.000000,0.000000,0.000000,0.000000,0.000000,0.000000,0.000000;
#CREDIT:YOSEFU;
#NOTES:
// measure 0
0000
0000
0000
0000
,  // measure 1
0000
0000
0000
0000
,  // measure 2
0000
0000
0000
0000
,  // measure 3
0000
0000
0000
0000
,  // measure 4
0000
0000
0000
0000
,  // measure 5
1000
0000
0001
0000
,  // measure 6
1000
0000
0001
0000
,  // measure 7
0100
0000
0010
0000
,  // measure 8
0100
0000
0001
0000
,  // measure 9
1000
0000
0100
0000
,  // measure 10
1000
0000
0001
0000
,  // measure 11
0100
0000
0001
0000
,  // measure 12
1000
0000
0100
0000
,  // measure 13
0010
0000
0000
0000
,  // measure 14
0010
0000
0000
0000
,  // measure 15
0001
0000
0000
0000
,  // measure 16
0001
0000
0000
0000
,  // measure 17
1000
0000
0001
0000
,  // measure 18
1000
0000
0001
0000
,  // measure 19
0100
0000
0010
0000
,  // measure 20
0100
0000
0010
0000
,  // measure 21
1000
0000
0001
0000
,  // measure 22
1000
0000
0001
0000
,  // measure 23
0010
0000
0100
0000
,  // measure 24
0010
0000
0000
0000
,  // measure 25
0100
0000
1000
0000
,  // measure 26
0100
0000
0010
0000
,  // measure 27
0100
0000
1000
0000
,  // measure 28
0001
0000
0100
0000
,  // measure 29
0001
0000
1000
0000
,  // measure 30
0001
0000
0010
0000
,  // measure 31
0100
0000
0010
0000
,  // measure 32
0001
0000
1000
0000
,  // measure 33
0001
0000
1000
0000
,  // measure 34
0010
0000
0100
0000
,  // measure 35
0010
0000
0100
0000
,  // measure 36
0001
0000
1000
0000
,  // measure 37
0100
0000
1000
0000
,  // measure 38
0001
0000
0110
0000
,  // measure 39
0000
0000
0010
0000
,  // measure 40
0000
0000
1001
0000
,  // measure 41
0000
0000
1000
0000
,  // measure 42
0000
0000
0100
0000
,  // measure 43
0000
0000
0010
0000
,  // measure 44
0000
0000
0110
0000
,  // measure 45
0000
0000
0001
0000
,  // measure 46
0000
0000
1000
0000
,  // measure 47
0000
0000
0010
0000
,  // measure 48
0000
0000
0100
0000
,  // measure 49
0010
0000
0100
0000
,  // measure 50
0001
0000
0100
0000
,  // measure 51
0010
0000
1000
0000
,  // measure 52
0010
0000
0100
0000
,  // measure 53
0001
0000
1000
0000
,  // measure 54
0100
0000
0010
0000
,  // measure 55
0100
0000
1000
0000
,  // measure 56
0001
0000
0100
0000
,  // measure 57
0010
0000
1000
0000
,  // measure 58
0010
0000
0100
0000
,  // measure 59
0001
0000
1000
0000
,  // measure 60
0100
0000
0010
0000
,  // measure 61
0100
0000
1000
0000
,  // measure 62
0001
0000
0100
0000
,  // measure 63
0001
0000
1000
0000
,  // measure 64
0100
0000
0000
0000
;

//---------------dance-single - ----------------
#NOTEDATA:;
#CHARTNAME:;
#CHARTHASH:1236444438;
#STEPSTYPE:dance-single;
#BANNER:;
#DESCRIPTION:;
#CHARTSTYLE:;
#DIFFICULTY:Easy;
#METER:5;
#METERF:5.000000;
#LASTSECONDHINT:126.585762;
#RADARVALUES:0.220670,0.218281,0.000000,0.000000,0.000000,205.000000,205.000000,0.000000,0.000000,0.000000,0.000000,0.000000,0.000000,0.000000,0.220670,0.218281,0.000000,0.000000,0.000000,205.000000,205.000000,0.000000,0.000000,0.000000,0.000000,0.000000,0.000000,0.000000;
#CREDIT:YOSEFU;
#NOTES:
0000
0000
0000
0000
,
0000
0000
0000
0000
,
0000
0000
0000
0000
,
0000
0000
0000
0000
,
0000
0000
1000
0001
,
0100
0100
0010
0000
,
1000
1000
0100
0000
,
0010
0010
0001
0001
,
0100
0000
0010
1000
,
0001
0001
0010
0000
,
0100
0100
1000
1000
,
0001
0001
0100
0001
,
1000
0000
0100
0000
,
0010
0000
0001
0000
,
0010
0000
0100
0000
,
1000
0000
0010
0000
,
0100
0100
0100
0001
,
0100
0010
0100
0001
,
0100
0010
1000
0000
,
0001
0010
0100
0010
,
0001
1000
0001
0000
,
0100
0010
0100
0001
,
1000
0100
0010
0000
,
0001
1000
0001
0100
,
0010
1000
0001
0001
,
1000
0100
1000
0010
,
0100
0001
0010
0001
,
1000
0010
0100
0001
,
1000
0100
0010
0001
,
0010
0100
1000
0001
,
0100
0010
0100
0001
,
1000
0100
0010
0001
,
1000
0001
1000
0001
,
0100
0000
0010
1000
,
0001
0000
0010
0100
,
1000
0100
0010
0000
,
0001
1000
0010
0100
,
0001
0000
1000
0100
,
0010
0000
0100
1000
,
0001
0100
0010
0000
,
1000
0000
0100
0000
,
0010
0000
0001
0000
,
0100
0000
0010
0000
,
1000
0000
0100
0000
,
0010
0000
0001
0000
,
0001
0000
0100
0000
,
0100
0000
0010
1000
,
0100
0010
0001
0001
,
1000
1000
0010
0100
,
0010
1000
0001
0010
,
0100
0000
1000
0100
,
0010
0100
1000
0001
,
0100
0100
0010
1000
,
0010
0100
0001
1000
,
0100
0000
0010
0100
,
1000
0100
0010
0001
,
1000
0010
0010
0100
,
0001
1000
0100
0010
,
0001
0100
0010
1000
,
0001
0010
0100
1000
,
0010
0100
0001
1000
,
0100
0010
0001
1000
,
0010
0100
0001
0010
,
0100
1000
0001
0100
,
0010
0000
1000
1000
0000
0000
0000
0000
;

//---------------dance-single - ----------------
#NOTEDATA:;
#CHARTNAME:;
#CHARTHASH:3511003961;
#STEPSTYPE:dance-single;
#BANNER:;
#DESCRIPTION:;
#CHARTSTYLE:;
#DIFFICULTY:Medium;
#METER:10;
#METERF:10.000000;
#LASTSECONDHINT:126.585762;
#RADARVALUES:0.410122,0.412309,0.007535,0.000000,0.000000,381.000000,380.000000,1.000000,0.000000,0.000000,0.000000,0.000000,0.000000,0.000000,0.410122,0.412309,0.007535,0.000000,0.000000,381.000000,380.000000,1.000000,0.000000,0.000000,0.000000,0.000000,0.000000,0.000000;
#CREDIT:YOSEFU;
#NOTES:
0000
0000
0000
0000
,
0000
0000
0000
0000
,
0000
0000
0000
0000
,
0000
0000
0000
0000
,
0000
0000
0000
0000
1000
0100
0010
0001
,
1000
0010
1000
0010
0100
0000
0001
0010
,
0100
0010
0100
0010
0100
0000
1000
0001
,
0100
0001
0100
0001
0100
0010
1000
0100
,
0010
0000
0000
0000
0001
0010
0100
1000
,
0001
0100
0001
0100
0010
0000
1000
0100
,
0010
0001
0010
0001
0010
0001
1000
0010
,
0100
0001
0100
0001
0100
0010
1000
0100
,
0010
0000
0000
0001
0001
0100
0010
1000
,
1000
0000
0100
0000
,
0010
0010
0010
0000
0001
0000
0000
0000
,
0100
0000
0010
0000
,
0100
0000
0100
0000
0100
0000
0001
1000
,
0010
0000
0100
0001
1000
0000
0100
0010
,
0001
0001
0001
0100
0010
0000
1000
0100
,
0010
0000
0001
0100
0010
0000
1000
0100
,
0010
0000
0001
0100
0010
0000
1000
0001
,
0010
0000
0100
1000
0001
0000
0100
0001
,
1000
1000
1000
0100
0010
0000
0001
1000
,
0010
0000
0100
0001
1000
0000
0100
0010
,
0001
0000
1000
0010
0010
0100
0001
1000
,
1000
0100
0010
0100
1000
0100
0010
0000
,
0001
0100
0010
0100
0001
0100
0010
1000
,
0001
0010
0100
0010
0001
0010
0100
1000
,
0010
0100
0001
1000
1000
0100
0010
0001
,
0001
1000
0010
0100
0010
1000
0001
0000
,
1000
1000
1000
0100
0010
0100
1000
0001
,
0100
0010
0100
0001
1000
0100
0010
0001
,
0100
0000
0110
0000
0010
1000
0010
1000
,
0100
0000
0010
0001
1000
0001
1000
0001
,
0100
0000
0010
1000
0001
0010
0001
0010
,
0100
1000
0100
0010
0001
0000
0000
0000
,
0100
0010
1000
0010
0100
0001
0100
0001
,
0010
0000
0100
1000
0010
1000
0010
1000
,
0001
0010
0100
1000
0100
0010
0001
1000
,
0010
0100
0001
0010
0100
0000
0000
1000
,
0100
0010
0001
1000
0010
0000
0000
0000
,
0100
0000
0000
0000
0001
0001
0001
0000
,
1000
0000
0100
0000
,
0010
0000
0001
0000
,
0000
1000
0010
0100
,
0010
0100
0001
1000
,
0001
0000
1000
0000
0001
0100
0001
0100
,
0010
1000
0010
1000
0001
0000
0001
0000
,
0001
0000
0010
0100
1000
0000
0100
1000
,
0001
0000
0100
0010
1000
1000
1000
0100
,
0010
0000
0001
0100
0010
0000
1000
0100
,
0010
0000
0001
0100
0010
0000
1000
0100
,
0100
0010
0001
1000
1000
0000
0100
1000
,
0001
0000
0100
0001
1000
1000
1000
0100
,
0010
0000
0001
1000
0010
0000
0100
0001
,
1000
0000
0100
0010
0001
0000
1000
0010
,
0010
0100
0001
1000
1000
0100
0010
0100
,
1000
0100
0010
0000
0001
0100
0010
0100
,
0001
0100
0010
1000
0001
0010
0100
0010
,
0001
0010
0100
1000
0010
0100
0001
1000
,
1000
0100
0010
0001
0001
1000
0010
0100
,
0010
1000
0001
0000
1000
1000
1000
0100
,
0010
0100
1000
0001
0100
0010
0100
0001
,
1000
0100
0010
0001
0100
0000
0010
1000
,
0001
0010
0100
1000
0000
0000
0000
0000
;

//---------------dance-single - ----------------
#NOTEDATA:;
#CHARTNAME:Hot Innit (kill me plz);
#CHARTHASH:3901034687;
#STEPSTYPE:dance-single;
#BANNER:;
#DESCRIPTION:;
#CHARTSTYLE:;
#DIFFICULTY:Hard;
#METER:13;
#METERF:13.000000;
#LASTSECONDHINT:126.585762;
#RADARVALUES:0.545753,0.557830,0.015070,0.037675,0.391823,507.000000,505.000000,2.000000,5.000000,0.000000,0.000000,0.000000,0.000000,0.000000,0.545753,0.557830,0.015070,0.037675,0.391823,507.000000,505.000000,2.000000,5.000000,0.000000,0.000000,0.000000,0.000000,0.000000;
#CREDIT:YOSEFU;
#NOTES:
0000
0000
0000
0000
,
0000
0000
0000
0000
,
0000
0000
0000
0000
,
0000
0000
0000
0000
,
0000
0000
0000
0000
1000
0010
0100
0010
,
1000
0000
0010
1000
0000
0010
1000
0000
0000
0001
0000
0000
1000
0000
0000
0000
0000
0000
0100
0000
0000
0010
0000
0000
,
0001
0000
1000
0001
0000
1000
0001
0000
0000
0100
0000
0000
0010
0000
0000
0000
0000
0000
1000
0000
0000
0001
0000
0000
,
0010
0000
0100
1000
0000
0100
1000
0000
0000
0001
0000
0000
0100
0000
0000
1000
0000
0000
0100
0000
0000
0001
0000
0000
,
1000
0000
0100
0000
1000
0100
0010
0001
,
1000
0000
0001
0010
0000
0001
0010
0000
0000
0100
0000
0000
1000
0000
0000
0000
0000
0000
0010
0000
0000
0100
0000
0000
,
0001
0000
1000
0001
0000
1000
0001
0000
0000
0010
0000
0000
0100
0000
0000
1000
0000
0000
0010
0000
0000
0100
0000
0000
,
0001
0000
1000
0001
0000
0000
1000
0000
0000
0001
0000
0000
0010
0000
0000
1000
0000
0000
0010
0000
0000
0001
0000
0000
,
0100
0000
0010
1000
1000
0100
0010
0001
,
0001
0000
0000
0000
0000
0100
0000
0000
0000
0000
0000
0000
0001
0000
0000
0000
0000
1000
0000
0000
0000
0000
0000
0000
,
0100
0000
0000
0100
0000
0000
0010
0000
0000
0001
0000
0000
1000
0000
0000
0000
0000
0010
0000
0000
0000
0100
0000
0000
,
0001
0000
0000
0000
0000
1000
0000
0000
0000
0000
0000
0000
0100
0000
0000
0000
0000
0010
0000
0000
0000
0000
0000
0000
,
0001
0000
0001
0000
0001
0000
0001
1000
,
0010
0000
0000
0100
0000
0001
1000
0000
0000
0000
0000
0000
0100
0000
0000
0010
0000
0001
1000
0000
0000
0000
0000
0000
,
0100
0000
0000
0100
0000
0000
0010
0000
0000
0100
0000
0000
1000
0000
0000
0001
0000
0100
0000
0000
0010
1000
0000
0000
,
0001
0000
0000
1000
0000
0100
0010
0000
0000
0000
0000
0000
0001
0000
0000
1000
0000
0001
0100
0000
0010
0100
0000
0000
,
0001
0000
0000
0010
0000
0100
1000
0000
0000
0002
0000
0000
0203
0000
0000
0000
0000
0310
0000
0000
0000
2000
0000
0000
,
3001
0000
0000
0100
0000
0010
1000
0000
0000
0000
0000
0000
0001
0000
0000
0010
0000
0100
1000
0000
0000
0000
0000
0000
,
0001
0000
0000
0001
0000
0000
0100
0000
0000
0010
0000
0000
1000
0000
0000
0001
0000
0010
0000
0000
0100
1000
0000
0000
,
0001
0000
0000
0100
0000
0010
1000
0000
0000
0000
0000
0000
0100
0000
0000
0010
0000
0001
1000
0000
0010
1000
0000
0000
,
0100
0000
0000
0010
0000
0001
0000
0000
0000
1000
0000
0000
1000
0000
0000
0010
0000
0000
0100
0000
0000
0001
0000
0000
,
0001
0000
0000
1000
0000
0010
0100
0000
0000
0001
0000
0000
1000
0000
0000
0100
0000
0010
0001
0000
0000
0000
0000
0000
,
0100
0000
0000
0100
0000
0000
0010
0000
0000
1000
0000
0000
0001
0000
0000
0010
0000
0100
1000
0000
0001
1000
0000
0000
,
0010
0000
0000
0100
0000
0001
1000
0000
0000
0100
0000
0000
0010
0000
0000
0001
0000
1000
0001
0000
1000
0010
0000
0000
,
0100
0000
0000
0001
0000
1000
0100
0000
0000
0010
0000
0000
0010
0000
0000
0001
0000
0000
1000
0000
0000
0010
0000
0000
,
0010
0000
0000
0100
0000
0001
1000
0000
0000
0100
0000
0000
0010
0000
0000
0001
0000
1000
0010
0000
0000
0000
0000
0000
,
0100
0000
0000
0100
0000
0000
0001
0000
0000
0010
0000
0000
0100
0000
0000
1000
0000
0001
0100
0000
0010
1000
0000
0000
,
0100
0000
0000
0010
0000
0001
1000
0000
0000
0010
0000
0000
0100
0000
0000
0001
0000
1000
0100
0000
0010
0001
0000
0000
,
0100
0000
0000
0000
0000
0000
1001
0000
0000
0000
0000
0000
0001
0000
1000
0010
0000
1000
0010
0000
0000
0100
0000
0000
,
0001
0000
0000
0000
0000
0000
1000
0000
0000
0100
0000
0000
0010
0000
0001
1000
0000
0001
1000
0000
0000
0010
0000
0000
,
0100
0000
0000
0000
0000
0000
0001
0000
0000
1000
0000
0000
0100
0000
0010
0001
0000
0010
0001
0000
0000
1000
0000
0000
,
0010
0000
0000
0001
0000
0000
0010
0000
0000
1000
0000
0000
0100
0000
0000
0000
0000
0010
0000
0000
0000
0001
0000
0000
,
1000
0000
0000
0010
0000
0000
0100
0000
0000
0001
0000
0000
1000
0000
0100
1000
0000
0100
1000
0000
0000
0001
0000
0000
,
0100
0000
0000
0000
0000
0000
0010
0000
0000
1000
0000
0000
0001
0000
0010
0001
0000
0010
0001
0000
0000
0100
0000
0000
,
0010
1000
0001
0010
0100
1000
1000
0001
,
0100
1000
0100
0001
2000
0000
0000
3100
,
0001
0000
0000
0100
0000
0000
1000
0000
0000
0001
0000
0000
0101
0000
0000
0000
0000
0100
0000
0000
0000
0000
0000
0000
,
0001
0000
0000
0000
0000
1000
0000
0000
0000
0000
0000
0000
0010
0000
0000
0010
0000
0000
0010
0000
0000
0100
0000
0000
,
0001
0000
0000
0000
0000
1000
0000
0000
0000
0100
0000
0000
0010
0000
0000
0000
0000
0001
0000
0000
0000
0000
0000
0000
,
1000
0000
0000
0000
0000
0010
0000
0000
0000
0000
0000
0000
0100
0000
0000
0000
0000
0002
0000
0000
0000
0000
0000
0000
,
0000
0000
1003
0000
0010
1000
0010
1000
,
0001
0010
0001
0010
0100
1000
0100
1000
,
0001
0000
0100
0000
0010
0000
1000
0000
0001
0010
0001
0000
1000
0010
1000
0000
,
0001
0100
0001
0000
1000
0100
1000
0000
0001
0000
0000
0000
0001
0000
0000
0000
,
0001
0000
0000
0000
0000
0000
1000
0000
0000
0001
0000
0000
0100
0000
0000
0010
0000
1000
0001
0000
0000
0000
0000
0000
,
0010
0000
0000
0100
0000
1000
0001
0000
0000
0000
0000
0000
0010
0000
0000
0010
0000
0000
0100
0000
0000
0010
0000
0000
,
0001
0000
0000
1000
0000
0010
0000
0000
0100
0001
0000
0000
1000
0000
0000
0001
0000
0010
0100
0000
0000
0000
0000
0000
,
1000
0000
0000
0001
0000
1000
0010
0000
0100
0010
0000
0000
1000
0000
0000
0100
0000
0010
0001
0000
0000
1000
0000
0000
,
1000
0000
0000
0010
0000
0000
0100
0000
0000
0001
0000
0000
0001
0000
0000
0010
0000
0100
1000
0000
0000
0000
0000
0000
,
0010
0000
0000
0100
0000
0001
1000
0000
0000
0000
0000
0000
0100
0000
0000
0100
0000
0000
0010
0000
0000
0100
0000
0000
,
1000
0000
0000
0001
0000
0100
0000
0000
0010
1000
0000
0000
0001
0000
0000
0010
0000
0100
1000
0000
0000
0000
0000
0000
,
0010
0000
0000
0100
0000
0001
1000
0000
0100
1000
0000
0000
0010
0000
0000
0100
0000
0001
0000
0000
0000
1000
0000
0000
,
1000
0000
0000
0000
0000
0000
0100
0000
0000
0010
0000
0000
0001
0000
0000
0010
0000
0000
0100
0000
0000
0000
0000
0000
1000
0000
0000
0000
0000
0000
0001
0000
0000
0000
0100
0000
0010
0000
0000
0000
0000
0000
1000
0000
0000
0000
0000
0000
,
0001
0000
0000
0010
0000
0100
1000
0000
0000
0000
0000
0000
0010
0000
0000
0010
0000
0000
0100
0000
0000
0001
0000
0000
,
1000
0000
0000
0100
0000
0010
0001
0000
1000
0001
0000
0000
0100
0000
0000
0010
0000
1000
0001
0000
0000
0010
0000
0000
,
0100
0000
0000
1000
0000
0001
1000
0000
0001
0100
0000
0000
0010
0000
0000
1000
0000
0001
0010
0000
0000
0100
0000
0000
,
0100
0000
0000
1000
0000
0000
0001
0000
0000
0100
0000
0000
0100
0000
0000
0010
0000
1000
0001
0000
0000
0010
0000
0000
,
0100
0000
0000
1000
0000
0001
0100
0000
0000
0000
0000
0000
0010
0000
0000
0010
0000
0000
1000
0000
0000
0100
0000
0000
,
0010
0000
0000
0001
0000
1000
0010
0000
0100
0001
0000
0000
0010
0000
0000
0100
0000
1000
0001
0000
0000
0100
0000
0000
,
0010
0000
0000
1000
0000
0001
0010
0000
0100
1000
0000
0000
0001
0000
0000
0100
0000
0010
1000
0000
0000
0001
0000
0000
,
0010
0000
0001
0010
0100
0000
0010
0000
0000
0000
0000
0000
0000
0000
0000
0000
;

//---------------dance-double - ----------------
#NOTEDATA:;
#CHARTNAME:;
#CHARTHASH:4272088859;
#STEPSTYPE:dance-double;
#BANNER:;
#DESCRIPTION:;
#CHARTSTYLE:;
#DIFFICULTY:Beginner;
#METER:2;
#METERF:0.000000;
#LASTSECONDHINT:125.854050;
#RADARVALUES:0.082886,0.120561,0.022605,0.000000,0.000000,77.000000,74.000000,3.000000,0.000000,0.000000,0.000000,0.000000,0.000000,0.000000,0.082886,0.120561,0.022605,0.000000,0.000000,77.000000,74.000000,3.000000,0.000000,0.000000,0.000000,0.000000,0.000000,0.000000;
#CREDIT:YOSEFU;
#NOTES:
00000000
00000000
00000000
00000000
,
00000000
00000000
00000000
00000000
,
00000000
00000000
00000000
00000000
,
00000000
00000000
00000000
00000000
,
00000000
00000000
00000000
00000000
,
00010000
00000000
00000000
00000000
,
00001000
00000000
00000000
00000000
,
00100000
00000000
00000000
00000000
,
01000000
00000000
00000000
00000000
,
10000000
00000000
00000000
00000000
,
00010000
00000000
00000000
00000000
,
01000000
00000000
00000000
00000000
,
00001000
00000000
00000000
00000000
,
00010000
00000000
00000000
00000000
,
00001000
00000000
00000000
00000000
,
00010000
00000000
00000000
00000000
,
00000100
00000000
00000000
00000000
,
00000010
00000000
00000000
00000000
,
00000001
00000000
00000000
00000000
,
00000100
00000000
00000000
00000000
,
00000010
00000000
00000000
00000000
,
00010000
00000000
00000000
00000000
,
00001000
00000000
00000000
00000000
,
00100000
00000000
00000000
00000000
,
01000000
00000000
00000000
00000000
,
10000000
00000000
00000000
00000000
,
00010000
00000000
00000000
00000000
,
01000000
00000000
00000000
00000000
,
00001000
00000000
00000000
00000000
,
00010000
00000000
00000000
00000000
,
00000100
00000000
00000000
00000000
,
00000010
00000000
00000000
00000000
,
00000110
00000000
00001000
00000000
,
00000000
00000000
00000001
00000000
,
00000000
00000000
00000100
00000000
,
00000000
00000000
00000010
00000000
,
00000000
00000000
00001000
00000000
,
00000000
00000000
00000100
00000000
,
00000000
00000000
00011000
00000000
,
00000000
00000000
00010000
00000000
,
00000000
00000000
00011000
00000000
,
00000000
00000000
00001000
00000000
,
00000000
00000000
01000000
00000000
,
00000000
00000000
00010000
00000000
,
00000000
00000000
10000000
00000000
,
01000000
00000000
00100000
00000000
,
00000000
00000000
01000000
00000000
,
10000000
00000000
00010000
00000000
,
00000000
00000000
01000000
00000000
,
00001000
00000000
00010000
00000000
,
00000000
00000000
00000100
00000000
,
00001000
00000000
00000001
00000000
,
00000000
00000000
00000100
00000000
,
00000010
00000000
00001000
00000000
,
00000000
00000000
00000010
00000000
,
00010000
00000000
00001000
00000000
,
00000000
00000000
00010000
00000000
,
00001000
00000000
00010000
00000000
,
00001000
00000000
00100000
00000000
,
00010000
00000000
00100000
00000000
,
00010000
00000000
10000000
00000000
,
00010000
00000000
10000000
00000000
,
00010000
00000000
01000000
00000000
,
00100000
00000000
01000000
00000000
,
00010000
00000000
00000000
00000000
;

//---------------dance-double - ----------------
#NOTEDATA:;
#CHARTNAME:;
#CHARTHASH:3798720580;
#STEPSTYPE:dance-double;
#BANNER:;
#DESCRIPTION:;
#CHARTSTYLE:;
#DIFFICULTY:Easy;
#METER:6;
#METERF:6.000000;
#LASTSECONDHINT:126.585762;
#RADARVALUES:0.220670,0.218281,0.000000,0.000000,0.000000,205.000000,205.000000,0.000000,0.000000,0.000000,0.000000,0.000000,0.000000,0.000000,0.220670,0.218281,0.000000,0.000000,0.000000,205.000000,205.000000,0.000000,0.000000,0.000000,0.000000,0.000000,0.000000,0.000000;
#CREDIT:YOSEFU;
#NOTES:
00000000
00000000
00000000
00000000
,
00000000
00000000
00000000
00000000
,
00000000
00000000
00000000
00000000
,
00000000
00000000
00000000
00000000
,
00000000
00000000
00010000
00001000
,
00100000
00100000
00010000
00000000
,
01000000
01000000
00001000
00000000
,
00010000
00010000
00000100
00000100
,
00000010
00000000
00000001
00001000
,
00000010
00000010
00010000
00000000
,
00001000
00001000
01000000
01000000
,
00010000
00010000
10000000
00010000
,
00100000
00000000
00001000
00000000
,
00010000
00000000
00000100
00000000
,
00010000
00000000
00000010
00000000
,
00000100
00000000
00000001
00000000
,
00001000
00001000
00001000
00000100
,
00001000
00000001
00001000
00000100
,
00001000
00000010
00010000
00000000
,
00001000
01000000
00100000
01000000
,
00010000
00100000
00010000
00000000
,
10000000
01000000
10000000
00100000
,
01000000
00001000
00010000
00000000
,
00000010
00000100
00000010
00010000
,
00000100
00001000
00000001
00000001
,
00001000
00000100
00001000
00000010
,
00010000
00001000
00100000
00001000
,
01000000
00010000
10000000
00100000
,
01000000
00010000
10000000
00100000
,
10000000
00010000
01000000
00001000
,
00010000
00000100
00010000
00000010
,
00000100
00000001
00001000
00000010
,
00010000
00000010
00010000
00000010
,
00000100
00000000
00000001
00001000
,
00000100
00000000
00010000
00001000
,
01000000
00001000
00100000
00000000
,
01000000
10000000
00100000
01000000
,
00001000
00000000
00010000
00000100
,
00001000
00000000
00000100
00010000
,
00001000
00100000
00010000
00000000
,
01000000
00000000
00100000
00000000
,
10000000
00000000
00010000
00000000
,
01000000
00000000
00001000
00000000
,
00010000
00000000
00000010
00000000
,
00001000
00000000
00000001
00000000
,
00000001
00000000
00000100
00000000
,
00000100
00000000
00000010
00001000
,
00000100
00010000
00001000
00001000
,
00100000
00100000
00010000
10000000
,
00010000
01000000
00001000
00010000
,
00000010
00000000
00001000
00000010
,
00000100
00000010
00010000
00001000
,
01000000
01000000
00010000
00100000
,
00010000
10000000
01000000
00100000
,
00001000
00000000
00010000
00001000
,
01000000
00001000
00010000
00000100
,
00001000
00000001
00000001
00000010
,
00000100
00010000
00001000
00100000
,
00010000
10000000
01000000
00100000
,
00001000
00010000
00000100
00001000
,
00000001
00000010
00000100
00010000
,
00001000
01000000
00010000
10000000
,
00100000
01000000
00010000
00100000
,
00001000
00010000
00000010
00001000
,
00000001
00000000
00000100
00000100
00000000
00000000
00000000
00000000
;

//---------------dance-double - ----------------
#NOTEDATA:;
#CHARTNAME:;
#CHARTHASH:1907152944;
#STEPSTYPE:dance-double;
#BANNER:;
#DESCRIPTION:;
#CHARTSTYLE:;
#DIFFICULTY:Medium;
#METER:10;
#METERF:10.000000;
#LASTSECONDHINT:126.585762;
#RADARVALUES:0.355224,0.388055,0.007535,0.000000,0.000000,330.000000,329.000000,1.000000,0.000000,0.000000,0.000000,0.000000,0.000000,0.000000,0.355224,0.388055,0.007535,0.000000,0.000000,330.000000,329.000000,1.000000,0.000000,0.000000,0.000000,0.000000,0.000000,0.000000;
#CREDIT:YOSEFU;
#NOTES:
00000000
00000000
00000000
00000000
,
00000000
00000000
00000000
00000000
,
00000000
00000000
00000000
00000000
,
00000000
00000000
00000000
00000000
,
00000000
00000000
00000000
00000000
00001000
00010000
00100000
01000000
,
00010000
10000000
00010000
10000000
00010000
00000000
10000000
01000000
,
00100000
00010000
00100000
00010000
00100000
00000000
00001000
00010000
,
00000010
00010000
00000010
00010000
00000010
00001000
00000001
00000010
,
00000100
00000000
00000000
00000000
00001000
00000100
00000010
00000001
,
00000100
00000010
00010000
00001000
00010000
00000000
00001000
00100000
,
00010000
00100000
01000000
10000000
00010000
00000000
01000000
00100000
,
10000000
00010000
10000000
01000000
00100000
00001000
00010000
00000010
,
00000100
00000000
00000000
00000001
00000001
00000010
00000100
00001000
,
00001000
00000000
00000100
00000000
,
00010000
00010000
00010000
00000000
00001000
00000000
00000000
00000000
,
00100000
00000000
01000000
00000000
,
10000000
00000000
10000000
00000000
10000000
00000000
00010000
01000000
,
00100000
10000000
00010000
00100000
,
01000000
01000000
01000000
00000000
00100000
00000000
00001000
00000000
,
00010000
00000010
00000100
00000001
,
00000010
00001000
00010000
00100000
,
01000000
00010000
10000000
01000000
,
00100000
00100000
00100000
00000000
00001000
00000000
00010000
00000000
,
00000010
00000100
00000001
00000010
,
00000100
00000000
00000000
00010000
00010000
00001000
00100000
00001000
,
01000000
00100000
10000000
00000000
01000000
00100000
00010000
00000000
,
01000000
01000000
01000000
00000000
00010000
00100000
00001000
00000000
,
00010000
00000100
00000010
00000000
00000001
00000100
00000010
00000000
,
00000100
00000010
00001000
00000010
00000010
00000100
00001000
00010000
,
00010000
00001000
00100000
00000000
01000000
00100000
00010000
00000000
,
00100000
00100000
00100000
00000000
00001000
00010000
00000010
00000000
,
00000100
00000001
00001000
00000000
00000100
00000010
00000001
00000000
,
00001000
00000000
00001010
00000000
00001000
00000001
00001000
00000001
,
00001000
00000000
00000001
00000010
00000100
00001000
00000100
00001000
,
00000100
00000000
00010000
00001000
01000000
00001000
01000000
00001000
,
01000000
00010000
10000000
01000000
00100000
00000000
00000000
00000000
,
00010000
00100000
01000000
10000000
00100000
01000000
00001000
00010000
,
00001000
00000000
00010000
00000100
00001000
00000100
00000010
00000001
,
00001000
00000000
00000010
00000100
00000001
00001000
00000001
00000010
,
00000100
00010000
00001000
01000000
00100000
00000000
00000000
01000000
,
10000000
01000000
00010000
10000000
01000000
00000000
00000000
00000000
,
00100000
00000000
00000000
00000000
00001000
00001000
00001000
00000000
,
00010000
00000000
00000100
00000000
,
00000010
00000000
00000001
00000000
,
00000000
00000100
00000010
00001000
,
00000010
00010000
00001000
00100000
,
01000000
00000000
10000000
00000000
00100000
01000000
00100000
01000000
,
00001000
00010000
00001000
00010000
00000010
00000000
00000010
00000000
,
00000010
00000000
00001000
00000001
00000100
00000000
00000001
00000000
,
00001000
00000000
00000100
00000000
00000010
00000010
00000010
00000000
,
00000100
00010000
00001000
01000000
,
00100000
00000000
10000000
00000000
01000000
00000000
00000000
00100000
,
00100000
00001000
00010000
00000010
00000010
00000000
00001000
00000000
,
00000001
00000000
00000010
00000000
00000100
00000100
00000100
00000000
,
00010000
00001000
01000000
00100000
,
10000000
00000000
01000000
00000000
00100000
00000000
00000000
00001000
,
00001000
00010000
00000100
00010000
00000010
00000100
00000001
00000000
,
00000010
00000100
00001000
00000000
00000010
00000010
00000010
00000000
,
00001000
00000100
00010000
00000000
00001000
00100000
01000000
00000000
,
10000000
00100000
01000000
00000000
00100000
01000000
00010000
01000000
,
01000000
00100000
00010000
00001000
00001000
00010000
00000100
00000000
,
00000010
00000100
00001000
00000000
00000100
00000100
00000100
00000000
,
00010000
00001000
01000000
00000000
00100000
10000000
00010000
00000000
,
00100000
01000000
10000000
00000000
00010000
01000000
00100000
00000000
,
10000000
01000000
00010000
00001000
00000000
00000000
00000000
00000000
;

//---------------dance-double - ----------------
#NOTEDATA:;
#CHARTNAME:;
#CHARTHASH:2330219211;
#STEPSTYPE:dance-double;
#BANNER:;
#DESCRIPTION:;
#CHARTSTYLE:;
#DIFFICULTY:Hard;
#METER:13;
#METERF:13.000000;
#LASTSECONDHINT:126.585762;
#RADARVALUES:0.510231,0.533576,0.015070,0.037675,0.372985,474.000000,472.000000,2.000000,5.000000,0.000000,0.000000,0.000000,0.000000,0.000000,0.510231,0.533576,0.015070,0.037675,0.372985,474.000000,472.000000,2.000000,5.000000,0.000000,0.000000,0.000000,0.000000,0.000000;
#CREDIT:YOSEFU;
#NOTES:
00000000
00000000
00000000
00000000
,
00000000
00000000
00000000
00000000
,
00000000
00000000
00000000
00000000
,
00000000
00000000
00000000
00000000
,
00000000
00000000
00000000
00000000
00010000
00000100
00000010
00000100
,
00001000
00000000
00000100
00001000
00000000
00000100
00001000
00000000
00000000
00000001
00000000
00000000
00001000
00000000
00000000
00000000
00000000
00000000
00000010
00000000
00000000
00010000
00000000
00000000
,
00001000
00000000
01000000
00001000
00000000
01000000
00001000
00000000
00000000
00100000
00000000
00000000
00010000
00000000
00000000
00000000
00000000
00000000
10000000
00000000
00000000
00100000
00000000
00000000
,
01000000
00000000
00010000
10000000
00000000
00010000
10000000
00000000
00000000
00100000
00000000
00000000
00010000
00000000
00000000
00001000
00000000
00000000
00000100
00000000
00000000
00000001
00000000
00000000
,
00000010
00000000
00001000
00000000
00010000
00001000
00010000
00000010
,
00000100
00000000
00000010
00001000
00000000
00000010
00001000
00000000
00000000
00000100
00000000
00000000
00010000
00000000
00000000
00000000
00000000
00000000
00001000
00000000
00000000
01000000
00000000
00000000
,
00010000
00000000
00100000
00010000
00000000
00100000
00010000
00000000
00000000
01000000
00000000
00000000
00001000
00000000
00000000
00010000
00000000
00000000
00000010
00000000
00000000
00000100
00000000
00000000
,
00000001
00000000
00001000
00000001
00000000
00000000
00001000
00000000
00000000
00000001
00000000
00000000
00000100
00000000
00000000
00001000
00000000
00000000
00010000
00000000
00000000
00100000
00000000
00000000
,
01000000
00000000
00000000
00010000
00010000
00100000
01000000
10000000
,
10000000
00000000
00000000
00000000
00000000
00010000
00000000
00000000
00000000
00000000
00000000
00000000
01000000
00000000
00000000
00000000
00000000
00001000
00000000
00000000
00000000
00000000
00000000
00000000
,
00010000
00000000
00000000
00010000
00000000
00000000
00000100
00000000
00000000
00010000
00000000
00000000
00000010
00000000
00000000
00000000
00000000
00000100
00000000
00000000
00000000
00000010
00000000
00000000
,
00001000
00000000
00000000
00000000
00000000
00000010
00000000
00000000
00000000
00000000
00000000
00000000
00010000
00000000
00000000
00000000
00000000
00001000
00000000
00000000
00000000
00000000
00000000
00000000
,
00100000
00000000
00100000
00000000
00100000
00000000
00100000
00010000
,
01000000
00000000
00000000
00100000
00000000
10000000
00000000
00000000
00000000
00000000
00000000
00000000
01000000
00000000
00000000
00100000
00000000
00001000
00000000
00000000
00000000
00000000
00000000
00000000
,
00010000
00000000
00000000
00010000
00000000
00000000
00000010
00000000
00000000
00001000
00000000
00000000
00000001
00000000
00000000
00000010
00000000
00000100
00000000
00000000
00001000
00000010
00000000
00000000
,
00010000
00000000
00000000
00001000
00000000
00010000
00000000
00000000
00000000
00000000
00000000
00000000
00100000
00000000
00000000
01000000
00000000
00010000
00000000
00000000
10000000
00010000
00000000
00000000
,
00100000
00000000
00000000
01000000
00000000
10000000
00000000
00000000
00000000
00200000
00000000
00000000
02300000
00000000
00000000
00000000
00000000
03001000
00000000
00000000
00000000
00020000
00000000
00000000
,
00030100
00000000
00000000
00001000
00000000
00000001
00000000
00000000
00000000
00000000
00000000
00000000
00000100
00000000
00000000
00000010
00000000
00010000
00000000
00000000
00000000
00000000
00000000
00000000
,
00001000
00000000
00000000
00001000
00000000
00000000
00100000
00000000
00000000
01000000
00000000
00000000
10000000
00000000
00000000
00010000
00000000
10000000
00000000
00000000
00010000
01000000
00000000
00000000
,
00001000
00000000
00000000
00010000
00000000
00000100
00000000
00000000
00000000
00000000
00000000
00000000
00000010
00000000
00000000
00001000
00000000
00010000
00000000
00000000
00001000
00100000
00000000
00000000
,
01000000
00000000
00000000
10000000
00000000
00100000
00000000
00000000
00000000
01000000
00000000
00000000
01000000
00000000
00000000
00001000
00000000
00000000
00010000
00000000
00000000
01000000
00000000
00000000
,
01000000
00000000
00000000
00100000
00000000
00010000
10000000
00000000
00000000
00000000
00000000
00000000
01000000
00000000
00000000
00100000
00000000
00001000
00010000
00000000
00000000
00000000
00000000
00000000
,
00000010
00000000
00000000
00000010
00000000
00000000
00000100
00000000
00000000
00000010
00000000
00000000
00010000
00000000
00000000
00001000
00000000
00010000
00000100
00000000
00001000
00000001
00000000
00000000
,
00000100
00000000
00000000
00000010
00000000
00010000
00001000
00000000
00000000
00000000
00000000
00000000
00000010
00000000
00000000
00001000
00000000
00010000
00001000
00000000
01000000
00010000
00000000
00000000
,
10000000
00000000
00000000
01000000
00000000
00100000
00010000
00000000
00000000
01000000
00000000
00000000
01000000
00000000
00000000
00100000
00000000
00000000
00010000
00000000
00000000
00001000
00000000
00000000
,
00001000
00000000
00000000
00010000
00000000
00000100
00000010
00000000
00000000
00000000
00000000
00000000
00000001
00000000
00000000
00000100
00000000
00000010
00010000
00000000
00000000
00000000
00000000
00000000
,
00001000
00000000
00000000
00001000
00000000
00000000
00100000
00000000
00000000
01000000
00000000
00000000
10000000
00000000
00000000
00100000
00000000
01000000
00001000
00000000
00010000
00001000
00000000
00000000
,
00000010
00000000
00000000
00001000
00000000
00010000
00001000
00000000
00000000
00000000
00000000
00000000
00000010
00000000
00000000
00001000
00000000
00010000
00001000
00000000
00000010
00000100
00000000
00000000
,
00001000
00000000
00000000
00000000
00000000
00000000
00001001
00000000
00000000
00000000
00000000
00000000
00001000
00000000
00000010
00010000
00000000
00000010
00010000
00000000
00000000
00001000
00000000
00000000
,
00100000
00000000
00000000
00000000
00000000
00000000
00010000
00000000
00000000
01000000
00000000
00000000
00001000
00000000
00100000
00010000
00000000
00100000
00010000
00000000
00000000
10000000
00000000
00000000
,
01000000
00000000
00000000
00000000
00000000
00000000
00100000
00000000
00000000
00001000
00000000
00000000
00010000
00000000
00000100
00001000
00000000
00000100
00001000
00000000
00000000
00000001
00000000
00000000
,
00000100
00000000
00000000
00001000
00000000
00000000
00010000
00000000
00000000
00100000
00000000
00000000
10000000
00000000
00000000
00000000
00000000
01000000
00000000
00000000
00000000
00100000
00000000
00000000
,
00001000
00000000
00000000
01000000
00000000
00000000
00010000
00000000
00000000
10000000
00000000
00000000
00100000
00000000
01000000
00100000
00000000
01000000
00100000
00000000
00000000
10000000
00000000
00000000
,
00010000
00000000
00000000
00000000
00000000
00000000
01000000
00000000
00000000
00001000
00000000
00000000
00010000
00000000
00000010
00010000
00000000
00000010
00010000
00000000
00000000
00000100
00000000
00000000
,
00001000
00000001
00000010
00000100
00001000
00000010
00000010
00001000
,
00000100
00000010
00001000
00010000
00200000
00000000
00000000
01300000
,
10000000
00000000
00000000
01000000
00000000
00000000
00010000
00000000
00000000
10000000
00000000
00000000
10010000
00000000
00000000
00000000
00000000
00010000
00000000
00000000
00000000
00000000
00000000
00000000
,
01000000
00000000
00000000
00000000
00000000
00001000
00000000
00000000
00000000
00000000
00000000
00000000
00010000
00000000
00000000
00010000
00000000
00000000
00010000
00000000
00000000
00001000
00000000
00000000
,
00000010
00000000
00000000
00000000
00000000
00000001
00000000
00000000
00000000
00001000
00000000
00000000
00000001
00000000
00000000
00000000
00000000
00000100
00000000
00000000
00000000
00000000
00000000
00000000
,
00001000
00000000
00000000
00000000
00000000
00010000
00000000
00000000
00000000
00000000
00000000
00000000
00100000
00000000
00000000
00000000
00000000
20000000
00000000
00000000
00000000
00000000
00000000
00000000
,
00000000
00000000
30010000
00000000
10000000
01000000
10000000
01000000
,
00100000
00001000
00100000
00001000
00010000
00000010
00010000
00000010
,
00001000
00000001
00001000
00000001
00000100
00001000
00010000
00100000
,
10000000
01000000
00010000
01000000
10000000
00000000
10000000
00000000
,
10000000
00000000
00000000
00000000
00000000
00000000
10000000
00000000
00000000
00010000
00000000
00000000
00100000
00000000
00000000
01000000
00000000
10000000
00000000
00000000
00000000
00000000
00000000
00000000
,
00100000
00000000
00000000
01000000
00000000
00001000
00000000
00000000
00000000
00000000
00000000
00000000
00010000
00000000
00000000
00010000
00000000
00000000
00000100
00000000
00000000
00001000
00000000
00000000
,
00000001
00000000
00000000
00000100
00000000
00000010
00000000
00000000
00001000
00000100
00000000
00000000
00010000
00000000
00000000
00001000
00000000
00010000
00000000
00000000
00000000
00000000
00000000
00000000
,
01000000
00000000
00000000
00100000
00000000
00010000
00000000
00000000
10000000
00010000
00000000
00000000
01000000
00000000
00000000
00100000
00000000
10000000
00000000
00000000
00000000
01000000
00000000
00000000
,
01000000
00000000
00000000
00100000
00000000
00000000
00001000
00000000
00000000
00010000
00000000
00000000
00010000
00000000
00000000
00000010
00000000
00001000
00000000
00000000
00000000
00000000
00000000
00000000
,
00000010
00000000
00000000
00000100
00000000
00000001
00000000
00000000
00000000
00000000
00000000
00000000
00001000
00000000
00000000
00001000
00000000
00000000
00000100
00000000
00000000
00000010
00000000
00000000
,
00001000
00000000
00000000
00010000
00000000
00001000
00000000
00000000
01000000
00001000
00000000
00000000
00100000
00000000
00000000
00001000
00000000
01000000
00000000
00000000
00000000
00000000
00000000
00000000
,
00100000
00000000
00000000
01000000
00000000
00001000
00000000
00000000
00010000
00001000
00000000
00000000
00000100
00000000
00000000
00000010
00000000
00001000
00000000
00000000
00000000
00000100
00000000
00000000
,
00000100
00000000
00000000
00000000
00000000
00000000
00000010
00000000
00000000
00000100
00000000
00000000
00010000
00000000
00000000
00001000
00000000
00000000
01000000
00000000
00000000
00000000
00000000
00000000
00100000
00000000
00000000
00000000
00000000
00000000
01000000
00000000
00000000
00000000
00010000
00000000
10000000
00000000
00000000
00000000
00000000
00000000
00000000
00000000
00000000
00000000
00000000
00000000
,
00100000
00000000
00000000
01000000
00000000
00001000
00010000
00000000
00000000
00000000
00000000
00000000
00000100
00000000
00000000
00000100
00000000
00000000
00000010
00000000
00000000
00000100
00000000
00000000
,
00010000
00000000
00000000
00001000
00000000
00010000
00000010
00000000
00001000
00000001
00000000
00000000
00000010
00000000
00000000
00000100
00000000
00010000
00001000
00000000
00000000
00000000
00000000
00000000
,
00000100
00000000
00000000
00001000
00000000
00010000
00001000
00000000
00100000
00010000
00000000
00000000
10000000
00000000
00000000
00100000
00000000
01000000
00010000
00000000
00000000
00100000
00000000
00000000
,
00100000
00000000
00000000
01000000
00000000
00000000
00010000
00000000
00000000
00001000
00000000
00000000
00001000
00000000
00000000
00010000
00000000
00000010
00000100
00000000
00000000
00000000
00000000
00000000
,
00000001
00000000
00000000
00000010
00000000
00000100
00010000
00000000
00000000
00000000
00000000
00000000
00001000
00000000
00000000
00001000
00000000
00000000
01000000
00000000
00000000
00100000
00000000
00000000
,
10000000
00000000
00000000
01000000
00000000
00100000
00001000
00000000
00010000
00001000
00000000
00000000
00000100
00000000
00000000
00001000
00000000
00010000
00001000
00000000
00000000
00000000
00000000
00000000
,
00000100
00000000
00000000
00001000
00000000
00010000
00001000
00000000
00000100
00000010
00000000
00000000
00001000
00000000
00000000
00000001
00000000
00000010
00000100
00000000
00000000
00000010
00000000
00000000
,
00001000
00000000
00010000
00001000
00000000
00000000
00000000
00000000
;
