#TITLE:GloriosA;
#SUBTITLE:;
#ARTIST:KARUT;
#TITLETRANSLIT:;
#SUBTITLETRANSLIT:;
#ARTISTTRANSLIT:;
#GENRE:XYMPHONIC TECHCORE;
#CREDIT:;
#BANNER:GloriosA.png;
#BACKGROUND:GloriosA-bg.png;
#LYRICSPATH:;
#CDTITLE:../_YSD cdtitles/ysd br2024 cdtitle.png;
#MUSIC:GloriosA.ogg;
#OFFSET:-0.927000;
#SAMPLESTART:90.070000;
#SAMPLELENGTH:21.943001;
#SELECTABLE:YES;
#BPMS:0.000000=175.000000
,168.000000=87.500000
,184.000000=175.000000
;
#STOPS:
;
#BGCHANGES:-0.100000=GloriosA.mp4=1.000000=1=0=0=StretchNoLoop==CrossFade==,
99999=-nosongbg-=1.000=0=0=0 // don't automatically add -songbackground-
;
#KEYSOUNDS:;
#ATTACKS:;

//---------------dance-single - ----------------
#NOTES:
     dance-single:
     :
     Beginner:
     6:
     0.242376,0.329443,0.164722,0.123541,0.000000,206.000000,186.000000,20.000000,15.000000,0.000000,0.000000,0.242376,0.329443,0.164722,0.123541,0.000000,206.000000,186.000000,20.000000,15.000000,0.000000,0.000000:
// measure 0
0000
0000
0000
0000
,  // measure 1
0000
0000
0000
0000
,  // measure 2
0000
0000
0000
0000
,  // measure 3
0000
0000
0000
0000
,  // measure 4
0000
0000
0000
0000
,  // measure 5
1000
0000
0001
0000
,  // measure 6
1000
0000
0010
0000
,  // measure 7
0100
0000
0001
0000
,  // measure 8
1000
0000
1001
0000
,  // measure 9
1001
0000
0001
0000
,  // measure 10
0010
0000
0100
0100
,  // measure 11
0100
0000
1000
0000
,  // measure 12
0001
0000
0100
0100
,  // measure 13
0100
0000
0010
0000
,  // measure 14
1000
1000
1000
1000
,  // measure 15
0200
0000
0000
0300
,  // measure 16
0020
0000
0000
0000
,  // measure 17
0030
0000
0000
0000
,  // measure 18
1001
0001
0001
0000
,  // measure 19
0100
0100
0100
0010
,  // measure 20
0010
1000
1000
0000
,  // measure 21
0001
0000
0000
0001
0000
0000
0001
0000
,  // measure 22
1001
1000
0010
1000
,  // measure 23
0010
0100
0001
1000
,  // measure 24
0001
0000
0000
0001
0000
0000
0001
0000
,  // measure 25
1000
0000
0000
1000
0000
0000
0000
0000
,  // measure 26
1001
0000
0000
0000
0010
0000
0000
0100
,  // measure 27
0000
1001
1001
0000
,  // measure 28
0110
0000
1000
0000
,  // measure 29
0020
0030
0200
0300
,  // measure 30
1001
0000
0001
0000
,  // measure 31
0110
0000
1001
0000
,  // measure 32
0100
0000
0000
0100
0000
0000
0100
0000
,  // measure 33
0220
0000
0000
0330
,  // measure 34
0010
0010
1000
1000
,  // measure 35
0001
0001
0010
0000
,  // measure 36
0100
0100
1000
1000
,  // measure 37
0001
0001
0100
0000
,  // measure 38
0010
0000
0000
0010
0000
0000
0000
0000
,  // measure 39
0100
0000
0000
0100
0000
0000
0000
0000
,  // measure 40
0001
0000
0000
0001
0000
0000
0000
0000
,  // measure 41
1000
1000
1000
0000
,  // measure 42
0002
0003
0010
0100
,  // measure 43
2000
3000
0010
0100
,  // measure 44
0002
0003
0010
1000
,  // measure 45
0020
0030
0100
1000
,  // measure 46
0001
0000
0001
0000
0000
0001
0000
0000
,  // measure 47
0000
1001
0000
1001
,  // measure 48
0000
0000
1000
0000
0000
1000
0000
0000
,  // measure 49
0010
0000
0000
0010
0000
0000
0110
0000
,  // measure 50
0100
0000
0000
0100
0000
0000
0000
0000
,  // measure 51
0001
0000
0000
0001
0000
0000
0000
0000
,  // measure 52
1000
0000
0000
1000
0000
0000
0000
0000
,  // measure 53
2000
0000
0000
3000
,  // measure 54
0001
0000
0000
0000
,  // measure 55
0100
0000
0000
0000
,  // measure 56
0010
0000
0000
0000
,  // measure 57
1000
0000
0000
0000
,  // measure 58
0100
0000
0010
0000
,  // measure 59
0100
1000
0100
0010
,  // measure 60
0002
0000
0000
0003
,  // measure 61
0200
0000
0300
0110
,  // measure 62
0001
0001
1000
1000
,  // measure 63
0100
0100
0010
0000
,  // measure 64
0001
0001
0100
0100
,  // measure 65
0010
0010
1000
1000
,  // measure 66
0100
0100
0010
0010
,  // measure 67
0001
0001
0100
0000
,  // measure 68
0010
0010
1000
1000
,  // measure 69
0001
0001
1001
0000
,  // measure 70
1000
1000
0100
0100
,  // measure 71
0010
0010
0001
0000
,  // measure 72
0100
0100
1000
1000
,  // measure 73
0100
0100
0001
0000
,  // measure 74
0010
0000
0000
0010
0000
0000
0000
0000
,  // measure 75
0100
0000
0000
0100
0000
0000
0000
0000
,  // measure 76
1000
0000
0000
1000
0000
0000
0000
0000
,  // measure 77
1001
0000
0110
0000
,  // measure 78
2002
0000
0000
0000
,  // measure 79
0000
0000
0000
0000
,  // measure 80
3003
0000
0000
0000
;

//---------------dance-single - XMOD-----------------
#NOTES:
     dance-single:
     :
     Easy:
     10:
     0.428276,0.494165,0.312971,0.197666,0.090597,364.000000,326.000000,38.000000,24.000000,0.000000,0.000000,0.428276,0.494165,0.312971,0.197666,0.090597,364.000000,326.000000,38.000000,24.000000,0.000000,0.000000:
0000
0000
0000
0000
,
0000
0000
0000
0000
,
0000
0000
0000
0000
,
0000
0000
0000
0000
,
0000
0000
0000
0000
,
1000
0000
0001
0100
0001
0000
1000
0000
,
0100
0010
0000
0100
0010
0000
0001
0000
,
1000
0000
0001
0100
0001
0000
1000
0000
,
0100
0010
0000
0100
0020
0000
0032
0000
,
1003
0000
0010
0100
0010
0000
1000
0000
,
0001
0000
0010
0100
0010
0000
0001
0000
,
1000
0000
0001
0100
0001
0000
1000
0000
,
0100
0000
0010
0001
0010
0000
0200
0000
,
1300
0000
0001
0100
0000
0001
1000
0000
,
1100
0000
1000
0001
0000
0100
0001
0000
,
1000
0000
0000
0100
0000
0000
0010
0000
0001
0000
1000
0000
0001
0000
0000
0000
,
1000
0000
0100
0000
0010
0000
0001
0000
1000
0000
0010
0100
,
0000
0000
0000
0010
,
1001
0000
1000
0100
1000
0000
0001
0000
,
0100
0000
0010
1000
0010
0000
0101
0000
,
0011
0000
0001
1000
0001
0000
0011
0000
,
1100
0000
0000
1010
0000
0000
1001
0000
,
0101
0000
0001
0100
0001
0000
1000
0100
,
1000
0000
0001
0010
0100
1000
0001
0000
,
0101
0000
0000
1010
0000
0000
1100
0000
,
1000
0000
0000
0001
0000
0000
1000
0000
0002
0000
0000
0000
0000
0000
0000
0000
,
0203
0000
0000
0000
0301
0000
0010
0100
,
0000
0011
1100
0020
,
0230
0000
0300
0000
1001
0000
0001
0100
,
0020
0000
0230
0000
,
0302
0000
0000
0000
0013
0000
0100
1000
,
0010
0000
0100
0000
0100
0000
0001
0000
0000
1000
0000
0000
,
1100
0000
0000
0011
0000
0000
0101
0000
,
0001
0100
0001
0000
1000
0100
0010
0000
,
0001
1000
0001
0000
0100
0000
0010
0000
,
1000
0001
1000
0000
0100
0000
0010
0000
,
0001
1000
0001
0000
1000
0000
0010
0000
,
0100
0001
0100
0000
0010
0000
1000
0000
,
1100
0000
0000
0011
0000
0000
0101
0000
,
1001
0000
0000
1100
0000
0000
0110
0000
,
0011
0001
0100
0010
,
1000
0001
0010
0100
,
2000
0000
3020
0000
0230
0000
0301
0010
,
0200
0000
0000
1300
0000
0000
0001
0000
0100
0000
0010
0000
2000
0000
0000
0000
,
3200
0000
0000
0301
0000
0000
0100
0000
2000
0000
0000
0000
3001
0000
0100
0000
,
1000
0000
0000
0100
0000
0000
0001
0000
0020
0000
0000
0000
0230
0000
0000
0000
,
1300
0000
0000
0000
0001
0000
0000
0001
0000
0000
0100
0000
0000
0100
0000
0000
,
0001
0000
0000
0000
1000
0000
0000
1000
0000
0000
0100
0000
0100
0000
0000
0000
,
1000
0000
1000
0000
0010
0000
0000
0010
0000
0000
0100
0000
0000
0100
0000
0000
,
0001
0000
0100
0001
0000
0001
0010
0000
,
0100
0000
0000
1000
0000
0000
0100
0000
0000
0000
1100
0000
0000
0000
0000
0000
,
1000
0000
0000
0001
0000
0000
1000
0000
0000
0000
1001
0000
0000
0000
0000
0000
,
0001
0000
0100
0001
0000
1000
0000
0000
,
0200
0000
0000
0000
,
0310
0000
0000
0010
0000
0000
0010
0000
,
0001
0000
0000
0001
0000
0000
0001
0000
,
0100
0000
0000
0100
0000
0000
0100
0000
,
0010
0000
0000
0010
0000
0000
0010
0000
,
1000
0000
0010
0000
1000
0000
0010
0100
,
0010
0000
1000
0000
0001
0000
0010
0100
,
2000
0000
0000
3000
,
0001
0100
0001
0000
0010
0000
1100
0000
,
1000
0000
0001
0100
0001
0000
0010
0000
,
0100
0000
1000
0001
1000
0000
0001
0000
,
0100
0000
0010
1000
0010
0000
0100
0000
,
0001
0000
0010
0000
0100
1000
0100
0000
,
0010
0000
0001
0100
0001
0000
1000
0000
,
0100
0000
0010
0001
0010
0000
0100
0000
,
1000
0000
0001
0100
0001
0000
1000
0000
,
0010
0100
0202
0303
,
0001
0000
1000
0100
0010
0000
0100
0000
,
1000
0000
0001
0100
0010
0000
1000
0000
,
0100
0000
0010
0001
0100
0000
0010
0000
,
1000
0000
0100
0001
0100
0000
1000
0000
,
1001
0000
0000
0101
0000
0000
1010
0000
,
1100
0000
0000
0110
0000
0000
0011
0000
,
1001
0000
1000
0010
0000
0000
0110
0000
,
0101
0000
0000
0000
0000
0000
0000
0000
0000
0000
0000
0000
0001
0000
0000
0000
0100
0000
0000
0000
0001
0000
0000
0000
0100
0000
0000
0000
0000
0000
0000
0000
0000
0001
0000
0000
0000
0000
0000
0000
0000
0000
1000
0000
0000
0000
0000
0000
,
0020
0000
0000
0000
,
0000
0000
0000
0000
,
0030
0000
0000
0000
;

//---------------dance-single - XMOD-, XO----------------
#NOTES:
     dance-single:
     :
     Medium:
     13:
     0.561230,0.625942,0.304735,0.280027,0.144131,477.000000,440.000000,37.000000,34.000000,0.000000,0.000000,0.561230,0.625942,0.304735,0.280027,0.144131,477.000000,440.000000,37.000000,34.000000,0.000000,0.000000:
0000
0000
0000
0000
,
0000
0000
0000
0000
,
0000
0000
0000
0000
,
0000
0000
0000
0000
,
0000
0000
0000
0000
,
1000
0001
0100
0010
1000
0001
0010
0000
,
0100
1000
0000
0001
0100
0010
0000
0000
,
1000
0100
0010
0001
0100
0010
1000
0000
,
0001
0010
0000
0100
2000
0000
3002
0000
,
0103
0010
1000
0001
0000
0010
0100
1000
,
0001
0100
0010
1000
0000
0100
0001
0100
,
1000
0001
0100
0010
0000
1000
0100
0010
,
0001
0100
0010
1000
0100
0010
0200
0000
,
1300
0001
0100
0010
0000
1000
0100
0010
,
0001
0100
0010
1000
0000
0100
0001
0100
,
1000
0000
0000
0001
0000
0000
0100
0000
0001
0000
0010
0000
0100
0000
1000
0000
,
0001
0100
0001
0100
0001
0100
0010
1000
0010
1000
0010
1000
,
0000
0000
0000
0100
,
1002
0000
1003
0100
0001
0100
2000
0000
,
3020
0000
1030
0100
0001
0100
2000
0000
,
3002
0000
1003
0010
0001
0010
0200
0000
,
0301
0010
1000
0001
0100
1000
0002
0000
,
0203
0000
0301
0010
1000
0001
0100
1000
,
0010
0001
1000
0100
0001
1000
0100
0000
,
0011
0000
0000
1100
0000
0000
0101
0000
,
1010
0000
0000
0100
0000
0000
2002
0000
0000
0000
0000
0000
3003
0000
0000
0000
,
0201
0000
0000
0000
0310
1000
0010
0100
,
0000
0001
0020
0000
0130
0000
2000
0000
,
3020
0000
0000
0000
0130
0000
0001
0010
,
1000
0010
0100
0000
2200
0000
3300
0000
,
1002
0000
0000
0000
0103
0000
0010
1000
,
0001
0000
0101
0000
0101
0000
1001
0000
0000
2000
0000
0000
,
3100
0000
0000
0110
0000
0000
1001
0000
,
0001
0100
1000
0100
0010
1000
0200
0000
,
1300
0010
0100
1000
0100
0010
1000
0001
,
0000
0010
0100
0001
0100
1000
0001
0000
,
0100
0010
0001
0010
0100
0001
0010
0100
,
0000
0001
0100
1000
0001
0100
1000
0000
,
0100
0001
1000
0100
0010
0001
1000
1000
,
0000
0010
0100
1000
0100
0001
0010
0100
,
0001
0100
1000
0001
0100
1000
0001
0010
,
1000
0010
0100
0001
2000
0000
3100
0000
,
0110
0000
0000
0010
0000
0000
0001
0000
0200
0000
0000
0000
0310
0000
1000
0000
,
0002
0000
0000
0013
0000
0100
1000
0000
0010
0000
0100
0000
0002
0000
0000
0000
,
1003
0000
0000
0010
0000
0000
0001
0000
0020
0000
0000
0000
0130
0000
0001
0000
,
1000
0000
0100
0010
0000
0001
0000
1000
0001
0000
0100
0000
0020
0000
0030
0000
,
1000
0000
0000
0000
1010
0000
0000
1000
0000
0000
1001
0000
0000
1000
0000
0000
,
1100
0000
0000
0000
0011
0000
0000
0001
0000
0000
1001
0000
1000
0000
0000
0000
,
0001
0000
0001
0000
0101
0000
0000
0010
0000
0000
1001
0000
0000
0100
0000
0000
,
1010
0000
1000
0100
0000
0010
0001
0000
,
1000
1000
0001
0011
0000
1010
0000
1000
,
0001
0001
1000
1100
0000
0101
0000
0001
,
0010
1000
0010
0001
0100
0010
0000
0000
,
2000
0000
0000
0000
,
3001
0000
0000
0001
0000
0000
0001
0000
,
0010
0000
0000
0010
0000
0000
0010
0000
,
0100
0000
0000
0100
0000
0000
0100
0000
,
1000
0000
0000
1000
0000
0000
1000
0000
,
0001
0100
0001
0000
1000
0100
1000
0000
,
0001
0100
0010
1000
0100
0010
0001
0100
,
0020
0000
0000
0000
,
0130
1000
0001
0010
1000
0100
0020
0000
,
0031
0000
0100
0001
0010
0001
0100
0010
,
1000
0100
0001
0100
1000
0001
0100
0010
,
1000
0100
0010
0001
1000
0010
0100
0001
,
0010
0000
0100
0000
1000
0000
0001
0000
0100
0001
0100
0000
0002
0000
0000
0000
,
1003
0100
0010
0001
0100
0010
1000
0001
,
0010
0100
1000
0010
0100
0001
1000
0100
,
0001
1000
0010
0100
1000
0010
0001
0010
,
1000
0100
0010
0001
0200
0000
0000
0000
,
0310
1000
0001
0100
0010
1000
0100
0010
,
0001
1000
0010
0001
0010
1000
0100
0010
,
0001
0100
0010
1000
0100
0010
0001
1000
,
0010
0000
0100
0000
0001
0000
0010
0000
0100
1000
0100
0000
0010
0000
0000
0000
,
0011
0000
0000
0001
0000
0000
1001
0000
0000
0100
0000
0000
1001
0000
0000
0000
,
1010
0000
0000
1000
0000
0000
1001
0000
0000
0100
0000
0000
1001
0000
0000
0000
,
0011
0000
0000
0100
0000
0000
1010
0000
0000
0100
0000
0000
1001
0000
0000
0000
,
0101
0000
0000
0000
0000
0000
0000
0000
0000
0000
0000
0000
0001
0000
0000
0000
0100
0000
0000
0000
0001
0000
0000
0000
0100
0000
0000
0000
0000
0000
0000
0000
0000
0001
0000
0000
0000
0000
0000
0000
0000
0000
1000
0000
0000
0000
0000
0000
,
0020
0000
0000
0000
,
0000
0000
0000
0000
,
0030
0000
0000
0000
;

//---------------dance-single - XMOD-, DS-, XO----------------
#NOTES:
     dance-single:
     :
     Hard:
     16:
     0.708303,0.823608,0.255318,0.280027,0.650650,602.000000,571.000000,31.000000,34.000000,0.000000,0.000000,0.708303,0.823608,0.255318,0.280027,0.650650,602.000000,571.000000,31.000000,34.000000,0.000000,0.000000:
0000
0000
0000
0000
,
0000
0000
0000
0000
,
0000
0000
0000
0000
,
0000
0000
0000
0000
,
0000
0000
0000
0000
,
1000
0010
0100
0001
0010
0100
1000
0000
,
0001
0100
0010
1000
0100
0010
0001
0000
,
1000
0100
0010
0001
0100
0010
1000
0000
,
0001
0010
0100
1000
2002
0000
3003
0000
,
1000
0000
0010
0000
0100
0000
0001
0000
0010
0100
1000
0000
0001
0000
0100
0000
,
0010
0000
0100
0000
0001
0000
0010
0000
0100
0010
1000
0000
0010
0000
0001
0000
,
0100
0000
0010
0000
1000
0000
0100
0000
0010
0001
1000
0000
0010
0000
0100
0000
,
0001
0010
0100
1000
0010
0100
0001
0000
,
0101
0100
0010
1010
1000
0100
0110
0000
,
0011
0001
1000
1010
0010
0100
0101
0000
,
0001
0000
0000
1000
0000
0000
0010
0000
0100
0000
0001
0000
1000
0000
0100
0000
,
0010
0001
1000
0010
0100
0001
0010
0100
1000
0001
0100
0010
,
0000
0000
0000
0100
,
1002
0000
0000
0000
1003
0100
1000
0000
0001
0100
0001
0000
0010
0000
0000
0000
,
0100
0000
0000
0000
1000
0100
1000
0000
0001
0100
0001
0000
2000
0000
0000
0000
,
3020
0000
0000
0000
1030
0100
1000
0000
0001
0100
0010
0000
2000
0000
0000
0000
,
3001
0100
0010
1000
0001
0000
0010
0100
0001
0100
0010
0000
0001
1000
0010
1000
,
0100
0000
0000
0000
1000
0010
0100
0000
0001
0010
0100
0000
1000
0001
0100
0000
,
0010
0100
1000
0000
0100
0010
1000
0000
0001
0010
0100
0000
1100
0000
0000
0000
,
1010
0000
0010
0110
0000
0100
0101
0000
,
0011
0000
0000
1100
0000
0000
0022
0000
0030
0000
0000
0000
0000
0000
0000
0000
,
0203
0000
0000
0000
0301
2000
0010
0100
,
3000
0000
0001
0000
0010
0000
0000
0000
0100
0000
0000
0000
1000
0010
0100
0010
,
2000
0000
0000
0000
3100
0000
1000
0010
,
0200
0001
0010
0000
0302
0000
0000
0000
,
0023
0000
0000
0000
0130
0000
0001
0100
,
1000
0000
0000
0000
0000
0000
0000
0000
1100
0000
0000
0000
0000
0000
0000
0000
1001
0000
0000
0000
0000
0000
0000
0000
0101
0000
0000
0000
0000
0000
0000
0000
0000
0000
0000
0000
0001
0000
0000
0010
0000
0000
0100
0000
0000
0010
0000
0000
,
0001
0000
0100
0101
0000
0001
1001
0000
,
1000
0010
0100
0000
0001
0010
0100
0000
0001
0100
0010
0001
2000
0000
0000
0000
,
3001
0000
1000
0010
0100
0000
0001
0000
1000
0100
0010
0000
0001
0000
1000
0010
,
0100
0000
0001
0000
0010
0100
1000
0000
0001
0100
0010
0000
0100
0000
0001
0000
,
0010
0000
0100
1000
0001
0000
0100
0000
0010
1000
0001
0000
0010
0000
0100
1000
,
0010
0000
0001
0000
0010
0100
0001
0000
1000
0100
0010
0000
0001
0000
0000
0000
,
1001
0000
1000
0001
0000
0000
0101
0000
0000
0000
0001
0000
0010
0000
0100
0000
,
1100
0000
1000
0001
0000
0000
0101
0000
0000
0000
0100
0000
0010
0000
1000
0000
,
0100
0001
0100
0010
0001
0100
1000
0100
,
0010
1000
0100
0010
0002
0000
1003
0000
,
0002
0000
0000
0010
0000
0000
0100
0000
2003
0000
0000
0000
3010
0000
0100
0000
,
0002
0000
0000
1003
0000
0001
0010
0100
2000
0000
0001
0000
3200
0000
0000
0000
,
0320
0000
0000
1000
0000
0000
0031
0000
0200
0000
0000
0000
1300
0000
0100
0000
,
0001
0000
0100
0010
0000
1000
0000
0100
0020
0000
0100
0000
0032
0000
0003
0000
,
1000
0000
0000
0000
0001
0000
0000
0100
0000
0100
0001
0000
0000
0100
0000
0010
,
1000
0000
0000
0000
0100
0000
0000
0010
0000
0010
0001
0000
1001
0000
0000
0000
,
1000
0000
1000
0000
0001
0000
0000
0100
0000
0100
0010
0000
0000
1000
0000
1000
,
0100
0000
0010
0000
0001
0000
1000
0000
0010
0100
0001
0000
1001
0000
0000
0000
,
1001
0000
0000
0001
0100
0000
0101
0000
0000
0001
1000
0000
0000
0100
1000
0000
,
1100
0000
0000
1000
0001
0000
1001
0000
0000
1000
0010
0000
0000
1000
0001
0000
,
1000
0100
0100
0001
0100
0100
1000
0000
,
0002
0000
0000
0100
,
1003
0000
0010
1000
0000
0010
1000
0001
,
0010
0000
0001
0100
0000
0001
0100
0010
,
1000
0000
0100
0010
0000
0100
0010
0001
,
1000
0010
0001
0010
0100
0001
2000
0000
,
3100
0010
0100
0010
0001
1000
0001
1000
,
0010
0100
0010
0100
0001
0010
0100
1000
,
0020
0000
0000
0000
,
0130
0001
0100
0001
1000
0001
1000
0001
0010
0000
0000
0000
0200
0000
0000
0000
,
1300
0001
0000
1000
0010
0000
0100
0001
0000
1000
0100
0000
0010
0001
1000
0000
,
0010
0100
0000
0010
0001
0000
0010
0100
0000
0001
1000
0000
0100
0010
0001
1000
,
0100
0010
0000
0100
1000
0000
0001
0100
0000
1000
0000
0100
0001
0000
0010
0100
,
1000
0001
0000
1000
0000
0000
0100
0010
0001
0000
0100
0010
2000
0000
0000
0000
,
3100
0010
0000
0001
1000
0000
0010
0100
0000
0001
0000
0000
1000
0000
0100
0010
,
0000
0001
0000
0000
0100
0000
0010
1000
0001
0000
1000
0100
0000
1000
0010
0000
,
0001
0000
0010
0100
0000
0001
1000
0000
0100
0000
0010
0001
0000
1000
0010
0100
,
0000
0001
1000
0100
0000
0010
0001
0100
0020
0000
0000
0000
0000
0000
0000
0000
,
1030
0100
0000
0010
0001
0000
0100
0010
0000
1000
0100
0000
0010
0001
1000
0000
,
0010
0100
0000
0010
0001
0000
0010
0100
0000
0001
1000
0000
0100
0010
0001
0000
,
0100
0010
0000
1000
0100
0000
1000
0010
0000
0001
0000
0010
1000
0000
0100
0010
,
0001
1000
0000
0001
0000
0000
0100
0010
1000
0000
0100
0010
0002
0000
0000
0000
,
0103
0010
0000
1000
0001
0000
0010
0100
0000
1000
0000
0000
1001
0000
0001
0100
,
0000
0010
0000
0000
0100
0000
0001
1000
0100
0000
0010
0001
0000
1000
0010
0000
,
0001
0000
0010
0100
0000
0001
1000
0000
0100
0000
1000
0010
0000
0001
0010
0100
,
0002
0000
0000
0000
0000
0000
0000
0000
0000
0000
0000
0000
0103
0000
0000
0000
0010
0000
0000
0000
1000
0000
0000
0000
0100
0000
0000
0000
0000
0000
0000
0000
0000
1000
0000
0000
0000
0000
0000
0000
0000
0000
0001
0000
0000
0000
0000
0000
,
0020
0000
0000
0000
,
0000
0000
0000
0000
,
0030
0000
0000
0000
;

//---------------dance-single - XMOD-, DS-, FS, XO----------------
#NOTES:
     dance-single:
     Colchicaceae:
     Challenge:
     18:
     0.835374,0.988330,0.247082,0.395332,1.013038,710.000000,680.000000,30.000000,48.000000,0.000000,0.000000,0.835374,0.988330,0.247082,0.395332,1.013038,710.000000,680.000000,30.000000,48.000000,0.000000,0.000000:
0000
0000
0000
0000
,
0000
0000
0000
0000
,
0000
0000
0000
0000
,
0000
0000
0000
0000
,
0000
0000
0000
0000
,
0001
0010
0001
0100
0010
1000
0100
1000
,
0010
0100
0001
0010
0100
1000
0001
0100
,
0010
0100
0001
1000
0100
0010
0001
0100
,
0010
1000
0100
0010
0022
0000
0033
0000
,
0001
0000
1000
0100
0010
0000
0001
0000
0100
0010
1000
0000
0001
0000
0010
0000
,
0100
0000
1000
0010
0100
0000
0001
0000
0010
0100
0001
0000
0100
0000
1000
0000
,
0001
0000
0100
0010
1000
0000
0100
0000
0010
0001
1000
0000
0010
0000
0100
0000
,
0001
0000
0100
0010
1000
0000
0100
0000
0001
0000
0100
0000
1000
0000
0000
0000
,
1001
0000
0001
0100
0010
0000
1000
0000
0100
0010
0001
0000
0100
0000
0001
0000
,
1001
0000
1000
0100
0010
0000
0001
0000
0100
0000
1000
0000
0100
0010
1000
0000
,
0001
0000
0000
0010
0000
0000
1000
0000
0010
0000
0100
0000
1000
0000
0001
0000
,
0100
0010
1000
0100
0010
0001
1000
0010
0100
0001
0010
0100
,
0000
0000
0000
0010
,
1002
0000
0000
0000
1003
0100
0100
0100
1000
0000
0001
0100
0010
0100
0001
0000
,
1000
0000
0000
0000
0001
0100
0100
0100
0001
0100
0100
0100
0020
0000
0000
0000
,
2030
0000
0000
0000
3001
0100
0100
0100
0001
0000
0010
0000
0200
0000
0000
0000
,
1300
0010
1000
0100
0010
0001
1000
0100
0001
0100
1000
0001
1000
0010
0100
0001
,
2000
0000
0000
0000
3001
0010
0010
1000
0001
0100
0100
1000
0001
0010
0010
0100
,
0001
0100
0100
1000
0010
0100
0100
1000
0001
0100
0100
1000
0010
0000
0000
0000
,
1010
0000
1000
1100
0000
0001
0101
0000
,
1010
0000
0000
0101
0000
0000
1010
0000
2000
0000
0000
0000
0000
0000
0000
0000
,
3200
0000
0000
0000
1300
0010
2010
0100
,
3000
0000
0000
0001
0000
0000
0021
0000
0000
0000
0000
0000
0130
0000
0000
0000
0000
0000
1000
0001
1000
0001
1000
0001
,
2000
0000
0000
0000
3010
0000
0110
0100
,
0020
0001
0100
0000
2030
0000
0000
0000
,
3200
0000
0000
0000
0310
0000
0001
1000
,
1010
0000
0000
0000
0101
0000
0000
0000
1100
0000
0000
0000
1001
0000
0000
0000
0000
0000
1000
0100
1000
0100
1000
0100
,
1000
0000
0001
0101
0000
1000
1001
0000
,
0001
0100
0010
1000
0100
0010
0001
0100
1000
0100
0001
0010
0200
0000
0000
0000
,
1300
0000
0010
0100
0001
0000
1000
0100
0010
0000
0100
1000
0001
0000
0100
0001
,
0010
0000
0100
1000
0001
0000
0100
0010
1000
0000
0001
0010
0100
0000
0010
0001
,
0100
0000
0010
1000
0001
0000
1000
0100
0010
0000
0001
1000
0010
0000
0100
0001
,
0010
0000
1000
0010
0100
0000
1000
0001
0100
0000
0010
1000
0001
0000
0000
0000
,
0011
0000
0010
0010
1000
0000
1010
0000
0000
0000
1000
0000
0001
0000
0001
0000
,
0101
0000
0100
0100
1000
0000
1100
0000
0000
0000
1000
0000
0001
0100
0001
0100
,
0001
0000
0000
0000
0000
0000
0000
0000
0020
0030
0000
0000
0000
0000
0000
0000
0020
0030
0000
0000
0000
0000
0000
0000
1000
0000
0000
0000
0000
0000
0000
0000
0200
0300
0000
0000
0000
0000
0000
0000
0200
0300
0000
0000
0000
0000
0000
0000
0001
0000
0000
0000
0000
0000
0000
0000
0010
0000
0000
0000
0000
0000
0000
0000
,
0100
0000
1000
0000
0001
1000
0001
1000
0001
0000
0000
0000
0200
0000
0000
0000
,
0302
0000
0000
0100
0000
0000
0010
0000
2003
0000
0000
0000
3002
0000
0010
0000
,
0203
0000
0000
0010
0000
0301
0010
0100
2000
0000
0010
0000
3200
0000
0000
0000
,
0320
0000
0000
1000
0030
0010
0100
1000
0001
0000
0000
0100
1000
0000
0100
0000
,
0001
0000
0010
0100
0000
1000
0010
0100
0002
0000
0100
0000
2003
0000
0100
0000
,
3001
0000
0000
0000
0000
0000
0000
0000
0100
0000
0000
0000
0000
0000
0000
0000
0001
0000
0000
0000
0000
0000
0000
0000
1000
0000
0000
0000
0020
0030
0000
0000
0000
0000
0000
0000
0020
0030
0000
0000
0001
0000
0000
0000
0000
0000
0000
0000
0000
0000
0000
0000
0010
0000
0000
0000
0001
0000
0000
0000
1000
0000
0000
0000
,
0010
0000
0000
0000
0000
0000
0000
0000
0100
0000
0000
0000
0000
0000
0000
0000
0001
0000
0000
0000
0000
0000
0000
0000
1000
0000
0000
0000
0200
0300
0000
0000
0000
0000
0000
0000
0200
0300
0000
0000
0001
0000
0000
0000
0000
0000
0000
0000
0101
0000
0000
0000
0000
0000
0000
0000
0000
0000
0000
0000
0000
0000
0000
0000
,
0100
0000
0000
0000
0000
0000
0000
0000
0100
0000
0000
0000
0000
0000
0000
0000
0010
0000
0000
0000
0000
0000
0000
0000
1000
0000
0000
0000
0020
0030
0000
0000
0000
0000
0000
0000
0020
0030
0000
0000
0001
0000
0000
0000
0000
0000
0000
0000
0000
0000
0000
0000
0010
0000
0000
0000
0100
0000
0000
0000
1000
0000
0000
0000
,
0001
0000
0000
0000
0000
0000
0000
0000
0200
0300
0000
0000
0000
0000
0000
0000
0200
0300
0000
0000
0000
0000
0000
0000
1000
0000
0000
0000
0000
0000
0000
0000
0010
0000
0000
0000
0000
0000
0000
0000
1000
0000
0000
0000
0000
0000
0000
0000
1001
0000
0000
0000
0000
0000
0000
0000
0001
0000
0000
0000
0010
0000
0000
0000
,
0100
0000
1000
0100
0100
0000
0101
0000
0001
0010
0100
0000
0000
1000
0100
0100
,
0010
0000
0100
0100
1000
0000
1001
0000
0001
0100
0010
0000
0000
1000
0001
0100
,
0010
0000
0000
0000
0000
0000
0000
0000
0200
0300
0000
0000
0000
0000
0000
0000
0200
0300
0000
0000
0000
0000
0000
0000
1000
0000
0000
0000
0000
0000
0000
0000
0020
0030
0000
0000
0000
0000
0000
0000
0020
0030
0000
0000
0000
0000
0000
0000
0001
0000
0000
0000
0000
0000
0000
0000
0000
0000
0000
0000
0000
0000
0000
0000
,
2000
0000
0000
0100
0000
0000
3002
0000
,
0103
0010
1000
0100
0010
0001
1000
0000
,
0001
0100
0010
1000
0100
0010
0001
0000
,
1000
0010
0100
0001
0010
0100
1000
0000
,
0001
0100
1000
0100
0010
1000
0100
0000
,
0010
0001
0100
0010
1000
0100
0010
0100
,
1000
0000
0001
0000
0100
0000
1000
0000
0100
0000
0001
0000
1000
0100
0010
0001
,
0200
0000
0000
0000
,
0301
0010
0001
0100
0010
1000
0001
0010
1000
0010
0001
1000
0020
0000
0000
0000
,
0130
0001
0000
1000
0100
0000
1000
0001
0000
0100
0010
0100
0001
0010
0100
1000
,
0001
0010
0000
0100
0001
0000
0100
0010
0000
0100
1000
0001
0100
0010
1000
0100
,
1000
0001
0000
0100
0010
0000
0100
0001
0000
0010
0000
1000
0000
0010
0100
1000
,
0001
0100
0000
0001
1000
0000
0100
0010
0100
0001
0100
0010
0100
1000
0001
0100
,
0010
1000
0000
0100
1000
0000
0010
0100
0000
0001
0000
0010
0100
0000
1000
0010
,
0000
0100
0000
0001
1000
0000
0010
0100
0001
0000
1000
0100
0000
1000
0010
0000
,
0001
0010
0100
0001
0000
1000
0100
0010
0001
0100
0010
1000
0000
0100
1000
0001
,
0000
1000
0100
0100
0001
0100
0100
1000
0010
0001
0010
1000
0001
0100
0010
0000
,
1000
0001
0000
0010
0100
0000
1000
0001
0000
0100
0010
0100
0001
1000
0100
0010
,
0001
0100
0000
0010
0001
0000
0010
0100
0000
0001
1000
0100
0010
0001
0100
0010
,
1000
0100
0000
1000
0010
0000
0100
0001
0000
0010
0000
1000
0000
0010
0100
1000
,
0001
0100
0000
0010
0000
0100
0001
1000
0100
0010
1000
0010
0100
0010
0001
1000
,
0001
1000
0100
0100
0001
0000
1000
0100
0000
0010
0000
0000
0001
0100
0010
1000
,
0001
1000
0010
0010
0001
0000
0010
0100
1000
0000
0000
0001
1000
0100
0010
0100
,
0001
0000
0100
0010
0000
0001
1000
0010
0001
0000
0010
1000
0001
0010
0100
0010
,
0002
0000
0000
0000
0000
0000
0000
0000
0000
0000
0000
0000
0013
0000
0000
0000
0100
0000
0000
0000
1000
0000
0000
0000
1100
0000
0000
0000
0000
0000
0000
0000
0000
0101
0000
0000
0000
0000
0000
0000
0000
0000
0011
0000
0000
0000
0000
0000
,
0020
0000
0000
0000
,
0000
0000
0000
0000
,
0030
0000
0000
0000
;

//---------------dance-double - ----------------
#NOTES:
     dance-double:
     :
     Beginner:
     7:
     0.241199,0.329443,0.172958,0.107069,0.000000,205.000000,184.000000,21.000000,13.000000,0.000000,0.000000,0.241199,0.329443,0.172958,0.107069,0.000000,205.000000,184.000000,21.000000,13.000000,0.000000,0.000000:
00000000
00000000
00000000
00000000
,
00000000
00000000
00000000
00000000
,
00000000
00000000
00000000
00000000
,
00000000
00000000
00000000
00000000
,
00000000
00000000
00000000
00000000
,
00010000
00000000
00001000
00000000
,
00100000
00000000
00001000
00000000
,
00010000
00000000
00000010
00000000
,
00001000
00000000
00001001
00000000
,
00001001
00000000
00001000
00000000
,
00000100
00000000
00000010
00000010
,
00000010
00000000
00000001
00000000
,
00001000
00000000
00000010
00000010
,
00000010
00000000
00000100
00000000
,
00000001
00000001
00000001
00000001
,
00000020
00000000
00000000
00000030
,
00000200
00000000
00000000
00000000
,
00000300
00000000
00000000
00000000
,
00010100
00010000
00010000
00000000
,
00001000
00001000
00001000
01000000
,
01000000
00010000
00010000
00000000
,
10000000
00000000
00000000
10000000
00000000
00000000
10000000
00000000
,
01100000
10000000
00010000
10000000
,
00010000
01000000
00001000
00010000
,
00001000
00000000
00000000
00001000
00000000
00000000
00001000
00000000
,
00010000
00000000
00000000
00010000
00000000
00000000
00000000
00000000
,
00010100
00000000
00000000
00000000
00000100
00000000
00000000
00000010
,
00000000
00000110
00000110
00000000
,
00001001
00000000
00000001
00000000
,
00000100
00000000
00000010
00000000
,
00001000
00000000
00001010
00000000
,
00000110
00000000
00010010
00000000
,
00010000
00000000
00000000
00010000
00000000
00000000
00010000
00000000
,
00022000
00000000
00000000
00033000
,
00001000
00001000
01000000
01000000
,
00010000
00010000
10000000
10000000
,
01000000
01000000
00100000
00100000
,
00001000
00001000
00010000
00000000
,
00001000
00000000
00000000
00001000
00000000
00000000
00000000
00000000
,
00010000
00000000
00000000
00010000
00000000
00000000
00000000
00000000
,
00000100
00000000
00000000
00000100
00000000
00000000
00000000
00000000
,
00000010
00000010
00000010
00000000
,
00000002
00000003
00000100
00000010
,
00002000
00003000
00000100
00010000
,
00002000
00003000
00100000
01000000
,
20000000
30000000
00100000
01000000
,
01001000
00000000
00001000
00000000
00000000
00001000
00000000
00000000
,
00000000
00011000
00000000
00011000
,
00000000
00000000
00010000
00000000
00000000
00010000
00000000
00000000
,
00000100
00000000
00000000
00000100
00000000
00000000
00001100
00000000
,
00001000
00000000
00000000
00001000
00000000
00000000
00000000
00000000
,
00000001
00000000
00000000
00000001
00000000
00000000
00000000
00000000
,
00001001
00000000
00000000
00001000
00000000
00000000
00000000
00000000
,
00002000
00000000
00000000
00003000
,
00000001
00000000
00000000
00000000
,
00000100
00000000
00000000
00000000
,
00000010
00000000
00000000
00000000
,
00010000
00000000
00000000
00000000
,
00001000
00000000
00010000
00000000
,
00001000
00000000
00100000
00000000
,
02000000
00000000
00000000
03000000
,
20000000
00000000
30000000
10010000
,
10000000
10000000
00100000
00100000
,
01000000
01000000
00001000
00000000
,
00010000
00010000
00000100
00000100
,
00000010
00000010
00000001
00000000
,
00001000
00001000
00000010
00000010
,
00000100
00000100
00000010
00000000
,
00010000
00010000
00001000
00001000
,
00100000
00100000
01000000
00000000
,
10000000
10000000
00010000
00010000
,
01000000
01000000
00100000
00000000
,
01000000
01000000
00001000
00001000
,
00010000
00010000
00000100
00000000
,
00000010
00000000
00000000
00000010
00000000
00000000
00000000
00000000
,
00000001
00000000
00000000
00000001
00000000
00000000
00000000
00000000
,
00001000
00000000
00000000
00001000
00000000
00000000
00000000
00000000
,
00001001
00000000
00000110
00000000
,
00002002
00000000
00000000
00000000
,
00000000
00000000
00000000
00000000
,
00003003
00000000
00000000
00000000
;

//---------------dance-double - XMOD-, XO-----------------
#NOTES:
     dance-double:
     :
     Easy:
     11:
     0.416510,0.494165,0.247082,0.222374,0.082361,354.000000,324.000000,30.000000,27.000000,0.000000,0.000000,0.416510,0.494165,0.247082,0.222374,0.082361,354.000000,324.000000,30.000000,27.000000,0.000000,0.000000:
00000000
00000000
00000000
00000000
,
00000000
00000000
00000000
00000000
,
00000000
00000000
00000000
00000000
,
00000000
00000000
00000000
00000000
,
00000000
00000000
00000000
00000000
,
00010000
00000000
00001000
00100000
00001000
00000000
00010000
00000000
,
00001000
01000000
00000000
00001000
01000000
00000000
00010000
00000000
,
00100000
00000000
01000000
10000000
01000000
00000000
00100000
00000000
,
00001000
00010000
00000000
00001000
00020000
00000000
00030000
00000000
,
00001000
00000000
00100000
00010000
00100000
00000000
00001000
00000000
,
00010000
00000000
00000010
00001000
00000010
00000000
00010000
00000000
,
00001000
00000000
01000000
00001000
01000000
00000000
00010000
00000000
,
00001000
00000000
00010000
00000100
00010000
00000000
00002000
00000000
,
00013000
00000000
00000100
00010000
00000000
00000100
00010000
00000000
,
00001000
00000000
00100000
00001000
00000000
00100000
00001000
00000000
,
00010000
00000000
00000000
00001000
00000000
00000000
01000000
00000000
00010000
00000000
01000000
00000000
00010000
00000000
00000000
00000000
,
10000000
00000000
01000000
00000000
00100000
00000000
00010000
00000000
00100000
00000000
00001000
00100000
,
00000000
00000000
00000000
00000100
,
00001001
00000000
00001000
00000010
00001000
00000000
00001010
00000000
,
00000010
00000000
00010000
00001000
00010000
00000000
00001000
00000000
,
00101000
00000000
00100000
00010000
00100000
00000000
00010000
00000000
,
01010000
00000000
00000000
10100000
00000000
00000000
11000000
00000000
,
10100000
00000000
10000000
00100000
10000000
00000000
00010000
00100000
,
00010000
00000000
00100000
00001000
00100000
00000000
00011000
00000000
,
00010100
00000000
00000000
00001010
00000000
00000000
00000101
00000000
,
00000001
00000000
00000000
00001000
00000000
00000000
00000001
00000000
00002000
00000000
00000000
00000000
00000000
00000000
00000000
00000000
,
00003010
00000000
00000000
00000000
00001000
00000000
00000100
00010000
,
00000000
00101000
00001000
02000000
,
03020000
00030000
00110000
01000000
,
10100000
00000000
01010000
00000000
,
00021000
00000000
00000000
00000000
00030100
00000000
00001000
00000010
,
00000100
00000000
00000001
00000000
00000001
00000000
00000010
00000000
00000000
00000100
00000000
00000000
,
00011000
00000000
00000000
00110000
00000000
00000000
11000000
00000000
,
10000000
00100000
10000000
00000000
00010000
00100000
01000000
00000000
,
10000000
00010000
10000000
00000000
00010000
00000000
01000000
00000000
,
00001000
00010000
00001000
00000000
00100000
00000000
00010000
00000000
,
01000000
00010000
01000000
00000000
00001000
00000000
00010000
00000000
,
00100000
00010000
00100000
00000000
00010000
00000000
00001000
00000000
,
00011000
00000000
00000000
00010100
00000000
00000000
00001010
00000000
,
00000101
00000000
00000000
00000110
00000000
00000000
00001100
00000000
,
00010000
00000100
00000000
00010000
00001000
00000000
00100000
00001000
,
00000000
01000000
00001000
00000000
00020000
00000000
00032000
00000000
,
02003000
00000000
03200000
00000000
20300000
00000000
31000000
00100000
,
00020000
00000000
00230000
00000000
00301000
00010000
00000200
00000000
,
00002300
00000000
00003020
00000000
00000230
00000000
00001300
00010000
,
00200000
20300000
32000000
03200000
,
00301000
00000000
00000000
00000000
00010000
00000000
00000000
00010000
00000000
00000000
00000100
00000000
00000000
00000100
00000000
00000000
,
00001000
00000000
00000000
00000000
00000010
00000000
00000000
00000010
00000000
00000000
00000100
00000000
00000100
00000000
00000000
00000000
,
00000001
00000000
00000001
00000000
00000010
00000000
00000000
00000010
00000000
00000000
00000100
00000000
00000000
00000100
00000000
00000000
,
00001000
00000000
00000100
00010000
00000000
00010000
00001000
00000000
,
00100000
00000000
00001000
01000000
00000000
01010000
00000000
10000000
,
01000000
00000000
00100000
00010000
00000000
00011000
00000000
00001000
,
00010000
00000000
00000010
00001000
00000000
00000001
00000100
00000000
,
00000020
00000000
00000000
00000030
,
00001000
00000000
00000000
00001000
00000000
00000000
00001000
00000000
,
00000100
00000000
00000000
00000100
00000000
00000000
00000100
00000000
,
00010000
00000000
00000000
00010000
00000000
00000000
00010000
00000000
,
00001000
00000000
00000000
00001000
00000000
00000000
00001000
00000000
,
01000000
01000000
00100000
00100000
,
10000000
10000000
01000000
00100000
,
00020000
00000000
00000000
00030000
,
01000000
00001000
00010000
00000100
,
00000010
00000000
00000001
00001000
00000001
00000000
00000100
00000000
,
00000010
00000000
00010000
00000010
00010000
00000000
00001000
00000000
,
00100000
00000000
00001000
00010000
00001000
00000000
01000000
00000000
,
00100000
00000000
10000000
00010000
10000000
00000000
01000000
00000000
,
00010000
00000000
00001000
00010000
00001000
00000000
00100000
00000000
,
00001000
00000000
00010000
00000010
00010000
00000000
00001000
00000000
,
00000010
00000000
00000001
00001000
00000001
00000000
00000100
00000000
,
00001000
00000000
00010000
00001000
00020000
00000000
00000000
00000000
,
00031000
00000000
00100000
00010000
00100000
00000000
01000000
00000000
,
10000000
00000000
00010000
01000000
00010000
00000000
00100000
00000000
,
00001000
00000000
00010000
00000100
00010000
00000000
00000010
00000000
,
00001000
00000000
00000001
00000100
00000002
00000000
00000000
00000000
,
00000103
00000000
00000000
00000010
00000000
00000000
00001000
00000000
00000000
00000000
00000000
00000000
00011000
00000000
00000000
00000000
,
01000000
00000000
00000000
00001000
00000000
00000000
00010000
00000000
00000000
00000000
00000000
00000000
00011000
00000000
00000000
00000000
,
00100000
00000000
00000000
01000000
00000000
00000000
10000000
00000000
00000000
00000000
00000000
00000000
10010000
00000000
00000000
00000000
,
20000000
00000000
00000000
00000000
00000000
00000000
00000000
00000000
00000000
00000000
00000000
00000000
30010000
00000000
00000000
00000000
01000000
00000000
00000000
00000000
00010000
00000000
00000000
00000000
01000000
00000000
00000000
00000000
00000000
00000000
00000000
00000000
00000000
00010000
00000000
00000000
00000000
00000000
00000000
00000000
00000000
00000000
10000000
00000000
00000000
00000000
00000000
00000000
,
00200000
00000000
00000000
00000000
,
00000000
00000000
00000000
00000000
,
00300000
00000000
00000000
00000000
;

//---------------dance-double - XMOD-, XO----------------
#NOTES:
     dance-double:
     :
     Medium:
     14:
     0.542405,0.625942,0.255318,0.329443,0.135895,461.000000,430.000000,31.000000,40.000000,0.000000,0.000000,0.542405,0.625942,0.255318,0.329443,0.135895,461.000000,430.000000,31.000000,40.000000,0.000000,0.000000:
00000000
00000000
00000000
00000000
,
00000000
00000000
00000000
00000000
,
00000000
00000000
00000000
00000000
,
00000000
00000000
00000000
00000000
,
00000000
00000000
00000000
00000000
,
00010000
00001000
01000000
00010000
00100000
01000000
10000000
00000000
,
00010000
01000000
00000000
00100000
10000000
00000000
01000000
00000000
,
00100000
00001000
00010000
00000010
00001000
00000100
00000010
00000000
,
00000001
00000100
00000000
00000010
00002000
00000000
00003200
00000000
,
00010300
00001000
00100000
01000000
00000000
10000000
00100000
01000000
,
00010000
00100000
00001000
00010000
00000000
00100000
00010000
00001000
,
00010000
00000100
00001000
00000010
00000000
00000100
00000001
00000010
,
00000100
00010000
00001000
01000000
00010000
10000000
00200000
00000000
,
01300000
00010000
00100000
01000000
00000000
10000000
01000000
00100000
,
00001000
00010000
00100000
01000000
00001000
00010000
00001000
00000010
,
00000100
00000000
00000000
00001000
00000000
00000000
00000001
00000000
00000100
00000000
00000010
00000000
00010000
00000000
00001000
00000000
,
00100000
00001000
00100000
00010000
00100000
00010000
10000000
00010000
10000000
00100000
10000000
00100000
,
00000000
00000000
00000000
01000000
,
10020000
00000000
10030000
01000000
00010000
00000000
00002000
00000000
,
00003020
00000000
00001030
00010000
00100000
10000000
02000000
00000000
,
23000000
00000000
30100000
00010000
00001000
00000010
00000002
00000000
,
00000103
00000000
00000000
00001100
00000000
00000000
00000101
00000000
,
00000200
00000000
00000301
00000100
00001000
00010000
00000010
00000100
,
00001000
00010000
00100000
10000000
01000000
00010000
00001000
00000000
,
00101000
00000000
00000000
01010000
00000000
00000000
10100000
00000000
,
01010000
00000000
00000000
10100000
00000000
00000000
20020000
00000000
00000000
00000000
00000000
00000000
30030000
00000000
00000000
00000000
,
20100000
00000000
00000000
00000000
31000000
00010000
00001000
00100000
,
00000000
01000000
20000000
00000000
30100000
00000000
02000000
00000000
,
03002000
00000000
00000000
00000000
00013000
00000000
00100000
00010000
,
00002000
00000000
00003020
00000000
,
00000032
00000000
00000000
00000000
00000103
00000000
00000001
00000010
,
00000100
00000000
00010100
00000000
00011000
00000000
00010000
00000000
00000000
00002000
00000000
00000000
,
00103000
00000000
00000000
00110000
00000000
00000000
11000000
00000000
,
10000000
00100000
00010000
00001000
00100000
01000000
20000000
00000000
,
31000000
00100000
00010000
01000000
00001000
00010000
00000100
00000010
,
00000000
00000001
00000100
00001000
00000100
00000020
00000000
00000000
,
00010030
00001000
00100000
01000000
10000000
00100000
00010000
00001000
,
00000000
00000010
00000100
00001000
00000010
00000100
00002000
00000000
,
00013000
00100000
01000000
00010000
10000000
01000000
00100000
00100000
,
00000000
00001000
00010000
00000100
00001000
00000010
00000100
00001000
,
00010000
00100000
10000000
01000000
00010000
00001000
00000010
00000001
,
00000100
00001000
00010000
00100000
20000000
00000000
30020000
00000000
,
02030000
00000000
00000000
03100000
00000000
00000000
10000000
00000000
02000000
00000000
00000000
00000000
03010000
00000000
00001000
00000000
,
00200000
00000000
00000000
00301000
00000000
00010000
00001000
00000000
00020000
00000000
00000010
00000000
00030200
00000000
00000000
00000000
,
00001300
00000000
00000000
00010000
00000000
00000000
00100000
00000000
02000000
00000000
00000000
00000000
13000000
00000000
01000000
00000000
,
00010000
00000000
00000000
00100000
00000000
01000000
00000000
10000000
00010000
00000000
00000000
00000000
01000000
00000000
00000000
00000000
,
00100000
00000000
00000000
00000000
10100000
00000000
00000000
01000000
00000000
00000000
10010000
00000000
00000000
01000000
00000000
00000000
,
00110000
00000000
00000000
00000000
00011000
00000000
00000000
00100000
00000000
00000000
00001000
00000000
00010000
00000000
00000000
00000000
,
00001000
00000000
00001000
00000000
00010000
00000000
00000000
00000010
00000000
00000000
00001010
00000000
00000000
00010000
00000000
00000000
,
00001000
00100000
00000000
00001000
01000000
00010000
10000000
00000000
,
01000000
00010000
00010000
00001000
00000000
00010100
00000000
00010000
,
00000100
00001000
00001000
00000010
00000000
00000101
00000000
00000001
,
00000010
00000100
00000100
00010000
00001000
00001000
00100000
00000000
,
00020000
00000000
00000000
00030000
,
01000000
00000000
00000000
01000000
00000000
00000000
01000000
00000000
,
00100000
00000000
00000000
00100000
00000000
00000000
00100000
00000000
,
10000000
00000000
00000000
10000000
00000000
00000000
10000000
00000000
,
01000000
00000000
00000000
00010000
00000000
00000000
00001000
00000000
,
00100000
00001000
00100000
00000000
00000010
00010000
00000010
00000000
,
00010000
00001000
00010000
00000010
00001000
00000001
00000100
00000010
,
00002000
00000000
00000000
00000000
,
00003010
00000100
00001000
00010000
00100000
10000000
00020000
00000000
,
00130000
00000000
01000000
10000000
00100000
01000000
00010000
00100000
,
00001000
00010000
00100000
00010000
00001000
00000010
00000100
00001000
,
00000001
00000100
00000010
00001000
00000100
00000001
00000100
00001000
,
00000010
00010000
00001000
00010000
00100000
01000000
00020000
00000000
,
10030000
01000000
00100000
00010000
01000000
00001000
00010000
00000100
,
00001000
00000010
00000100
00000001
00000010
00000100
00010000
00001000
,
00000100
00000001
00000010
00001000
00010000
00100000
01000000
00100000
,
00010000
00001000
00100000
01000000
20000000
00000000
00000000
00000000
,
30010000
01000000
00001000
00010000
00000100
00000010
00000001
00000100
,
00000010
00000100
00001000
00010000
00100000
01000000
00010000
00100000
,
01000000
10000000
01000000
00010000
00001000
00000010
00000100
00001000
,
00000010
00000100
00001000
00010000
00200000
00000000
20300000
00000000
,
31000000
00000000
00000000
00110000
00000000
00000000
00001000
00000000
00000000
00011000
00000000
00000000
00101000
00000000
00000000
00000000
,
00110000
00000000
00000000
00001000
00000000
00000000
00011000
00000000
00000000
00010000
00000000
00000000
00001010
00000000
00000000
00000000
,
00000101
00000000
00000000
00000010
00000000
00000000
00001100
00000000
00000000
00010000
00000000
00000000
00011000
00000000
00000000
00000000
,
00201000
00000000
00000000
00000000
00000000
00000000
00000000
00000000
00000000
00000000
00000000
00000000
00301000
00000000
00000000
00000000
00010000
00000000
00000000
00000000
00001000
00000000
00000000
00000000
00010000
00000000
00000000
00000000
00000000
00000000
00000000
00000000
00000000
00000100
00000000
00000000
00000000
00000000
00000000
00000000
00000000
00000000
00001000
00000000
00000000
00000000
00000000
00000000
,
00000020
00000000
00000000
00000000
,
00000000
00000000
00000000
00000000
,
00000030
00000000
00000000
00000000
;

//---------------dance-double - XMOD-, DS-, XO----------------
#NOTES:
     dance-double:
     :
     Hard:
     17:
     0.647120,0.790664,0.189430,0.304735,0.510637,550.000000,527.000000,23.000000,37.000000,0.000000,0.000000,0.647120,0.790664,0.189430,0.304735,0.510637,550.000000,527.000000,23.000000,37.000000,0.000000,0.000000:
00000000
00000000
00000000
00000000
,
00000000
00000000
00000000
00000000
,
00000000
00000000
00000000
00000000
,
00000000
00000000
00000000
00000000
,
00000000
00000000
00000000
00000000
,
00001000
00010000
00000010
00001000
00000001
00000010
00000100
00000000
,
00010000
00001000
00100000
00010000
10000000
00100000
01000000
00000000
,
00001000
00010000
00000100
00001000
00000010
00000100
00000001
00000000
,
00000010
00000100
00001000
00000010
00020000
00000000
00032000
00000000
,
00103000
01000000
10000000
00100000
00010000
00001000
00000010
00001000
,
00010000
00000010
00000100
00001000
00010000
00100000
10000000
01000000
,
00010000
00001000
00000010
00001000
00010000
00000010
00001000
00000010
,
00000100
00001000
00010000
00100000
10000000
01000000
00200000
00000000
,
10300000
00100000
00010000
01000000
00010000
00001000
00000010
00010000
,
00000010
00000100
00001000
00010000
00100000
10000000
01000000
00010000
,
00001000
00000000
00000000
00010000
00000000
00000000
00000100
00000000
00001000
00000000
00000010
00000000
00000100
00000000
00000001
00000000
,
00000010
00000100
00001000
00000010
00010000
00001000
00100000
00010000
10000000
00100000
01000000
00010000
,
00000000
00000000
00000000
00100000
,
10010000
00000000
00000000
00000000
10000000
01000000
10000000
00000000
00010000
01000000
00010000
00000000
00200000
00000000
00000000
00000000
,
00302000
00000000
00000000
00000000
00013000
00000010
00010000
00000000
00000010
00001000
00000010
00000000
00000200
00000000
00000000
00000000
,
00000320
00000000
00000000
00000000
00010030
00001000
00010000
00000000
00001000
00000000
00100000
00000000
02000000
00000000
00000000
00000000
,
13000000
00000000
00000000
00000000
00000000
00000000
01010000
00000000
00000000
00000000
00000000
00000000
00010000
01000000
00010000
01000000
,
00001000
00000000
00000000
00000000
00010000
00001000
00100000
00000000
00010000
10000000
00100000
00000000
01000000
00001000
00010000
00000000
,
00000100
00001000
00000001
00000000
00000100
00000010
00001000
00000000
00000100
00010000
00001000
00000000
00100000
00000000
00000000
00000000
,
01000000
00000000
00000000
11000000
00000000
00000000
01010000
00000000
,
00110000
00000000
00000000
11000000
00000000
00000000
00220000
00000000
00000000
00000000
00000000
00000000
00330000
00000000
00000000
00000000
,
02010000
00000000
00000000
00000000
03100000
20000000
00100000
01000000
,
30000000
00000000
00010000
00000000
00210000
00000000
00000000
00000000
00301000
00000000
00000000
00000000
00010000
00001000
00010000
00001000
,
00020000
00000000
00000000
00000000
00030100
00000000
00001000
00000010
,
00000200
00000010
00000001
00000000
00000320
00000000
00000000
00000000
,
00002030
00000000
00000000
00000000
00003100
00000000
00010000
00001000
,
00101000
00000000
00000000
00000000
00000000
00000000
00000000
00000000
00110000
00000000
00000000
00000000
00000000
00000000
00000000
00000000
00110000
00000000
00000000
00000000
00000000
00000000
00000000
00000000
01100000
00000000
00000000
00000000
00000000
00000000
00000000
00000000
00000000
00000000
00000000
00000000
10000000
00000000
00000000
00010000
00000000
00000000
10000000
00000000
00000000
00010000
00000000
00000000
,
01000000
00000000
00000000
10100000
00000000
00000000
01010000
00000000
,
01000000
00100000
00010000
00001000
00000010
00000001
00000200
00000000
,
00000310
00000000
00000100
00000000
00000001
00000000
00000010
00000000
00000100
00000000
00010000
00000000
00001000
00100000
00010000
00000000
,
00000000
01000000
00010000
00100000
01000000
10000000
00200000
00000000
,
01300000
00000000
00010000
00000000
00100000
00000000
01000000
00000000
00010000
00000000
00001000
00000000
00100000
00001000
00010000
00000000
,
00000000
00100000
00010000
00001000
00010000
00000100
00002000
00000000
,
00003010
00000100
00001000
00010000
00001000
00100000
00001000
00001000
,
00000000
00100000
01000000
10000000
00100000
01000000
00001000
00010000
,
00001000
00000010
00001000
00010000
00100000
00010000
00001000
00000100
,
00001000
00010000
01000000
00100000
00010000
00000000
10010000
00000000
,
20000000
00000000
00000000
00100000
00000000
00000000
01000000
00000000
30020000
00000000
00000000
00000000
00100000
00000000
01000000
00000000
,
20030000
00000000
00000000
01000000
00000000
30010000
01000000
00100000
00010000
00000000
00001000
00000000
00020000
00000000
00000000
00000000
,
00030200
00000000
00000000
00000001
00000000
00000000
00010300
00000000
00002000
00000000
00000000
00000000
00000010
00000000
00010000
00000000
,
00103000
00000000
00000000
00010000
00000000
01000000
00100000
10000000
00020000
00000000
01000000
00000000
20000000
00000000
30030000
00000000
,
10000000
00000000
00000000
00000000
01000000
00000000
00000000
00100000
00000000
00100000
00001000
00000000
00000000
00010000
00001000
00010000
,
00000100
00000000
00000000
00000000
00001000
00000000
00000000
00000010
00000000
00000010
00000100
00000000
00000001
00000000
00000000
00000000
,
00000010
00000000
00000010
00000000
00000100
00000000
00000000
00001000
00000000
00001000
00000010
00000000
00000000
00010000
00000000
00010000
,
00001000
00100000
00010000
01000000
00100000
10000000
00100000
00000000
,
01010000
00000000
00000000
01000000
00001000
00000000
00011000
00000000
00000000
00000000
00011000
00000000
00000000
00000000
00010000
00000000
,
00010100
00000000
00000000
00000100
00001000
00000000
00001001
00000000
00000000
00000000
00001001
00000000
00000000
00000001
00000100
00000010
,
00010000
00001000
00010000
00100000
01000000
00010000
10000000
00000000
,
02000000
00000000
00000000
03000000
,
00100000
00000000
00010000
00100000
00000000
00010000
00100000
00000000
,
00001000
00000000
00010000
00000100
00000000
00010000
00000100
00000000
,
00001000
00000000
00000010
00001000
00000000
00000010
00001000
00000000
,
00000001
00000100
00001000
00000100
00000010
00010000
00001000
00000000
,
00100000
00001000
00100000
00001000
01000000
00001000
01000000
00001000
,
01000000
00010000
01000000
00010000
10000000
00100000
01000000
00010000
,
00200000
00000000
00000000
00000000
,
01300000
10000000
01000000
10000000
00010000
10000000
00010000
10000000
00010000
01000000
00010000
01000000
00002000
00000000
00000000
00000000
,
00013000
00001000
00000000
00010000
00000010
00000000
00001000
00000001
00000000
00000000
00000010
00000100
00001000
00000000
00000001
00000000
,
00000100
00000010
00000000
00000001
00000010
00000000
00000100
00000001
00000000
00000000
00000010
00000100
00010000
00000000
00001000
00000000
,
00100000
00001000
00000000
00000000
00100000
00000000
00010000
01000000
00000000
00100000
00000000
01000000
00010000
00000000
10000000
00000000
,
01000000
00100000
00000000
00001000
00000000
00000000
00010000
00001000
00000010
00001000
00010000
00100000
00020000
00000000
00000000
00000000
,
00031000
00100000
00000000
00001000
01000000
00000000
00010000
01000000
00000000
00100000
00000000
00000000
10000000
00000000
01000000
00100000
,
00000000
00010000
00000000
00000000
01000000
00000000
00001000
00010000
00001000
00000000
00010000
00000100
00000000
00001000
00000001
00000000
,
00000010
00000000
00000100
00001000
00000000
00000000
00000010
00000100
00001000
00000000
00000000
00000100
00000000
00000000
00000001
00001000
,
00000000
00000100
00010000
00001000
00000000
00100000
01000000
10000000
00020000
00000000
00000000
00000000
00000000
00000000
00000000
00000000
,
10030000
00100000
00000000
01000000
00010000
00000000
00100000
00001000
00000000
00000000
00010000
00001000
00100000
00000000
00001000
00000000
,
00010000
00000010
00000000
00000100
00001000
00000000
00000100
00000010
00000000
00000000
00001000
00000001
00000010
00000000
00000100
00000000
,
00010000
00001000
00000000
00000000
00100000
00000000
00010000
01000000
00000000
00100000
00000000
01000000
00010000
00000000
00100000
00000000
,
01000000
10000000
00000000
00010000
00000000
00000000
01000000
00010000
00100000
01000000
10000000
01000000
00200000
00000000
00000000
00000000
,
00301000
00010000
00000000
00000000
00000100
00000000
00001000
00000010
00000000
00010000
00000000
00000000
00001000
00000000
00100000
00010000
,
00000000
10000000
00000000
00000000
00100000
00000000
01000000
00000000
00010000
00000000
00000000
00100000
00000000
00000000
01000000
00000000
,
00010000
00000000
00000000
00001000
00000000
00000000
00000010
00001000
00010000
00000000
00000000
00100000
00010000
00001000
00100000
00010000
,
20000000
00000000
00000000
00000000
00000000
00000000
00000000
00000000
00000000
00000000
00000000
00000000
31000000
00000000
00000000
00000000
00100000
00000000
00000000
00000000
00010000
00000000
00000000
00000000
01000000
00000000
00000000
00000000
00000000
00000000
00000000
00000000
00000000
00001000
00000000
00000000
00000000
00000000
00000000
00000000
00000000
00000000
00010000
00000000
00000000
00000000
00000000
00000000
,
00022000
00000000
00000000
00000000
,
00000000
00000000
00000000
00000000
,
00033000
00000000
00000000
00000000
;

//---------------dance-double - XMOD-, DS-, FS, XO----------------
#NOTES:
     dance-double:
     :
     Challenge:
     18:
     0.754189,0.955385,0.238846,0.378860,0.798900,641.000000,612.000000,29.000000,46.000000,0.000000,0.000000,0.754189,0.955385,0.238846,0.378860,0.798900,641.000000,612.000000,29.000000,46.000000,0.000000,0.000000:
00000000
00000000
00000000
00000000
,
00000000
00000000
00000000
00000000
,
00000000
00000000
00000000
00000000
,
00000000
00000000
00000000
00000000
,
00000000
00000000
00000000
00000000
,
00010000
00001000
01000000
00010000
00100000
01000000
10000000
00100000
,
01000000
00010000
00100000
00001000
00010000
00000010
00001000
00000000
,
00000001
00000100
00000010
00001000
00000100
00000010
00001000
00010000
,
00001000
00000000
01000000
00000000
00010000
00000000
10000000
00100000
02000000
00000000
00000000
00000000
03020000
00000000
00000000
00000000
,
00130000
00000000
01000000
00000000
00010000
00000000
01000000
00000000
10000000
00010000
01000000
00000000
00001000
00000000
00010000
00000000
,
00000100
00000000
00000010
00000000
00000001
00000000
00000100
00000000
00001000
00010000
00000010
00000000
00001000
00000000
00000000
00000000
,
00000100
00000000
00010000
00000000
00001000
00000000
00000100
00000000
00001000
00010000
00001000
00000000
01000000
00000000
00010000
00000000
,
00100000
01000000
10000000
00100000
01000000
00100000
20000000
00000000
,
31000000
00010000
00001000
00100000
00010000
01000000
00010000
00100000
,
01000000
00010000
00001000
00000010
00000001
00000100
00001000
00000100
,
00000010
00000000
00000000
00000100
00000000
00000000
00000001
00000000
00000010
00000000
00000100
00000000
00001000
00000000
00000010
00000000
,
00000100
00001000
00010000
00001000
00100000
00010000
10000000
00100000
00010000
00001000
00010000
00000100
,
00000000
00000000
00000000
00000010
,
00002001
00000000
00000000
00000000
00003001
00000100
00000100
00000100
00000001
00000000
00000000
00000000
00001001
00000000
00000000
00000000
,
00001200
00000000
00000000
00000000
00010300
00001000
00001000
00001000
00010000
00001000
00001000
00001000
00100000
00000000
00000000
00000000
,
00010000
00000000
00000000
00000000
01000000
00010000
00010000
00010000
01000000
00000000
00100000
00000000
10000000
00000000
00000000
00000000
,
01000000
00100000
00010000
10000000
00100000
01000000
00100000
00010000
00001000
00010000
00100000
00010000
00001000
00000000
00000000
00000000
,
00020100
00000000
00000000
00000000
00030100
00001000
00001000
00010000
00000010
00001000
00001000
00010000
00001000
00010000
00010000
00100000
,
00001000
00010000
00010000
01000000
00100000
01000000
01000000
10000000
00010000
00100000
00100000
10000000
01000000
00000000
00000000
00000000
,
00110000
00000000
00000000
00011000
00000000
00000000
00010100
00000000
,
00001010
00000000
00000000
00000101
00000000
00000000
00001010
00000000
00002000
00000000
00000000
00000000
00003000
00000000
00000000
00000000
,
00010200
00000000
00000000
00000000
00010300
00002000
00000010
00010000
,
00003000
00001000
00201000
00000000
00310000
00000000
01000000
00000000
,
20010000
00000000
00000000
00000000
31000000
00000000
00010000
00001000
,
00200000
00010000
01000000
00000000
00302000
00000000
00000000
00000000
,
00023000
00000000
00000000
00000000
00030100
00000000
00001000
00000010
,
00000100
00000000
00000101
00000000
00001100
00000000
00011000
00000000
00000000
00100000
00000000
00000000
,
00110000
00000000
00000000
11000000
00000000
00000000
10100000
00000000
,
10000000
00010000
10000000
00100000
01000000
00100000
00010000
00001000
00100000
00001000
00010000
00001000
02000000
00000000
00000000
00000000
,
03100000
00000000
10000000
00010000
00100000
00000000
01000000
10000000
00010000
00000000
01000000
00001000
00010000
00000000
00000100
00001000
,
00000010
00000000
00000100
00000001
00001000
00000000
00000001
00000100
00000010
00000000
00000100
00001000
00020000
00000000
00000000
00000000
,
00030100
00000000
00000010
00000100
00001000
00000000
00000010
00000100
00001000
00000000
00010000
00001000
00100000
00000000
00010000
01000000
,
00100000
00000000
00010000
00100000
10000000
00000000
01000000
00100000
00010000
00000000
01000000
00000000
00100000
00000000
00000000
00000000
,
10100000
00000000
00100000
00100000
00010000
00000000
00110000
00000000
00000000
00000000
00000000
00000000
00101000
00000000
00000000
00000000
,
00011000
00000000
00001000
00001000
00000100
00000000
00001100
00000000
00000000
00000000
00000000
00000000
00001000
00000001
00001000
00000001
,
00001000
00000000
00000000
00000000
00000000
00000000
00000000
00000000
00000020
00000030
00000000
00000000
00000000
00000000
00000000
00000000
00000020
00000030
00000000
00000000
00000000
00000000
00000000
00000000
00000001
00000000
00000000
00000000
00000000
00000000
00000000
00000000
00000200
00000300
00000000
00000000
00000000
00000000
00000000
00000000
00000200
00000300
00000000
00000000
00000000
00000000
00000000
00000000
00010000
00000000
00000000
00000000
00000000
00000000
00000000
00000000
00001000
00000000
00000000
00000000
00000000
00000000
00000000
00000000
,
00100000
01000000
10000000
00100000
01000000
00000000
01010000
00000000
,
00020000
00000000
00000000
10000000
00000000
00000000
01000000
00000000
00230000
00000000
00000000
00000000
00001000
00000000
00010000
00000000
,
01300000
00000000
00000000
10000000
00000000
00100000
01000000
00010000
02000000
00000000
00100000
00000000
00001000
00000000
00000000
00000000
,
03020000
00000000
00000000
00001000
00000000
00000000
00130000
00001000
00020000
00000000
00000000
00000000
00100000
00000000
00001000
00000000
,
00030010
00000000
00010000
00000010
00000000
00001000
00000010
00000100
00000002
00000000
00000010
00000000
00002003
00000000
00000100
00000000
,
00003001
00000000
00000000
00000000
00000000
00000000
00000000
00000000
00000000
00000000
00000000
00000000
00000000
00000000
00000000
00000000
00001000
00000000
00000000
00000000
00000000
00000000
00000000
00000000
00000100
00000000
00000000
00000000
00020000
00030000
00000000
00000000
00000000
00000000
00000000
00000000
00020000
00030000
00000000
00000000
01000000
00000000
00000000
00000000
00000000
00000000
00000000
00000000
00000000
00000000
00000000
00000000
00000000
00000000
00000000
00000000
00010000
00000000
00000000
00000000
10000000
00000000
00000000
00000000
,
01000000
00000000
00000000
00000000
00000000
00000000
00000000
00000000
00100000
00000000
00000000
00000000
00000000
00000000
00000000
00000000
00010000
00000000
00000000
00000000
00000000
00000000
00000000
00000000
10000000
00000000
00000000
00000000
02000000
03000000
00000000
00000000
00000000
00000000
00000000
00000000
02000000
03000000
00000000
00000000
00010000
00000000
00000000
00000000
00000000
00000000
00000000
00000000
00100000
00000000
00000000
00000000
00000000
00000000
00000000
00000000
00000000
00000000
00000000
00000000
00000000
00000000
00000000
00000000
,
01000000
00000000
00000000
00000000
00000000
00000000
00000000
00000000
01000000
00000000
00000000
00000000
00000000
00000000
00000000
00000000
00100000
00000000
00000000
00000000
00000000
00000000
00000000
00000000
00001000
00000000
00000000
00000000
00020000
00030000
00000000
00000000
00000000
00000000
00000000
00000000
00020000
00030000
00000000
00000000
01000000
00000000
00000000
00000000
00000000
00000000
00000000
00000000
00000000
00000000
00000000
00000000
00001000
00000000
00000000
00000000
00010000
00000000
00000000
00000000
00001000
00000000
00000000
00000000
,
01000000
00000000
00000000
00000000
00000000
00000000
00000000
00000000
00020000
00030000
00000000
00000000
00000000
00000000
00000000
00000000
00020000
00030000
00000000
00000000
00000000
00000000
00000000
00000000
00000100
00000000
00000000
00000000
00000000
00000000
00000000
00000000
00001000
00000000
00000000
00000000
00000000
00000000
00000000
00000000
00000010
00000000
00000000
00000000
00000000
00000000
00000000
00000000
00000100
00000000
00000000
00000000
00000000
00000000
00000000
00000000
00000000
00000000
00000000
00000000
00000000
00000000
00000000
00000000
,
00000001
00000000
00000100
00000100
00001000
00000000
00000100
00000000
00010000
00000000
00001000
00000000
00000000
00010000
00001000
00100000
,
00010000
00000000
01000000
01000000
10000000
00000000
00100000
00000000
00010000
00000000
00001000
00000000
00000000
00010000
00001000
00010000
,
00000100
00000000
00000000
00000000
00000000
00000000
00000000
00000000
00020000
00030000
00000000
00000000
00000000
00000000
00000000
00000000
00020000
00030000
00000000
00000000
00000000
00000000
00000000
00000000
01000000
00000000
00000000
00000000
00000000
00000000
00000000
00000000
00020000
00030000
00000000
00000000
00000000
00000000
00000000
00000000
00020000
00030000
00000000
00000000
00000000
00000000
00000000
00000000
00001000
00000000
00000000
00000000
00000000
00000000
00000000
00000000
00000000
00000000
00000000
00000000
00000000
00000000
00000000
00000000
,
00020000
00000000
00000000
00030000
,
00001000
00010000
00000100
00001000
00000010
00000100
00000001
00000000
,
00000100
00000010
00001000
00000100
00010000
00001000
01000000
00000000
,
00100000
10000000
01000000
00100000
00001000
00010000
00000100
00001000
,
00010000
00100000
00001000
00010000
00000010
00000100
00000002
00000000
,
00000013
00000100
00001000
00000010
00000100
00001000
00010000
00010000
,
00001000
00100000
01000000
10000000
00100000
01000000
00001000
00010000
,
00000020
00000000
00000000
00000000
,
00001030
00000010
00000100
00000001
00000010
00000100
00010000
00001000
00000010
00001000
00010000
00100000
00020000
00000000
00000000
00000000
,
00031000
00010000
00000000
00000000
00100000
00000000
01000000
00010000
00000000
00100000
01000000
10000000
00010000
01000000
00001000
00010000
,
00000100
00001000
00000000
00000000
00010000
00000000
00001000
00000100
00000000
00000010
00000100
00001000
00000001
00000100
00000010
00001000
,
00000100
00010000
00000000
00000000
00001000
00000000
00000010
00000100
00000000
00000001
00000000
00000100
00001000
00000000
00000001
00000100
,
00000010
00001000
00000000
00000100
00000000
00010000
00001000
01000000
00010000
00100000
00001000
00100000
00010000
01000000
00100000
10000000
,
00100000
10000000
00000000
00000000
01000000
00000000
00100000
00010000
00000000
01000000
00000000
00000000
00001000
00000000
00010000
00000100
,
00000000
00001000
00000000
00000000
00000010
00000000
00000100
00000001
00001000
00000000
00000100
00001000
00000000
00000010
00000100
00000000
,
00001000
00000000
00000100
00000010
00000000
00010000
00001000
00000000
00100000
00000000
00010000
01000000
00000000
00100000
10000000
00010000
,
00000000
10000000
01000000
01000000
00001000
00010000
00010000
00100000
01000000
00010000
00001000
00010000
01000000
00100000
00010000
00000000
,
00100000
00001000
00000000
00000000
00010000
00000000
00000010
00001000
00000000
00000010
00000100
00000001
00000010
00000100
00010000
00001000
,
01000000
00010000
00000000
00000000
00001000
00000000
00010000
01000000
00000000
00010000
00100000
00001000
00010000
00000010
00001000
00000001
,
00000100
00000010
00000000
00000000
00010000
00000000
00000100
00000010
00000000
00001000
00000000
00010000
00001000
00000000
00100000
00001000
,
00010000
00001000
00000000
01000000
00000000
00100000
10000000
01000000
00010000
00001000
00100000
00001000
00010000
00000010
00001000
00000001
,
00000100
00000000
00000010
00000010
00000001
00000000
00001100
00000000
00000000
00000000
00000100
00000000
00010100
00000000
00000000
00000000
,
00100000
00000000
00010000
00010000
00001000
00000000
00101000
00000000
00000000
00000000
00100000
00000000
00001000
00010000
00001000
00010000
,
00001000
00000000
00010000
00000100
00000000
00001000
00000010
00000100
00001000
00000000
00010000
00001000
00000010
00001000
00010000
00001000
,
00200000
00000000
00000000
00000000
00000000
00000000
00000000
00000000
00000000
00000000
00000000
00000000
00301000
00000000
00000000
00000000
00010000
00000000
00000000
00000000
00000010
00000000
00000000
00000000
00000100
00000000
00000000
00000000
00000000
00000000
00000000
00000000
00000000
00000010
00000000
00000000
00000000
00000000
00000000
00000000
00000000
00000000
00010000
00000000
00000000
00000000
00000000
00000000
,
00022000
00000000
00000000
00000000
,
00000000
00000000
00000000
00000000
,
00033000
00000000
00000000
00000000
;
