#TITLE:Friction[!]Function;
#SUBTITLE:;
#ARTIST:Feryquitous;
#TITLETRANSLIT:;
#SUBTITLETRANSLIT:;
#ARTISTTRANSLIT:;
#GENRE:PROGRESS BEAT;
#CREDIT:;
#BANNER:Friction[!]Function.png;
#BACKGROUND:Friction[!]Function-bg.png;
#LYRICSPATH:;
#CDTITLE:../_YSD cdtitles/ysd br2024 cdtitle.png;
#MUSIC:Friction[!]Function.ogg;
#OFFSET:-0.023000;
#SAMPLESTART:76.422997;
#SAMPLELENGTH:25.600000;
#SELECTABLE:YES;
#DISPLAYBPM:150.000000;
#BPMS:0.000000=150.000000
,95.000000=300.000000
,96.000000=150.000000
,96.500000=75.000000
,97.000000=150.000000
,103.000000=300.000000
,103.500000=150.000000
,103.750000=75.000000
,104.000000=300.000000
,104.500000=150.000000
,104.750000=75.000000
,105.000000=150.000000
,113.000000=300.000000
,113.500000=150.000000
,113.750000=75.000000
,114.000000=300.000000
,114.500000=150.000000
,114.750000=75.000000
,115.000000=300.000000
,116.000000=150.000000
,116.500000=75.000000
,117.000000=150.000000
,123.000000=300.000000
,123.500000=150.000000
,123.750000=75.000000
,124.000000=300.000000
,124.500000=150.000000
,124.750000=75.000000
,125.000000=150.000000
,223.000000=75.000000
,223.500000=150.000000
,224.000000=300.000000
,225.000000=150.000000
,255.000000=75.000000
,255.500000=150.000000
,256.000000=300.000000
,258.000000=150.000000
,258.500000=75.000000
,259.000000=150.000000
,263.000000=300.000000
,263.375000=150.000000
,263.562500=75.000000
,263.750000=300.000000
,264.125000=150.000000
,264.312500=75.000000
,264.500000=300.000000
,264.750000=150.000000
,264.875000=75.000000
,265.000000=150.000000
,273.000000=300.000000
,273.500000=150.000000
,273.750000=75.000000
,274.000000=300.000000
,274.500000=150.000000
,274.750000=75.000000
,275.500000=150.000000
,276.000000=300.000000
,278.000000=150.000000
,278.500000=75.000000
,279.000000=150.000000
,283.000000=300.000000
,283.375000=150.000000
,283.562500=75.000000
,283.750000=300.000000
,284.125000=150.000000
,284.312500=75.000000
,284.500000=300.000000
,284.750000=150.000000
,284.875000=75.000000
,285.000000=150.000000
;
#STOPS:
;
#BGCHANGES:0.000=Friction[!]Function.avi=1.000=0=0=0=StretchNoLoop====,
99999=-nosongbg-=1.000=0=0=0 // don't automatically add -songbackground-
;
#KEYSOUNDS:;
#ATTACKS:;

//---------------dance-single - ----------------
#NOTES:
     dance-single:
     :
     Beginner:
     4:
     0.183994,0.296491,0.359988,0.031999,0.004000,161.000000,116.000000,45.000000,4.000000,0.000000,0.000000,0.183994,0.296491,0.359988,0.031999,0.004000,161.000000,116.000000,45.000000,4.000000,0.000000,0.000000:
// measure 0
0000
0000
0000
0000
,  // measure 1
0000
0000
0000
0000
,  // measure 2
0000
0000
0000
0000
,  // measure 3
0000
0000
0000
1001
,  // measure 4
0000
0000
0110
0000
,  // measure 5
0000
1001
0000
0000
,  // measure 6
0110
0000
0000
1001
,  // measure 7
0000
0000
0110
0000
,  // measure 8
0000
1001
0000
0000
,  // measure 9
0110
0000
0000
1001
,  // measure 10
0000
0000
0000
1000
,  // measure 11
0000
0000
0000
0001
,  // measure 12
0000
0000
0000
0100
,  // measure 13
0000
0100
0000
0001
,  // measure 14
0000
0000
0000
0010
,  // measure 15
0000
0000
0000
0100
,  // measure 16
0000
0000
0000
1000
,  // measure 17
0000
1000
0000
1001
,  // measure 18
0000
0000
0110
0000
,  // measure 19
0000
1001
0000
0000
,  // measure 20
0110
0000
0000
1001
,  // measure 21
0000
0000
0000
0000
0000
0000
0000
0000
0000
0000
0000
0110
0000
0000
0000
0000
,  // measure 22
0000
1001
0000
0000
,  // measure 23
0110
0000
0000
2002
,  // measure 24
3003
1000
0000
0110
,  // measure 25
0000
0001
0000
1001
,  // measure 26
1001
1001
0000
0001
,  // measure 27
0000
0100
0000
0010
,  // measure 28
0000
1001
1001
2002
,  // measure 29
3003
1000
0000
0110
,  // measure 30
0000
0001
0000
1001
,  // measure 31
1001
1001
0000
1000
,  // measure 32
0000
1001
0000
0010
,  // measure 33
0000
0100
0000
1001
,  // measure 34
0000
0000
0001
0000
,  // measure 35
0000
1000
0000
0000
,  // measure 36
0010
0000
0000
0110
,  // measure 37
0000
0000
0100
0000
,  // measure 38
0000
0001
0000
0000
,  // measure 39
1000
0000
0000
1001
,  // measure 40
0000
0000
0000
0000
,  // measure 41
0000
0000
0000
0001
,  // measure 42
0000
0000
0000
1000
,  // measure 43
0000
0000
0000
0001
,  // measure 44
0000
0000
0000
1000
,  // measure 45
0000
0000
0000
0010
,  // measure 46
0000
0000
0000
0100
,  // measure 47
0000
0000
0000
1001
,  // measure 48
0000
0001
0000
1000
,  // measure 49
0000
1000
0000
0001
,  // measure 50
0000
0001
0000
0100
,  // measure 51
0000
0100
0000
0010
,  // measure 52
0000
0010
0000
1000
,  // measure 53
0000
1000
0000
0100
,  // measure 54
0000
0100
0000
0010
,  // measure 55
0000
0010
0000
0001
,  // measure 56
0000
0000
0000
1000
,  // measure 57
0000
0001
0000
1000
,  // measure 58
0000
0001
0000
0100
,  // measure 59
0000
0010
0000
0100
,  // measure 60
0000
0001
0000
1000
,  // measure 61
0000
0100
0000
0010
,  // measure 62
0000
0100
0000
1000
,  // measure 63
0000
0001
0000
1001
,  // measure 64
0000
0000
0000
1001
,  // measure 65
0000
0000
0010
0010
,  // measure 66
0000
1001
0000
1000
,  // measure 67
0000
0110
0000
0001
,  // measure 68
0000
1001
1001
1001
,  // measure 69
0000
0000
0000
1000
,  // measure 70
0000
0000
0100
0100
,  // measure 71
0000
0110
0000
0001
,  // measure 72
0000
1001
0000
0000
,  // measure 73
0110
0110
0000
1000
,  // measure 74
0000
1000
0000
0000
0000
0000
0000
0000
;

//---------------dance-single - ----------------
#NOTES:
     dance-single:
     :
     Easy:
     7:
     0.333704,0.429436,0.255992,0.295991,0.147995,292.000000,260.000000,32.000000,37.000000,0.000000,0.000000,0.333704,0.429436,0.255992,0.295991,0.147995,292.000000,260.000000,32.000000,37.000000,0.000000,0.000000:
0000
0000
0000
0000
,
0000
0000
0000
0000
,
0000
0000
0000
0000
,
0000
0000
0000
0000
0000
0000
0000
0000
0000
0000
0000
0000
1000
0000
0000
1000
,
0000
0000
1000
0000
0000
0000
0000
0000
0001
0000
0000
0001
0000
0000
0100
0000
,
0000
0000
0000
0000
0001
0000
0000
0001
0000
0000
0001
0000
0000
0000
0000
0000
,
1000
0000
0000
1000
0000
0000
0100
0000
0000
0000
0000
0000
1000
0000
0000
1000
,
0000
0000
1000
0000
0000
0000
0000
0000
0001
0000
0000
0001
0000
0000
0010
0000
,
0000
0000
0000
0000
0001
0000
0000
0001
0000
0000
0001
0000
0000
0000
0000
0000
,
1000
0000
0000
1000
0000
0000
0010
0000
0000
0000
0000
0000
2000
0000
0000
0000
,
0000
3020
0000
0000
0000
0130
0002
0000
,
0000
2003
0000
0000
3100
0000
0020
0000
,
0000
0230
0000
0000
0000
1300
0002
0000
,
0000
0203
0000
0000
0310
0000
2000
0000
,
0000
3200
0000
0000
0000
1300
0020
0000
,
0000
0230
0000
0000
0301
0000
0020
0000
,
0000
0230
0000
0000
0000
1300
0002
0000
,
0000
0000
0203
0000
0000
0000
0300
0000
1001
0000
0000
0000
1000
0000
0000
1000
,
0000
0000
1000
0000
0000
0000
0000
0000
0001
0000
0000
0001
0000
0000
0100
0000
,
0000
0000
0000
0000
0001
0000
0000
0001
0000
0000
0001
0000
0000
0000
0000
0000
,
1000
0000
0000
1000
0000
0000
0100
0000
0000
0000
0000
0000
1000
0000
0000
1000
,
0000
0000
1000
0000
0000
0000
0000
0000
0000
0000
0000
0110
0000
0000
1001
0000
,
0000
0000
0000
0000
0001
0000
0000
0001
0000
0000
0001
0000
0000
0000
0000
0000
,
1000
0000
0000
1000
0000
0000
0010
0000
0000
0000
0000
0000
0202
0000
0000
0000
,
0303
0000
0000
0000
0001
0000
0000
0001
0000
0000
0010
0000
0000
0000
0000
0000
,
0110
1000
1001
1100
,
0011
0000
0000
0000
2002
0000
0000
0000
3003
0000
0000
0000
1000
0000
0000
1000
,
0000
1000
0000
0000
0110
0000
0001
0000
,
1001
0101
1010
2002
,
3003
0000
0000
0000
1000
0000
0000
1000
0000
0000
0100
0000
0000
0000
0000
0000
,
0110
0001
1001
0101
,
1010
0000
0000
0000
2002
0000
0000
0000
3003
0000
0000
0000
1000
0000
0000
1000
,
0000
1000
0000
0000
0110
0000
1001
0000
,
0001
0000
0000
0000
0020
0000
0000
0000
0230
0000
0000
0000
1300
0000
0000
1000
,
0000
0000
1000
0000
0000
0000
0000
0000
0001
0000
0000
0001
0000
0000
0100
0000
,
0000
0000
0000
0000
0010
0000
0000
0010
0000
0000
0010
0000
0000
0000
0000
0000
,
1000
0000
0000
1000
0000
0000
0001
0000
0000
0000
0000
0000
0010
0000
0000
0010
,
0000
0000
0010
0000
0000
0000
0000
0000
0100
0000
0000
0100
0000
0000
1000
0000
,
0000
0000
0000
0000
0001
0000
0000
0001
0000
0000
0001
0000
0000
0000
0000
0000
,
1000
0000
0000
1000
0000
0000
0010
0000
0000
0000
0000
0000
0220
0000
0000
0000
,
0000
0000
0000
0000
,
0000
0000
0000
0000
,
0000
0000
0000
0000
,
0000
0000
0330
1000
,
0000
0001
0000
0000
1000
0000
0100
0000
,
0000
0010
0000
0000
0100
0000
1000
0000
,
0001
0100
0010
1000
,
0001
0000
0000
0100
0000
0100
0000
0000
0020
0000
0000
0000
1030
0000
0000
0000
,
0001
0000
1000
0000
0100
1000
0100
0000
,
0010
0000
0100
0000
1000
0001
1000
0000
,
0001
0000
0100
0000
0001
1000
0001
0000
,
0010
0000
0100
0000
0001
0100
1000
0000
,
0001
0000
0100
0000
0010
1000
0010
0000
,
0100
0000
0001
0000
1000
0100
1000
0000
,
0001
0000
0100
0000
0010
1000
0010
0000
,
0100
0000
1000
0000
0100
0001
2000
0000
,
0000
3100
0010
0100
,
1000
0000
0001
0000
0100
0010
0100
0000
,
0001
0000
1000
0000
0100
0010
0100
0000
,
1000
0000
0010
0000
0001
0010
1000
0000
,
0100
0000
0010
0000
0001
1000
0001
0000
,
0100
0000
1000
0000
0100
0001
1000
0000
,
0100
0000
0010
0000
1000
0010
0001
0000
,
0100
0000
1000
0100
0010
0100
0002
0000
,
0000
0000
0000
0000
0003
0000
0000
0000
0000
0000
0000
0000
1000
0000
0000
1000
,
0000
0000
1000
0000
0000
0000
0000
0000
0110
0000
0000
0000
0001
0000
0000
0001
,
0000
0000
0002
0000
0000
0000
0000
0000
0003
0000
0000
0000
0100
0000
0000
0100
,
0000
0100
0000
0000
0010
0000
1000
0000
,
1001
1100
0011
2002
,
0000
0000
0000
0000
3003
0000
0000
0000
0000
0000
0000
0000
0001
0000
0000
0001
,
0000
0000
0001
0000
0000
0000
0000
0000
0110
0000
0000
0000
1000
0000
0000
1000
,
0000
0000
2000
0000
0000
0000
0000
0000
3000
0000
0000
0000
0001
0000
0000
0001
,
0000
0001
0000
0000
0101
0000
0100
0000
,
1000
0100
0101
0101
,
0000
2020
0000
0000
0000
0000
0000
0000
,
0000
0000
0000
0000
,
0000
0000
0000
0000
0000
0000
0000
0000
0000
0000
0000
3030
0000
0000
0000
0000
;

//---------------dance-single - ----------------
#NOTES:
     dance-single:
     :
     Medium:
     12:
     0.499413,0.582806,0.527983,0.303990,0.311990,437.000000,371.000000,66.000000,38.000000,4.000000,0.000000,0.499413,0.582806,0.527983,0.303990,0.311990,437.000000,371.000000,66.000000,38.000000,4.000000,0.000000:
0000
0000
0000
0000
,
0000
0000
0000
0000
,
0000
0000
0000
0000
,
0000
0000
0000
0000
0000
0000
0000
0000
0000
0000
0000
0000
1000
0000
0000
0010
,
0000
0000
0110
0000
0100
0000
0000
0000
0001
0000
0000
0010
0000
0000
1000
0000
,
0010
0000
0001
0000
1000
0000
0000
0001
0000
0000
0011
0000
0010
0000
0000
0000
,
0001
0000
0000
0100
0000
0000
1000
0000
0100
0000
0001
0000
1000
0000
0000
0100
,
0000
0000
0110
0000
0010
0000
0001
0000
1000
0000
0000
0010
0000
0000
0001
0000
,
0010
0000
1000
0000
0100
0000
0000
0010
0000
0000
0011
0000
0001
0000
1000
0000
,
0001
0000
0000
0100
0000
0000
1000
0000
0100
0000
0001
0000
0010
0000
0100
1000
,
0000
0002
0000
0100
0000
1003
0200
0010
,
0000
0000
2300
0000
0000
0000
0001
0000
3001
0000
0000
0000
0100
0000
0010
1000
,
0000
0200
0000
0001
0000
1300
0002
1000
,
0000
0000
0203
0000
0000
0000
0010
0000
0310
0000
1000
0000
0001
0000
1000
0100
,
0000
0020
0000
0100
0000
0031
2000
0010
,
0000
0000
3200
0000
0000
0000
0010
0000
0310
0000
0000
0000
0001
0000
1000
0010
,
0000
0200
0000
1000
0000
0301
0010
0100
,
1000
0000
0001
0100
0000
0000
0001
0000
1001
0000
0000
0000
1000
0000
0000
0010
,
0000
0000
0110
0000
0100
0000
0000
0000
0001
0000
0000
0010
0000
0000
1000
0000
,
0010
0000
0001
0000
1000
0000
0000
0001
0000
0000
0101
0000
0100
0000
0000
0000
,
0001
0000
0000
0100
0000
0000
1000
0000
0100
0000
0001
0000
1000
0000
0000
1100
,
0000
0000
0011
0000
0001
0000
0100
0000
1000
0000
0000
1100
0000
0000
0101
0000
,
0000
0000
0001
0000
0010
0000
0000
0100
0000
0000
1100
0000
1000
0000
0001
0000
,
1000
0000
0000
0010
0000
0000
0001
0000
0010
0000
1000
0000
2002
0000
0000
0000
,
0000
0000
3003
0000
1000
0000
0001
0100
0000
0000
0010
0000
1000
0100
0000
0000
,
0010
1000
0010
0001
1000
0000
1100
0000
,
0011
0000
0000
0000
2002
0000
0000
0000
3003
0000
0000
0000
0101
0000
0000
1010
,
0000
0000
1000
0000
0100
0010
0000
0000
0001
0000
0100
0000
1000
0000
0100
0000
,
0010
0110
0101
2002
,
3003
0000
0000
0000
1000
0000
0001
0100
0000
0000
1000
0000
0100
0010
0000
0000
,
1000
0100
0001
0100
0010
0000
0101
0000
,
1010
0000
0000
0000
2002
0000
0000
0000
3003
0000
0000
0000
1100
0000
0000
0011
,
0000
0000
0001
0000
0100
0000
0010
1000
0010
0000
0100
0000
1000
0000
0100
0000
,
0001
0000
0000
0000
2000
0000
3000
0000
0200
0000
0300
0000
0110
0000
0000
0011
,
0000
0000
1001
0000
0000
0000
0000
0000
1010
0000
0000
0110
0000
0000
0011
0000
,
0000
0000
0010
0000
1000
0000
0000
1001
0000
0000
0011
0000
0000
0000
0000
0000
,
0110
0000
0000
0101
0000
0000
1100
0000
0000
0000
0000
0000
1001
0000
0000
0101
,
0000
0000
0011
0000
0000
0000
0010
0000
0100
0000
0000
1100
0000
0000
1010
0000
,
0000
0000
0010
0000
0100
0000
0000
0101
0000
0000
1010
0000
0000
0000
1000
0000
,
0100
0000
0000
0110
0000
0000
1001
0000
0001
0000
0100
0000
0202
0000
0000
0000
,
0000
0000
0000
0000
,
0000
0000
0003
0320
,
0000
0000
0000
2030
,
0000
0000
0000
3200
,
0000
0320
0000
0230
,
0000
0000
2300
0000
0000
0000
3001
0100
,
0010
0000
1000
0100
0010
0000
0001
0000
,
0100
0000
0000
1000
0000
0100
0000
0000
0002
0000
0000
0000
0013
0000
0000
0100
,
0000
0000
1000
0000
0000
0001
0000
0000
0100
0000
0001
1000
0000
0000
0000
0100
,
0000
0000
0010
0000
0000
0100
0000
0000
1000
0000
0001
0000
0100
0000
0000
0010
,
0000
0000
1000
0000
0000
0100
0000
0000
0010
0000
0001
0000
0100
0000
0000
1000
,
0000
0000
0100
0000
0000
0001
0000
0000
0010
0000
1000
0000
0010
0000
0000
0100
,
0000
0000
1000
0000
0000
0001
0000
0000
0100
0000
0010
0000
1000
0000
0000
0100
,
0000
0000
0010
0000
0000
0001
0000
0000
0100
0000
0001
0000
0010
0000
0000
0100
,
0000
0000
1000
0000
0000
0001
0000
0000
0100
0000
0010
0000
0001
0000
0000
0010
,
0000
0000
1000
0000
0000
0100
0000
0000
0001
0000
0100
0000
2000
0000
0000
0000
,
0000
0000
0000
0000
3000
0000
0000
0000
0001
0000
0100
0000
0010
0000
0000
1000
,
0000
0000
0100
0000
0000
0010
0000
0000
0001
0000
1000
0000
0010
0000
0000
0100
,
0000
0000
0001
0000
0000
1000
0000
0000
0100
0000
0001
0000
0100
0000
0000
1000
,
0000
0000
0010
0000
0000
0100
0000
0000
1000
0000
0100
0000
0001
0000
0000
0010
,
0000
0000
0100
0000
0000
1000
0000
0000
0010
0000
0100
0000
1000
0000
0000
0100
,
0000
0000
0001
0000
0000
0010
0000
0000
1000
0000
0010
0000
0100
0000
0000
1000
,
0000
0000
0001
0000
0000
0100
0000
0000
1000
0000
0100
0000
0001
0000
0000
0010
,
0000
0000
1000
0000
0000
0001
0000
0000
0100
0000
1000
0000
00M2
0000
00M0
0000
,
0000
0000
0000
0000
0023
0000
0000
0000
0030
0000
0000
0000
1100
0000
0000
0011
,
0000
0000
1001
0000
0000
0000
1000
0000
0010
0000
0000
0000
0100
0000
0000
1001
,
0000
0000
0001
0000
0020
0000
0000
0000
0030
0000
0000
0000
1100
0000
0000
1010
,
0000
0101
0001
1000
0100
0010
0001
0100
,
1000
0100
0001
0000
1010
0000
210M
000M
,
0000
0000
0000
0000
3002
0000
0000
0000
0003
0000
0000
0000
0101
0000
0000
1010
,
0000
0000
1100
0000
0000
0000
1000
0000
0100
0000
0001
0000
0100
0000
0000
1100
,
0000
0000
1000
0000
0002
0000
0000
0000
0003
0000
0000
0000
0101
0000
0000
1010
,
0000
1100
1000
0001
0100
1000
0100
0010
,
1000
0000
0100
0000
0010
0000
0001
0000
1000
0000
0000
0000
1010
0000
0000
1010
,
0000
2002
0000
0000
0000
0000
0000
0000
,
0000
0000
0000
0000
,
0000
0000
0000
0000
0000
0000
0000
0000
0000
0000
0000
3003
0000
0000
0000
0000
;

//---------------dance-single - ----------------
#NOTES:
     dance-single:
     :
     Hard:
     15:
     0.661693,0.766850,0.231993,0.343989,0.747976,579.000000,550.000000,29.000000,43.000000,6.000000,0.000000,0.661693,0.766850,0.231993,0.343989,0.747976,579.000000,550.000000,29.000000,43.000000,6.000000,0.000000:
0000
0000
0000
0000
,
0000
0000
0000
0000
,
0000
0000
0000
0000
,
0000
0000
0000
0000
0000
0000
0000
0000
0000
0000
0000
0000
1000
0000
0001
0100
,
0000
0010
0100
0000
0001
0000
1000
0000
0001
0000
0100
0010
0000
0100
1000
0000
,
0100
0000
0001
0000
1000
0000
0001
0010
0000
0001
1000
0000
0010
0000
1000
0000
,
0001
0000
0010
0100
0000
0010
1000
0000
0010
0000
0001
0000
0100
0000
0010
1000
,
0000
0001
1000
0000
0100
0000
0010
0000
0001
0000
0100
0010
0000
0100
1000
0000
,
0100
0000
0001
0000
0010
0000
0100
1000
0000
0001
0100
0000
0010
0000
1000
0000
,
0100
0000
0010
0100
0000
0001
0100
0000
1000
0000
0001
0000
0100
0000
0001
0010
,
0000
0000
0001
1000
0000
0000
0200
0000
0310
0000
0001
0000
0100
0000
2000
0000
,
3100
0000
0001
1000
0000
0000
0200
0000
0310
0000
0001
0000
0100
0000
0010
1000
,
0000
0000
0100
1000
0000
0000
0010
0000
0100
0000
0001
0000
0010
0000
2000
0000
,
3010
0000
0001
1000
0000
0000
0020
0000
0130
0000
0001
0000
1000
0000
0001
0010
,
0000
0000
0100
1000
0000
0000
0020
0000
0130
0000
0001
0000
0100
0000
2000
0000
,
3100
0000
0010
1000
0000
0000
0002
0000
0013
0000
0100
0000
1000
0000
0010
0100
,
0000
0000
0001
1000
0000
0000
0200
0000
0310
0000
0001
0000
0100
0000
1000
0000
,
0100
0000
0001
1000
0100
0000
0010
0000
0011
0000
0000
0000
0001
0000
1000
0010
,
0000
1000
0100
0000
0010
0000
0001
0000
1000
0000
0100
0010
0000
0100
0001
0000
,
0100
0000
1000
0000
0001
0000
0100
0010
0000
1000
0001
0000
0010
0000
0100
0000
,
1000
0000
0001
0100
0000
0010
0001
0000
0010
0000
1000
0000
0001
0000
0000
0011
,
0000
0001
0100
0000
0010
0000
0001
0010
0100
0000
0000
0110
0000
0000
1100
0000
,
0100
0000
0001
0000
1000
0000
0100
0010
0000
0100
1000
0000
0001
0000
0100
0000
,
0010
0000
1000
0100
0000
0010
1000
0000
0010
0000
0001
0000
2002
0000
0000
0000
,
0000
0000
3003
0000
1000
0000
1000
0010
0000
0010
0001
0000
0010
0100
0001
0000
,
1000
0000
0001
0010
0100
1000
0000
0000
1001
0000
0000
0000
1100
0000
0000
0000
,
0011
0000
0000
0000
2002
0000
0000
0000
3003
0000
0000
0000
1000
0000
1000
0100
,
0000
0100
0001
0000
0100
0010
0001
0000
1000
0000
0001
0100
0010
1000
0000
0000
,
1001
0101
1010
2002
,
0000
0000
3003
0000
0001
0000
0001
0010
0000
0010
1000
0000
0010
0100
1000
0000
,
0001
0000
1000
0010
0100
0001
1000
0000
1001
0000
0000
0000
1100
0000
0000
0000
,
0011
0000
0000
0000
2002
0000
0000
0000
3003
0000
0000
0000
0001
0000
0001
0100
,
0000
0100
1000
0000
0100
0010
1000
0000
0100
0000
0010
0001
1000
0010
0000
0000
,
0100
0001
1000
0001
0100
0000
1000
0100
0010
0000
1000
0000
0001
0000
0100
0001
,
0000
1000
0001
0000
0100
0000
1000
0100
0010
0000
1000
0010
0000
0100
1000
0000
,
0100
0000
0001
0000
0010
0000
0100
1000
0000
0001
1000
0000
0100
0000
0001
0000
,
0100
0000
1000
0100
0000
0010
1000
0000
0010
0000
0001
0000
1000
0000
0100
0010
,
0000
0001
1000
0000
0010
0000
0001
0010
0100
0000
0001
0100
0000
0010
0001
0000
,
0010
0000
1000
0000
0100
0000
0010
0001
0000
1000
0100
0000
0010
0000
1000
0000
,
0010
0000
0001
0100
0000
0010
0001
0000
0010
0000
1000
0000
2002
0000
0000
0000
,
0000
0000
0000
0000
,
0000
0000
0003
3020
,
0000
0230
0000
2300
,
0000
3200
0000
0302
,
0023
0230
2300
3002
,
0203
0000
0320
0000
2030
0000
3001
0010
,
0001
0000
0010
0000
0100
0000
1000
0000
0100
0000
1000
0000
0001
0000
0000
1000
,
0010
0000
0100
0010
0000
1000
0000
0001
0020
0000
0000
0000
0031
0000
0000
0100
,
0000
0001
1000
0000
0000
0100
0000
0010
0100
0000
1000
0000
0001
0000
0000
0100
,
0000
0010
1000
0000
0000
0001
0000
0010
0100
0000
0001
0000
0100
0000
0000
1000
,
0000
0001
0100
0000
0000
0010
0000
1000
0001
0000
0010
0100
1000
0000
0000
0001
,
0000
0100
0010
0100
0000
0001
0000
1000
0100
0000
0001
0000
0100
0000
0000
1000
,
0000
0001
1000
0000
0000
0001
0000
0010
0100
0000
1000
0000
0010
0000
0000
1000
,
0000
0001
1000
0000
0000
0100
0000
0010
0100
0000
1000
0000
0001
0000
0000
1000
,
0000
0010
0100
0000
0000
0001
0000
1000
0100
0000
0010
0001
1000
0000
0000
0010
,
0000
0100
0001
0100
0000
0010
0000
0100
1000
0000
0100
0000
00M2
0000
00M0
0000
,
0000
0000
0000
0000
0013
0000
0000
0000
0001
0000
1000
0000
0100
1000
0000
0001
,
0000
0100
0010
0000
0000
1000
0000
0001
0010
0000
1000
0000
0010
0100
0000
1000
,
0000
0001
0100
0000
0000
0010
0000
0100
0001
0000
0010
0100
1000
0100
0000
0010
,
0000
0001
1000
0001
0000
0100
0010
0000
0001
0000
0010
0000
1000
0010
0000
1000
,
0000
0001
0010
0000
0000
0100
0000
1000
0010
0000
0100
0000
0001
0010
0000
1000
,
0000
0010
0100
0000
0000
1000
0000
0001
0100
0000
1000
0000
0100
0001
0000
0010
,
0000
0100
1000
0000
0000
0001
0000
0010
0100
0000
1000
0010
0100
0001
0000
1000
,
0000
0100
0010
0000
0000
0001
0000
0100
1000
0000
0100
0000
00M2
0000
00M0
0000
,
0000
0000
0000
0000
0023
0000
0000
0000
0000
0000
0000
0000
0130
0000
0001
0100
,
0000
0010
0001
0000
1000
0010
0100
0001
1000
0000
0100
0000
1100
0000
0000
0010
,
0000
0000
0100
0000
2002
0000
0000
0000
3003
0000
0000
0000
0001
0000
0010
0100
,
0000
0001
0100
0000
1000
0001
1000
0000
0010
0000
1000
0100
0010
0001
0000
0000
,
0011
0000
0101
0000
1010
0000
1M02
0M00
,
0000
0000
0000
0000
0203
0000
0000
0000
0000
0000
0000
0000
1300
0000
0100
0010
,
0000
1000
0001
0000
0010
0100
1000
0001
0010
0000
0100
0000
1100
0000
0000
0010
,
0000
0000
0100
0000
2002
0000
0000
0000
3003
0000
0000
0000
0001
0000
0100
1000
,
0000
0100
0001
0000
1000
0001
0010
0000
0100
0000
1000
0010
0100
0001
1000
0000
,
0100
0010
0001
1000
0010
0000
0100
0001
0010
0000
0100
0000
0110
0000
0000
0110
,
0000
2002
0000
0000
0000
0000
0000
0000
,
0000
0000
0000
0000
,
0000
0000
0000
0000
0000
0000
0000
0000
0000
0000
0000
3003
0000
0000
0000
0000
;

//---------------dance-single - DS-, FS, XO----------------
#NOTES:
     dance-single:
     :
     Challenge:
     17:
     0.820545,0.981569,0.183994,0.663979,1.435954,718.000000,695.000000,23.000000,83.000000,10.000000,0.000000,0.820545,0.981569,0.183994,0.663979,1.435954,718.000000,695.000000,23.000000,83.000000,10.000000,0.000000:
0000
0000
0000
0000
,
0000
0000
0000
0000
,
0000
0000
0000
0000
,
0000
0000
0000
0000
0000
0000
0000
0000
0000
0000
0000
0000
0000
0000
0000
0000
0000
0000
0000
0000
0000
0000
0000
0000
0000
0000
0000
0000
0000
0000
0000
0000
0000
0000
0000
0000
0000
0000
0000
0000
0000
0000
0000
0000
0000
0000
0000
0000
1000
0000
0000
0000
0000
0000
0000
0000
0001
0000
0000
0000
0200
0300
0000
0000
,
0000
0000
0000
0000
0200
0300
0000
0000
1000
0000
0000
0000
0000
0000
0000
0000
0001
0000
0000
0000
0100
0000
0000
0000
0010
0000
0000
0000
0000
0000
0000
0000
1000
0000
0000
0000
0000
0000
0000
0000
0001
0000
0000
0000
0020
0030
0000
0000
0000
0000
0000
0000
0020
0030
0000
0000
1000
0000
0000
0000
0000
0000
0000
0000
,
0001
0000
0000
0000
0010
0000
0000
0000
0100
0000
0000
0000
1000
0000
0000
0000
0001
0000
0000
0000
0000
0000
0000
0000
1000
0000
0000
0000
0200
0300
0000
0000
0000
0000
0000
0000
0200
0300
0000
0000
0001
0000
0000
0000
0000
0000
0000
0000
0010
0000
0000
0000
0100
0000
0000
0000
1000
0000
0000
0000
0000
0000
0000
0000
,
0001
0000
0000
0000
0000
0000
0000
0000
1000
0000
0000
0000
0020
0030
0000
0000
0000
0000
0000
0000
0020
0030
0000
0000
0001
0000
0000
0000
0000
0000
0000
0000
1000
0000
0000
0000
0010
0000
0000
0000
0100
0000
0000
0000
0001
0000
0000
0000
1000
0000
0000
0000
0000
0000
0000
0000
0001
0000
0000
0000
0200
0300
0000
0000
,
0000
0000
0000
0000
0200
0300
0000
0000
1000
0000
0000
0000
0000
0000
0000
0000
0010
0000
0000
0000
1000
0000
0000
0000
0100
0000
0000
0000
0000
0000
0000
0000
1000
0000
0000
0000
0000
0000
0000
0000
0001
0000
0000
0000
0020
0030
0000
0000
0000
0000
0000
0000
0020
0030
0000
0000
1000
0000
0000
0000
0001
0000
0000
0000
,
0010
0000
0000
0000
0100
0000
0000
0000
0001
0000
0000
0000
0100
0000
0000
0000
0010
0000
0000
0000
0000
0000
0000
0000
0001
0000
0000
0000
0200
0300
0000
0000
0000
0000
0000
0000
0200
0300
0000
0000
1000
0000
0000
0000
0000
0000
0000
0000
0001
0000
0000
0000
0100
0000
0000
0000
0010
0000
0000
0000
0000
0000
0000
0000
,
1000
0000
0000
0000
0000
0000
0000
0000
0001
0000
0000
0000
0020
0030
0000
0000
0000
0000
0000
0000
0020
0030
0000
0000
1000
0000
0000
0000
0001
0000
0000
0000
0100
0000
0000
0000
0010
0000
0000
0000
0001
0000
0000
0000
0010
0000
0000
0000
0100
0000
0000
0000
0000
0000
0000
0000
0010
0000
0000
0000
1000
0000
0000
0000
,
0100
0000
0010
0001
0000
0000
0200
0000
0001
0000
0310
0000
1000
0000
0200
0000
,
0010
0000
1300
0001
0000
0000
0200
0000
0010
0000
0301
0000
1000
0000
0100
0010
,
0001
0000
1000
0010
0000
0000
2000
0000
0100
0000
3001
0000
0100
0000
0002
0000
,
0100
0000
1003
0010
0000
0000
2000
0000
0010
0000
3001
0000
1000
0000
0010
0100
,
0001
0000
1000
0100
0000
0000
0020
0000
0001
0000
0130
0000
1000
0000
0020
0000
,
0100
0000
1030
0001
0000
0000
0020
0000
0100
0000
0031
0000
1000
0000
0010
0100
,
0001
0000
0010
0100
0000
0000
2000
0000
0010
0000
3100
0000
1000
0000
0001
0100
,
0010
0000
0000
0000
0000
0000
0000
0000
1000
0000
0000
0000
0001
0000
0000
0000
0000
0000
0000
0000
0010
0000
0000
0000
0100
0000
0000
0000
0000
0000
0000
0000
1001
0000
0000
0000
0000
0000
0000
0000
0000
0000
0000
0000
0000
0000
0000
0000
1000
0000
0000
0000
0000
0000
0000
0000
0001
0000
0000
0000
0200
0300
0000
0000
,
0000
0000
0000
0000
0200
0300
0000
0000
1000
0000
0000
0000
0000
0000
0000
0000
0001
0000
0000
0000
0100
0000
0000
0000
0010
0000
0000
0000
0000
0000
0000
0000
1000
0000
0000
0000
0000
0000
0000
0000
0001
0000
0000
0000
0020
0030
0000
0000
0000
0000
0000
0000
0020
0030
0000
0000
1000
0000
0000
0000
0000
0000
0000
0000
,
0001
0000
0000
0000
0010
0000
0000
0000
0100
0000
0000
0000
1000
0000
0000
0000
0001
0000
0000
0000
0000
0000
0000
0000
1000
0000
0000
0000
0200
0300
0000
0000
0000
0000
0000
0000
0200
0300
0000
0000
0001
0000
0000
0000
0000
0000
0000
0000
1000
0000
0000
0000
0010
0000
0000
0000
0100
0000
0000
0000
0000
0000
0000
0000
,
0001
0000
0000
0000
0000
0000
0000
0000
1000
0000
0000
0000
0020
0030
0000
0000
0000
0000
0000
0000
0020
0030
0000
0000
0001
0000
0000
0000
0000
0000
0000
0000
1000
0000
0000
0000
0100
0000
0000
0000
0010
0000
0000
0000
0001
0000
0000
0000
0100
0000
0000
0000
0000
0000
0000
0000
0001
0000
0000
0000
0200
0300
0000
0000
,
0000
0000
0000
0000
0200
0300
0000
0000
1000
0000
0000
0000
0000
0000
0000
0000
0010
0000
0000
0000
0000
0000
0000
0000
0001
0000
0000
0000
0010
0000
0000
0000
1000
0000
0000
0000
0000
0000
0000
0000
0000
0000
0000
0000
1100
0000
0000
0000
0000
0000
0000
0000
0000
0000
0000
0000
0011
0000
0000
0000
0000
0000
0000
0000
,
0010
0000
0000
0000
0100
0000
0000
0000
1000
0000
0000
0000
0010
0000
0000
0000
0100
0000
0000
0000
0000
0000
0000
0000
0001
0000
0000
0000
0200
0300
0000
0000
0000
0000
0000
0000
0200
0300
0000
0000
1000
0000
0000
0000
0000
0000
0000
0000
0010
0000
0000
0000
0100
0000
0000
0000
0001
0000
0000
0000
0000
0000
0000
0000
,
1000
0000
0000
0000
0000
0000
0000
0000
0001
0000
0000
0000
0020
0030
0000
0000
0000
0000
0000
0000
0020
0030
0000
0000
1000
0000
0000
0000
0000
0000
0000
0000
0001
0000
0000
0000
0100
0000
0000
0000
0010
0000
0000
0000
1000
0000
0000
0000
0002
0000
0000
0000
0000
0000
0000
0000
0000
0000
0000
0000
0000
0000
0000
0000
,
0000
0000
0000
0000
1003
0010
0100
0001
0000
0100
1000
0100
0010
1000
0001
0000
,
0010
0001
0100
0010
1000
0001
0010
0000
0100
0010
0001
1000
0010
0000
0000
0000
,
0101
0000
0000
0000
2002
0000
0000
0000
3003
0000
0000
0000
1000
0010
0100
1000
,
0100
0010
1000
0001
0010
0100
1000
0000
0001
0000
0100
0010
1000
0100
0010
0001
,
1000
0010
0100
0010
1000
0000
0000
0000
0011
0000
0000
0000
2002
0000
0000
0000
,
0000
0000
3003
0000
1000
0100
1000
0010
0100
0001
0010
0100
1000
0001
0100
0001
,
0010
0100
1000
0001
0100
0010
1000
0100
0010
0001
1000
0010
0100
0000
0000
0000
,
1010
0000
0000
0000
2002
0000
0000
0000
3003
0000
0000
0000
0001
0100
0010
0001
,
0010
0100
0001
1000
0100
0010
0001
0010
0100
0000
1000
0001
0100
0010
1000
0100
,
0010
0000
0000
0000
0000
0000
0000
0000
0000
0000
0000
0000
0001
0000
0000
0000
0000
0000
0000
0000
0000
0000
0000
0000
0010
0000
0000
0000
0000
0000
0000
0000
0000
0000
0000
0000
0100
0000
0000
0000
0000
0000
0000
0000
0000
0000
0000
0000
1000
0000
0000
0000
0000
0000
0000
0000
0000
0000
0000
0000
0000
0000
0000
0000
0000
0000
0000
0000
0000
0000
0000
0000
0001
0000
0000
0000
0000
0000
0000
0000
1000
0000
0000
0000
0000
0000
0000
0000
0001
0000
0000
0000
0000
0000
0000
0000
1000
0000
0000
0000
0000
0000
0000
0000
0000
0000
0000
0000
0000
0000
0000
0000
0000
0000
0000
0000
0000
0000
0000
0000
0001
0000
0000
0000
0000
0000
0000
0000
0000
0000
0000
0000
0000
0000
0000
0000
0000
0000
0000
0000
0000
0000
0000
0000
1000
0000
0000
0000
0000
0000
0000
0000
0000
0000
0000
0000
0000
0000
0000
0000
0000
0000
0000
0000
0000
0000
0000
0000
0001
0000
0000
0000
0000
0000
0000
0000
0000
0000
0000
0000
0200
0000
0000
0300
0000
0000
0000
0000
0000
0000
0000
0000
,
0000
0000
0000
0000
0200
0300
0000
0000
1000
0000
0000
0000
0000
0000
0000
0000
0100
0000
0000
0000
0000
0000
0000
0000
0001
0000
0000
0000
0100
0000
0000
0000
1000
0000
0000
0000
0000
0000
0000
0000
0001
0000
0000
0000
0020
0030
0000
0000
0000
0000
0000
0000
0020
0030
0000
0000
1000
0000
0000
0000
0000
0000
0000
0000
,
0100
0000
0000
0000
0000
0000
0000
0000
0010
0000
0000
0000
0000
0000
0000
0000
0001
0000
0000
0000
0000
0000
0000
0000
1000
0000
0000
0000
0200
0300
0000
0000
0000
0000
0000
0000
0200
0300
0000
0000
0001
0000
0000
0000
0000
0000
0000
0000
0100
0000
0000
0000
0000
0000
0000
0000
1000
0000
0000
0000
0000
0000
0000
0000
,
0100
0000
0000
0000
0000
0000
0000
0000
0001
0000
0000
0000
0020
0030
0000
0000
0000
0000
0000
0000
0020
0030
0000
0000
1000
0000
0000
0000
0000
0000
0000
0000
0100
0000
0000
0000
0000
0000
0000
0000
0010
0000
0000
0000
0000
0000
0000
0000
0001
0000
0000
0000
1000
0000
0000
0000
0001
0000
0000
0000
0200
0300
0000
0000
,
0000
0000
0000
0000
0200
0300
0000
0000
1000
0000
0000
0000
0000
0000
0000
0000
0010
0000
0000
0000
1000
0000
0000
0000
0100
0000
0000
0000
0000
0000
0000
0000
0010
0000
0000
0000
0001
0000
0000
0000
1000
0000
0000
0000
0020
0030
0000
0000
0000
0000
0000
0000
0020
0030
0000
0000
0001
0000
0000
0000
1000
0000
0000
0000
,
0010
0000
0000
0000
0001
0000
0000
0000
0010
0000
0000
0000
0000
0000
0000
0000
1000
0000
0000
0000
0001
0000
0000
0000
1000
0000
0000
0000
0200
0300
0000
0000
0000
0000
0000
0000
0200
0300
0000
0000
0001
0000
0000
0000
0000
0000
0000
0000
0010
0000
0000
0000
0001
0000
0000
0000
0100
0000
0000
0000
0000
0000
0000
0000
,
0010
0000
0000
0000
1000
0000
0000
0000
0001
0000
0000
0000
0020
0030
0000
0000
0000
0000
0000
0000
0020
0030
0000
0000
1000
0000
0000
0000
0100
0000
0000
0000
0010
0000
0000
0000
0001
0000
0000
0000
1000
0000
0000
0000
0010
0000
0000
0000
0200
0000
0000
0000
0000
0000
0000
0000
0000
0000
0000
0000
0000
0000
0000
0000
,
0000
0000
0000
0000
,
0000
0000
0000
0302
,
1000
0100
0010
2003
,
0010
0000
0000
0000
0001
0000
0000
0000
0100
0000
0000
0000
3002
0000
0000
0100
,
0000
0000
0010
0000
0000
1000
0000
0000
0010
0000
0000
0000
0203
0000
0000
0010
,
0000
0000
1000
0000
0000
0010
0000
0000
0001
0000
0000
0000
0310
0000
1000
0000
,
0010
0000
0100
0000
0001
0000
1000
0000
0100
0000
0010
0000
0001
0000
1000
0010
,
0100
0000
0001
0010
0000
0100
0000
1000
0002
0000
0000
0000
1003
0001
0000
0010
,
0000
0001
0100
0010
0000
1000
0000
0100
1000
0001
0010
0001
0100
0010
0000
1000
,
0000
0100
1000
0010
0000
1000
0000
0100
0010
0001
1000
0010
0100
0001
0000
0010
,
0000
0001
0100
0010
0000
1000
0000
0100
1000
0010
0100
0001
0010
0100
0000
1000
,
0000
0001
0100
0010
0000
1000
0000
0001
0010
0100
0001
0100
1000
0001
0000
0010
,
0000
0001
0100
0010
0000
1000
0000
0001
0010
0100
1000
0010
1000
0001
0000
0100
,
0000
0010
1000
0100
0000
1000
0000
0010
1000
0100
0010
0001
1000
0001
0000
0010
,
0000
0001
0100
0010
0000
1000
0000
0001
0010
0100
1000
0010
0100
0001
0000
0010
,
0000
0100
1000
0010
0000
0100
0000
0001
1000
0100
0001
0100
20M0
0000
00M0
0000
,
0000
0000
0000
0000
3010
0000
0000
0000
1000
0100
0010
0001
0100
0001
0000
0010
,
0000
0100
1000
0001
0000
0100
0000
0010
1000
0100
0010
0001
1000
0010
0000
0100
,
0000
0001
1000
0100
0000
0010
0000
0100
1000
0001
0100
0010
0100
0001
0000
0010
,
0000
0100
1000
0010
0000
0100
0000
0001
1000
0010
0100
1000
0100
0001
0000
0010
,
0000
0001
0100
0010
0000
1000
0000
0100
0010
0001
0100
0010
1000
0001
0000
0100
,
0000
1000
0100
0010
0000
1000
0000
0100
1000
0010
0001
0010
1000
0001
0000
0100
,
0000
0010
1000
0100
0000
0010
0000
0100
1000
0001
0010
1000
0010
0001
0000
0010
,
0000
0001
0100
0010
0000
1000
0000
0010
0001
1000
0100
0010
M20M
0000
M00M
0000
,
0300
0000
0000
0000
2002
0000
0000
0000
0000
0000
3003
0000
0001
0000
0100
0010
,
0000
0001
0010
0100
0001
0010
0100
1000
0001
0000
1000
0000
1100
0000
0000
1010
,
0000
0000
0101
0000
2002
0000
0000
0000
3003
0000
0000
0000
0001
1000
0100
0010
,
1000
0010
0001
1000
0010
0100
0001
0000
1000
0000
0100
0010
0001
0100
0010
1000
,
0001
0010
0100
1000
0100
0000
0000
0000
0011
0000
0000
0000
M22M
0000
M00M
0000
,
0330
0000
0000
0000
2002
0000
0000
0000
0000
0000
3003
0000
1000
0000
0010
0100
,
0000
1000
0100
0001
0100
0010
1000
0100
0010
0000
0001
0000
0101
0000
0000
1010
,
0000
0000
1100
0000
2002
0000
0000
0000
3003
0000
0000
0000
1000
0100
1000
0010
,
0001
0010
0100
0001
0010
0100
1000
0001
0100
0010
1000
0100
0010
0001
1000
0010
,
1000
0000
0000
0100
0000
0000
0010
0000
0000
0001
0000
0000
1000
0000
0000
0000
0000
0000
0001
0000
1000
0000
0001
0000
1000
0000
0000
0000
0000
0000
0100
0000
0000
0010
0000
0000
0001
0000
0000
0000
0000
0000
0000
0000
0000
1001
0000
0000
,
0000
2020
0000
0000
0000
0000
0000
0000
,
0000
0000
0000
0000
,
0000
0000
0000
0000
0000
0000
0000
0000
0000
0000
0000
3030
0000
0000
0000
0000
;

//---------------dance-double - ----------------
#NOTES:
     dance-double:
     :
     Beginner:
     4:
     0.167995,0.207543,0.295991,0.063998,0.004000,147.000000,110.000000,37.000000,8.000000,0.000000,0.000000,0.167995,0.207543,0.295991,0.063998,0.004000,147.000000,110.000000,37.000000,8.000000,0.000000,0.000000:
00000000
00000000
00000000
00000000
,
00000000
00000000
00000000
00000000
,
00000000
00000000
00000000
00000000
,
00000000
00000000
00000000
00011000
,
00000000
00000000
00101000
00000000
,
00000000
00011000
00000000
00000000
,
00010010
00000000
00000000
00011000
,
00000000
00000000
01001000
00000000
,
00000000
00011000
00000000
00000000
,
00010100
00000000
00000000
00011000
,
00000000
00000000
00000000
00010000
,
00000000
00000000
00000000
00001000
,
00000000
00000000
00000000
01000000
,
00000000
00000000
00000000
00010000
,
00000000
00000000
00000000
10000000
,
00000000
00000000
00000000
01000000
,
00000000
00000000
00000000
00100000
,
00000000
00000000
00000000
01100000
,
00000000
00000000
10010000
00000000
,
00000000
01100000
00000000
00000000
,
10010000
00000000
00000000
01100000
,
00000000
00000000
00000000
00000000
00000000
00000000
00000000
00000000
00000000
00000000
00000000
10010000
00000000
00000000
00000000
00000000
,
00000000
10010000
00000000
00000000
,
01100000
00000000
00000000
20020000
,
30030000
10000000
00000000
00010000
,
00000000
01000000
00000000
00001000
,
00000000
00011000
00000000
00010000
,
00000000
00000100
00000000
00001000
,
00000000
00000001
00000000
00002002
,
00003003
00001000
00000000
00000100
,
00000000
00010000
00000000
00001000
,
00000000
01000000
00000000
00100000
,
00000000
10000000
00000000
00010000
,
00000000
10000000
00000000
10010000
,
00000000
00000000
01100000
00000000
,
00000000
10010000
00000000
00000000
,
01100000
00000000
00000000
10010000
,
00000000
00000000
01100000
00000000
,
00000000
00011000
00000000
00000000
,
00010010
00000000
00000000
00001001
,
00000000
00000000
00000000
00000000
,
00000000
00000000
00000000
00000001
,
00000000
00000000
00000000
00001000
,
00000000
00000000
00000000
00000010
,
00000000
00000000
00000000
00010000
,
00000000
00000000
00000000
00001000
,
00000000
00000000
00000000
00100000
,
00000000
00000000
00000000
01100000
,
00000000
01000000
00000000
01000000
,
00000000
10000000
00000000
10000000
,
00000000
00010000
00000000
00010000
,
00000000
01000000
00000000
01000000
,
00000000
00100000
00000000
00100000
,
00000000
10000000
00000000
10000000
,
00000000
00010000
00000000
00010000
,
00000000
00100000
00000000
00101000
,
00000000
00000000
00000000
00001000
,
00000000
00010000
00000000
00001000
,
00000000
00010000
00000000
00000010
,
00000000
00001000
00000000
00000010
,
00000000
00000100
00000000
00000001
,
00000000
00001000
00000000
00000100
,
00000000
00000010
00000000
00000100
,
00000000
00010000
00000000
00022000
,
00000000
00033000
00000000
00001000
,
00000000
00010000
00000000
00011000
,
00000000
01001000
00000000
01000000
,
00000000
00010000
00000000
10000000
,
00000000
01000000
00000000
02200000
,
00000000
03300000
00000000
00010000
,
00000000
01000000
00000000
00011000
,
00000000
00010100
00000000
00010000
,
00000000
00000100
00000000
00000010
,
00000000
00000001
00000000
00001000
,
00000000
00001000
00000000
00000000
00000000
00000000
00000000
00000000
;

//---------------dance-double - ----------------
#NOTES:
     dance-double:
     :
     Easy:
     8:
     0.330275,0.429436,0.271991,0.263992,0.139996,289.000000,255.000000,34.000000,33.000000,0.000000,0.000000,0.330275,0.429436,0.271991,0.263992,0.139996,289.000000,255.000000,34.000000,33.000000,0.000000,0.000000:
00000000
00000000
00000000
00000000
,
00000000
00000000
00000000
00000000
,
00000000
00000000
00000000
00000000
,
00000000
00000000
00000000
00000000
00000000
00000000
00000000
00000000
00000000
00000000
00000000
00000000
10000000
00000000
00000000
10000000
,
00000000
00000000
10000000
00000000
00000000
00000000
00000000
00000000
01000000
00000000
00000000
01000000
00000000
00000000
00100000
00000000
,
00000000
00000000
00000000
00000000
00001000
00000000
00000000
00001000
00000000
00000000
00001000
00000000
00000000
00000000
00000000
00000000
,
00010000
00000000
00000000
00010000
00000000
00000000
00000100
00000000
00000000
00000000
00000000
00000000
00001000
00000000
00000000
00001000
,
00000000
00000000
00001000
00000000
00000000
00000000
00000000
00000000
00000010
00000000
00000000
00000010
00000000
00000000
00010000
00000000
,
00000000
00000000
00000000
00000000
00001000
00000000
00000000
00001000
00000000
00000000
00001000
00000000
00000000
00000000
00000000
00000000
,
00010000
00000000
00000000
00010000
00000000
00000000
00000100
00000000
00000000
00000000
00000000
00000000
00002000
00000000
00000000
00000000
,
00000000
00003020
00000000
00000000
00000000
00000130
00000002
00000000
,
00000000
00000023
00000000
00000000
00000000
00000000
00000230
00000000
,
00000000
00020300
00000000
00000000
00000000
00031000
02000000
00000000
,
00000000
03200000
00000000
00000000
00000000
00000000
20300000
00000000
,
00000000
32000000
00000000
00000000
00000000
03100000
00020000
00000000
,
00000000
02030000
00000000
00000000
00000000
00000000
03002000
00000000
,
00000000
00023000
00000000
00000000
00000000
00030100
00000020
00000000
,
00000000
00000000
00000031
00000000
00000000
00000000
00000000
00000000
00001001
00000000
00000000
00000000
00001000
00000000
00000000
00001000
,
00000000
00000000
00001000
00000000
00000000
00000000
00000000
00000000
00000010
00000000
00000000
00000010
00000000
00000000
00010000
00000000
,
00000000
00000000
00000000
00000000
00001000
00000000
00000000
00001000
00000000
00000000
00001000
00000000
00000000
00000000
00000000
00000000
,
00100000
00000000
00000000
00100000
00000000
00000000
00010000
00000000
00000000
00000000
00000000
00000000
01000000
00000000
00000000
01000000
,
00000000
00000000
01000000
00000000
00000000
00000000
00000000
00000000
00000000
00000000
00000000
01100000
00000000
00000000
10010000
00000000
,
00000000
00000000
00000000
00000000
10000000
00000000
00000000
10000000
00000000
00000000
10000000
00000000
00000000
00000000
00000000
00000000
,
01000000
00000000
00000000
01000000
00000000
00000000
00100000
00000000
00000000
00000000
00000000
00000000
00011000
00000000
00000000
00000000
,
00000000
00000000
00000000
00000000
00001000
00000000
00000000
00001000
00000000
00000000
00010000
00000000
00000000
00000000
00000000
00000000
,
00001100
00000001
00001001
00001100
,
00011000
00000000
00000000
00000000
00220000
00000000
00000000
00000000
00330000
00000000
00000000
00000000
00010000
00000000
00000000
00010000
,
00000000
00010000
00000000
00000000
01010000
00000000
10000000
00000000
,
11000000
00110000
00011000
00002200
,
00003300
00000000
00000000
00000000
00001000
00000000
00000000
00001000
00000000
00000000
00000010
00000000
00000000
00000000
00000000
00000000
,
00000101
00001000
00001100
00011000
,
00110000
00000000
00000000
00000000
20020000
00000000
00000000
00000000
30030000
00000000
00000000
00000000
01000000
00000000
00000000
01000000
,
00000000
01000000
00000000
00000000
10010000
00000000
00100000
00000000
,
01010000
00000000
00000000
00000000
01000000
00000000
00000000
00000000
00001000
00000000
00000000
00000000
00010000
00000000
00000000
00010000
,
00000000
00000000
00010000
00000000
00000000
00000000
00000000
00000000
00001000
00000000
00000000
00001000
00000000
00000000
00000010
00000000
,
00000000
00000000
00000000
00000000
00000001
00000000
00000000
00000001
00000000
00000000
00000001
00000000
00000000
00000000
00000000
00000000
,
00000100
00000000
00000000
00000100
00000000
00000000
00000010
00000000
00000000
00000000
00000000
00000000
00010000
00000000
00000000
00010000
,
00000000
00000000
00010000
00000000
00000000
00000000
00000000
00000000
00001000
00000000
00000000
00001000
00000000
00000000
00100000
00000000
,
00000000
00000000
00000000
00000000
01000000
00000000
00000000
01000000
00000000
00000000
01000000
00000000
00000000
00000000
00000000
00000000
,
10000000
00000000
00000000
10000000
00000000
00000000
00100000
00000000
00000000
00000000
00000000
00000000
02020000
00000000
00000000
00000000
,
00000000
00000000
00000000
00000000
,
00000000
00000000
00000000
00000000
,
00000000
00000000
00000000
00000000
,
00000000
00000000
03030000
00010000
,
10000000
00010000
01000000
00001000
,
01000000
00001000
01000000
00001000
,
00100000
00001000
00100000
00001000
,
00010000
00000100
00000020
00001030
,
00000100
00000000
00010000
00000000
00001000
00100000
00010000
00000000
,
01000000
00000000
00100000
00000000
10000000
01000000
00100000
00000000
,
00010000
00000000
01000000
00000000
00100000
00010000
00001000
00000000
,
00100000
00000000
01000000
00000000
10000000
00010000
01000000
00000000
,
00001000
00000000
00010000
00000000
00000100
00001000
00000001
00000000
,
00000100
00000000
00000010
00000000
00010000
00001000
00100000
00000000
,
01000000
00000000
00100000
00000000
00010000
01000000
00001000
00000000
,
00010000
00000000
00000100
00000000
00000001
00000100
00002000
00000000
,
00000000
00003000
00000001
00001000
,
00000100
00000000
00010000
00000000
00001000
01000000
00100000
00000000
,
10000000
00000000
01000000
00000000
00010000
00001000
00000010
00000000
,
00000001
00000000
00000100
00000000
00001000
00010000
00100000
00000000
,
10000000
00000000
01000000
00000000
00100000
01000000
10000000
00000000
,
00010000
00000000
01000000
00000000
10000000
01000000
00001000
00000000
,
00010000
00000000
00000100
00000000
00000010
00000001
00000100
00000000
,
00001000
00010000
00011000
02020000
,
00000000
00000000
00000000
00000000
03030000
00000000
00000000
00000000
00000000
00000000
00000000
00000000
00010000
00000000
00000000
00010000
,
00000000
00000000
00010000
00000000
00000000
00000000
00000000
00000000
01100000
00000000
00000000
00000000
10000000
00000000
00000000
10000000
,
00000000
00000000
20000000
00000000
00000000
00000000
00000000
00000000
30000000
00000000
00000000
00000000
01000000
00000000
00000000
01000000
,
00000000
01000000
00000000
00000000
00100000
00000000
00011000
00000000
,
00000100
00000110
00001001
00002020
,
00000000
00000000
00000000
00000000
00003030
00000000
00000000
00000000
00000000
00000000
00000000
00000000
00001000
00000000
00000000
00001000
,
00000000
00000000
00001000
00000000
00000000
00000000
00000000
00000000
00011000
00000000
00000000
00000000
00100000
00000000
00000000
00100000
,
00000000
00000000
00200000
00000000
00000000
00000000
00000000
00000000
00300000
00000000
00000000
00000000
01000000
00000000
00000000
01000000
,
00000000
01000000
00000000
00000000
10000000
00000000
01100000
00000000
,
00010000
00011000
00000100
00000110
,
00000000
00022000
00000000
00000000
00000000
00000000
00000000
00000000
,
00000000
00000000
00000000
00000000
,
00000000
00000000
00000000
00000000
00000000
00000000
00000000
00000000
00000000
00000000
00000000
00033000
00000000
00000000
00000000
00000000
;

//---------------dance-double - ----------------
#NOTES:
     dance-double:
     :
     Medium:
     12:
     0.462842,0.552132,0.495984,0.239992,0.303990,405.000000,343.000000,62.000000,30.000000,4.000000,0.000000,0.462842,0.552132,0.495984,0.239992,0.303990,405.000000,343.000000,62.000000,30.000000,4.000000,0.000000:
00000000
00000000
00000000
00000000
,
00000000
00000000
00000000
00000000
,
00000000
00000000
00000000
00000000
,
00000000
00000000
00000000
00000000
00000000
00000000
00000000
00000000
00000000
00000000
00000000
00000000
10000000
00000000
00000000
00100000
,
00000000
00000000
01100000
00000000
00000000
00000000
00000000
00000000
01000000
00000000
00000000
00010000
00000000
00000000
00110000
00000000
,
00000000
00000000
00000000
00000000
00100000
00000000
00000000
00001000
00000000
00000000
00011000
00000000
00000000
00000000
00000000
00000000
,
00010000
00000000
00000000
00000100
00000000
00000000
00001100
00000000
00000000
00000000
00000000
00000000
00001000
00000000
00000000
00000010
,
00000000
00000000
00000110
00000000
00000000
00000000
00000000
00000000
00000100
00000000
00000000
00000001
00000000
00000000
00000011
00000000
,
00000000
00000000
00000000
00000000
00000010
00000000
00000000
00000100
00000000
00000000
00001100
00000000
00000000
00000000
00000000
00000000
,
00000100
00000000
00000000
00010000
00000000
00000000
00001000
00000000
01000000
00000000
00000000
00000000
00100000
00000000
10000000
00010000
,
00000000
00200000
00000000
01000000
00000000
00301000
00020000
00001000
,
00000000
00000000
00000100
00000000
00000000
00000000
00001000
00000000
00031000
00000000
00000000
00000000
00010000
00000000
00000100
00001000
,
00000000
00000002
00000000
00000100
00000000
00000013
00000200
00001000
,
00000000
00000000
00000010
00000000
00000000
00000000
00010000
00000000
00010300
00000000
00000000
00000000
00000100
00000000
00010000
00001000
,
00000000
02000000
00000000
00100000
00000000
03010000
20000000
00010000
,
00000000
00000000
01000000
00000000
00000000
00000000
00100000
00000000
30100000
00000000
00000000
00000000
10000000
00000000
00020000
01000000
,
00000000
00100000
00000000
01000000
00000000
00130000
00001000
00010000
,
00000100
00000000
00000000
00000010
00000000
00000000
00000010
00000000
00000001
00000000
00000000
00000000
00000100
00000000
00000000
00000010
,
00000000
00000000
00001010
00000000
00000000
00000000
00000000
00000000
00001000
00000000
00000000
00000100
00000000
00000000
00010100
00000000
,
00000000
00000000
00000000
00000000
00010000
00000000
00000000
00001000
00000000
00000000
01001000
00000000
00000000
00000000
00000000
00000000
,
01000000
00000000
00000000
00100000
00000000
00000000
10100000
00000000
00000000
00000000
00000000
00000000
11000000
00000000
00000000
01010000
,
00000000
00000000
00011000
00000000
00000000
00000000
00000000
00000000
00010000
00000000
00000000
00001100
00000000
00000000
00000011
00000000
,
00000000
00000000
00000000
00000000
00000001
00000000
00000000
00000100
00000000
00000000
00001010
00000000
00000000
00000000
00000000
00000000
,
00000010
00000000
00000000
00010000
00000000
00000000
00001000
00000000
00100000
00000000
00000000
00000000
02200000
00000000
00000000
00000000
,
03300000
00000000
00000000
00000000
11000000
00000000
00000000
10010000
00000000
00000000
00010000
00000000
01000000
00000000
00100000
00000000
,
10000000
01000000
00100000
00001000
00010000
00000000
00011000
00000000
,
00000110
00000000
00000000
00000000
00002002
00000000
00000000
00000000
00003003
00000000
00000000
00000000
00000101
00000000
00000000
00001010
,
00000000
00001000
00000100
00010000
00001000
01000000
00100000
00010000
,
00100000
01100000
10100000
20020000
,
30030000
00000000
00000000
00000000
10100000
00000000
00000000
01010000
00000000
00000000
00001000
00000000
01000000
00000000
00001000
00000000
,
00010000
00000100
00001000
00000001
00000100
00000000
00000110
00000000
,
00011000
00000000
00000000
00000000
00220000
00000000
00000000
00000000
00330000
00000000
00000000
00000000
11000000
00000000
00000000
00110000
,
00000000
00100000
00001000
00010000
00000010
00001000
00000001
00000010
,
00000100
00000000
00001000
00000000
00000020
00000000
00000000
00000000
00020030
00000000
00000000
00000000
00031000
00000000
00000000
01000000
,
00000000
00000000
01100000
00000000
00000000
00000000
00000000
00000000
10000000
00000000
00000000
01000000
00000000
00000000
00110000
00000000
,
00000000
00000000
00000000
00000000
00001000
00000000
00000000
00010000
00000000
00000000
00001100
00000000
00000000
00000000
00000000
00000000
,
00000100
00000000
00000000
00000010
00000000
00000000
00001001
00000000
00000000
00000000
00000000
00000000
00001000
00000000
00000000
00000010
,
00000000
00000000
00011000
00000000
00000000
00000000
00000000
00000000
00010000
00000000
00000000
00001000
00000000
00000000
00110000
00000000
,
00000000
00000000
00000000
00000000
10000000
00000000
00000000
00100000
00000000
00000000
01010000
00000000
00000000
00000000
00000000
00000000
,
01000000
00000000
00000000
00001000
00000000
00000000
00100000
00000000
00010000
00000000
00000000
00000000
20020000
00000000
00000000
00000000
,
00000000
00000000
00000000
00000000
,
00000000
00000000
30030000
10000000
,
01000000
00100000
00001000
00010000
,
00000100
00000000
00000000
00000000
00000010
00000000
00000000
00000000
00000001
00000000
00000000
00000000
00000100
00000000
00000000
00000010
,
00000000
00000000
00001000
00000000
00000000
00000010
00000000
00000000
00010000
00000000
00000000
00000000
00001000
00000000
00000000
00100000
,
00000000
00000000
00010000
00000000
00000000
10000000
00000000
00000000
00100000
00000000
00000000
00000000
01000000
00000000
00010000
00000000
,
10000000
01000000
00100000
00001000
00010000
00000100
00001000
00000000
,
00000001
00000000
00000000
00000010
00000000
00000010
00000000
00000000
00000200
00000000
00000000
00000000
00010300
00000000
00000000
00001000
,
00000000
00000000
01000000
00000000
00000000
00100000
00000000
00000000
10000000
00000000
00000000
00000000
01000000
00000000
00000000
00100000
,
00000000
00000000
00001000
00000000
00000000
00010000
00000000
00000000
00000100
00000000
00000000
00000000
00000010
00000000
00000000
00000001
,
00000000
00000000
00001000
00000000
00000000
00000010
00000000
00000000
00001000
00000000
00000100
00000000
00000010
00000000
00000000
00000001
,
00000000
00000000
00000100
00000000
00000000
00001000
00000000
00000000
00010000
00000000
00100000
00000000
10000000
00000000
00000000
01000000
,
00000000
00000000
00100000
00000000
00000000
00001000
00000000
00000000
01000000
00000000
00000000
00000000
00100000
00000000
00000000
10000000
,
00000000
00000000
01000000
00000000
00000000
00010000
00000000
00000000
00001000
00000000
00000000
00000000
00100000
00000000
00000000
00001000
,
00000000
00000000
00010000
00000000
00000000
00000100
00000000
00000000
00000010
00000000
00000001
00000000
00000100
00000000
00000010
00000000
,
00001000
00000000
00000000
00000100
00000000
00000000
00010000
00000000
00011000
00000000
00000000
00000000
02002000
00000000
00000000
00000000
,
00000000
00000000
00000000
00000000
03003000
00000000
00000000
00000000
01000000
00000000
00000000
00000000
00010000
00000000
00000000
10000000
,
00000000
00000000
01000000
00000000
00000000
00010000
00000000
00000000
00001000
00000000
00000000
00000000
00100000
00000000
00000000
00010000
,
00000000
00000000
01000000
00000000
00000000
00100000
00000000
00000000
00010000
00000000
00001000
00000000
00000010
00000000
00000000
00000001
,
00000000
00000000
00000100
00000000
00000000
00000010
00000000
00000000
00000100
00000000
00001000
00000000
00010000
00000000
00000000
00100000
,
00000000
00000000
10000000
00000000
00000000
01000000
00000000
00000000
00010000
00000000
00001000
00000000
00000100
00000000
00000000
00000001
,
00000000
00000000
00000010
00000000
00000000
00001000
00000000
00000000
00010000
00000000
00100000
00000000
01000000
00000000
00000000
10000000
,
00000000
00000000
01000000
00000000
00000000
00010000
00000000
00000000
00100000
00000000
10000000
00000000
00100000
00000000
00000000
00010000
,
00000000
00000000
01000000
00000000
00000000
00100000
00000000
00000000
00010000
00000000
00001000
00000000
0M012000
00000000
0M000000
00000000
,
00000000
00000000
00000000
00000000
02003000
00000000
00000000
00000000
00000000
00000000
00000000
00000000
03100000
00000000
00000000
10100000
,
00000000
00000000
01010000
00000000
00010000
00000000
00100000
00000000
01000000
00000000
00000000
00000000
10000000
00000000
00000000
01100000
,
00000000
00000000
00010000
00000000
02000000
00000000
00000000
00000000
03000000
00000000
00000000
00000000
00110000
00000000
00000000
00011000
,
00000000
00010000
00000100
00000010
00000001
00000100
00000010
00010000
,
00001000
00000000
00110000
00000000
11000000
00000000
201M0000
000M0000
,
00000000
00000000
00000000
00000000
30020000
00000000
00000000
00000000
00000000
00000000
00000000
00000000
00130000
00000000
00000000
00011000
,
00000000
00000000
00001100
00000000
00000100
00000000
00000010
00000000
00000001
00000000
00000000
00000000
00000100
00000000
00000000
00001010
,
00000000
00000000
00010000
00000000
00002000
00000000
00000000
00000000
00003000
00000000
00000000
00000000
00110000
00000000
00000000
11000000
,
00000000
10000000
00100000
01000000
10000000
01000000
00010000
00100000
,
01000000
00000000
00000000
00000000
11000000
00000000
00000000
00000000
01010000
00000000
00000000
00000000
01000000
00000000
00000000
00001000
,
00000000
00022000
00000000
00000000
00000000
00000000
00000000
00000000
,
00000000
00000000
00000000
00000000
,
00000000
00000000
00000000
00000000
00000000
00000000
00000000
00000000
00000000
00000000
00000000
00033000
00000000
00000000
00000000
00000000
;

//---------------dance-double - ----------------
#NOTES:
     dance-double:
     :
     Hard:
     15:
     0.606838,0.644154,0.287991,0.359988,0.663979,531.000000,495.000000,36.000000,45.000000,6.000000,0.000000,0.606838,0.644154,0.287991,0.359988,0.663979,531.000000,495.000000,36.000000,45.000000,6.000000,0.000000:
00000000
00000000
00000000
00000000
,
00000000
00000000
00000000
00000000
,
00000000
00000000
00000000
00000000
,
00000000
00000000
00000000
00000000
00000000
00000000
00000000
00000000
00000000
00000000
00000000
00000000
00010000
00000000
00001000
00100000
,
00000000
00010000
00100000
00000000
00001000
00000000
00000000
00000000
00010000
00000000
00000010
00001000
00000000
00000010
00010000
00000000
,
00001000
00000000
00000000
00000000
00010000
00000000
00001000
00100000
00000000
00010000
00100000
00000000
01000000
00000000
00000000
00000000
,
10000000
00000000
00010000
01000000
00000000
00100000
10000000
00000000
01000000
00000000
00000000
00000000
00010000
00000000
01000000
00100000
,
00000000
00001000
00010000
00000000
00000100
00000000
00000000
00000000
00001000
00000000
00000001
00000100
00000000
00000010
00001000
00000000
,
00000100
00000000
00000000
00000000
00010000
00000000
00001000
01000000
00000000
00010000
01000000
00000000
00100000
00000000
00000000
00000000
,
10000000
00000000
01000000
00100000
00000000
10000000
00100000
00000000
00010000
00000000
00000000
00000000
01000000
00000000
00100000
10000000
,
00000000
00000000
01000000
00100000
00000000
00000000
00002000
00000000
00013000
00000000
00000100
00000000
00000010
00000000
00000002
00000000
,
00000103
00000000
00001000
00000100
00000000
00000000
00000020
00000000
00001030
00000000
00000000
00000000
00000100
00000000
00010000
00001000
,
00000000
00000000
00100000
00010000
00000000
00000000
20000000
00000000
30100000
00000000
01000000
00000000
10000000
00000000
02000000
00000000
,
03010000
00000000
01000000
00001000
00000000
00000000
00020000
00000000
00030100
00000000
00000000
00000000
00000010
00000000
00000001
00001000
,
00000000
00000000
00000010
00001000
00000000
00000000
00000200
00000000
00000310
00000000
00000001
00000000
00000100
00000000
00002000
00000000
,
00003100
00000000
00000010
00010000
00000000
00000000
00002000
00000000
00103000
00000000
00000000
00000000
01000000
00000000
10000000
00010000
,
00000000
00000000
01000000
00010000
00000000
00000000
00100000
00000000
01000000
00000000
10000000
00000000
00100000
00000000
01000000
00010000
,
00100000
00000000
01000000
10000000
00000000
00010000
10000000
00000000
10100000
00000000
00000000
00000000
00100000
00000000
01000000
00010000
,
00000000
10000000
00010000
00000000
00100000
00000000
00000000
00000000
00001000
00000000
00010000
00001000
00000000
00010000
00000010
00000000
,
00000100
00000000
00000000
00000000
00000001
00000000
00000010
00000100
00000000
00001000
00000010
00000000
00000100
00000000
00000000
00000000
,
00000001
00000000
00000010
00000100
00000000
00001000
00000001
00000000
00000100
00000000
00000000
00000000
00000110
00000000
00000000
00001010
,
00000000
00000000
00011000
00000000
00000000
00000000
00010000
00001000
00000010
00000000
00000000
00001010
00000000
00000000
00011000
00000000
,
00000000
00000000
00000000
00000000
00010000
00000000
00001000
01000000
00000000
00010000
10000000
00000000
01000000
00000000
00000000
00000000
,
00100000
00000000
00001000
00010000
00000000
00000010
00001000
00000000
00001001
00000000
00000000
00000000
00000202
00000000
00000000
00000000
,
00000303
00000000
00000000
00000000
00000001
00000000
00000001
00000100
00000000
00000100
00001000
00000000
00000100
00001000
00010000
00000000
,
00001000
00000000
00100000
01000000
10000000
00010000
00000000
00000000
10010000
00000000
00000000
00000000
11000000
00000000
00000000
00000000
,
00110000
00000000
00000000
00000000
00011000
00000000
00000000
00000000
00000000
00000000
00000000
00000000
00001000
00000000
00001000
01000000
,
00000000
01000000
00100000
00000000
00010000
00100000
01000000
00000000
00010000
00000000
10000000
01000000
00100000
00010000
00000000
00000000
,
00110000
11000000
00110000
00022000
,
00033000
00000000
00000000
00000000
00010000
00000000
00010000
00000010
00000000
00000010
00000100
00000000
00001000
00000100
00000010
00000000
,
00001000
00000000
00000001
00000010
00000100
00001000
00000000
00000000
00001001
00000000
00000000
00000000
00000101
00000000
00000000
00000000
,
00001010
00000000
00000000
00000000
00022000
00000000
00000000
00000000
00033000
00000000
00000000
00000000
00010000
00000000
00010000
00000100
,
00000000
00000100
00000010
00000000
00001000
00000010
00000001
00000000
00001000
00000000
00000001
00000100
00000010
00001000
00000000
00000000
,
00001001
00000000
00000000
00000000
00000001
00000000
00000100
00000010
00010000
00000000
00001000
00000000
01000000
00000000
00010000
10000000
,
00000000
01000000
00100000
00000000
00001000
00000000
00010000
00001000
00000010
00000000
00001000
00010000
00000000
00000100
00010000
00000000
,
00001000
00000000
00000000
00000000
00010000
00000000
00000100
00000010
00000000
00000001
00001000
00000000
00000010
00000000
00000001
00000000
,
00000010
00000000
00000100
00000001
00000000
00001000
00000001
00000000
00000010
00000000
00000000
00000000
00000100
00000000
00010000
00001000
,
00000000
00100000
00010000
00000000
01000000
00000000
10000000
01000000
00100000
00000000
01000000
00010000
00000000
10000000
00010000
00000000
,
00100000
00000000
00000000
00000000
00001000
00000000
00010000
00000100
00000000
00001000
00000100
00000000
00000010
00000000
00001000
00000000
,
00000010
00000000
00000001
00001000
00000000
00000010
00001000
00000000
00001010
00000000
00000000
00000000
00022000
00000000
00000000
00000000
,
00000000
00000000
00000000
00000000
,
00000000
00000000
00033000
00002000
,
00023000
00030200
00000320
00000032
,
00000203
00000320
00020030
00032000
,
02003000
03200000
20300000
32000000
,
03200000
00000000
00302000
00000000
00023000
00000000
00030100
00000010
,
00000001
00000000
00001000
00000000
00000010
00000000
00010000
00000000
00001000
00000000
00100000
00000000
00010000
00000000
00000000
01000000
,
00010000
00000000
10000000
00010000
00000000
01000000
00000000
00001000
00020000
00000000
00000000
00000000
00030100
00000000
00000000
00000010
,
00000000
00000001
00001000
00000000
00000000
00000010
00000000
00001000
00000001
00000000
00000000
00000000
00000100
00000000
00000000
00000010
,
00000000
00001000
00000010
00000000
00000000
00010000
00000000
00001000
00100000
00000000
00000000
00000000
01000000
00000000
00000000
10000000
,
00000000
00100000
01000000
00000000
00000000
00001000
00000000
00010000
00000100
00000000
00000010
00000000
00000001
00000000
00000000
00000100
,
00000000
00000010
00001000
00000000
00000000
00000100
00000000
00010000
00001000
00000000
01000000
00000000
00100000
00000000
00000000
10000000
,
00000000
01000000
00100000
00000000
00000000
00001000
00000000
00010000
00000100
00000000
00001000
00000000
00000010
00000000
00000000
00000100
,
00000000
00000001
00000010
00000000
00000000
00000100
00000000
00010000
00001000
00000000
00000000
00000000
00100000
00000000
00000000
01000000
,
00000000
10000000
00010000
00000000
00000000
01000000
00000000
00100000
10000000
00000000
01000000
00000000
00010000
00000000
00000000
00001000
,
00000000
00100000
00001000
00000000
00000000
00010000
00000000
00000100
00000010
00000000
00000001
00000000
00001M02
00000000
00000M00
00000000
,
00000000
00000000
00000000
00000000
00000103
00000000
00000000
00000000
00000001
00000000
00000000
00000000
00000010
00000000
00000000
00000100
,
00000000
00010000
00001000
00000000
00000000
00100000
00000000
00010000
01000000
00000000
00000000
00000000
00100000
00000000
00000000
10000000
,
00000000
01000000
00100000
00000000
00000000
00001000
00000000
00010000
00001000
00000000
00100000
00000000
01000000
00000000
00000000
00010000
,
00000000
01000000
10000000
00000000
00000000
00010000
00000000
01000000
00001000
00000000
00010000
00000000
00000100
00000000
00000000
00000010
,
00000000
00000001
00001000
00000000
00000000
00000010
00000000
00000000
00000100
00000000
00000000
00000000
00001000
00000000
00000000
00010000
,
00000000
00100000
01000000
00000000
00000000
00010000
00000000
00000000
10000000
00000000
01000000
00000000
00010000
00000000
00000000
00001000
,
00000000
00000010
00000100
00000000
00000000
00001000
00000000
00000000
00000001
00000000
00000100
00000000
00001000
00000000
00000000
00010000
,
00000000
00000010
00000100
00000000
00000000
00001000
00000000
00000000
00010000
00000000
00000000
00000000
0M021000
00000000
0M000000
00000000
,
00000000
00000000
00000000
00000000
02030000
00000000
00000000
00000000
00000000
00000000
00000000
00000000
13000000
00000000
00010000
01000000
,
00000000
00010000
00100000
00000000
00001000
00010000
00000010
00000000
00000100
00000000
00000000
00000000
00000101
00000000
00000000
00000001
,
00000000
00000000
00000010
00000000
00002200
00000000
00000000
00000000
00003300
00000000
00000000
00000000
00001000
00000000
00000100
00010000
,
00000000
00010000
00001000
00000000
01000000
00100000
00010000
00000000
00100000
00000000
10000000
01000000
00100000
00010000
00000000
00000000
,
10010000
00000000
11000000
00000000
00110000
00000000
00012M00
00000M00
,
00000000
00000000
00000000
00000000
00003200
00000000
00000000
00000000
00000000
00000000
00000000
00000000
00000301
00000000
00001000
00000100
,
00000000
00000010
00000001
00000000
00000100
00000010
00010000
00001000
00100000
00000000
01000000
00000000
11000000
00000000
00000000
00010000
,
00000000
00000000
10000000
00000000
20200000
00000000
00000000
00000000
30300000
00000000
00000000
00000000
00100000
00000000
01000000
00001000
,
00000000
00001000
00010000
00000000
00001000
00000010
00001000
00000000
00010000
00000000
00001000
00010000
00100000
01000000
00001000
00000000
,
01000000
00000000
00000000
00000000
00100000
00000000
10000000
01000000
00100000
00000000
00000000
00000000
10010000
00000000
00000000
01010000
,
00000000
00022000
00000000
00000000
00000000
00000000
00000000
00000000
,
00000000
00000000
00000000
00000000
,
00000000
00000000
00000000
00000000
00000000
00000000
00000000
00000000
00000000
00000000
00000000
00033000
00000000
00000000
00000000
00000000
;

//---------------dance-double - DS-, FS, XO----------------
#NOTES:
     dance-double:
     :
     Challenge:
     17:
     0.757690,0.920221,0.367988,0.591981,1.131964,663.000000,617.000000,46.000000,74.000000,6.000000,0.000000,0.757690,0.920221,0.367988,0.591981,1.131964,663.000000,617.000000,46.000000,74.000000,6.000000,0.000000:
00000000
00000000
00000000
00000000
,
00000000
00000000
00000000
00000000
,
00000000
00000000
00000000
00000000
,
00000000
00000000
00000000
00000000
00000000
00000000
00000000
00000000
00000000
00000000
00000000
00000000
00000000
00000000
00000000
00000000
00000000
00000000
00000000
00000000
00000000
00000000
00000000
00000000
00000000
00000000
00000000
00000000
00000000
00000000
00000000
00000000
00000000
00000000
00000000
00000000
00000000
00000000
00000000
00000000
00000000
00000000
00000000
00000000
00000000
00000000
00000000
00000000
00001000
00000000
00000000
00000000
00000000
00000000
00000000
00000000
00010000
00000000
00000000
00000000
00000200
00000300
00000000
00000000
,
00000000
00000000
00000000
00000000
00000200
00000300
00000000
00000000
00000001
00000000
00000000
00000000
00000000
00000000
00000000
00000000
00000010
00000000
00000000
00000000
00000100
00000000
00000000
00000000
00001000
00000000
00000000
00000000
00000000
00000000
00000000
00000000
00000100
00000000
00000000
00000000
00000000
00000000
00000000
00000000
00010000
00000000
00000000
00000000
00002000
00003000
00000000
00000000
00000000
00000000
00000000
00000000
00002000
00003000
00000000
00000000
00000010
00000000
00000000
00000000
00000000
00000000
00000000
00000000
,
00010000
00000000
00000000
00000000
00001000
00000000
00000000
00000000
00100000
00000000
00000000
00000000
00000000
00000000
00000000
00000000
00010000
00000000
00000000
00000000
00000000
00000000
00000000
00000000
10000000
00000000
00000000
00000000
02000000
03000000
00000000
00000000
00000000
00000000
00000000
00000000
02000000
03000000
00000000
00000000
00010000
00000000
00000000
00000000
00000000
00000000
00000000
00000000
01000000
00000000
00000000
00000000
00100000
00000000
00000000
00000000
10000000
00000000
00000000
00000000
00000000
00000000
00000000
00000000
,
01000000
00000000
00000000
00000000
00000000
00000000
00000000
00000000
00100000
00000000
00000000
00000000
00020000
00030000
00000000
00000000
00000000
00000000
00000000
00000000
00020000
00030000
00000000
00000000
00001000
00000000
00000000
00000000
00000000
00000000
00000000
00000000
01000000
00000000
00000000
00000000
00100000
00000000
00000000
00000000
10000000
00000000
00000000
00000000
00000000
00000000
00000000
00000000
00010000
00000000
00000000
00000000
00000000
00000000
00000000
00000000
01000000
00000000
00000000
00000000
00002000
00003000
00000000
00000000
,
00000000
00000000
00000000
00000000
00002000
00003000
00000000
00000000
00000100
00000000
00000000
00000000
00000000
00000000
00000000
00000000
00001000
00000000
00000000
00000000
00000010
00000000
00000000
00000000
00000100
00000000
00000000
00000000
00000000
00000000
00000000
00000000
00000001
00000000
00000000
00000000
00000000
00000000
00000000
00000000
00000100
00000000
00000000
00000000
00000020
00000030
00000000
00000000
00000000
00000000
00000000
00000000
00000020
00000030
00000000
00000000
00000001
00000000
00000000
00000000
00000000
00000000
00000000
00000000
,
00001000
00000000
00000000
00000000
00000100
00000000
00000000
00000000
00010000
00000000
00000000
00000000
00000000
00000000
00000000
00000000
00001000
00000000
00000000
00000000
00000000
00000000
00000000
00000000
00100000
00000000
00000000
00000000
02000000
03000000
00000000
00000000
00000000
00000000
00000000
00000000
02000000
03000000
00000000
00000000
00010000
00000000
00000000
00000000
00000000
00000000
00000000
00000000
01000000
00000000
00000000
00000000
00001000
00000000
00000000
00000000
00010000
00000000
00000000
00000000
00000000
00000000
00000000
00000000
,
00000100
00000000
00000000
00000000
00000000
00000000
00000000
00000000
00010000
00000000
00000000
00000000
00002000
00003000
00000000
00000000
00000000
00000000
00000000
00000000
00002000
00003000
00000000
00000000
00000001
00000000
00000000
00000000
00000000
00000000
00000000
00000000
00001001
00000000
00000000
00000000
00000000
00000000
00000000
00000000
00000000
00000000
00000000
00000000
00000000
00000000
00000000
00000000
00001000
00000000
00000000
00000000
00000000
00000000
00000000
00000000
00000100
00000000
00000000
00000000
00001000
00000000
00000000
00000000
,
00000010
00000000
00000100
00000001
00000000
00000000
00002000
00000000
00000100
00000000
00003010
00000000
00010000
00000000
00000200
00000000
,
00001000
00000000
00010300
00000100
00000000
00000000
00100000
00000000
00001000
00000000
00010000
00000000
01000000
00000000
10000000
00010000
,
01000000
00000000
00100000
10000000
00000000
00000000
02000000
00000000
00100000
00000000
13000000
00000000
00020000
00000000
00100000
00000000
,
10030000
00000000
01000000
00100000
00000000
00000000
00002000
00000000
00010000
00000000
00000000
00000000
00003010
00000000
00001000
00010000
,
00000100
00000000
00000010
00000001
00000000
00000000
00002000
00000000
00000001
00000000
00003100
00000000
00010000
00000000
00000020
00000000
,
00000100
00000000
00001030
00000001
00000000
00000000
00000010
00000000
00000100
00000000
00010000
00000000
00001000
00000000
01000000
00010000
,
10000000
00000000
01000000
00100000
00000000
00000000
00002000
00000000
01000000
00000000
00013000
00000000
00000100
00000000
00000010
00000001
,
00001000
00000000
00000000
00000000
00000000
00000000
00000000
00000000
00000010
00000000
00000000
00000000
00001000
00000000
00000000
00000000
00000000
00000000
00000000
00000000
00000010
00000000
00000000
00000000
00001000
00000000
00000000
00000000
00000000
00000000
00000000
00000000
00001001
00000000
00000000
00000000
00000000
00000000
00000000
00000000
00000000
00000000
00000000
00000000
00000000
00000000
00000000
00000000
00000001
00000000
00000000
00000000
00000000
00000000
00000000
00000000
00001000
00000000
00000000
00000000
00000200
00000300
00000000
00000000
,
00000000
00000000
00000000
00000000
00000200
00000300
00000000
00000000
00000001
00000000
00000000
00000000
00000000
00000000
00000000
00000000
00000100
00000000
00000000
00000000
00000010
00000000
00000000
00000000
00001000
00000000
00000000
00000000
00000000
00000000
00000000
00000000
00000100
00000000
00000000
00000000
00000000
00000000
00000000
00000000
00010000
00000000
00000000
00000000
00002000
00003000
00000000
00000000
00000000
00000000
00000000
00000000
00002000
00003000
00000000
00000000
00000010
00000000
00000000
00000000
00000000
00000000
00000000
00000000
,
00000100
00000000
00000000
00000000
00000010
00000000
00000000
00000000
00010000
00000000
00000000
00000000
00000000
00000000
00000000
00000000
00001000
00000000
00000000
00000000
00000000
00000000
00000000
00000000
00100000
00000000
00000000
00000000
00020000
00030000
00000000
00000000
00000000
00000000
00000000
00000000
00020000
00030000
00000000
00000000
00001000
00000000
00000000
00000000
00000000
00000000
00000000
00000000
00100000
00000000
00000000
00000000
01000000
00000000
00000000
00000000
10000000
00000000
00000000
00000000
00000000
00000000
00000000
00000000
,
00010000
00000000
00000000
00000000
00000000
00000000
00000000
00000000
00100000
00000000
00000000
00000000
00020000
00030000
00000000
00000000
00000000
00000000
00000000
00000000
00020000
00030000
00000000
00000000
00001000
00000000
00000000
00000000
00000000
00000000
00000000
00000000
00010000
00000000
00000000
00000000
00000100
00000000
00000000
00000000
00000010
00000000
00000000
00000000
00000000
00000000
00000000
00000000
00000001
00000000
00000000
00000000
00000000
00000000
00000000
00000000
00000100
00000000
00000000
00000000
00000010
00000000
00000000
00000000
,
00000000
00000000
00001010
00000000
00001000
00000000
00000010
00000100
00001000
00000000
00000000
00001100
00000000
00000000
00000110
00000000
,
00000100
00000000
00000000
00000000
00000000
00000000
00000000
00000000
00000001
00000000
00000000
00000000
00000000
00000000
00000000
00000000
00001000
00000000
00000000
00000000
00000000
00000000
00000000
00000000
00000001
00000000
00000000
00000000
00000200
00000300
00000000
00000000
00000000
00000000
00000000
00000000
00000200
00000300
00000000
00000000
00010000
00000000
00000000
00000000
00000000
00000000
00000000
00000000
00001000
00000000
00000000
00000000
00100000
00000000
00000000
00000000
01000000
00000000
00000000
00000000
00000000
00000000
00000000
00000000
,
10000000
00000000
00000000
00000000
00000000
00000000
00000000
00000000
00010000
00000000
00000000
00000000
00200000
00300000
00000000
00000000
00000000
00000000
00000000
00000000
00200000
00300000
00000000
00000000
10000000
00000000
00000000
00000000
00000000
00000000
00000000
00000000
01000000
00000000
00000000
00000000
00010000
00000000
00000000
00000000
00001000
00000000
00000000
00000000
00000000
00000000
00000000
00000000
00022000
00000000
00000000
00000000
00000000
00000000
00000000
00000000
00000000
00000000
00000000
00000000
00000000
00000000
00000000
00000000
,
00033000
00000000
00000000
00000000
00010000
00000100
00000010
00000001
00000000
00000001
00000100
00001000
00000100
00000010
00001000
00000000
,
00000001
00000010
00000100
00010000
00001000
00100000
00000000
00000000
00110000
00000000
00000000
00000000
01100000
00000000
00000000
00000000
,
11000000
00000000
00000000
00000000
20200000
00000000
00000000
00000000
30300000
00000000
00000000
00000000
10000000
00100000
10000000
01000000
,
00100000
00010000
01000000
00001000
00010000
00000100
00001000
00000000
00000001
00000000
00000100
00000010
00010000
00001000
01000000
00000000
,
10100000
11000000
00110000
00022000
,
00033000
00000000
00000000
00000000
00001000
01000000
00100000
10000000
00000000
10000000
01000000
00010000
01000000
00100000
00010000
00000000
,
10000000
00000000
00010000
01000000
00001000
00010000
00000100
00000000
00001100
00000000
00000000
00000000
00000101
00000000
00000000
00000000
,
00001010
00000000
00000000
00000000
00022000
00000000
00000000
00000000
00033000
00000000
00000000
00000000
00010000
00000100
00000010
00000001
,
00000100
00000010
00001000
00000001
00000010
00000100
00010000
00001000
00100000
01000000
10000000
01000000
00100000
00001000
00010000
00001000
,
01000000
00000000
00100000
10000000
00010000
00000000
00100000
01000000
10000000
00000000
00010000
01000000
00001000
00000000
00010000
00000100
,
00000000
00000000
00001100
00000000
00000100
00000000
00000001
00000100
00001000
00000000
00000000
00001100
00000000
00000000
00011000
00000000
,
00010000
00000000
00001000
00000000
01000000
00000000
00000000
01010000
00000000
00010000
10000000
00000000
01000000
00000000
00010000
00000000
,
01000000
00000000
00000000
00000000
00000000
00000000
00000000
00000000
00000000
00000000
00000000
00000000
01100000
00000000
00000000
00000000
00000000
00000000
00000000
00000000
00000000
00000000
00000000
00000000
00011000
00000000
00000000
00000000
00000000
00000000
00000000
00000000
00010000
00000000
00000000
00000000
00000000
00000000
00000000
00000000
00000100
00000000
00000000
00000000
00000000
00000000
00000000
00000000
00000010
00000000
00000000
00000000
00000000
00000000
00000000
00000000
00000001
00000000
00000000
00000000
00000200
00000300
00000000
00000000
,
00000000
00000000
00000000
00000000
00000200
00000300
00000000
00000000
00001000
00000000
00000000
00000000
00000000
00000000
00000000
00000000
00000010
00000000
00000000
00000000
00000000
00000000
00000000
00000000
00000100
00000000
00000000
00000000
00001000
00000000
00000000
00000000
00010000
00000000
00000000
00000000
00000000
00000000
00000000
00000000
00000000
00000000
00000000
00000000
00011000
00000000
00000000
00000000
00000000
00000000
00000000
00000000
00000000
00000000
00000000
00000000
01010000
00000000
00000000
00000000
00000000
00000000
00000000
00000000
,
01000000
00000000
00000000
00000000
00000000
00000000
00000000
00000000
00100000
00000000
00000000
00000000
00000000
00000000
00000000
00000000
10000000
00000000
00000000
00000000
00000000
00000000
00000000
00000000
00010000
00000000
00000000
00000000
02000000
03000000
00000000
00000000
00000000
00000000
00000000
00000000
02000000
03000000
00000000
00000000
10000000
00000000
00000000
00000000
00000000
00000000
00000000
00000000
01000000
00000000
00000000
00000000
00000000
00000000
00000000
00000000
00010000
00000000
00000000
00000000
00000000
00000000
00000000
00000000
,
00001000
00000000
00000000
00000000
00000000
00000000
00000000
00000000
00000010
00000000
00000000
00000000
00000200
00000300
00000000
00000000
00000000
00000000
00000000
00000000
00000200
00000300
00000000
00000000
00000001
00000000
00000000
00000000
00000000
00000000
00000000
00000000
00001001
00000000
00000000
00000000
00000000
00000000
00000000
00000000
00000000
00000000
00000000
00000000
00000000
00000000
00000000
00000000
00022000
00000000
00000000
00000000
00000000
00000000
00000000
00000000
00000000
00000000
00000000
00000000
00000000
00000000
00000000
00000000
,
00000000
00000000
00000000
00000000
,
00000000
00000000
00033000
00002000
,
00203000
00320000
02030000
03200000
,
20300000
00000000
00000000
00000000
32000000
00000000
00000000
00000000
03200000
00000000
00000000
00000000
00302000
00000000
00000000
01000000
,
00000000
00000000
00010000
00000000
00000000
00100000
00000000
00000000
10000000
00000000
00000000
00000000
00023000
00000000
00000000
00000100
,
00000000
00000000
00001000
00000000
00000000
00000010
00000000
00000000
00000001
00000000
00000000
00000000
00031000
00000000
00010000
00000000
,
00000100
00000000
00000010
00000000
00000001
00000000
00000100
00000000
00001000
00000000
00010000
00000000
00001000
00000000
01000000
00010000
,
10000000
00000000
01000000
00100000
00000000
01000000
00000000
10000000
00020000
00000000
00000000
00000000
01030000
00100000
00000000
10000000
,
00000000
00010000
01000000
00001000
00000000
00100000
00000000
00001000
00010000
00000000
00000100
00000000
00000010
00000001
00000000
00001000
,
00000000
00000010
00000100
00000001
00000000
00000010
00000000
00000100
00010000
00000000
00001000
00000000
00100000
00001000
00000000
00010000
,
00000000
00001000
01000000
00010000
00000000
01000000
00000000
00100000
10000000
00000000
01000000
00000000
00010000
01000000
00000000
00100000
,
00000000
00001000
00010000
00000100
00000000
00000010
00000001
00000000
00000100
00001000
00010000
00000010
00001000
00000010
00000000
00010000
,
00000000
00001000
00100000
00010000
00000000
01000000
00000000
00100000
10000000
00000000
01000000
00000000
00100000
00001000
00000000
00010000
,
00000000
00000100
00000010
00000001
00000000
00001000
00000000
00000010
00000100
00000000
00001000
00000000
00010000
00001000
00000000
00100000
,
00000000
01000000
10000000
00100000
00000000
01000000
00000000
00001000
00010000
00000000
00100000
00000000
00010000
00001000
00000000
00100000
,
00000000
01000000
10000000
00010000
00000000
00100000
00001000
00000000
00101000
00000000
00000000
00000000
000M2000
00000000
000M0000
00000000
,
00000000
00000000
00000000
00000000
00013000
00000000
00000000
00000000
00001000
00000000
01000000
00000000
00100000
10000000
00000000
00010000
,
00000000
00100000
01000000
10000000
00000000
00100000
00000000
01000000
00001000
00010000
00000100
00000010
00000001
00001000
00000000
00000010
,
00000000
00000100
00000001
00001000
00000000
00000100
00000000
00010000
00001000
01000000
00100000
10000000
00010000
10000000
00000000
01000000
,
00000000
00100000
00010000
01000000
00000000
00001000
00010000
00000000
00100000
00010000
00001000
00100000
00010000
10000000
00000000
01000000
,
00000000
00100000
00001000
00010000
00000000
00000100
00000000
00000010
00000001
00000100
00000010
00000100
00001000
00000100
00000000
00000001
,
00000000
00000010
00000100
00010000
00000000
00001000
00000000
00000100
00001000
00010000
00100000
01000000
00001000
00010000
00000000
00000100
,
00000000
00000010
00000001
00001000
00000000
00000010
00000000
00000100
00001000
00000100
00000001
00000010
00000100
00010000
00000000
00001000
,
00000000
00010000
00100000
10000000
00000000
00010000
10000000
00000000
10010000
00000000
00000000
00000000
1M200000
00000000
0M000000
00000000
,
00000000
00000000
00000000
00000000
02300000
00000000
00000000
00000000
00000000
00000000
00000000
00000000
03010000
00000000
00100000
01000000
,
00000000
00010000
00001000
00010000
00000100
00000010
00000001
00001000
00000010
00000000
00000000
00000000
00001010
00000000
00000000
00011000
,
00000000
00000000
00110000
00000000
02200000
00000000
00000000
00000000
03300000
00000000
00000000
00000000
10000000
00010000
01000000
00100000
,
00010000
00001000
00100000
00001000
00010000
00000100
00000010
00000000
00000001
00000000
00000100
00000010
00001000
00000100
00010000
00000000
,
00011000
00000000
01010000
00000000
10100000
00000000
1M020000
0M000000
,
00000000
00000000
00000000
00000000
02030000
00000000
00000000
00000000
00000000
00000000
00000000
00000000
03001000
00000000
00010000
00000100
,
00000000
00000010
00001000
00000010
00000100
00010000
00000010
00001000
00000001
00000000
00000000
00000000
00001100
00000000
00000000
00011000
,
00000000
00000000
01001000
00000000
02200000
00000000
00000000
00000000
03300000
00000000
00000000
00000000
10000000
00100000
10000000
01000000
,
00010000
00001000
00100000
01000000
00010000
00001000
00000010
00001000
00010000
00000010
00001000
00000001
00000100
00001000
00010000
00100000
,
00010000
00001000
00100000
00010000
01000000
00000000
00100000
10000000
00010000
00000000
00000000
00000000
01010000
00000000
00000000
00011000
,
00000000
00002200
00000000
00000000
00000000
00000000
00000000
00000000
,
00000000
00000000
00000000
00000000
,
00000000
00000000
00000000
00000000
00000000
00000000
00000000
00000000
00000000
00000000
00000000
00003300
00000000
00000000
00000000
00000000
;
