#VERSION:0.83;
#TITLE:Everything Goes On;
#SUBTITLE:;
#ARTIST:Porter Robinson;
#TITLETRANSLIT:;
#SUBTITLETRANSLIT:;
#ARTISTTRANSLIT:;
#GENRE:Emotional;
#ORIGIN:Star Guardian 2022;
#TAGS:;
#CREDIT:skeleton made by Ben Speirs;
#BANNER:Everything Goes On.png;
#BACKGROUND:Everything Goes On-bg.png;
#PREVIEWVID:;
#JACKET:Everything Goes On-jacket.png;
#CDIMAGE:;
#DISCIMAGE:;
#LYRICSPATH:;
#CDTITLE:../_YSD cdtitles/ysd sale1 cdtitle.png;
#MUSIC:Everything Goes On.ogg;
#OFFSET:-0.002000;
#SAMPLESTART:85.612000;
#SAMPLELENGTH:24.459000;
#SELECTABLE:YES;
#BPMS:0.000000=157.000000
;
#STOPS:;
#DELAYS:;
#WARPS:;
#TIMESIGNATURES:0.000000=4=4
;
#TICKCOUNTS:0.000000=4
;
#COMBOS:0.000000=1
;
#SPEEDS:0.000000=1.000000=0.000000=0
;
#SCROLLS:0.000000=1.000000
;
#FAKES:;
#LABELS:0.000000=Song Start
;
#BGCHANGES:;
#KEYSOUNDS:;
#ATTACKS:
;

//---------------dance-single - ----------------
#NOTEDATA:;
#CHARTNAME:;
#CHARTHASH:2962263351;
#STEPSTYPE:dance-single;
#BANNER:;
#DESCRIPTION:;
#CHARTSTYLE:;
#DIFFICULTY:Beginner;
#METER:1;
#METERF:0.000000;
#LASTSECONDHINT:110.065697;
#RADARVALUES:0.091192,0.129467,0.017982,0.000000,0.000000,71.000000,69.000000,2.000000,0.000000,0.000000,0.000000,0.000000,0.000000,0.000000,0.091192,0.129467,0.017982,0.000000,0.000000,71.000000,69.000000,2.000000,0.000000,0.000000,0.000000,0.000000,0.000000,0.000000;
#CREDIT:YOSEFU;
#NOTES:
// measure 0
0000
0000
0000
0000
,  // measure 1
0000
0000
0000
0000
,  // measure 2
0000
0000
0000
0000
,  // measure 3
0000
0000
0000
0000
,  // measure 4
1000
0000
0000
0000
,  // measure 5
0001
0000
0000
0000
,  // measure 6
0100
0000
0000
0000
,  // measure 7
0010
0000
0000
0000
,  // measure 8
0100
0000
0000
0000
,  // measure 9
0010
0000
0000
0000
,  // measure 10
1000
0000
0000
0000
,  // measure 11
0100
0000
0000
0000
,  // measure 12
0010
0000
0000
0000
,  // measure 13
0010
0000
0000
0000
,  // measure 14
0100
0000
0000
0000
,  // measure 15
1000
0000
0000
0000
,  // measure 16
0001
0000
0000
0000
,  // measure 17
0100
0000
0000
0000
,  // measure 18
0010
0000
0000
0000
,  // measure 19
1000
0000
0000
0000
,  // measure 20
0010
0000
0000
0000
,  // measure 21
1000
0000
0000
0000
,  // measure 22
0100
0000
0000
0000
,  // measure 23
0010
0000
0000
0000
,  // measure 24
1001
0000
0000
0000
,  // measure 25
0001
0000
0000
0000
,  // measure 26
0100
0000
0000
0000
,  // measure 27
0010
0000
0000
0000
,  // measure 28
1000
0000
0000
0000
,  // measure 29
0100
0000
0000
0000
,  // measure 30
0010
0000
0000
0000
,  // measure 31
0001
0000
0000
0000
,  // measure 32
1000
0000
0000
0000
,  // measure 33
0010
0000
0000
0000
,  // measure 34
0100
0000
0000
0000
,  // measure 35
0001
0000
0000
0000
,  // measure 36
0010
0000
0000
0000
,  // measure 37
0100
0000
0000
0000
,  // measure 38
1000
0000
0000
0000
,  // measure 39
0001
0000
0000
0000
,  // measure 40
1000
0000
0000
0000
,  // measure 41
0001
0000
0000
0000
,  // measure 42
1000
0000
0000
0000
,  // measure 43
0001
0000
0000
0000
,  // measure 44
0100
0000
0000
0000
,  // measure 45
0010
0000
0000
0000
,  // measure 46
0100
0000
0000
0000
,  // measure 47
0010
0000
0000
0000
,  // measure 48
1000
0000
0000
0000
,  // measure 49
0001
0000
0000
0000
,  // measure 50
1000
0000
0000
0000
,  // measure 51
0001
0000
0000
0000
,  // measure 52
0010
0000
0000
0000
,  // measure 53
0100
0000
0000
0000
,  // measure 54
1000
0000
0000
0000
,  // measure 55
0001
0000
0000
0000
,  // measure 56
1001
0000
0000
0000
,  // measure 57
1000
0000
0000
0000
,  // measure 58
0001
0000
0000
0000
,  // measure 59
0100
0000
0000
0000
,  // measure 60
0010
0000
0000
0000
,  // measure 61
0100
0000
0000
0000
,  // measure 62
0001
0000
0000
0000
,  // measure 63
0010
0000
0000
0000
,  // measure 64
0100
0000
0000
0000
,  // measure 65
1000
0000
0000
0000
,  // measure 66
0010
0000
0000
0000
,  // measure 67
0100
0000
0000
0000
,  // measure 68
0001
0000
0000
0000
,  // measure 69
1000
0000
0000
0000
,  // measure 70
0100
0000
0000
0000
,  // measure 71
0010
0000
0000
0000
,  // measure 72
0001
0000
0000
0000
;

//---------------dance-single - ----------------
#NOTEDATA:;
#CHARTNAME:;
#CHARTHASH:3831608311;
#STEPSTYPE:dance-single;
#BANNER:;
#DESCRIPTION:;
#CHARTSTYLE:;
#DIFFICULTY:Easy;
#METER:3;
#METERF:0.000000;
#LASTSECONDHINT:110.830032;
#RADARVALUES:0.150275,0.228141,0.017982,0.152843,0.000000,117.000000,115.000000,2.000000,17.000000,0.000000,0.000000,0.000000,0.000000,0.000000,0.150275,0.228141,0.017982,0.152843,0.000000,117.000000,115.000000,2.000000,17.000000,0.000000,0.000000,0.000000,0.000000,0.000000;
#CREDIT:YOSEFU;
#NOTES:
0000
0000
0000
0000
,
0000
0000
0000
0000
,
0000
0000
0000
0000
,
0000
0000
0000
0000
,
1000
0000
0000
0000
,
0100
0000
0000
0000
,
0010
0000
0000
0000
,
0001
0000
0001
0000
,
0001
0000
0000
0000
,
0100
0000
0000
0000
,
0010
0000
0000
0000
,
1000
0000
1000
0000
,
1000
0000
0000
0000
,
0100
0000
0000
0000
,
0010
0000
0010
0000
,
0001
0000
0001
0000
,
1000
0000
0000
0000
,
0010
0000
0000
0000
,
0100
0000
0100
0000
,
0001
0000
0001
0000
,
0010
0000
0000
0000
,
0100
0000
0100
0000
,
1000
0000
1000
0000
,
0001
0000
0001
0000
,
1001
0000
1000
0000
,
0001
0000
1000
0000
,
0010
0000
0100
0000
,
0001
0000
0010
0000
,
0100
0000
1000
0000
,
0001
0000
0100
0000
,
0001
0000
0010
0000
,
0100
0000
1000
0000
,
0001
0000
0100
0000
,
0010
0000
1000
0000
,
0100
0000
0010
0000
,
0100
0000
1000
0000
,
0001
0000
0100
0000
,
0010
0000
1000
0000
,
0100
0000
0010
0000
,
0001
0000
1000
0000
,
0002
0000
0000
0003
,
0200
0000
0000
0300
,
0020
0000
0000
0030
,
2000
0000
0000
3000
,
0200
0000
0000
0300
,
0020
0000
0000
0030
,
0002
0000
0000
0003
,
0200
0000
0000
0300
,
0020
0000
0000
0030
,
2000
0000
0000
3000
,
0002
0000
0000
0003
,
0020
0000
0000
0030
,
0200
0000
0000
0300
,
2000
0000
0000
3000
,
0020
0000
0000
0030
,
0200
0000
0000
0300
,
1001
0000
0001
0000
,
1000
0000
0100
0000
,
0010
0000
0001
0000
,
0100
0000
0010
0010
,
0010
0000
1000
0000
,
0100
0000
0010
0000
,
0100
0000
1000
0000
,
0001
0000
0100
0100
,
0100
0000
0010
0000
,
1000
0000
0100
0000
,
0010
0000
0001
0000
,
0010
0000
0100
0100
,
1000
0000
0010
0000
,
0100
0000
0001
0000
,
0010
0010
0010
0000
,
0100
0100
0100
0000
,
2000
0000
3000
0000
;

//---------------dance-single - ----------------
#NOTEDATA:;
#CHARTNAME:;
#CHARTHASH:2475218822;
#STEPSTYPE:dance-single;
#BANNER:;
#DESCRIPTION:;
#CHARTSTYLE:;
#DIFFICULTY:Medium;
#METER:6;
#METERF:0.000000;
#LASTSECONDHINT:110.830032;
#RADARVALUES:0.285136,0.391099,0.089908,0.053945,0.000000,222.000000,212.000000,10.000000,6.000000,0.000000,0.000000,0.000000,0.000000,0.000000,0.285136,0.391099,0.089908,0.053945,0.000000,222.000000,212.000000,10.000000,6.000000,0.000000,0.000000,0.000000,0.000000,0.000000;
#CREDIT:YOSEFU;
#NOTES:
0000
0000
0000
0000
,
0000
0000
0000
0000
,
0000
0000
0000
0000
,
0000
0000
0000
0000
,
1000
0000
0000
0001
0000
0000
0000
0100
,
0000
0000
0000
0010
0000
0000
0000
1000
,
0000
0000
0000
0100
0000
0000
0000
0000
,
0010
0010
0010
0000
,
0001
0000
0100
0000
,
0010
0000
0000
0000
1000
0000
0000
0100
,
0000
0020
0000
0000
0000
0030
0000
0001
,
0000
0100
0010
0010
,
1000
0000
0001
0000
0010
0000
0000
0100
,
0000
1000
0000
0001
0000
0100
0000
1000
,
0000
0100
0000
0001
0000
1000
0000
0100
,
0000
0010
0000
0000
0000
0000
0001
0000
,
1000
0010
0000
0100
,
0000
0000
0000
0001
0000
0010
0000
2000
,
0000
0000
0000
0000
0000
0000
0000
3010
,
0000
0000
0001
1000
,
0010
0100
0000
0000
,
0001
0010
0100
1000
,
0001
0100
0000
0000
,
0010
0010
0010
0010
,
0100
0000
0001
0000
0000
1000
0001
0000
,
0010
0100
1000
1000
,
0001
0000
0100
0000
0000
0001
1000
0000
,
0001
0010
0001
0001
,
1000
0000
0010
0000
0000
0100
0010
0000
,
1000
0001
0010
0010
,
0100
0000
1000
0000
0000
0001
1000
0000
,
0101
0100
1100
1000
,
0001
0000
0010
0000
0000
0100
1000
0000
,
0100
0010
0001
0001
,
0100
0000
0010
0000
0000
1000
0001
0000
,
0010
0010
0100
0100
,
1000
0000
2000
0000
0000
0000
0000
3001
,
0100
0001
0000
0010
0000
0200
0000
0000
,
0000
0000
1300
0000
0000
0001
1000
0000
,
0110
0010
0100
0101
,
0001
0000
0010
0000
,
0100
0000
0010
0000
,
0001
0000
1000
0000
,
0010
0000
0000
0000
,
0100
0000
0001
0000
,
0010
0000
0100
0000
,
1000
0000
0001
0000
,
0100
0000
0000
0000
,
0010
0000
0100
0000
,
0010
0000
0001
0000
,
0010
0000
1000
0000
,
0100
0000
0000
0000
,
0010
0000
0001
0000
,
0100
0000
0010
0000
,
1000
0000
0100
0000
,
0010
0000
0001
1001
,
1000
0000
0001
0000
0100
0000
0001
0010
,
0000
0100
0000
1000
0000
0000
0001
0100
,
0000
2000
0000
0000
0000
0000
3100
0010
,
0000
1000
1001
1100
,
0100
0000
0010
0000
0001
0000
1000
0010
,
0000
0100
0000
1000
0000
0100
0000
0001
,
0000
0010
0000
0100
0000
1000
0000
0001
,
1000
0001
0000
0000
0100
0000
0010
1000
,
0010
0000
0100
0000
1000
0000
0100
0010
,
1000
0000
0100
0010
0000
0001
0000
0100
,
0000
0000
0000
0000
0000
0000
0000
1000
,
0100
0110
0100
0101
,
0001
0000
1000
0100
0000
0000
0010
0000
,
0001
1001
1000
0010
,
0100
0001
0100
0000
0001
1000
0001
0000
,
1000
0000
0000
0100
0000
0010
0000
0002
,
0000
0000
0003
0000
;

//---------------dance-single - ----------------
#NOTEDATA:;
#CHARTNAME:;
#CHARTHASH:2335970959;
#STEPSTYPE:dance-single;
#BANNER:;
#DESCRIPTION:;
#CHARTSTYLE:;
#DIFFICULTY:Hard;
#METER:11;
#METERF:0.000000;
#LASTSECONDHINT:110.830032;
#RADARVALUES:0.475227,0.521465,0.161834,0.341650,0.031468,370.000000,352.000000,18.000000,38.000000,0.000000,0.000000,0.000000,0.000000,0.000000,0.475227,0.521465,0.161834,0.341650,0.031468,370.000000,352.000000,18.000000,38.000000,0.000000,0.000000,0.000000,0.000000,0.000000;
#CREDIT:YOSEFU;
#NOTES:
0000
0000
0000
0000
,
0000
0000
0000
0000
,
0000
0000
0000
0000
,
0000
0000
0000
0000
,
1000
0001
0000
0100
0000
0010
1000
0100
,
0000
0010
0000
1000
0000
0010
0001
0100
,
0000
0010
0000
0001
0000
0010
1000
0001
,
0010
0010
0010
0100
,
1000
0000
0001
0000
0100
0000
0010
1000
,
0000
0100
0000
0200
0000
0000
1300
0010
,
0000
0200
0010
0000
0000
0001
0000
0310
,
0000
1000
0001
0000
0010
0000
0100
0000
,
1000
0000
0001
0000
0100
0000
0010
1000
,
0000
0100
0000
0010
0000
0001
0000
0100
,
0000
0001
0000
0010
0000
0100
0000
1000
,
0001
0100
0000
0000
0010
0000
1000
0000
,
0100
0000
0020
0000
1000
0000
0031
1000
,
0000
0010
1000
0100
0000
0010
0100
1000
,
0020
0000
0100
0000
1030
0001
0010
1000
,
0000
0010
0100
1000
0001
0100
0000
0001
,
1000
0000
0100
0000
0010
0100
1000
0001
,
0100
0000
0001
1000
0000
0100
0000
0010
,
0002
0000
0100
0000
1003
0100
0010
0001
,
0100
0100
0100
0010
,
1000
0100
0000
0010
0000
0000
0001
1000
,
0000
0001
0000
0010
0100
0000
1000
0001
,
0100
0010
0000
1000
0000
0001
0100
0000
,
0001
0000
0000
1000
0100
0000
0000
0000
0110
0000
0000
0000
1001
0000
0000
0000
,
0001
0000
0101
0000
0100
0010
1000
0001
,
0000
0010
0100
0000
0010
0000
0001
0100
,
0010
1000
0000
0100
0000
0010
0001
0100
,
0010
0001
0010
1000
0001
0000
0011
0000
,
0010
0000
0100
1000
0001
0100
0000
0001
,
0000
0010
0000
0100
0000
1000
0002
0000
,
0203
0000
1000
0000
0010
0000
0301
1000
,
0100
0000
0000
1000
0001
0000
0000
0100
0001
0000
0000
0000
0101
0000
0000
0000
,
0100
0000
0210
0000
0000
0301
1000
0100
,
0010
0001
0000
0100
0000
0010
1000
0001
,
0020
0000
0100
0000
0000
0031
1000
0010
,
0010
0101
1001
1100
,
1000
0100
0010
0002
0000
0000
0000
1003
,
0001
0100
0010
2000
0000
0000
0000
0000
,
3001
0010
0100
2000
0000
3001
0000
1000
,
0010
0100
0001
2000
0000
0000
0000
0000
,
3001
0010
0100
2000
0000
0000
0000
3010
,
0100
0001
1000
0200
0000
0000
0000
0000
,
0310
0100
1000
0002
0000
0103
0000
0010
,
1000
0100
0010
0001
0100
0020
0000
0032
,
0000
0000
0013
0200
0000
0302
0000
2003
,
0100
0000
3001
0100
0010
2000
0000
0000
,
3200
0000
0310
0100
2000
0000
0010
0000
,
3002
0100
0023
0000
,
0031
0000
2000
0000
3020
0000
0130
2000
,
0000
3100
0001
0020
0000
0000
0000
0000
,
0130
1000
0010
0000
0100
0001
0000
0010
,
0100
0000
0001
0100
1000
0000
1010
0000
,
1000
0000
0001
0000
0100
0001
0010
0100
,
1000
0000
0001
0100
0000
0001
0010
1000
,
0010
0001
0200
0000
0000
0310
1000
0001
,
0010
0000
0000
0001
0100
0000
0000
0000
0101
0000
0000
0000
1010
0000
0000
0000
,
1001
0000
0001
0000
0100
0010
1000
0100
,
0010
0100
0000
1000
0001
0100
0010
0200
,
0000
1000
0000
0010
0000
0301
1000
0100
,
0000
0000
0010
0000
0100
0000
1000
0000
0000
0000
0001
0000
1000
0001
1000
0001
,
1000
0020
0001
0100
,
1030
0000
0001
0010
0100
1000
0001
0200
,
0010
0000
1000
0000
0000
0301
1000
0100
,
0010
0000
0000
0001
1000
0000
0000
0000
1100
0000
0000
0000
0011
0000
0000
0000
,
0101
0000
0001
1000
0000
0100
0010
0000
,
0011
0000
1100
0000
1000
0010
0100
0001
,
0010
0010
0100
0000
0010
0010
0001
1000
,
0020
0000
0130
0002
0000
2003
0000
3200
,
0000
0000
0300
0000
;

//---------------dance-double - ----------------
#NOTEDATA:;
#CHARTNAME:;
#CHARTHASH:1528718427;
#STEPSTYPE:dance-double;
#BANNER:;
#DESCRIPTION:;
#CHARTSTYLE:;
#DIFFICULTY:Beginner;
#METER:2;
#METERF:0.000000;
#LASTSECONDHINT:110.065697;
#RADARVALUES:0.089908,0.129467,0.008991,0.000000,0.000000,70.000000,69.000000,1.000000,0.000000,0.000000,0.000000,0.000000,0.000000,0.000000,0.089908,0.129467,0.008991,0.000000,0.000000,70.000000,69.000000,1.000000,0.000000,0.000000,0.000000,0.000000,0.000000,0.000000;
#CREDIT:YOSEFU;
#NOTES:
00000000
00000000
00000000
00000000
,
00000000
00000000
00000000
00000000
,
00000000
00000000
00000000
00000000
,
00000000
00000000
00000000
00000000
,
00010000
00000000
00000000
00000000
,
00001000
00000000
00000000
00000000
,
01000000
00000000
00000000
00000000
,
00010000
00000000
00000000
00000000
,
10000000
00000000
00000000
00000000
,
00010000
00000000
00000000
00000000
,
10000000
00000000
00000000
00000000
,
01000000
00000000
00000000
00000000
,
00100000
00000000
00000000
00000000
,
00010000
00000000
00000000
00000000
,
00100000
00000000
00000000
00000000
,
00001000
00000000
00000000
00000000
,
00010000
00000000
00000000
00000000
,
00001000
00000000
00000000
00000000
,
00010000
00000000
00000000
00000000
,
00000010
00000000
00000000
00000000
,
00001000
00000000
00000000
00000000
,
00000010
00000000
00000000
00000000
,
00000100
00000000
00000000
00000000
,
00000010
00000000
00000000
00000000
,
00001000
00000000
00000000
00000000
,
00000001
00000000
00000000
00000000
,
00001000
00000000
00000000
00000000
,
00000100
00000000
00000000
00000000
,
00000010
00000000
00000000
00000000
,
00000100
00000000
00000000
00000000
,
00010000
00000000
00000000
00000000
,
00001000
00000000
00000000
00000000
,
01000000
00000000
00000000
00000000
,
00010000
00000000
00000000
00000000
,
10000000
00000000
00000000
00000000
,
00100000
00000000
00000000
00000000
,
01000000
00000000
00000000
00000000
,
00010000
00000000
00000000
00000000
,
10000000
00000000
00000000
00000000
,
00100000
00000000
00000000
00000000
,
01000000
00000000
00000000
00000000
,
01000000
00000000
00000000
00000000
,
00010000
00000000
00000000
00000000
,
00010000
00000000
00000000
00000000
,
01000000
00000000
00000000
00000000
,
01000000
00000000
00000000
00000000
,
00001000
00000000
00000000
00000000
,
00001000
00000000
00000000
00000000
,
00010000
00000000
00000000
00000000
,
00010000
00000000
00000000
00000000
,
00001000
00000000
00000000
00000000
,
00001000
00000000
00000000
00000000
,
00010000
00000000
00000000
00000000
,
00010000
00000000
00000000
00000000
,
00000100
00000000
00000000
00000000
,
00000100
00000000
00000000
00000000
,
00000110
00000000
00000000
00000000
,
00000001
00000000
00000000
00000000
,
00000100
00000000
00000000
00000000
,
00000010
00000000
00000000
00000000
,
00010000
00000000
00000000
00000000
,
00001000
00000000
00000000
00000000
,
00100000
00000000
00000000
00000000
,
01000000
00000000
00000000
00000000
,
10000000
00000000
00000000
00000000
,
00100000
00000000
00000000
00000000
,
01000000
00000000
00000000
00000000
,
00010000
00000000
00000000
00000000
,
10000000
00000000
00000000
00000000
,
01000000
00000000
00000000
00000000
,
00100000
00000000
00000000
00000000
,
00010000
00000000
00000000
00000000
,
10000000
00000000
00000000
00000000
;

//---------------dance-double - ----------------
#NOTEDATA:;
#CHARTNAME:;
#CHARTHASH:2886837053;
#STEPSTYPE:dance-double;
#BANNER:;
#DESCRIPTION:;
#CHARTSTYLE:;
#DIFFICULTY:Easy;
#METER:4;
#METERF:0.000000;
#LASTSECONDHINT:110.830032;
#RADARVALUES:0.150275,0.228141,0.017982,0.152843,0.000000,117.000000,115.000000,2.000000,17.000000,0.000000,0.000000,0.000000,0.000000,0.000000,0.150275,0.228141,0.017982,0.152843,0.000000,117.000000,115.000000,2.000000,17.000000,0.000000,0.000000,0.000000,0.000000,0.000000;
#CREDIT:YOSEFU;
#NOTES:
00000000
00000000
00000000
00000000
,
00000000
00000000
00000000
00000000
,
00000000
00000000
00000000
00000000
,
00000000
00000000
00000000
00000000
,
00010000
00000000
00000000
00000000
,
00000100
00000000
00000000
00000000
,
00001000
00000000
00000000
00000000
,
00000001
00000000
00000001
00000000
,
00000001
00000000
00000000
00000000
,
00000010
00000000
00000000
00000000
,
00000100
00000000
00000000
00000000
,
00010000
00000000
00010000
00000000
,
00010000
00000000
00000000
00000000
,
00001000
00000000
00000000
00000000
,
00100000
00000000
00100000
00000000
,
01000000
00000000
01000000
00000000
,
10000000
00000000
00000000
00000000
,
00010000
00000000
00000000
00000000
,
01000000
00000000
01000000
00000000
,
00001000
00000000
00001000
00000000
,
00010000
00000000
00000000
00000000
,
00000010
00000000
00000010
00000000
,
00001000
00000000
00001000
00000000
,
00000100
00000000
00000100
00000000
,
00001100
00000000
00001000
00000000
,
00000100
00000000
00001000
00000000
,
00000010
00000000
00010000
00000000
,
00001000
00000000
01000000
00000000
,
00100000
00000000
10000000
00000000
,
00010000
00000000
00100000
00000000
,
00010000
00000000
01000000
00000000
,
00100000
00000000
10000000
00000000
,
00010000
00000000
00100000
00000000
,
00001000
00000000
01000000
00000000
,
00010000
00000000
10000000
00000000
,
00010000
00000000
00100000
00000000
,
00001000
00000000
00010000
00000000
,
00000010
00000000
00000100
00000000
,
00000001
00000000
00001000
00000000
,
00000010
00000000
00010000
00000000
,
00000020
00000000
00000000
00000030
,
00002000
00000000
00000000
00003000
,
00000200
00000000
00000000
00000300
,
00020000
00000000
00000000
00030000
,
00002000
00000000
00000000
00003000
,
02000000
00000000
00000000
03000000
,
00020000
00000000
00000000
00030000
,
20000000
00000000
00000000
30000000
,
00200000
00000000
00000000
00300000
,
02000000
00000000
00000000
03000000
,
00002000
00000000
00000000
00003000
,
00020000
00000000
00000000
00030000
,
00000200
00000000
00000000
00000300
,
00002000
00000000
00000000
00003000
,
00000020
00000000
00000000
00000030
,
00020000
00000000
00000000
00030000
,
01001000
00000000
00001000
00000000
,
01000000
00000000
00010000
00000000
,
00100000
00000000
00001000
00000000
,
00010000
00000000
00000100
00000100
,
00000100
00000000
00000010
00000000
,
00000001
00000000
00001000
00000000
,
00000001
00000000
00000100
00000000
,
00000010
00000000
00010000
00010000
,
00010000
00000000
00001000
00000000
,
01000000
00000000
00100000
00000000
,
10000000
00000000
01000000
00000000
,
10000000
00000000
00010000
00010000
,
00100000
00000000
00001000
00000000
,
00010000
00000000
00000010
00000000
,
00001000
00001000
00001000
00000000
,
00000001
00000001
00000001
00000000
,
00000200
00000000
00000300
00000000
;

//---------------dance-double - ----------------
#NOTEDATA:;
#CHARTNAME:;
#CHARTHASH:2274560619;
#STEPSTYPE:dance-double;
#BANNER:;
#DESCRIPTION:;
#CHARTSTYLE:;
#DIFFICULTY:Medium;
#METER:7;
#METERF:0.000000;
#LASTSECONDHINT:110.830032;
#RADARVALUES:0.285136,0.391099,0.089908,0.053945,0.000000,222.000000,212.000000,10.000000,6.000000,0.000000,0.000000,0.000000,0.000000,0.000000,0.285136,0.391099,0.089908,0.053945,0.000000,222.000000,212.000000,10.000000,6.000000,0.000000,0.000000,0.000000,0.000000,0.000000;
#CREDIT:YOSEFU;
#NOTES:
00000000
00000000
00000000
00000000
,
00000000
00000000
00000000
00000000
,
00000000
00000000
00000000
00000000
,
00000000
00000000
00000000
00000000
,
00010000
00000000
00000000
00001000
00000000
00000000
00000000
00100000
,
00000000
00000000
00000000
01000000
00000000
00000000
00000000
10000000
,
00000000
00000000
00000000
00010000
00000000
00000000
00000000
00000000
,
01000000
01000000
01000000
00000000
,
00001000
00000000
00010000
00000000
,
00000100
00000000
00000000
00000000
00000010
00000000
00000000
00000001
,
00000000
00002000
00000000
00000000
00000000
00003000
00000000
00000100
,
00000000
00010000
00001000
00001000
,
00100000
00000000
00010000
00000000
01000000
00000000
00000000
00001000
,
00000000
00010000
00000000
00000010
00000000
00000100
00000000
00001000
,
00000000
00000100
00000000
00000001
00000000
00001000
00000000
00000010
,
00000000
00010000
00000000
00000000
00000000
00000000
00000100
00000000
,
00001000
00000010
00000000
00010000
,
00000000
00000000
00000000
00000100
00000000
00000010
00000000
00002000
,
00000000
00000000
00000000
00000000
00000000
00000000
00000000
00003010
,
00000000
00000000
00000001
00001000
,
00000100
00010000
00000000
00000000
,
00001000
00100000
00010000
10000000
,
00100000
01000000
00000000
00000000
,
00010000
00010000
00010000
00010000
,
01000000
00000000
00100000
00000000
00000000
10000000
00100000
00000000
,
01000000
00001000
00010000
00010000
,
00000100
00000000
00001000
00000000
00000000
00000100
00000010
00000000
,
00000100
00001000
00000100
00000100
,
00010000
00000000
00001000
00000000
00000000
00100000
00001000
00000000
,
01000000
00100000
10000000
10000000
,
00010000
00000000
01000000
00000000
00000000
00001000
01000000
00000000
,
00101000
00100000
00010010
00010000
,
00000100
00000000
00001000
00000000
00000000
00000001
00000010
00000000
,
00000001
00001000
00000010
00000010
,
00010000
00000000
00001000
00000000
00000000
00100000
00010000
00000000
,
01000000
01000000
00001000
00001000
,
00100000
00000000
00200000
00000000
00000000
00000000
00000000
00310000
,
10000000
00010000
00000000
01000000
00000000
00002000
00000000
00000000
,
00000000
00000000
00013000
00000000
00000000
00000100
00010000
00000000
,
00001001
00000001
00001000
00001010
,
00000010
00000000
00010000
00000000
,
00000100
00000000
00010000
00000000
,
00001000
00000000
01000000
00000000
,
00010000
00000000
00000000
00000000
,
10000000
00000000
01000000
00000000
,
00100000
00000000
00001000
00000000
,
00010000
00000000
00000100
00000000
,
00001000
00000000
00000000
00000000
,
00000010
00000000
00001000
00000000
,
00000010
00000000
00000001
00000000
,
00000010
00000000
00000100
00000000
,
00000001
00000000
00000000
00000000
,
00000010
00000000
00000100
00000000
,
00010000
00000000
00001000
00000000
,
01000000
00000000
00100000
00000000
,
10000000
00000000
00010000
01010000
,
01000000
00000000
00010000
00000000
10000000
00000000
00010000
00100000
,
00000000
00001000
00000000
00010000
00000000
00000000
00000010
00000100
,
00000000
00002000
00000000
00000000
00000000
00000000
00003100
00000001
,
00000000
00001000
00001100
00001010
,
00000010
00000000
00010000
00000000
00001000
00000000
00100000
00010000
,
00000000
01000000
00000000
10000000
00000000
01000000
00000000
00010000
,
00000000
00100000
00000000
00001000
00000000
00010000
00000000
00000100
,
00010000
00000100
00000000
00000000
00000010
00000000
00000001
00001000
,
00000001
00000000
00000100
00000000
00001000
00000000
00000100
00000010
,
00010000
00000000
00001000
00100000
00000000
00010000
00000000
01000000
,
00000000
00000000
00000000
00000000
00000000
00000000
00000000
10000000
,
01000000
01100000
01000000
01001000
,
00001000
00000000
00010000
00000010
00000000
00000000
00001000
00000000
,
00000100
00010100
00010000
00001000
,
00100000
00010000
00100000
00000000
00010000
10000000
00010000
00000000
,
10000000
00000000
00000000
00100000
00000000
01000000
00000000
00002000
,
00000000
00000000
00003000
00000000
;

//---------------dance-double - ----------------
#NOTEDATA:;
#CHARTNAME:;
#CHARTHASH:3376910988;
#STEPSTYPE:dance-double;
#BANNER:;
#DESCRIPTION:;
#CHARTSTYLE:;
#DIFFICULTY:Hard;
#METER:12;
#METERF:0.000000;
#LASTSECONDHINT:110.830032;
#RADARVALUES:0.475227,0.521465,0.161834,0.341650,0.031468,370.000000,352.000000,18.000000,38.000000,0.000000,0.000000,0.000000,0.000000,0.000000,0.475227,0.521465,0.161834,0.341650,0.031468,370.000000,352.000000,18.000000,38.000000,0.000000,0.000000,0.000000,0.000000,0.000000;
#CREDIT:YOSEFU;
#NOTES:
00000000
00000000
00000000
00000000
,
00000000
00000000
00000000
00000000
,
00000000
00000000
00000000
00000000
,
00000000
00000000
00000000
00000000
,
00010000
00001000
00000000
01000000
00000000
00010000
00100000
00001000
,
00000000
00010000
00000000
01000000
00000000
00010000
00001000
01000000
,
00000000
00100000
00000000
00010000
00000000
00100000
01000000
00001000
,
00010000
00010000
00010000
00000010
,
00001000
00000000
00000001
00000000
00000100
00000000
00000010
00001000
,
00000000
00000100
00000000
00000200
00000000
00000000
00001300
00000001
,
00000000
00000020
00000001
00000000
00000000
00000100
00000000
00000031
,
00000000
00000100
00000010
00000000
00001000
00000000
00000100
00000000
,
00010000
00000000
00001000
00000000
00100000
00000000
01000000
10000000
,
00000000
00010000
00000000
00100000
00000000
00001000
00000000
00010000
,
00000000
00001000
00000000
01000000
00000000
00100000
00000000
10000000
,
00010000
01000000
00000000
00000000
00001000
00000000
00010000
00000000
,
00000100
00000000
00000020
00000000
00001000
00000000
00000130
00010000
,
00000000
00000010
00010000
00001000
00000000
01000000
00001000
00010000
,
00000020
00000000
00001000
00000000
00000130
00000001
00000010
00001000
,
00000000
00000010
00000100
00010000
00001000
00100000
00000000
00001000
,
01000000
00000000
00010000
00000000
10000000
00010000
00100000
01000000
,
10000000
00000000
01000000
00100000
00000000
00001000
00000000
01000000
,
00020000
00000000
10000000
00000000
00130000
00001000
00010000
00000010
,
00000100
00000100
00000100
00000001
,
00001000
00000010
00000000
00010000
00000000
00000000
00001000
01000000
,
00000000
00001000
00000000
00100000
01000000
00000000
10000000
00010000
,
00100000
00001000
00000000
00010000
00000000
00000100
00000010
00000000
,
00000100
00000000
00000000
00001000
00000001
00000000
00000000
00000000
00000101
00000000
00000000
00000000
00001010
00000000
00000000
00000000
,
00000010
00000000
00010010
00000000
00010000
00001000
01000000
00010000
,
00000000
10000000
00100000
00000000
10000000
00000000
00010000
00100000
,
00001000
01000000
00000000
00010000
00000000
00100000
00001000
01000000
,
00100000
00010000
00100000
10000000
00010000
00000000
01010000
00000000
,
01000000
00000000
00001000
00010000
00000100
00001000
00000000
00000100
,
00000000
00010000
00000000
00000010
00000000
00001000
00000002
00000000
,
00000203
00000000
00001000
00000000
00000001
00000000
00000310
00010000
,
00001000
00000000
00000000
00010000
00000100
00000000
00000000
00001000
00000100
00000000
00000000
00000000
00001100
00000000
00000000
00000000
,
00001000
00000000
00002001
00000000
00000000
00003010
00010000
00001000
,
01000000
00010000
00000000
10000000
00000000
01000000
00100000
00010000
,
02000000
00000000
00001000
00000000
00000000
03100000
10000000
00010000
,
00010000
01001000
00011000
00010010
,
00010000
00000010
00000100
00000002
00000000
00000000
00000000
00001003
,
00000001
00000100
00000010
00020000
00000000
00000000
00000000
00000000
,
00031000
01000000
00100000
20000000
00000000
31000000
00000000
10000000
,
00010000
00100000
00001000
00020000
00000000
00000000
00000000
00000000
,
00031000
01000000
00010000
20000000
00000000
00000000
00000000
30100000
,
01000000
00001000
00010000
00000200
00000000
00000000
00000000
00000000
,
00000310
00000100
00001000
00000020
00000000
00000130
00000000
00000001
,
00001000
00000100
00010000
00001000
01000000
00200000
00000000
00320000
,
00000000
00000000
00130000
20000000
00000000
30020000
00000000
02030000
,
00001000
00000000
03010000
00100000
00001000
00020000
00000000
00000000
,
00030200
00000000
00000310
00000100
00020000
00000000
00000010
00000000
,
00032000
01000000
00023000
00000000
,
00031000
00000000
00200000
00000000
00320000
00000000
01030000
20000000
,
00000000
31000000
00100000
20000000
00000000
00000000
00000000
00000000
,
31000000
00100000
00001000
00000000
00010000
00000010
00000000
00001000
,
00000100
00000000
00000001
00000100
00001000
00000000
00001001
00000000
,
00001000
00000000
00000010
00000000
00010000
00000010
00000100
00000001
,
00001000
00000000
00000100
00010000
00000000
00000100
00000010
00001000
,
00000010
00000001
00002000
00000000
00000000
00003100
00010000
00001000
,
01000000
00000000
00000000
00001000
00010000
00000000
00000000
00000000
00011000
00000000
00000000
00000000
01010000
00000000
00000000
00000000
,
01100000
00000000
00100000
00000000
10000000
00010000
00100000
00001000
,
01000000
00001000
00000000
00010000
00000010
00000100
00000001
00000200
,
00000000
00001000
00000000
00000001
00000000
00000310
00010000
00001000
,
00000000
00000000
00100000
00000000
00001000
00000000
01000000
00000000
00000000
00000000
00010000
00000000
01000000
00010000
01000000
00010000
,
01000000
00200000
00010000
10000000
,
01300000
00000000
00001000
00010000
00000100
00001000
00000001
00000200
,
00000010
00000000
00001000
00000000
00000000
00000310
00010000
00000100
,
00001000
00000000
00000000
00000010
00010000
00000000
00000000
00000000
00011000
00000000
00000000
00000000
00110000
00000000
00000000
00000000
,
10010000
00000000
00010000
00100000
00000000
00001000
00010000
00000000
,
00010100
00000000
00001010
00000000
00001000
00000100
00010000
00001000
,
01000000
01000000
00100000
00000000
01000000
01000000
00010000
00100000
,
00002000
00000000
00013000
00000200
00000000
00000320
00000000
00000032
,
00000000
00000000
00000003
00000000
;
