#VERSION:0.83;
#TITLE:Ehnduriluhva,, ,;
#SUBTITLE:;
#ARTIST:A-Saph as "Meryquitous";
#TITLETRANSLIT:;
#SUBTITLETRANSLIT:;
#ARTISTTRANSLIT:;
#GENRE:Artcore;
#ORIGIN:Composed for Secret Stepfile Santa 2023;
#TAGS:;
#CREDIT:;
#BANNER:Ehnduriluhva,, ,.png;
#BACKGROUND:Ehnduriluhva,, ,-bg.png;
#PREVIEWVID:;
#JACKET:Ehnduriluhva,, ,-jacket.png;
#CDTITLE:../_YSD cdtitles/ysd cdtitle.png;
#DISCIMAGE:;
#LYRICSPATH:;
#MUSIC:Ehnduriluhva,, ,.ogg;
#OFFSET:0.000000;
#SAMPLESTART:76.990997;
#SAMPLELENGTH:21.333000;
#SELECTABLE:YES;
#DISPLAYBPM:180.000000;
#BPMS:0.000000=180.000000
;
#STOPS:;
#DELAYS:;
#WARPS:;
#TIMESIGNATURES:0.000000=4=4
;
#TICKCOUNTS:0.000000=4
;
#COMBOS:0.000000=1
;
#SPEEDS:0.000000=1.000000=0.000000=0
;
#SCROLLS:0.000000=1.000000
;
#FAKES:;
#LABELS:0.000000=Song Start
;
#BGCHANGES:;
#KEYSOUNDS:;
#ATTACKS:
;

//---------------dance-single - ----------------
#NOTEDATA:;
#CHARTNAME:;
#CHARTHASH:716057078;
#STEPSTYPE:dance-single;
#BANNER:;
#DESCRIPTION:;
#CHARTSTYLE:;
#DIFFICULTY:Beginner;
#METER:5;
#METERF:0.000000;
#LASTSECONDHINT:141.166672;
#RADARVALUES:0.172194,0.283594,0.073661,0.207590,0.000000,180.000000,169.000000,11.000000,31.000000,0.000000,0.000000,0.000000,0.000000,0.000000,0.172194,0.283594,0.073661,0.207590,0.000000,180.000000,169.000000,11.000000,31.000000,0.000000,0.000000,0.000000,0.000000,0.000000;
#CREDIT:YOSEFU;
#DISPLAYBPM:180.000000;
#NOTES:
// measure 0
0000
0000
0000
0000
,  // measure 1
0000
0000
0000
0000
,  // measure 2
0000
0000
0000
0000
,  // measure 3
0000
0000
0000
0000
,  // measure 4
0000
0000
0000
0000
,  // measure 5
0000
0000
0000
0000
,  // measure 6
1000
0000
0000
0000
,  // measure 7
0001
0000
0000
0000
,  // measure 8
0100
0000
0000
0000
,  // measure 9
0010
0000
0000
0000
,  // measure 10
2000
0000
3000
0000
,  // measure 11
0200
0000
0300
0000
,  // measure 12
0020
0000
0030
0000
,  // measure 13
0002
0000
0003
0000
,  // measure 14
0200
0000
0300
0000
,  // measure 15
0020
0000
0030
0000
,  // measure 16
2000
0000
3000
0000
,  // measure 17
0002
0000
0003
0000
,  // measure 18
0110
0000
0010
0000
,  // measure 19
0100
0000
0000
0000
,  // measure 20
0001
0000
1000
0000
,  // measure 21
0001
0000
0000
0000
,  // measure 22
1000
0000
0100
0000
,  // measure 23
1000
0000
0000
0000
,  // measure 24
0001
0000
0100
0000
,  // measure 25
0002
0000
0003
0000
,  // measure 26
1001
0000
1000
0000
,  // measure 27
0001
0000
0000
0000
,  // measure 28
0100
0000
0010
0000
,  // measure 29
0100
0000
0000
0000
,  // measure 30
0001
0000
1000
0000
,  // measure 31
0001
0000
0000
0000
,  // measure 32
1000
0000
0100
0000
,  // measure 33
2000
0000
3000
0000
,  // measure 34
0002
0000
0003
0000
,  // measure 35
0200
0000
0300
0000
,  // measure 36
0020
0000
0030
0000
,  // measure 37
2000
0000
3000
0000
,  // measure 38
0200
0000
0300
0000
,  // measure 39
0020
0000
0030
0000
,  // measure 40
0001
0000
1000
0000
,  // measure 41
0100
0000
0010
0000
,  // measure 42
0002
0000
0003
0000
,  // measure 43
0200
0000
0300
0000
,  // measure 44
0020
0000
0030
0000
,  // measure 45
2000
0000
3000
0000
,  // measure 46
0002
0000
0003
0000
,  // measure 47
0010
0000
0100
0000
,  // measure 48
2000
0000
3000
0000
,  // measure 49
0002
0000
0003
0000
,  // measure 50
1001
0000
0000
0000
1000
0000
0000
1000
,  // measure 51
0000
0000
1000
0000
0000
1000
0000
0000
,  // measure 52
1001
0000
0000
0000
0010
0000
0000
0010
,  // measure 53
0000
0000
0010
0000
0000
0010
0000
0000
,  // measure 54
0110
0000
0000
0000
0001
0000
0000
0001
,  // measure 55
0000
0000
0001
0000
0000
0001
0000
0000
,  // measure 56
1001
0000
0000
0000
0100
0000
0000
0100
,  // measure 57
0000
0100
0100
0000
,  // measure 58
1001
0000
0001
0000
,  // measure 59
1000
0000
0100
0100
,  // measure 60
0010
0000
0001
0000
,  // measure 61
1000
1000
0010
0000
,  // measure 62
0100
0000
0001
0000
,  // measure 63
1000
0000
0100
0100
,  // measure 64
0010
0000
0001
0000
,  // measure 65
1000
1000
0001
0000
,  // measure 66
0200
0000
0000
0000
,  // measure 67
0000
0000
0300
0000
,  // measure 68
1001
0000
0001
0000
,  // measure 69
0100
0100
0010
0000
,  // measure 70
1000
0000
0001
0000
,  // measure 71
1000
1000
0100
0100
,  // measure 72
0020
0000
0000
0000
,  // measure 73
0000
0000
0030
0000
,  // measure 74
2002
0000
0000
0000
,  // measure 75
0000
0000
3003
0000
,  // measure 76
0001
0000
0100
0000
,  // measure 77
0010
0010
1000
0000
,  // measure 78
0001
0000
1000
0000
,  // measure 79
0100
0000
0010
0010
,  // measure 80
0001
0000
1000
0000
,  // measure 81
0001
0001
0100
0000
,  // measure 82
0020
0000
0000
0000
,  // measure 83
0000
0000
0030
0000
,  // measure 84
1001
0000
1000
0000
,  // measure 85
0100
0100
0010
0000
,  // measure 86
0001
0000
0100
0000
,  // measure 87
0010
0010
1000
1000
,  // measure 88
2002
0000
0000
0000
,  // measure 89
0000
0000
3003
0000
,  // measure 90
1000
0000
0100
0000
,  // measure 91
0010
0000
0100
0000
,  // measure 92
1000
0000
0001
0000
,  // measure 93
0100
0000
0010
0000
,  // measure 94
1000
0000
0010
0000
,  // measure 95
0100
0000
0001
0000
,  // measure 96
1000
0000
0100
0000
,  // measure 97
0010
0000
0001
0000
,  // measure 98
0010
0000
0100
0000
,  // measure 99
1000
0000
0001
0000
,  // measure 100
0100
0000
0010
0000
,  // measure 101
1000
0000
0010
0000
,  // measure 102
0100
0000
0001
0000
,  // measure 103
1000
0000
0100
0000
,  // measure 104
0010
0000
0001
0000
,  // measure 105
0100
0000
0000
0000
0020
0000
0000
0030
;

//---------------dance-single - ----------------
#NOTEDATA:;
#CHARTNAME:;
#CHARTHASH:1279777116;
#STEPSTYPE:dance-single;
#BANNER:;
#DESCRIPTION:;
#CHARTSTYLE:;
#DIFFICULTY:Easy;
#METER:11;
#METERF:0.000000;
#LASTSECONDHINT:141.333328;
#RADARVALUES:0.355868,0.425894,0.053572,0.375001,0.053572,372.000000,364.000000,8.000000,56.000000,0.000000,0.000000,0.000000,0.000000,0.000000,0.355868,0.425894,0.053572,0.375001,0.053572,372.000000,364.000000,8.000000,56.000000,0.000000,0.000000,0.000000,0.000000,0.000000;
#CREDIT:YOSEFU;
#DISPLAYBPM:180.000000;
#NOTES:
0000
0000
0000
0000
,
0000
0000
0000
0000
,
0000
0000
0000
0000
,
0000
0000
0000
0000
,
0000
0000
0000
0000
,
0000
0000
0000
0000
,
0000
1000
0000
0000
0000
0000
0000
0000
,
0000
0010
0000
0000
0000
0000
0000
0100
,
0000
0001
0000
0000
0000
0000
0000
1000
,
0000
0100
0000
0010
0000
0000
0000
0001
,
0000
0100
0000
0000
0000
0000
0000
0000
,
0000
0010
0000
0000
0000
0100
0000
0001
,
0000
0010
0000
0000
0000
0000
0000
0100
,
0000
1000
0000
0010
0000
0000
0000
0100
,
0000
0001
0000
0000
0000
0000
0000
0000
,
0000
1000
0000
0000
0000
0000
0000
0100
,
0020
0000
0000
0000
,
0032
0000
0000
0003
,
1000
0000
0010
0000
0100
0000
0010
1000
,
0010
0000
0100
0000
0001
1000
0001
0000
,
0010
0000
0100
0000
1000
0000
0001
0100
,
0000
1000
0000
0100
0001
0000
1001
0000
,
1000
0000
0100
0000
0010
0000
0001
0100
,
0001
0000
1000
0000
0010
0100
0010
0000
,
1000
0000
0100
0000
0010
0000
0001
0100
,
0010
0000
0000
0000
1000
0000
0000
0000
0001
0000
0000
0001
0000
0000
0000
0000
,
1000
0010
0100
0001
,
1000
0100
1000
0000
0010
0000
0100
0001
,
0100
0000
0010
0000
1000
0000
0001
0010
,
0000
1000
0000
0010
0001
0000
1001
0000
,
1000
0000
0010
0000
0100
0000
0001
1000
,
0001
0000
1000
0000
0100
0010
0100
0000
,
1000
0000
0010
0000
0100
0000
0001
0010
,
0200
0000
0000
1300
,
0002
0000
0003
0100
0001
0000
0100
0000
,
0020
0000
2030
0000
,
3200
0000
0300
0010
0001
0000
1000
0000
,
0020
0230
0320
2030
,
3002
0000
0003
1000
0100
0000
0010
0000
,
0002
0000
0203
0000
,
0320
0030
0020
2030
,
3200
0000
0320
0000
,
0032
0000
0003
1000
0010
0000
1000
0000
,
0200
0000
0320
0000
,
0032
0000
0003
0100
0010
0000
0100
0000
,
0002
2003
3200
0302
,
0203
0000
0300
1000
0010
0000
0100
0000
,
0002
0000
0023
0000
,
0230
0000
0300
1000
0001
0000
0100
0000
,
0020
0000
0000
0000
,
2030
0000
3002
0000
0013
0000
0000
0110
,
0000
0000
1000
0000
0000
0101
0000
0000
,
0200
0000
0000
0000
0320
0000
0000
0000
1030
0000
0000
0001
0000
0000
0100
0000
,
0000
0000
0010
0000
0000
1000
0000
0000
0100
0000
0000
0010
0000
0000
0001
0000
,
0200
0000
0000
0000
0310
0000
0000
1100
,
0000
0000
0100
0000
0000
0011
0000
0000
,
0001
0000
0100
0000
0000
0000
0001
0000
1000
0000
0000
1000
0000
0000
0010
0000
,
0000
0100
0000
0001
0020
0000
0000
0000
,
0130
0000
1000
0000
0010
0100
0001
0000
,
1000
0100
0000
0100
0000
0100
1000
0000
,
0001
0000
0100
0000
0010
1000
0000
0010
,
1000
0000
0100
0000
0010
0001
1000
0000
,
0010
0000
0100
0000
0001
1000
0001
0000
,
0020
0230
2300
3020
,
0130
0000
0001
1000
0000
0100
0000
0010
,
0001
0000
1000
0010
0000
0100
0001
0000
,
2002
0000
0000
0000
,
0000
0000
3003
0000
,
1000
0010
0100
0001
,
1000
0001
1000
0000
0100
0000
0010
0000
,
0001
0100
1000
0100
,
0001
0000
0010
1000
0010
0000
0001
0000
,
0200
0000
0000
0000
,
0000
0000
0000
0320
,
2030
0000
0000
0000
3100
0010
0000
0001
,
0000
0001
0000
0000
0001
0000
0000
0001
0000
0000
0001
0000
0000
0000
0000
0000
,
1000
0000
0010
0000
0100
0001
0000
0100
,
0001
0000
0010
0000
0100
1000
0001
0000
,
0100
0000
0010
0000
1000
0001
1000
0000
,
0200
0320
0032
0203
,
0310
0000
1000
0001
0000
0010
0000
0100
,
1000
0000
0001
0100
0000
0010
1000
0000
,
2002
0000
0000
0000
,
0000
0000
3003
0000
,
0001
0100
0010
1000
,
0001
1000
0001
0000
0010
0000
0100
0000
,
1000
0010
0001
0010
,
1000
0000
0100
0001
0100
0000
1000
0000
,
0020
0000
0000
0000
,
0000
0000
0000
0130
,
0001
0010
0100
1000
,
0001
0100
0000
0100
0000
0000
0010
0000
,
1000
0000
0000
1000
0000
0000
1000
0000
0000
0000
0000
0000
0100
0000
0000
0000
,
0010
0000
0001
1000
0000
0010
0000
0100
,
0001
0000
1000
0000
0100
0010
0001
0000
,
0000
0000
0100
0000
0000
0010
0000
0000
1000
0000
0000
0000
0100
0000
0000
0000
,
0000
0000
0010
0000
0000
0010
0000
0000
0000
0000
0001
0000
0000
0001
0000
0000
,
1000
0000
0010
0100
0000
0100
0000
0001
,
1000
0100
0010
0001
,
1000
0010
0000
0010
0000
0000
0100
0000
,
0001
0000
0000
0001
0000
0000
0001
0000
0000
0000
0000
0000
1000
0000
0000
0000
,
0100
0000
0010
0001
0000
1000
0000
0001
,
0100
0000
0010
0000
1000
0001
0100
0000
,
0000
0000
0001
0000
0000
0010
0000
0000
0100
0000
0000
0000
1000
0000
0000
0000
,
0000
0000
0010
0000
0000
0010
0000
0000
0000
0000
0100
0000
0000
0100
0000
0000
,
0001
0000
0000
0001
0000
0000
1000
0000
0000
0000
0200
0000
0000
0000
0320
0000
,
0030
0000
0000
0000
;

//---------------dance-single - ----------------
#NOTEDATA:;
#CHARTNAME:;
#CHARTHASH:3229978957;
#STEPSTYPE:dance-single;
#BANNER:;
#DESCRIPTION:;
#CHARTSTYLE:;
#DIFFICULTY:Medium;
#METER:13;
#METERF:0.000000;
#LASTSECONDHINT:141.333328;
#RADARVALUES:0.583547,0.638841,0.154018,0.408483,0.073661,610.000000,587.000000,23.000000,61.000000,0.000000,0.000000,0.000000,0.000000,0.000000,0.583547,0.638841,0.154018,0.408483,0.073661,610.000000,587.000000,23.000000,61.000000,0.000000,0.000000,0.000000,0.000000,0.000000;
#CREDIT:YOSEFU;
#DISPLAYBPM:180.000000;
#NOTES:
0000
0000
0000
0000
,
0000
0000
0000
0000
,
0000
0000
0000
0000
,
0000
0000
0000
0000
,
0000
0000
0000
0000
,
0000
0000
0000
0000
,
1000
0010
0100
0000
0001
0000
1000
0000
,
0100
0010
0001
0000
1000
0000
0010
0100
,
0010
1000
0001
0000
0010
0000
0001
0100
,
0010
1000
0010
0100
0001
0000
1000
0001
,
1000
0100
0010
0000
0001
0000
0100
0000
,
0010
1000
0001
0000
0010
0100
0010
0001
,
0100
0010
1000
0000
0010
0000
0100
0001
,
0010
0001
0100
0010
1000
0000
0100
0010
,
0001
0100
0010
0000
1000
0000
0001
0000
,
0010
0100
1000
0000
0010
0000
0100
0001
,
2000
0000
0000
0000
,
3200
0000
0000
0300
,
1000
0001
0000
0100
0001
0000
1000
0100
,
0010
0100
1000
0001
0100
0000
0110
0000
,
0010
1000
0000
0001
0010
0100
0010
1000
,
0000
0010
0000
0001
0100
0000
0110
0000
,
1000
0001
0000
1000
0100
0000
0010
0001
,
0100
0010
1000
0100
0010
0000
0011
0000
,
0001
0100
0000
0010
1000
0100
0010
0001
,
0100
0000
0000
0000
0110
0000
0000
0000
0001
0000
0000
1001
0000
0000
0000
0000
,
1000
0001
0000
0010
0001
0000
1000
0010
,
0100
0010
1000
0001
0010
0000
0110
0000
,
0100
1000
0000
0001
0100
0010
0100
1000
,
0000
0100
0000
0001
0010
0000
0110
0000
,
1000
0001
0000
1000
0010
0000
0100
0001
,
0010
0100
1000
0010
0100
0000
0101
0000
,
0001
0010
0000
0100
1000
0010
0100
0001
,
0010
0100
0000
1100
0000
1000
0001
0000
,
0200
0000
0000
0000
0310
1000
1000
0000
,
0200
0010
2300
0001
,
3010
0100
0000
0001
0100
0000
0110
0000
,
0020
2030
3200
0320
,
0031
0100
0000
0001
0100
0000
0110
0000
,
0010
0000
1000
0100
0100
0000
0010
0000
,
0002
0000
0000
0103
0020
0000
2030
0000
,
3100
0010
0000
0001
1000
0000
1010
0000
,
0020
0000
0000
0000
1030
0001
0001
0000
,
0020
0100
0032
0100
,
1003
0010
0000
1000
0010
0000
0110
0000
,
0200
0302
0023
0230
,
1300
0010
0000
1000
0010
0000
0110
0000
,
0100
0001
0010
0001
0100
0000
0110
0000
,
1000
0001
0010
0100
0010
0001
1000
0010
,
0200
0000
0000
0300
,
2002
0000
3003
0000
1000
0100
0010
1000
,
0010
0001
0100
0010
0001
0010
1000
0001
,
2002
0000
0000
0000
3003
0000
0000
0000
1000
0000
0001
0100
0000
0001
0100
0000
,
0000
0000
0001
0010
0000
0100
0000
0000
1000
0000
0001
1000
0000
0001
1000
0000
,
0020
0000
0000
0000
0130
0001
0010
1000
,
0010
0001
0100
0010
0001
0010
1000
0100
,
0010
0000
1000
0000
0010
0000
0001
0000
1000
0000
0001
0100
0000
0100
0001
0000
,
0010
1000
0010
0001
0100
0000
0000
0000
,
1001
1000
0100
0010
1000
0010
0001
0100
,
0010
1000
0010
0100
0001
0010
1000
0001
,
0100
1000
0010
0100
1000
0100
0001
0010
,
0100
0001
0100
1000
0001
0100
1000
0100
,
0001
0010
1000
0010
0001
0100
0010
0001
,
0010
1000
0001
0010
1000
0010
0001
0100
,
0010
1000
0100
0010
0001
1000
0010
0001
,
1000
0100
0001
0010
0100
1000
0001
0100
,
0020
0000
0000
0000
0000
0000
0000
1000
,
0000
0100
0000
0001
0000
0130
0002
0000
,
1003
0100
0010
1000
0010
0001
0100
1000
,
0001
0010
1000
0100
0010
0001
0100
0010
,
1000
0001
0010
1000
0010
0001
0100
1000
,
0001
0010
1000
0100
0001
0100
1000
0010
,
0200
0000
0000
0000
,
0302
0000
0000
0000
0000
0000
0013
0100
1000
0002
0000
0000
,
0203
0000
0000
0000
0310
1000
0000
1010
,
0000
1010
0000
0000
1001
0000
0000
1001
0000
0000
0011
0000
0000
0000
0000
0000
,
0010
0001
0100
0010
0001
0010
1000
0100
,
0010
1000
0010
0001
1000
0010
0001
0010
,
1000
0100
0001
0100
1000
0010
0100
1000
,
0100
0001
1000
0100
0001
0100
1000
0010
,
0100
0001
0010
0100
1000
0001
0100
1000
,
0001
0010
1000
0100
0010
0001
1000
0010
,
0200
0000
0000
0000
0000
0000
0000
0001
,
0000
0010
0000
1000
0000
0310
2000
0000
,
3001
0010
0100
0001
0100
1000
0010
0001
,
1000
0100
0001
0010
0100
1000
0010
0100
,
0001
1000
0100
0001
0100
1000
0010
0001
,
1000
0100
0001
0010
1000
0010
0001
0100
,
0020
0000
0000
0000
,
2030
0000
0000
0000
0000
3002
0023
0230
,
1300
0001
0100
0001
0010
0100
1000
0001
,
0100
0010
0000
0010
0000
1000
0100
0010
,
0001
0000
0000
0001
0000
0000
0002
0000
0000
0000
0203
0000
0320
0000
0230
0000
,
0301
1000
0100
0002
0000
0203
0000
0310
,
0001
0001
0200
0000
0310
1000
0001
0010
,
0100
0000
1000
0000
0000
0001
0000
0000
0200
0000
0000
0000
0310
0000
1000
0000
,
0001
0000
0010
0000
0000
0010
0000
0000
0000
0000
0100
0000
0000
0100
0000
0000
,
1000
0001
0100
2000
0000
3200
0000
0310
,
1000
0100
0010
0001
0100
0010
1000
0001
,
0010
0100
0000
0200
0000
1300
0010
0100
,
0001
0000
0000
0001
0000
0000
0002
0000
0000
0000
0023
0000
0230
0000
2300
0000
,
3000
0010
0100
2000
0000
3200
0000
0301
,
0010
0010
0200
0000
1300
0010
0100
0001
,
0000
0000
0010
0000
0000
1000
0000
0000
0020
0000
0000
0000
0031
0000
0100
0000
,
0010
0000
1000
0000
0000
1000
0000
0000
0000
0000
0100
0000
0000
0100
0000
0000
,
0010
0000
0000
0010
0000
0000
0002
0000
0000
0000
0203
0000
0320
0000
2030
0000
,
3000
0000
0000
0000
;

//---------------dance-single - ----------------
#NOTEDATA:;
#CHARTNAME:;
#CHARTHASH:3826578013;
#STEPSTYPE:dance-single;
#BANNER:;
#DESCRIPTION:;
#CHARTSTYLE:;
#DIFFICULTY:Hard;
#METER:15;
#METERF:0.000000;
#LASTSECONDHINT:141.333328;
#RADARVALUES:0.672514,0.709823,0.241072,0.334822,0.254465,703.000000,667.000000,36.000000,50.000000,17.000000,0.000000,0.000000,0.000000,0.000000,0.672514,0.709823,0.241072,0.334822,0.254465,703.000000,667.000000,36.000000,50.000000,17.000000,0.000000,0.000000,0.000000,0.000000;
#CREDIT:YOSEFU;
#OFFSET:0.000000;
#BPMS:0.000000=180.000000
;
#STOPS:;
#DELAYS:;
#WARPS:;
#TIMESIGNATURES:0.000000=4=4
;
#TICKCOUNTS:0.000000=4
;
#COMBOS:0.000000=1
;
#SPEEDS:0.000000=1.000000=0.000000=0
;
#SCROLLS:0.000000=1.000000
,8.000000=0.000000
,8.437500=8.000000
,8.500000=0.000000
,8.937500=8.000000
,9.000000=0.000000
,9.437500=8.000000
,9.500000=0.000000
,9.937500=8.000000
,10.000000=0.000000
,10.437500=8.000000
,10.500000=0.000000
,10.937500=8.000000
,11.000000=0.000000
,11.437500=8.000000
,11.500000=0.000000
,11.937500=8.000000
,12.000000=0.000000
,12.437500=8.000000
,12.500000=0.000000
,12.937500=8.000000
,13.000000=0.000000
,13.437500=8.000000
,13.500000=0.000000
,13.937500=8.000000
,14.000000=0.000000
,14.437500=8.000000
,14.500000=0.000000
,14.937500=8.000000
,15.000000=0.000000
,15.437500=8.000000
,15.500000=0.000000
,15.937500=8.000000
,16.000000=0.000000
,16.437500=8.000000
,16.500000=0.000000
,16.937500=8.000000
,17.000000=0.000000
,17.437500=8.000000
,17.500000=0.000000
,17.937500=8.000000
,18.000000=0.000000
,18.437500=8.000000
,18.500000=0.000000
,18.937500=8.000000
,19.000000=0.000000
,19.437500=8.000000
,19.500000=0.000000
,19.937500=8.000000
,20.000000=0.000000
,20.437500=8.000000
,20.500000=0.000000
,20.937500=8.000000
,21.000000=0.000000
,21.437500=8.000000
,21.500000=0.000000
,21.937500=8.000000
,22.000000=0.000000
,22.437500=8.000000
,22.500000=0.000000
,22.937500=8.000000
,23.000000=0.000000
,23.437500=8.000000
,23.500000=0.000000
,23.937500=8.000000
,24.000000=0.000000
,24.437500=8.000000
,24.500000=0.000000
,24.937500=8.000000
,25.000000=0.000000
,25.437500=8.000000
,25.500000=0.000000
,25.937500=8.000000
,26.000000=0.000000
,26.437500=8.000000
,26.500000=0.000000
,26.937500=8.000000
,27.000000=0.000000
,27.437500=8.000000
,27.500000=0.000000
,27.937500=8.000000
,28.000000=0.000000
,28.437500=8.000000
,28.500000=0.000000
,28.937500=8.000000
,29.000000=0.000000
,29.437500=8.000000
,29.500000=0.000000
,29.937500=8.000000
,30.000000=0.000000
,30.437500=8.000000
,30.500000=0.000000
,30.937500=8.000000
,31.000000=0.000000
,31.437500=8.000000
,31.500000=0.000000
,31.937500=8.000000
,32.000000=0.000000
,32.437500=8.000000
,32.500000=0.000000
,32.937500=8.000000
,33.000000=0.000000
,33.437500=8.000000
,33.500000=0.000000
,33.937500=8.000000
,34.000000=0.000000
,34.437500=8.000000
,34.500000=0.000000
,34.937500=8.000000
,35.000000=0.000000
,35.437500=8.000000
,35.500000=0.000000
,35.937500=8.000000
,36.000000=0.000000
,36.437500=8.000000
,36.500000=0.000000
,36.937500=8.000000
,37.000000=0.000000
,37.437500=8.000000
,37.500000=0.000000
,37.937500=8.000000
,38.000000=0.000000
,38.437500=8.000000
,38.500000=0.000000
,38.937500=8.000000
,39.000000=0.000000
,39.437500=8.000000
,39.500000=0.000000
,39.937500=8.000000
,40.000000=0.000000
,40.437500=8.000000
,40.500000=0.000000
,40.937500=8.000000
,41.000000=0.000000
,41.437500=8.000000
,41.500000=0.000000
,41.937500=8.000000
,42.000000=0.000000
,42.437500=8.000000
,42.500000=0.000000
,42.937500=8.000000
,43.000000=0.000000
,43.437500=8.000000
,43.500000=0.000000
,43.937500=8.000000
,44.000000=0.000000
,44.437500=8.000000
,44.500000=0.000000
,44.937500=8.000000
,45.000000=0.000000
,45.437500=8.000000
,45.500000=0.000000
,45.937500=8.000000
,46.000000=0.000000
,46.437500=8.000000
,46.500000=0.000000
,46.937500=8.000000
,47.000000=0.000000
,47.437500=8.000000
,47.500000=0.000000
,47.937500=8.000000
,48.000000=0.000000
,48.437500=8.000000
,48.500000=0.000000
,48.937500=8.000000
,49.000000=0.000000
,49.437500=8.000000
,49.500000=0.000000
,49.937500=8.000000
,50.000000=0.000000
,50.437500=8.000000
,50.500000=0.000000
,50.937500=8.000000
,51.000000=0.000000
,51.437500=8.000000
,51.500000=0.000000
,51.937500=8.000000
,52.000000=0.000000
,52.437500=8.000000
,52.500000=0.000000
,52.937500=8.000000
,53.000000=0.000000
,53.437500=8.000000
,53.500000=0.000000
,53.937500=8.000000
,54.000000=0.000000
,54.437500=8.000000
,54.500000=0.000000
,54.937500=8.000000
,55.000000=0.000000
,55.437500=8.000000
,55.500000=0.000000
,55.937500=8.000000
,56.000000=0.000000
,56.437500=8.000000
,56.500000=0.000000
,56.937500=8.000000
,57.000000=0.000000
,57.437500=8.000000
,57.500000=0.000000
,57.937500=8.000000
,58.000000=0.000000
,58.437500=8.000000
,58.500000=0.000000
,58.937500=8.000000
,59.000000=0.000000
,59.437500=8.000000
,59.500000=0.000000
,59.937500=8.000000
,60.000000=0.000000
,60.437500=8.000000
,60.500000=0.000000
,60.937500=8.000000
,61.000000=0.000000
,61.437500=8.000000
,61.500000=0.000000
,61.937500=8.000000
,62.000000=0.000000
,62.437500=8.000000
,62.500000=0.000000
,62.937500=8.000000
,63.000000=0.000000
,63.437500=8.000000
,63.500000=0.000000
,63.937500=8.000000
,64.000000=0.500000
,68.000000=0.750000
,68.250000=1.000000
,68.500000=1.250000
,68.750000=1.500000
,69.000000=1.750000
,69.250000=2.000000
,69.500000=2.250000
,69.750000=2.500000
,70.000000=2.750000
,70.250000=3.000000
,70.500000=3.250000
,70.750000=3.500000
,71.000000=0.000000
,71.500000=1.000000
,100.000000=0.750000
,104.000000=1.000000
,132.000000=0.950000
,133.000000=0.900000
,134.000000=0.850000
,135.000000=0.800000
,136.000000=0.750000
,196.000000=0.000000
,196.208328=0.100000
,196.395828=0.200000
,196.604172=0.300000
,196.791672=0.400000
,197.000000=0.500000
,197.208328=0.600000
,197.395828=0.700000
,197.604172=0.800000
,197.791672=0.900000
,198.000000=1.000000
,198.208328=1.100000
,198.395828=1.200000
,198.604172=1.300000
,198.791672=1.400000
,199.000000=1.500000
,199.208328=1.600000
,199.395828=1.700000
,199.604172=1.800000
,199.791672=1.900000
,200.000000=2.000000
,200.250000=1.000000
,200.375000=0.500000
,200.625000=1.000000
,200.750000=2.000000
,201.500000=1.000000
,201.750000=0.500000
,202.000000=1.000000
,208.000000=2.000000
,208.250000=1.000000
,208.375000=0.500000
,208.625000=1.000000
,208.750000=2.000000
,209.500000=1.000000
,209.750000=0.500000
,210.000000=1.000000
,216.000000=2.000000
,216.208328=1.800000
,216.395828=1.600000
,216.604172=1.400000
,216.791672=1.200000
,217.000000=1.000000
,217.208328=0.800000
,217.395828=0.600000
,217.604172=0.400000
,217.791672=0.200000
,218.000000=1.000000
,224.000000=0.000000
,224.250000=2.000000
,224.500000=0.000000
,224.750000=2.000000
,225.000000=0.000000
,225.250000=2.000000
,225.500000=0.000000
,225.750000=2.000000
,226.000000=1.000000
,230.000000=0.500000
,232.000000=1.000000
,264.000000=0.750000
,272.000000=1.000000
,288.000000=0.750000
,299.500000=0.000000
,299.875000=1.000000
,300.250000=0.000000
,300.625000=1.000000
,301.000000=0.000000
,301.375000=1.000000
,301.750000=0.000000
,302.125000=1.000000
,302.500000=0.000000
,302.875000=1.000000
,303.000000=0.000000
,303.500000=1.000000
,328.000000=0.750000
,336.000000=1.000000
,352.000000=0.750000
,359.000000=0.700000
,359.250000=0.650000
,359.500000=0.600000
,359.750000=0.550000
,360.000000=0.500000
;
#FAKES:;
#LABELS:0.000000=Song Start
;
#DISPLAYBPM:180.000000;
#NOTES:
0000
0000
0000
0000
,
0000
0000
0000
0000
,
0000
0M00
0000
0000
0000
0000
0000
0000
,
0000
00M0
0000
0000
0000
0M00
0000
00M0
,
0000
0M00
0000
0000
0000
0000
0000
00M0
,
0000
0M00
0000
00M0
0000
0000
0000
0M00
,
1000
0010
0100
0001
1000
0100
0010
0001
,
0100
0010
1000
0001
1000
0010
0100
0001
,
1000
0100
0010
0001
0010
0100
1000
0001
,
0100
0010
0100
0001
1000
0100
0010
0001
,
0100
0010
0100
0001
1000
0100
0010
0001
,
0100
0010
1000
0001
0100
0010
0100
0001
,
1000
0100
0010
0001
0100
0010
1000
0001
,
1000
0010
0100
0001
1000
0100
0010
0100
,
1000
0001
0100
0010
0100
0001
1000
0100
,
0010
0001
0100
0010
1000
0001
0010
0100
,
2000
0000
0000
0000
,
3M2M
0000
0M0M
0030
,
0101
0100
0001
0010
0100
0010
0001
0100
,
1000
0100
0010
0100
0001
0010
0100
1000
,
0001
0100
0010
1000
0100
0010
0100
0001
,
0100
0010
0100
1000
0010
0100
0001
1000
,
0100
0010
0001
0100
0010
1000
0001
0010
,
0100
0010
0001
1000
0010
0100
0010
0001
,
0010
0100
0010
1000
0100
0010
0001
0100
,
0101
0000
0000
0000
1010
0000
0000
0000
1001
0000
0000
1001
0000
0000
0000
0000
,
1001
1000
0010
1000
0100
0010
0001
0100
,
0010
0100
1000
0100
0001
0010
0100
1000
,
0001
0100
0010
1000
0100
0010
0001
0100
,
1000
0100
0010
0100
0001
0010
0100
1000
,
0001
0100
0010
1000
0100
0010
0001
0100
,
0010
0100
1000
0100
0010
0100
0001
1000
,
0100
0010
0100
0001
0100
1000
0010
0100
,
0001
1000
0000
0010
0000
0100
0001
0000
,
1001
0000
0000
1000
0100
0010
0010
0000
,
0001
0100
0000
0010
0100
0000
0101
0000
,
1000
0100
0010
0010
0100
1000
0001
0100
,
0020
2030
3200
0320
,
0031
0000
0000
1000
0010
0100
0100
0000
,
0001
1000
0000
0100
0010
0000
0011
0000
,
0001
0100
0010
0001
0020
0000
2030
0000
,
3200
0010
2300
0001
,
3010
0000
0000
0100
0001
1000
1000
0000
,
0100
0010
0000
0001
0100
0000
1010
0000
,
0001
0010
0100
0100
0010
0001
1000
0010
,
0200
0302
0023
0230
,
1300
0000
0000
0001
0100
0010
0010
0000
,
1000
0001
0000
0010
0100
0000
1000
0010
,
0100
0001
0010
0100
1000
0010
0100
0000
,
M22M
0000
M33M
0000
,
1002
0000
0000
0000
0100
0000
0000
0000
1003
0000
0001
0100
0000
0100
0010
0000
,
0010
0100
0000
0100
0001
0000
0001
0010
0000
0010
0100
0000
0010
0000
0001
0000
,
2001
0000
0000
0000
0010
0000
0000
0000
3100
0000
1000
0010
0000
1000
0100
0000
,
0010
0001
0000
0100
0001
0000
0010
0100
0000
1000
0010
0000
1000
0001
0100
0000
,
0020
0000
0000
0000
0000
0000
0000
0000
0130
0000
0001
0010
0000
0010
0100
0000
,
0100
0010
0000
0010
0001
0000
0001
0100
0000
0100
0010
0000
1000
0000
0100
0000
,
0010
0000
1000
0000
0010
0000
0001
0000
0100
0000
0010
1000
0000
0100
1000
0000
,
0001
0010
0001
0100
0020
0000
0030
0000
,
1001
1000
0010
0100
0001
0010
1000
0010
,
0100
0000
1000
0000
0001
0000
0200
0000
0000
0000
0310
1000
0001
0000
0010
0000
,
0100
0000
1000
0001
0200
0000
0000
0000
0310
0000
1000
0000
0100
0000
0001
0000
,
0100
0010
0000
0010
0001
0000
0001
0100
0000
0100
0010
0000
1000
0000
0001
0000
,
0010
0000
0010
0000
0100
0000
1000
0000
0010
0100
0001
0000
1000
0000
0100
0000
,
0010
0000
0001
0000
0100
0010
0000
1000
0002
0000
0000
0000
0013
0000
0100
0000
,
1000
0000
0001
0000
0100
0000
1000
0000
0100
0000
0001
0000
0010
0100
0000
1000
,
0001
0000
0010
0000
1000
0000
0010
0001
0000
0001
0100
0000
0010
0000
1000
0000
,
2002
0000
0000
0000
0000
0003
0000
0000
,
0000
0100
0000
3100
0000
0010
0001
1000
,
0010
0000
0100
0001
1000
0000
0000
0000
0100
0000
0010
0000
0001
0000
0100
0000
,
0010
1000
0000
1000
0100
0000
0100
0001
0000
0001
0100
0000
1000
0000
0010
0000
,
0100
0000
0100
0000
0002
0000
0000
0000
0013
0100
1000
0000
0001
0000
0100
0000
,
0010
0000
0100
0000
1000
0100
0000
0001
0100
0000
0000
0000
0110
0000
0000
0000
,
2002
0000
0000
0000
,
0000
0000
0000
3003
,
0102
0000
0000
0000
0013
0100
0000
1100
,
0000
1001
0000
0000
0101
0000
0000
1001
0000
0000
1100
0000
0000
0000
0000
0000
,
1001
0000
0001
1000
0020
0000
0000
0000
0130
0000
0001
0000
0010
0000
1000
0000
,
0010
0100
0000
0100
1000
0000
1000
0010
0000
0010
0100
0000
0001
0000
1000
0000
,
0100
0000
0100
0000
0010
0000
0001
0000
0100
0010
1000
0000
0001
0000
0010
0000
,
0100
0000
1000
0000
0010
0100
0000
0001
2000
0000
0000
0000
3100
0000
0010
0000
,
0001
0000
1000
0000
0010
0000
0001
0000
0010
0000
1000
0000
0100
0010
0000
0001
,
1000
0000
0100
0000
0001
0000
0100
1000
0000
1000
0010
0000
0100
0000
0001
0000
,
2002
0000
0000
0000
0000
3000
0000
0000
,
0000
0010
0000
0013
0000
0100
1000
0001
,
0100
0000
0010
1000
0001
0000
0000
0000
0010
0000
0100
0000
1000
0000
0010
0000
,
0100
0001
0000
0001
0010
0000
0010
1000
0000
1000
0010
0000
0001
0000
0100
0000
,
0010
0000
0010
0000
2000
0000
0000
0000
3100
0010
0001
0000
1000
0000
0010
0000
,
0100
0000
0010
0000
0001
0010
0000
1000
0010
0000
0000
0000
0110
0000
0000
0000
,
2002
0000
0000
0000
,
0000
0000
0000
3003
,
1000
0010
0100
0010
0001
0010
0100
0001
,
1000
0100
0000
0200
0000
0310
0001
0100
,
0010
0000
0000
1000
0000
0000
1000
0000
0000
0000
0100
0000
0010
0000
0100
0000
,
1000
0001
0100
2000
0000
3200
0000
0310
,
0100
0000
0001
0000
2000
0000
0000
0000
3100
0010
0001
0000
1000
0000
0010
0000
,
0000
0000
0100
0000
0000
0101
0000
0000
1001
0000
0000
0000
1000
0000
0100
0000
,
0010
0000
0001
0000
1000
0001
1000
0000
0010
0000
0100
0000
0000
0100
0000
0000
,
0001
0010
0100
0002
0000
0203
0000
1300
,
0001
0100
0010
0100
0001
1000
0100
0010
,
0001
0100
0010
2000
0000
3100
0010
0001
,
0100
0000
0000
0010
0000
0000
0020
0000
0000
0000
1030
0000
0100
0000
0010
0000
,
0100
1000
0010
0002
0000
0023
0000
0130
,
0001
0000
1000
0000
0200
0000
0000
0000
0310
0001
0010
0000
0100
0000
1000
0000
,
0000
0000
0001
0000
0000
0101
0000
0000
1010
0000
0000
0000
1000
0000
0100
0000
,
0010
0000
0001
0000
1000
0010
1000
0000
0000
0000
1010
0000
0000
1010
0000
0000
,
1001
0000
0000
1001
0000
0000
0011
0000
0000
0000
0002
0000
0203
0000
0320
0000
,
0030
0000
0000
0000
;

//---------------dance-single - ----------------
#NOTEDATA:;
#CHARTNAME:;
#CHARTHASH:2354032750;
#STEPSTYPE:dance-single;
#BANNER:;
#DESCRIPTION:;
#CHARTSTYLE:;
#DIFFICULTY:Challenge;
#METER:17;
#METERF:0.000000;
#LASTSECONDHINT:141.333328;
#RADARVALUES:0.828446,0.851788,0.348215,0.529019,0.595984,866.000000,814.000000,52.000000,79.000000,17.000000,0.000000,0.000000,0.000000,0.000000,0.828446,0.851788,0.348215,0.529019,0.595984,866.000000,814.000000,52.000000,79.000000,17.000000,0.000000,0.000000,0.000000,0.000000;
#CREDIT:Yosefu,, ,;
#OFFSET:0.000000;
#BPMS:0.000000=180.000000
;
#STOPS:;
#DELAYS:;
#WARPS:;
#TIMESIGNATURES:0.000000=4=4
;
#TICKCOUNTS:0.000000=4
;
#COMBOS:0.000000=1
;
#SPEEDS:0.000000=1.000000=0.000000=0
;
#SCROLLS:0.000000=1.000000
,8.000000=0.000000
,8.437500=8.000000
,8.500000=0.000000
,8.937500=8.000000
,9.000000=0.000000
,9.437500=8.000000
,9.500000=0.000000
,9.937500=8.000000
,10.000000=0.000000
,10.437500=8.000000
,10.500000=0.000000
,10.937500=8.000000
,11.000000=0.000000
,11.437500=8.000000
,11.500000=0.000000
,11.937500=8.000000
,12.000000=0.000000
,12.437500=8.000000
,12.500000=0.000000
,12.937500=8.000000
,13.000000=0.000000
,13.437500=8.000000
,13.500000=0.000000
,13.937500=8.000000
,14.000000=0.000000
,14.437500=8.000000
,14.500000=0.000000
,14.937500=8.000000
,15.000000=0.000000
,15.437500=8.000000
,15.500000=0.000000
,15.937500=8.000000
,16.000000=0.000000
,16.437500=8.000000
,16.500000=0.000000
,16.937500=8.000000
,17.000000=0.000000
,17.437500=8.000000
,17.500000=0.000000
,17.937500=8.000000
,18.000000=0.000000
,18.437500=8.000000
,18.500000=0.000000
,18.937500=8.000000
,19.000000=0.000000
,19.437500=8.000000
,19.500000=0.000000
,19.937500=8.000000
,20.000000=0.000000
,20.437500=8.000000
,20.500000=0.000000
,20.937500=8.000000
,21.000000=0.000000
,21.437500=8.000000
,21.500000=0.000000
,21.937500=8.000000
,22.000000=0.000000
,22.437500=8.000000
,22.500000=0.000000
,22.937500=8.000000
,23.000000=0.000000
,23.437500=8.000000
,23.500000=0.000000
,23.937500=8.000000
,24.000000=0.000000
,24.437500=8.000000
,24.500000=0.000000
,24.937500=8.000000
,25.000000=0.000000
,25.437500=8.000000
,25.500000=0.000000
,25.937500=8.000000
,26.000000=0.000000
,26.437500=8.000000
,26.500000=0.000000
,26.937500=8.000000
,27.000000=0.000000
,27.437500=8.000000
,27.500000=0.000000
,27.937500=8.000000
,28.000000=0.000000
,28.437500=8.000000
,28.500000=0.000000
,28.937500=8.000000
,29.000000=0.000000
,29.437500=8.000000
,29.500000=0.000000
,29.937500=8.000000
,30.000000=0.000000
,30.437500=8.000000
,30.500000=0.000000
,30.937500=8.000000
,31.000000=0.000000
,31.437500=8.000000
,31.500000=0.000000
,31.937500=8.000000
,32.000000=0.000000
,32.437500=8.000000
,32.500000=0.000000
,32.937500=8.000000
,33.000000=0.000000
,33.437500=8.000000
,33.500000=0.000000
,33.937500=8.000000
,34.000000=0.000000
,34.437500=8.000000
,34.500000=0.000000
,34.937500=8.000000
,35.000000=0.000000
,35.437500=8.000000
,35.500000=0.000000
,35.937500=8.000000
,36.000000=0.000000
,36.437500=8.000000
,36.500000=0.000000
,36.937500=8.000000
,37.000000=0.000000
,37.437500=8.000000
,37.500000=0.000000
,37.937500=8.000000
,38.000000=0.000000
,38.437500=8.000000
,38.500000=0.000000
,38.937500=8.000000
,39.000000=0.000000
,39.437500=8.000000
,39.500000=0.000000
,39.937500=8.000000
,40.000000=0.000000
,40.437500=8.000000
,40.500000=0.000000
,40.937500=8.000000
,41.000000=0.000000
,41.437500=8.000000
,41.500000=0.000000
,41.937500=8.000000
,42.000000=0.000000
,42.437500=8.000000
,42.500000=0.000000
,42.937500=8.000000
,43.000000=0.000000
,43.437500=8.000000
,43.500000=0.000000
,43.937500=8.000000
,44.000000=0.000000
,44.437500=8.000000
,44.500000=0.000000
,44.937500=8.000000
,45.000000=0.000000
,45.437500=8.000000
,45.500000=0.000000
,45.937500=8.000000
,46.000000=0.000000
,46.437500=8.000000
,46.500000=0.000000
,46.937500=8.000000
,47.000000=0.000000
,47.437500=8.000000
,47.500000=0.000000
,47.937500=8.000000
,48.000000=0.000000
,48.437500=8.000000
,48.500000=0.000000
,48.937500=8.000000
,49.000000=0.000000
,49.437500=8.000000
,49.500000=0.000000
,49.937500=8.000000
,50.000000=0.000000
,50.437500=8.000000
,50.500000=0.000000
,50.937500=8.000000
,51.000000=0.000000
,51.437500=8.000000
,51.500000=0.000000
,51.937500=8.000000
,52.000000=0.000000
,52.437500=8.000000
,52.500000=0.000000
,52.937500=8.000000
,53.000000=0.000000
,53.437500=8.000000
,53.500000=0.000000
,53.937500=8.000000
,54.000000=0.000000
,54.437500=8.000000
,54.500000=0.000000
,54.937500=8.000000
,55.000000=0.000000
,55.437500=8.000000
,55.500000=0.000000
,55.937500=8.000000
,56.000000=0.000000
,56.437500=8.000000
,56.500000=0.000000
,56.937500=8.000000
,57.000000=0.000000
,57.437500=8.000000
,57.500000=0.000000
,57.937500=8.000000
,58.000000=0.000000
,58.437500=8.000000
,58.500000=0.000000
,58.937500=8.000000
,59.000000=0.000000
,59.437500=8.000000
,59.500000=0.000000
,59.937500=8.000000
,60.000000=0.000000
,60.437500=8.000000
,60.500000=0.000000
,60.937500=8.000000
,61.000000=0.000000
,61.437500=8.000000
,61.500000=0.000000
,61.937500=8.000000
,62.000000=0.000000
,62.437500=8.000000
,62.500000=0.000000
,62.937500=8.000000
,63.000000=0.000000
,63.437500=8.000000
,63.500000=0.000000
,63.937500=8.000000
,64.000000=0.500000
,68.000000=0.750000
,68.250000=1.000000
,68.500000=1.250000
,68.750000=1.500000
,69.000000=1.750000
,69.250000=2.000000
,69.500000=2.250000
,69.750000=2.500000
,70.000000=2.750000
,70.250000=3.000000
,70.500000=3.250000
,70.750000=3.500000
,71.000000=0.000000
,71.500000=1.000000
,100.000000=0.750000
,104.000000=1.000000
,132.000000=0.950000
,133.000000=0.900000
,134.000000=0.850000
,135.000000=0.800000
,136.000000=0.750000
,196.000000=0.000000
,196.208328=0.100000
,196.395828=0.200000
,196.604172=0.300000
,196.791672=0.400000
,197.000000=0.500000
,197.208328=0.600000
,197.395828=0.700000
,197.604172=0.800000
,197.791672=0.900000
,198.000000=1.000000
,198.208328=1.100000
,198.395828=1.200000
,198.604172=1.300000
,198.791672=1.400000
,199.000000=1.500000
,199.208328=1.600000
,199.395828=1.700000
,199.604172=1.800000
,199.791672=1.900000
,200.000000=2.000000
,200.250000=1.000000
,200.375000=0.500000
,200.625000=1.000000
,200.750000=2.000000
,201.500000=1.000000
,201.750000=0.500000
,202.000000=1.000000
,208.000000=2.000000
,208.250000=1.000000
,208.375000=0.500000
,208.625000=1.000000
,208.750000=2.000000
,209.500000=1.000000
,209.750000=0.500000
,210.000000=1.000000
,216.000000=2.000000
,216.208328=1.800000
,216.395828=1.600000
,216.604172=1.400000
,216.791672=1.200000
,217.000000=1.000000
,217.208328=0.800000
,217.395828=0.600000
,217.604172=0.400000
,217.791672=0.200000
,218.000000=1.000000
,224.000000=0.000000
,224.250000=2.000000
,224.500000=0.000000
,224.750000=2.000000
,225.000000=0.000000
,225.250000=2.000000
,225.500000=0.000000
,225.750000=2.000000
,226.000000=1.000000
,230.000000=0.500000
,232.000000=1.000000
,264.000000=0.750000
,272.000000=1.000000
,288.000000=0.750000
,299.500000=0.000000
,299.875000=1.000000
,300.250000=0.000000
,300.625000=1.000000
,301.000000=0.000000
,301.375000=1.000000
,301.750000=0.000000
,302.125000=1.000000
,302.500000=0.000000
,302.875000=1.000000
,303.000000=0.000000
,303.500000=1.000000
,328.000000=0.750000
,336.000000=1.000000
,352.000000=0.750000
,359.000000=0.700000
,359.250000=0.650000
,359.500000=0.600000
,359.750000=0.550000
,360.000000=0.500000
;
#FAKES:;
#LABELS:0.000000=Song Start
;
#DISPLAYBPM:180.000000;
#NOTES:
0000
0000
0000
0000
,
0000
0000
0000
0000
,
0000
00M0
0000
0000
0000
0000
0000
0000
,
0000
0M00
0000
0000
0000
0M00
0000
0M00
,
0000
00M0
0000
0000
0000
0000
0000
0M00
,
0000
00M0
0000
0M00
0000
0000
0000
0M00
,
1000
0010
0001
0010
0100
0001
1000
0100
,
0010
1000
0010
0001
1000
0010
0100
1000
,
0100
0001
0010
0100
0010
0001
0100
1000
,
0100
0001
0010
1000
0010
0001
0100
0010
,
0100
1000
0100
0001
1000
0001
0010
0100
,
0010
1000
0010
0001
0010
1000
0010
0001
,
0100
1000
0100
0001
1000
0010
0100
1000
,
0100
0001
0010
1000
0010
0001
0100
1000
,
0100
0001
0010
0100
0010
0001
1000
0001
,
0100
1000
0100
0010
1000
0100
0010
0001
,
0200
0000
0000
0000
,
M02M
0000
M00M
0330
,
1001
0000
0001
0000
0100
0000
0010
0000
0100
0000
0001
0000
1000
0000
0100
0010
,
0001
0000
0100
0010
1000
0000
0100
0000
0001
0100
0010
0000
0001
1000
0010
0000
,
0100
0000
1000
0000
0100
0000
0001
0000
0010
0000
0100
0000
0001
0000
0100
0010
,
0001
0000
0100
0010
1000
0000
0001
0000
0010
0100
1000
0000
0100
0010
0001
0000
,
1000
0000
0010
0000
0100
0000
0010
0000
1000
0000
0100
0000
0010
0000
0001
0100
,
0010
0000
1000
0100
0010
0000
0001
0000
0100
0010
1000
0000
0001
0010
0100
0000
,
1000
0000
0010
0000
0100
0000
1000
0000
0100
0000
0001
0000
1000
0010
0100
0000
,
0110
0000
0000
0000
2010
0000
0000
0000
3001
0010
0000
0001
0010
0000
0000
0000
,
1100
0000
1000
0001
0100
0000
0010
0000
0100
0000
0001
0000
0010
0000
0100
1000
,
0010
0000
0100
0001
0010
0000
0100
0000
0001
0100
0010
0000
0001
1000
0010
0000
,
0100
0000
0001
1000
0100
0000
0010
0000
0001
0000
0100
0000
1000
0000
0100
0010
,
1000
0000
0100
0010
0001
0000
0100
0000
0010
1000
0001
0000
0010
0100
1000
0000
,
0001
0000
0100
0010
1000
0000
0100
0000
0010
0000
0100
0000
0001
0000
0100
0010
,
0001
0000
1000
0010
0100
0000
1000
0000
0100
0001
1000
0000
0100
0010
0001
0000
,
0100
0000
0010
1000
0100
0000
0010
0000
1000
0000
0010
0000
0001
0000
1000
0000
,
0010
0001
0010
0100
0001
1000
1100
0000
,
0120
0000
0000
0000
0000
0000
0031
0000
1001
0000
1000
0010
0100
0000
0000
0000
,
0020
0001
0000
0130
0101
0000
1010
1000
,
2100
0000
0001
0000
0000
0000
3010
0000
0110
0000
0100
0000
0100
0000
0001
0010
,
0100
0000
1000
0000
0010
1000
0000
0000
1010
0000
0010
0000
0101
0000
0000
0000
,
1001
0000
0100
0000
0010
0000
0100
0000
1001
0000
0001
0100
0010
0000
1000
0000
,
0001
0000
0010
0000
0100
1000
0010
0000
1010
0000
0000
0000
0001
0000
0010
0000
,
0100
0000
1000
0010
0101
0100
0100
0001
,
1000
0100
0010
0000
0001
0000
0100
0000
0110
0000
0000
0000
0010
0000
1000
0000
,
0001
0000
0010
0000
0100
0000
1000
0000
1010
0000
0010
0000
0010
0100
0001
0010
,
0100
0001
0100
1000
1001
0000
0100
0010
,
1001
1000
0010
0010
0110
0100
0100
0000
,
0001
0100
0010
1000
0001
0000
1000
0000
1100
0000
0000
0000
0110
0000
0000
0000
,
0021
0000
0100
0000
0000
0000
0031
0000
0011
0000
1000
0000
1000
0010
0100
0001
,
1000
0000
0100
0000
0010
0100
1000
0010
0100
0000
0000
0000
0001
0010
0100
1000
,
0010
0100
0001
0001
0011
0010
0100
1000
,
02MM
0000
03MM
0000
,
0012
0000
0000
0000
0000
0000
0000
0000
0000
0000
0000
0000
0000
0000
0000
0000
0100
0000
0000
0000
0000
0000
0000
0000
0000
0000
0000
0000
0000
0000
0000
0000
1003
0000
0000
0000
0000
0000
0000
0000
0001
0000
0000
0000
0010
0000
0000
0000
0001
0000
0000
0000
1000
0000
0000
0000
0200
0300
0000
0000
0000
0000
0000
0000
,
0200
0300
0000
0000
0001
0000
0000
0000
1000
0000
0000
0000
0001
0000
0000
0000
0200
0300
0000
0000
0000
0000
0000
0000
0200
0300
0000
0000
1000
0000
0000
0000
0001
0000
0000
0000
0100
0000
0000
0000
0010
0000
0000
0000
0000
0000
0000
0000
0100
0000
0000
0000
0000
0000
0000
0000
0001
0000
0000
0000
0000
0000
0000
0000
,
0102
0000
0000
0000
0000
0000
0000
0000
0000
0000
0000
0000
0000
0000
0000
0000
0010
0000
0000
0000
0000
0000
0000
0000
0000
0000
0000
0000
0000
0000
0000
0000
1003
0000
0000
0000
0000
0000
0000
0000
0001
0000
0000
0000
0100
0000
0000
0000
0001
0000
0000
0000
1000
0000
0000
0000
0200
0300
0000
0000
0000
0000
0000
0000
,
0200
0300
0000
0000
0001
0000
0000
0000
0010
0000
0000
0000
0001
0000
0000
0000
0200
0300
0000
0000
0000
0000
0000
0000
0200
0300
0000
0000
1000
0000
0000
0000
0010
0000
0000
0000
1000
0000
0000
0000
0100
0000
0000
0000
0000
0000
0000
0000
0010
0000
0000
0000
0001
0000
0000
0000
1000
0000
0000
0000
0000
0000
0000
0000
,
2020
0000
0000
0000
0000
0000
0000
0000
0000
0000
0000
0000
0000
0000
0000
0000
3030
0000
0000
0000
0000
0000
0000
0000
0000
0000
0000
0000
0000
0000
0000
0000
1001
0000
0000
0000
0000
0000
0000
0000
1000
0000
0000
0000
0100
0000
0000
0000
1000
0000
0000
0000
0010
0000
0000
0000
0200
0300
0000
0000
0000
0000
0000
0000
,
0200
0300
0000
0000
1000
0000
0000
0000
0100
0000
0000
0000
1000
0000
0000
0000
0020
0030
0000
0000
0000
0000
0000
0000
0020
0030
0000
0000
0001
0000
0000
0000
1000
0000
0000
0000
0100
0000
0000
0000
0010
0000
0000
0000
0000
0000
0000
0000
0001
0000
0000
0000
0000
0000
0000
0000
0100
0000
0000
0000
0000
0000
0000
0000
,
0010
0000
0000
0000
0000
0000
0000
0000
0001
0000
0000
0000
0000
0000
0000
0000
0010
0000
0000
0000
0000
0000
0000
0000
1000
0000
0000
0000
0000
0000
0000
0000
0001
0000
0000
0000
0000
0000
0000
0000
0010
0000
0000
0000
0200
0300
0000
0000
0000
0000
0000
0000
0200
0300
0000
0000
0010
0000
0000
0000
0000
0000
0000
0000
,
1000
0100
0001
0100
1000
0000
0002
0000
,
0103
0000
0001
0000
1000
0000
0100
0000
0001
0000
0100
0010
0001
0000
0100
0000
,
0010
0000
1000
0100
0010
0000
0001
0100
0010
0000
0001
0000
0010
0000
1000
0000
,
0100
0000
0010
0001
1000
0000
0010
0000
0100
0000
0010
0000
1000
0000
0001
0000
,
1000
0000
0000
0000
0100
0000
0000
0000
1000
0000
0000
0000
0001
0000
0000
0000
0200
0300
0000
0000
0000
0000
0000
0000
0200
0300
0000
0000
1000
0000
0000
0000
0000
0000
0000
0000
1000
0000
0000
0000
0200
0300
0000
0000
0000
0000
0000
0000
0200
0300
0000
0000
0000
0000
0000
0000
0001
0000
0000
0000
0000
0000
0000
0000
,
0100
0000
0100
0000
1000
0000
0100
0010
0100
0001
1000
0000
0100
0000
0010
0000
,
0100
0000
0001
0000
0100
1000
0000
0010
0001
0000
0010
0000
0100
0001
0100
0010
,
1000
0000
0100
0000
0010
0000
0001
0000
0100
0000
1000
0000
0100
0001
0000
0010
,
0100
0000
0000
0000
0000
0000
0000
0000
1000
0000
0000
0000
0000
0000
0000
0000
0100
0000
0000
0000
0000
0000
0000
0000
0010
0000
0000
0000
0200
0300
0000
0000
0000
0000
0000
0000
0200
0300
0000
0000
0010
0000
0000
0000
0000
0000
0000
0000
1000
0000
0000
0000
0000
0000
0000
0000
0001
0000
0000
0000
0000
0000
0000
0000
,
1002
0000
0000
0000
0010
0100
0000
2003
,
0000
0100
0000
0010
3000
1000
0100
0010
,
0011
0000
0001
1000
0010
0000
0100
0001
1000
0000
0100
0000
0010
0000
0100
0000
,
1000
0000
0000
0000
0001
0000
0000
0000
1000
0000
0000
0000
0100
0000
0000
0000
0020
0030
0000
0000
0000
0000
0000
0000
0020
0030
0000
0000
1000
0000
0000
0000
0000
0000
0000
0000
1000
0000
0000
0000
0020
0030
0000
0000
0000
0000
0000
0000
0020
0030
0000
0000
0001
0000
0000
0000
1000
0000
0000
0000
0000
0000
0000
0000
,
0100
0000
0100
0000
0001
0000
0100
0010
0100
1000
0001
0000
0101
0000
0000
0000
,
1001
0100
0110
0010
0100
0000
1001
0000
,
2200
0000
0000
0300
,
3020
0000
0000
0100
0000
0000
0100
0000
0000
0100
0000
0000
1030
0000
0100
0000
0010
0000
0001
0000
0000
0000
0000
0000
,
0022
0000
0000
0030
1003
0001
0000
0101
,
0000
1010
0000
0000
1100
0000
0000
0011
0000
0000
1001
0000
0000
0000
0000
0000
,
1100
0000
0100
1000
0001
0000
0100
0000
0010
0000
0100
0000
0001
0000
1000
0000
,
0001
0000
0000
0000
0010
0000
0000
0000
0001
0000
0000
0000
1000
0000
0000
0000
0020
0030
0000
0000
0000
0000
0000
0000
0020
0030
0000
0000
0001
0000
0000
0000
0000
0000
0000
0000
0001
0000
0000
0000
0020
0030
0000
0000
0000
0000
0000
0000
0020
0030
0000
0000
0000
0000
0000
0000
1000
0000
0000
0000
0000
0000
0000
0000
,
0010
0000
0010
0000
0001
0000
0010
0100
0010
1000
0001
0000
0010
0000
0100
0000
,
0010
0000
1000
0000
0010
0001
0000
0100
1000
0000
0100
0000
0010
1000
0010
0100
,
0001
0000
0010
0000
0100
0000
1000
0000
0010
0000
0001
0000
0010
1000
0000
0100
,
0010
0000
0000
0000
0000
0000
0000
0000
0001
0000
0000
0000
0000
0000
0000
0000
0010
0000
0000
0000
0000
0000
0000
0000
0100
0000
0000
0000
0020
0030
0000
0000
0000
0000
0000
0000
0020
0030
0000
0000
0100
0000
0000
0000
0000
0000
0000
0000
0001
0000
0000
0000
0000
0000
0000
0000
1000
0000
0000
0000
0000
0000
0000
0000
,
2001
0000
0000
0000
0100
0010
0000
3002
,
0000
0010
0000
0100
0003
0001
0010
0100
,
1100
0000
1000
0001
0100
0000
0010
1000
0001
0000
0010
0000
0100
0000
0010
0000
,
0001
0000
0000
0000
1000
0000
0000
0000
0001
0000
0000
0000
0010
0000
0000
0000
0200
0300
0000
0000
0000
0000
0000
0000
0200
0300
0000
0000
0001
0000
0000
0000
0000
0000
0000
0000
0001
0000
0000
0000
0200
0300
0000
0000
0000
0000
0000
0000
0200
0300
0000
0000
1000
0000
0000
0000
0001
0000
0000
0000
0000
0000
0000
0000
,
0010
0000
0010
0000
1000
0000
0010
0100
0010
0001
1000
0000
1010
0000
0000
0000
,
1001
0010
0110
0100
0010
0000
1001
0000
,
0201
0000
0000
0000
0000
0000
0000
0000
0000
0000
1000
0000
0000
1000
0000
0000
,
0010
0000
0000
0010
0000
0000
0001
0000
0000
0000
0320
0000
1030
0001
0010
0100
,
1000
0001
0010
0100
0001
0100
1000
0010
,
0100
1000
0100
0002
0000
0013
0100
1000
,
0010
0000
0100
0001
0000
1000
0002
0000
0000
0000
0023
0000
0230
0000
2300
0000
,
3010
0100
0010
0002
0000
0013
0010
1000
,
0100
0000
0100
0000
0002
0000
0000
0000
0103
1000
0001
0000
0100
0000
0010
0000
,
1000
0000
0100
0000
1000
0010
0000
0001
0020
0000
0000
0000
1030
0000
0001
0000
,
0010
0000
0100
0000
1000
0001
0100
0000
0010
0000
0001
0000
0010
1000
0000
0000
,
0100
0010
0100
0002
0000
0103
1000
0010
,
1000
0001
0100
0010
0001
0010
1000
0100
,
0010
1000
0010
0002
0000
0103
0010
1000
,
0100
0000
0010
0001
0000
1000
0002
0000
0000
0000
0203
0000
0320
0000
2030
0000
,
3100
0010
0100
0002
0000
0103
0100
1000
,
0010
0000
0010
0000
0002
0000
0000
0000
0013
1000
0001
0000
0010
0000
0100
0000
,
1000
0000
0010
0000
1000
0100
0000
0001
0200
0000
0000
0000
1300
0000
0001
0000
,
0100
0000
0010
0000
1000
0001
0010
0000
0100
0000
0001
0000
0100
1000
0000
0001
,
0100
0000
1000
0100
0000
0001
2000
0000
0000
0000
3002
0000
0023
0000
0230
0000
,
0300
0000
0000
0000
;

//---------------dance-single - 7-7/15*-4/6-4----------------
#NOTEDATA:;
#CHARTNAME:stabima,, ,;
#CHARTHASH:3311846705;
#STEPSTYPE:dance-single;
#BANNER:;
#DESCRIPTION:7-7/15*-4/6-4;
#CHARTSTYLE:;
#DIFFICULTY:Edit;
#METER:19;
#METERF:0.000000;
#LASTSECONDHINT:141.333328;
#RADARVALUES:0.987247,1.171208,0.026786,0.408483,1.191967,1032.000000,1028.000000,4.000000,61.000000,0.000000,0.000000,0.000000,0.000000,0.000000,0.987247,1.171208,0.026786,0.408483,1.191967,1032.000000,1028.000000,4.000000,61.000000,0.000000,0.000000,0.000000,0.000000,0.000000;
#CREDIT:Five Grains;
#DISPLAYBPM:180.000000;
#NOTES:
0000
0000
0000
0000
,
0000
0000
0000
0000
,
0000
0000
0000
0000
,
0000
0000
0000
0000
,
0000
0000
0000
0000
,
0000
0000
0000
0000
,
1000
0001
0100
0010
1000
0010
0100
0001
,
1000
0100
0010
0001
0100
0010
1000
0001
,
0010
0100
0010
0001
1000
0010
1000
0100
,
0010
0001
1000
0010
0100
0001
1000
0100
,
0010
0100
1000
0001
0100
0001
0010
0001
,
1000
0010
1000
0100
0010
0001
0100
0010
,
1000
0001
0010
0100
0010
0001
1000
0010
,
0100
0001
0010
0100
1000
0001
0100
0001
,
0010
0100
1000
0010
1000
0100
0010
0001
,
1000
0010
0100
0001
0010
0100
1000
0001
,
0200
0000
0000
0000
,
0020
0000
0000
0330
,
1000
0010
0100
0001
1000
0100
0010
0100
1000
0001
0100
0010
1000
0001
0010
0100
,
0010
0001
1000
0010
0100
0001
1000
0100
0010
0001
0100
0010
1000
0001
0010
0100
,
1000
0001
0100
0010
0100
0001
1000
0100
1000
0001
0100
0010
1000
0001
0010
0100
,
1000
0010
0100
0001
1000
0100
0010
0001
0100
0001
1000
0010
0100
0001
1000
0100
,
0010
0100
1000
0001
0100
0010
0100
0001
1000
0100
0010
0001
1000
0010
1000
0001
,
0010
0100
1000
0001
0100
0010
1000
0001
0010
0100
1000
0010
0100
0001
1000
0100
,
0010
0001
1000
0010
1000
0001
0010
0100
1000
0010
1000
0001
0100
0010
1000
0001
,
1000
0000
0000
0000
1010
0000
0000
0000
1001
0000
0000
1001
0000
0000
0000
0000
,
1000
0100
0010
0001
1000
0010
0100
0010
1000
0001
0010
0100
1000
0001
0100
0010
,
0100
0001
1000
0100
0010
0001
1000
0010
0100
0001
0010
0100
1000
0001
0100
0010
,
1000
0001
0010
0100
0010
0001
1000
0010
1000
0001
0010
0100
1000
0001
0100
0010
,
1000
0100
0010
0001
1000
0010
0100
0001
0010
0001
1000
0100
0010
0001
1000
0010
,
0100
0010
1000
0001
0010
0100
0010
0001
1000
0010
0100
0001
1000
0100
1000
0001
,
0100
0010
1000
0001
0010
0100
1000
0001
0100
0010
1000
0100
0010
0001
1000
0010
,
0100
0001
1000
0100
1000
0001
0100
0010
1000
0100
1000
0001
0010
0100
1000
0001
,
1000
0010
0000
0100
0000
0001
0010
0000
,
0100
0000
0000
1000
0001
0100
0100
0000
,
0001
0010
0000
0100
0100
1000
0001
0000
,
0100
0010
1000
1000
0001
1000
0001
0010
,
0200
2300
3020
0230
,
0301
1000
0100
0100
0010
0001
1000
0000
,
0010
0100
0001
0100
0010
1000
0100
0010
,
0001
1000
0000
0010
0200
0000
0302
0000
,
2003
0000
3100
0010
0001
0000
0100
0000
,
0010
1000
0001
0001
0010
0100
1000
0001
,
0200
0010
0302
0100
,
1003
0100
0010
0010
0100
1000
0001
0100
,
0020
2030
3200
0320
,
0031
1000
0010
0100
0001
1000
0100
0010
,
0001
0100
0020
0000
2030
0000
3100
0010
,
0001
0100
0100
0010
1000
0001
0010
0100
,
2000
0000
0000
3000
,
2002
0000
0000
0000
3003
0000
0000
0000
1000
0010
1000
0100
0010
0001
1000
0001
,
1000
0010
1000
0100
0010
0001
1000
0001
1000
0010
1000
0100
0010
0001
0100
0010
,
2000
0000
0000
0000
0000
0000
0000
0000
3001
0010
0100
1000
0010
1000
0001
0010
,
0100
1000
0010
1000
0001
0010
0100
1000
0010
1000
0001
0010
0100
1000
0010
1000
,
0002
0000
0000
0000
0000
0000
0000
0000
0103
0001
1000
0100
0010
0001
0100
0001
,
1000
0100
0010
0001
0100
0001
1000
0100
0010
0001
0100
0001
1000
0100
0010
0001
,
0100
0000
0010
0000
0100
0000
0001
0000
1000
0100
1000
0010
0100
0001
1000
0100
,
0010
0001
0100
0001
1000
0100
0010
0001
1000
0000
0000
0000
0020
0000
0000
0000
,
0130
0001
1000
0100
0010
0100
1000
0001
0100
0010
1000
0001
0010
0100
0010
0001
,
1000
0010
1000
0100
0010
0001
1000
0010
0100
0001
0100
0010
1000
0001
1000
0100
,
0010
0001
0100
0001
1000
0010
0100
0001
1000
0100
0010
0001
1000
0010
0100
0001
,
1000
0100
1000
0001
0100
0010
1000
0100
0010
0001
1000
0010
1000
0100
0010
0100
,
1000
0001
0100
0010
0100
0001
1000
0100
1000
0100
0010
0001
1000
0010
0100
0001
,
1000
0010
0100
0001
1000
0100
0010
0001
0100
0010
1000
0001
1000
0100
0010
0001
,
0100
0001
1000
0100
0010
0100
1000
0001
0100
0010
1000
0001
0010
0100
0010
0001
,
1000
0010
0100
0010
1000
0001
0010
0100
1000
0010
0100
0001
1000
0100
0010
0001
,
0200
0000
0000
0000
0310
2000
0000
3200
,
0000
0320
0000
0032
0000
1003
0020
0000
,
1030
0001
0010
0100
0010
0001
1000
0010
0100
0001
1000
0100
1000
0010
0100
0001
,
1000
0100
0010
0001
1000
0010
1000
0001
0010
0100
1000
0001
0100
0010
0100
0001
,
1000
0100
0010
0001
0100
0010
1000
0001
0010
0100
0010
0001
1000
0010
0100
0001
,
1000
0100
0010
0001
0100
0001
1000
0010
0100
0001
0010
0100
1000
0001
0100
0010
,
2000
0000
0000
0000
,
3100
0000
0000
0010
0000
0000
0010
0000
0000
0010
0000
0000
0001
0000
1000
0000
0010
0000
0100
0000
0000
0001
0000
0000
,
2000
0000
0000
0000
3100
0020
0000
0031
,
0000
0010
0000
0000
0100
0000
0000
1000
0000
0000
0010
0000
0000
0000
0000
0000
,
0100
0001
0010
0001
1000
0100
0010
0001
1000
0010
0100
0001
1000
0100
0010
0001
,
1000
0010
1000
0001
0010
0100
1000
0010
0100
0001
1000
0100
1000
0010
0100
0010
,
1000
0001
0010
0100
0010
0001
1000
0010
1000
0010
0100
0001
1000
0100
0010
0001
,
1000
0100
0010
0001
1000
0010
0100
0001
0010
0100
1000
0001
1000
0010
0100
0001
,
0010
0001
1000
0010
0100
0010
1000
0001
0010
0100
1000
0001
0100
0010
0100
0001
,
1000
0100
0010
0100
1000
0001
0100
0010
1000
0100
0010
0001
1000
0010
0100
0001
,
0020
0000
0000
0000
0130
2000
0000
3020
,
0000
0230
0000
0302
0000
1003
0200
0000
,
1300
0001
0100
0010
0100
0001
1000
0100
0010
0001
1000
0010
1000
0100
0010
0001
,
1000
0010
0100
0001
1000
0100
1000
0001
0100
0010
1000
0001
0010
0100
0010
0001
,
1000
0010
0100
0001
0010
0100
1000
0001
0100
0010
0100
0001
1000
0100
0010
0001
,
1000
0010
0100
0001
0010
0001
1000
0100
0010
0001
0100
0010
1000
0001
0010
0100
,
2000
0000
0000
0000
0000
0000
0000
0000
0000
0000
0100
0000
0000
0100
0000
0000
,
0001
0000
0000
0001
0000
0000
3002
0000
0000
0000
0103
0000
0001
0000
1000
0000
,
0100
0010
0100
1000
0010
0100
0001
1000
,
0100
0010
0001
0200
0000
0310
0100
0001
,
1000
0000
0100
0010
0000
0100
0020
0000
0000
0000
0032
0000
0203
0000
0320
0000
,
1030
0100
0010
0200
0000
1300
0001
0100
,
0010
0000
0100
0000
0002
0000
0000
0000
1003
0100
0010
0000
0001
0000
0100
0000
,
0010
0000
1000
0000
0001
0010
0000
0001
0200
0000
0000
0000
0310
0000
1000
0000
,
0100
0000
0010
0000
0001
1000
0010
0000
0100
0000
0001
0000
1000
0100
0000
0000
,
0010
0100
1000
0020
0000
0130
0001
1000
,
0001
0010
0100
1000
0010
0100
0010
1000
,
0100
0010
0001
2000
0000
3010
0100
0001
,
1000
0000
0100
0010
0000
0100
0020
0000
0000
0000
0032
0000
0203
0000
0320
0000
,
1030
0001
0010
0002
0000
0103
0010
1000
,
0100
0000
0010
0000
0002
0000
0000
0000
1003
0010
0100
0000
0001
0000
1000
0000
,
0100
0000
0010
0000
0001
0100
0000
0010
2000
0000
0000
0000
3001
0000
0010
0000
,
0100
0000
1000
0000
0001
0100
0010
0000
1000
0000
0001
0000
0010
0100
0000
1000
,
0001
0000
0100
0010
0000
1000
0002
0000
0000
0000
0023
0000
0230
0000
2300
0000
,
3000
0000
0000
0000
;

//---------------dance-double - ----------------
#NOTEDATA:;
#CHARTNAME:;
#CHARTHASH:1774295848;
#STEPSTYPE:dance-double;
#BANNER:;
#DESCRIPTION:;
#CHARTSTYLE:;
#DIFFICULTY:Beginner;
#METER:5;
#METERF:0.000000;
#LASTSECONDHINT:141.166672;
#RADARVALUES:0.149235,0.283594,0.107143,0.274554,0.000000,156.000000,140.000000,16.000000,41.000000,0.000000,0.000000,0.000000,0.000000,0.000000,0.149235,0.283594,0.107143,0.274554,0.000000,156.000000,140.000000,16.000000,41.000000,0.000000,0.000000,0.000000,0.000000,0.000000;
#CREDIT:YOSEFU;
#DISPLAYBPM:180.000000;
#NOTES:
00000000
00000000
00000000
00000000
,
00000000
00000000
00000000
00000000
,
00000000
00000000
00000000
00000000
,
00000000
00000000
00000000
00000000
,
00000000
00000000
00000000
00000000
,
00000000
00000000
00000000
00000000
,
00010000
00000000
00000000
00000000
,
00001000
00000000
00000000
00000000
,
01000000
00000000
00000000
00000000
,
00010000
00000000
00000000
00000000
,
20000000
00000000
30000000
00000000
,
02000000
00000000
03000000
00000000
,
00200000
00000000
00300000
00000000
,
00002000
00000000
00003000
00000000
,
00020000
00000000
00030000
00000000
,
00000020
00000000
00000030
00000000
,
00002000
00000000
00003000
00000000
,
00000002
00000000
00000003
00000000
,
00001001
00000000
00001000
00000000
,
00000010
00000000
00000000
00000000
,
00010000
00000000
00001000
00000000
,
00100000
00000000
00000000
00000000
,
00010000
00000000
10000000
00000000
,
00100000
00000000
00000000
00000000
,
01000000
00000000
00010000
00000000
,
20000000
00000000
30000000
00000000
,
10010000
00000000
00010000
00000000
,
10000000
00000000
00000000
00000000
,
01000000
00000000
00100000
00000000
,
00010000
00000000
00000000
00000000
,
00100000
00000000
00001000
00000000
,
00010000
00000000
00000000
00000000
,
00000010
00000000
00001000
00000000
,
00000001
00000000
00000000
00000000
,
00002002
00000000
00003003
00000000
,
00002000
00000000
00003000
00000000
,
00000200
00000000
00000300
00000000
,
00020000
00000000
00030000
00000000
,
00002000
00000000
00003000
00000000
,
02000000
00000000
03000000
00000000
,
00020000
00000000
00030000
00000000
,
20000000
00000000
30000000
00000000
,
02000000
00000000
03000000
00000000
,
00200000
00000000
00300000
00000000
,
00002000
00000000
00003000
00000000
,
00020000
00000000
00030000
00000000
,
00000020
00000000
00000030
00000000
,
00002000
00000000
00003000
00000000
,
00000002
00000000
00000003
00000000
,
00002000
00000000
00003000
00000000
,
00001001
00000000
00000000
00000000
00000001
00000000
00000000
00000001
,
00000000
00000000
00000001
00000000
00000000
00000001
00000000
00000000
,
00001001
00000000
00000000
00000000
00001000
00000000
00000000
00001000
,
00000000
00000000
00001000
00000000
00000000
00001000
00000000
00000000
,
00001100
00000000
00000000
00000000
00000100
00000000
00000000
00000100
,
00000000
00000000
00000100
00000000
00000000
00000100
00000000
00000000
,
00010100
00000000
00000000
00000000
00010000
00000000
00000000
00010000
,
00000000
00010000
00020000
00030000
,
00011000
00000000
00001000
00000000
,
01000000
00000000
00000000
00000000
,
00010000
00000000
10000000
00000000
,
01000000
00000000
00000000
00000000
,
00100000
00000000
00010000
00000000
,
10000000
00000000
00000000
00000000
,
00100000
00000000
01000000
00000000
,
00001000
00000000
00000000
00000000
,
00022000
00000000
00000000
00000000
,
00000000
00000000
00033000
00000000
,
00011000
00000000
00010000
00000000
,
00000010
00000000
00000000
00000000
,
00001000
00000000
00000001
00000000
,
00000100
00000000
00000000
00000000
,
00000220
00000000
00000000
00000000
,
00000000
00000000
00000330
00000000
,
00002002
00000000
00000000
00000000
,
00000000
00000000
00003003
00000000
,
00001100
00000000
00000100
00000000
,
00010000
00000000
00000000
00000000
,
00001000
00000000
01000000
00000000
,
00100000
00000000
00000000
00000000
,
10000000
00000000
00010000
00000000
,
00100000
00000000
00000000
00000000
,
02200000
00000000
00000000
00000000
,
00000000
00000000
03300000
00000000
,
10010000
00000000
10000000
00000000
,
00100000
00000000
00000000
00000000
,
01000000
00000000
00001000
00000000
,
00010000
00000000
00000100
00000000
,
00020200
00000000
00000000
00000000
,
00000000
00000000
00030300
00000000
,
00010000
00000000
00000010
00000000
,
00001000
00000000
00000010
00000000
,
00010000
00000000
00000010
00000000
,
00002000
00000000
00003000
00000000
,
00000001
00000000
00000010
00000000
,
00000100
00000000
00000010
00000000
,
00000100
00000000
00010000
00000000
,
00002000
00000000
00003000
00000000
,
00010000
00000000
00001000
00000000
,
01000000
00000000
00010000
00000000
,
10000000
00000000
01000000
00000000
,
00200000
00000000
00300000
00000000
,
00010000
00000000
01000000
00000000
,
00001000
00000000
00010000
00000000
,
00000100
00000000
00001000
00000000
,
00000001
00000000
00000000
00000000
00000200
00000000
00000000
00000300
;

//---------------dance-double - ----------------
#NOTEDATA:;
#CHARTNAME:;
#CHARTHASH:376423199;
#STEPSTYPE:dance-double;
#BANNER:;
#DESCRIPTION:;
#CHARTSTYLE:;
#DIFFICULTY:Easy;
#METER:11;
#METERF:0.000000;
#LASTSECONDHINT:141.333328;
#RADARVALUES:0.339605,0.390403,0.066964,0.261161,0.023438,355.000000,345.000000,10.000000,39.000000,0.000000,0.000000,0.000000,0.000000,0.000000,0.339605,0.390403,0.066964,0.261161,0.023438,355.000000,345.000000,10.000000,39.000000,0.000000,0.000000,0.000000,0.000000,0.000000;
#CREDIT:YOSEFU;
#DISPLAYBPM:180.000000;
#NOTES:
00000000
00000000
00000000
00000000
,
00000000
00000000
00000000
00000000
,
00000000
00000000
00000000
00000000
,
00000000
00000000
00000000
00000000
,
00000000
00000000
00000000
00000000
,
00000000
00000000
00000000
00000000
,
00000000
00010000
00000000
00000000
00000000
00000000
00000000
00000000
,
00000000
00001000
00000000
00000000
00000000
00000000
00000000
01000000
,
00000000
00010000
00000000
00000000
00000000
00000000
00000000
10000000
,
00000000
01000000
00000000
00100000
00000000
00000000
00000000
00001000
,
00000000
00010000
00000000
00000000
00000000
00000000
00000000
00000000
,
00000000
00000010
00000000
00000000
00000000
00000100
00000000
00000001
,
00000000
00001000
00000000
00000000
00000000
00000000
00000000
00000100
,
00000000
00000010
00000000
00000001
00000000
00000000
00000000
00001000
,
00000000
00000010
00000000
00000000
00000000
00000000
00000000
00000000
,
00000000
00010000
00000000
00000000
00000000
00000000
00000000
00001000
,
00200000
00000000
00000000
00000000
,
02300000
00000000
00000000
03000000
,
10000000
01000000
00100000
01000000
,
10000000
00000000
00010000
00000000
01000000
00001000
01000000
00000000
,
00001000
00010000
00000100
00000010
,
00000001
00001000
00001010
00000101
,
00000001
00000010
00000100
00010000
,
00001000
00000000
01000000
00000000
00100000
10000000
00100000
00000000
,
01000000
00010000
10000000
01000000
,
00100000
00000000
00000000
00000000
00001000
00000000
00000000
00000000
00010000
00000000
00000000
00010000
00000000
00000000
00000000
00000000
,
00000100
00001000
00000010
00000100
,
00000001
00000000
00000010
00000000
00000100
00001000
00000100
00000000
,
00000010
00000001
00000100
00000010
,
00010000
00001000
00101000
00110000
,
00010000
01000000
00100000
10000000
,
01000000
00000000
00100000
00000000
00001000
00010000
00001000
00000000
,
00010000
00000010
00000100
00000001
,
00002000
00000000
00000000
00000000
00000000
00003200
00000000
00000000
,
00000310
00000000
00000001
00000000
,
00000100
00001000
00010000
00100000
,
00001000
00000000
10000000
00000000
,
01000000
00100000
00001000
00010000
,
00000010
00000000
00000100
00000000
,
00001000
00010000
00100000
01000000
,
00010000
10000000
01000000
00010000
,
00001000
00000100
00000001
00000010
,
00001000
00000000
00000010
00000000
,
00000001
00000100
00001000
00010000
,
00000010
00000000
00010000
00000000
,
00001000
00000010
00001000
00010000
,
00100000
00000000
01000000
00000000
,
00010000
10000000
01000000
00010000
,
00001000
00000000
00010000
00000100
,
00000020
00000000
00000000
00000000
,
00000032
00000000
00000203
00000000
00000310
00000000
00000000
00001100
,
00000000
00000000
00000100
00000000
00000000
00011000
00000000
00000000
,
00100000
00000000
00000000
00000000
00001000
00000000
00000000
00000000
01000000
00000000
00000000
01000000
00000000
00000000
00100000
00000000
,
00000000
00000000
10000000
00000000
00000000
10000000
00000000
00000000
01000000
00000000
00000000
01000000
00000000
00000000
00100000
00000000
,
00020000
00000000
00000000
00000000
01030000
00000000
00000000
00110000
,
00000000
00000000
00001000
00000000
00000000
00010100
00000000
00000000
,
00000001
00000000
00000000
00000000
00000100
00000000
00000000
00000000
00000010
00000000
00000000
00001000
00000000
00000000
00001000
00000000
,
00000000
00000100
00000000
00010000
00001000
00000000
00000000
00000000
,
00010000
00000000
00100000
00000000
10000000
00100000
00000000
01000000
,
00000000
00010000
00000000
10000000
00000000
01000000
00100000
00000000
,
00001000
00000000
00010000
00000000
00000010
00001000
00000010
00000200
,
00000000
00000001
00000010
00000301
,
00002000
00003200
00000320
00000032
,
00000203
00002300
00023000
02030000
,
13000000
00000000
00100000
01000000
00000000
00001000
00000000
00010000
,
00000200
00000010
00001000
00000320
,
00000032
00000000
00000000
00000000
,
00000000
00000000
00000003
00000000
,
00000100
00001000
00010000
00100000
,
00001000
01000000
00001000
00000000
10000000
00000000
01000000
00000000
,
00010000
00001000
00010000
01000000
,
10000000
00000000
00100000
01000000
00001000
00000000
00010000
00000000
,
00020200
00000000
00000000
00000000
,
00030300
00000000
00000000
00010000
,
00000020
00000000
00000000
00000000
00000000
00000030
00000000
00000100
,
00000000
00000100
00000000
00000000
00000100
00000000
00000000
00000100
00000000
00000000
00000100
00000000
00000000
00000000
00000000
00000000
,
00000001
00000000
00000010
00000000
00000100
00001000
00000100
00020000
,
00000000
00001000
00100000
00031000
,
20000000
32000000
03200000
00302000
,
00023000
00230000
02300000
03002000
,
00013000
00000000
00000100
00000010
00000000
00000001
00000000
00000100
,
00000020
00000100
00001000
00020030
,
00032000
00000000
00000000
00000000
,
00000000
00000000
00003000
00000000
,
00010000
00001000
00000010
00000001
,
00000100
00001000
00010000
00100000
,
10000000
01000000
00010000
00001000
,
00000010
00000000
00000001
00000100
00001000
00000000
00010000
00000000
,
00022000
00000000
00000000
00000000
,
00033000
00000000
00000000
00000000
,
00001000
00010000
00100000
10000000
,
01000000
00100000
00000000
00100000
00000000
00000000
00001000
00000000
,
00010000
00000010
00000100
00001000
,
00010000
00000000
00000000
00100000
00000000
01000000
00000000
00010000
,
10000000
01000000
00010000
00001000
,
00000010
00000100
00000000
00001000
00000001
00000000
00000100
00000000
,
00001000
00000000
00010000
00000000
00001000
01000000
00000000
00010000
,
01000000
00000000
00100000
10000000
00000000
01000000
00000000
00100000
,
00001000
00010000
00000010
00000100
,
00000001
00001000
00000000
00000100
00000000
00000010
00000001
00000000
,
00000100
00001000
00010000
00100000
,
01000000
00010000
00000000
10000000
00000000
01000000
00000000
00100000
,
00001000
00010000
00000100
00000010
,
00000001
00000100
00000000
00000010
00001000
00000000
00000100
00000000
,
00010000
00001000
00000000
00100000
00001000
00000000
01000000
00001000
,
00000000
10000000
00010000
00000000
01000000
00000000
00200000
20300000
,
30000000
00000000
00000000
00000000
;

//---------------dance-double - ----------------
#NOTEDATA:;
#CHARTNAME:;
#CHARTHASH:2480333039;
#STEPSTYPE:dance-double;
#BANNER:;
#DESCRIPTION:;
#CHARTSTYLE:;
#DIFFICULTY:Medium;
#METER:14;
#METERF:0.000000;
#LASTSECONDHINT:141.333328;
#RADARVALUES:0.558675,0.638841,0.093750,0.314733,0.073661,584.000000,570.000000,14.000000,47.000000,0.000000,0.000000,0.000000,0.000000,0.000000,0.558675,0.638841,0.093750,0.314733,0.073661,584.000000,570.000000,14.000000,47.000000,0.000000,0.000000,0.000000,0.000000,0.000000;
#CREDIT:YOSEFU;
#DISPLAYBPM:180.000000;
#NOTES:
00000000
00000000
00000000
00000000
,
00000000
00000000
00000000
00000000
,
00000000
00000000
00000000
00000000
,
00000000
00000000
00000000
00000000
,
00000000
00000000
00000000
00000000
,
00000000
00000000
00000000
00000000
,
00010000
00001000
00100000
00000000
00010000
00000000
01000000
00000000
,
00100000
10000000
00010000
00000000
00100000
00000000
01000000
10000000
,
00100000
01000000
00001000
00000000
00010000
00000000
00000100
00000010
,
00000001
00000100
00000010
00001000
00000001
00000000
00000010
00000100
,
00010000
00001000
00100000
00000000
00010000
00000000
01000000
00000000
,
00100000
10000000
00010000
00000000
00100000
01000000
00100000
00001000
,
00010000
00000010
00001000
00000000
00000001
00000000
00000010
00000100
,
00010000
00001000
00100000
00010000
01000000
00000000
00100000
10000000
,
00010000
00100000
01000000
00000000
10000000
00000000
00010000
00000000
,
01000000
00001000
00010000
00000000
00000100
00000000
00000010
00000001
,
00000200
00000000
00000000
00000000
,
00000320
00000000
00000000
00000030
,
00001000
00000100
00000000
00000010
00000001
00001000
00000001
00000100
,
00000010
00001000
00000100
00010000
00001000
00000000
00110000
00000000
,
00010000
01000000
00000000
00100000
10000000
00010000
10000000
01000000
,
00000000
00100000
00000000
00001000
00010000
00000000
00011000
00000000
,
00001000
00010000
00000000
00000010
00001000
00000010
00001000
00000001
,
00000010
00000100
00010000
00001000
00100000
00000000
00110000
00000000
,
00010000
01000000
00000000
00010000
10000000
01000000
00100000
00001000
,
00010000
00000000
00000000
00000000
00010010
00000000
00000000
00000000
00000001
00000000
00000000
00001001
00000000
00000000
00000000
00000000
,
00001000
00000010
00000000
00000100
00000001
00001000
00000001
00000010
,
00000100
00001000
00000010
00010000
00001000
00000000
01010000
00000000
,
00010000
00100000
00000000
01000000
10000000
00010000
10000000
00100000
,
00000000
01000000
00000000
00001000
00010000
00000000
00011000
00000000
,
00001000
00010000
00000000
00000100
00001000
00000100
00001000
00000001
,
00000100
00000010
00010000
00001000
01000000
00000000
01010000
00000000
,
00010000
00100000
00000000
00010000
10000000
00100000
01000000
00001000
,
00010000
00000100
00000000
00001000
00000000
00000002
00000000
00000000
,
00000203
00000000
00000000
00000310
00001000
00000000
00000100
00000000
,
00000001
00000100
00010000
00001000
,
02000000
00000000
00000000
03100000
10000000
00000000
01000000
00000000
,
00020000
00032000
00003200
00000302
,
00000023
00000000
00000000
00000130
00001000
00000000
00000010
00000000
,
00010000
00001000
01000000
00100000
,
10000000
00000000
00000000
10000000
01000000
00000000
00010000
00000000
,
00001000
00000100
00000001
00000010
,
00000100
00000000
00000000
00010000
00001000
00000000
01000000
00000000
,
00100000
10000000
01000000
00010000
,
00001000
00000000
00000000
00000010
00000001
00000000
00000100
00000000
,
00000020
00000230
00002300
00023000
,
00130000
00000000
00000000
01000000
00010000
00000000
00100000
00000000
,
01000000
00100000
00001000
00010000
,
00000010
00000000
00000000
00000100
00000001
00000000
00000010
00000000
,
00000200
00000000
00000000
00000300
,
00022000
00000000
00033000
00000000
00001000
00010000
00100000
10000000
,
01000000
00010000
00001000
00010000
01000000
10000000
00100000
00010000
,
00002000
00000000
00000000
00000000
00023000
00000000
00000000
00000000
00031000
00000000
00000010
00000100
00000000
00000010
00000100
00000000
,
00000000
00000000
00001000
00000010
00000000
00000100
00000000
00000000
00000001
00000000
00000010
00000100
00000000
00000010
00000100
00000000
,
00020000
00000000
00000000
00000000
00031000
00000010
00000001
00000100
,
00001000
00010000
00001000
00000100
00000001
00000010
00001000
00010000
,
00100000
00000000
10000000
00000000
01000000
00000000
00010000
00000000
00001000
00000000
00000100
00000010
00000000
00000010
00000100
00000000
,
00000001
00000010
00000100
00001000
00000010
00000000
00020000
00000000
,
00031000
00010000
00100000
10000000
01000000
00010000
00001000
00100000
,
01000000
00100000
00001000
00010000
00100000
01000000
00001000
00010000
,
00000100
00000010
00001000
00010000
00000010
00000100
00001000
00010000
,
00100000
01000000
10000000
01000000
00010000
00100000
01000000
10000000
,
01000000
00010000
00001000
00100000
01000000
00010000
00001000
00010000
,
00100000
01000000
00001000
00010000
00000100
00000010
00000001
00000100
,
00001000
00010000
00100000
01000000
00001000
00010000
01000000
10000000
,
00100000
00010000
00001000
00000010
00000001
00000100
00002000
00000000
,
00023000
00000000
00000000
00000000
00031000
01000000
00000000
00100000
,
00000000
10000000
00000000
01000000
00000000
00010000
00002000
00000000
,
00013000
00100000
10000000
01000000
00010000
00001000
00010000
00100000
,
10000000
00100000
00010000
00001000
00000010
00000100
00001000
00000001
,
00000100
00001000
00010000
00100000
01000000
00010000
00100000
01000000
,
10000000
00100000
00010000
00001000
00000010
00000001
00000100
00001000
,
00020000
00000000
00000000
00000000
,
00032000
00000000
00000000
00000000
00000000
00000000
00003010
00000100
00001000
00000001
00000000
00000000
,
00000100
00000000
00000000
00000000
00000010
00010000
00000000
00010010
,
00000000
00010010
00000000
00000000
00011000
00000000
00000000
00011000
00000000
00000000
00101000
00000000
00000000
00000000
00000000
00000000
,
00001000
00010000
01000000
10000000
00100000
00010000
00001000
00000010
,
00000001
00000100
00001000
00010000
00100000
01000000
00010000
00100000
,
01000000
10000000
01000000
00010000
00001000
00000010
00000001
00000100
,
00001000
00010000
00100000
10000000
01000000
00010000
00001000
00000010
,
00000001
00000100
00001000
00010000
00001000
00000100
00000001
00000010
,
00001000
00010000
00100000
10000000
01000000
00100000
00001000
00000000
,
00020000
00000000
00000000
00000000
00031000
01000000
00000000
00100000
,
00000000
10000000
00000000
01000000
00000000
00010000
00002000
00000000
,
00013000
00000010
00000100
00001000
00010000
00000100
00000010
00000001
,
00000100
00010000
00000100
00001000
00010000
00001000
00100000
01000000
,
10000000
01000000
00100000
00010000
01000000
00100000
00010000
00001000
,
00000100
00000010
00001000
00000100
00000010
00000001
00000100
00000010
,
00002000
00000000
00000000
00000000
,
00003200
00000000
00000000
00000000
,
00010300
00000000
00001000
01000000
00010000
00000000
01000000
00000000
,
00100000
10000000
00000000
00020000
00000000
10030000
01000000
00000000
,
00100000
00000000
00000000
00100000
00000000
00000000
00001000
00000000
00000000
00000000
00010000
00000000
00000010
00000000
00000000
00000000
,
00001000
00000100
00001000
00000020
00000000
00000230
00000000
00000301
,
00001000
00001000
00000200
00000000
00000310
00000001
00000100
00000010
,
00000000
00000000
00010000
00000000
00000000
00001000
00000000
00000000
00200000
00000000
00000000
00000000
01300000
00000000
10000000
00000000
,
00010000
00000000
01000000
00000000
00000000
01000000
00000000
00000000
00000000
00000000
00100000
00000000
00000000
00100000
00000000
00000000
,
10000000
00010000
10000000
02000000
00000000
03200000
00000000
00301000
,
00010000
00000000
00000010
00000100
00000001
00000000
00000010
00000000
,
00000100
00010000
00000000
00002000
00000000
01003000
00100000
10000000
,
00010000
00000000
00000000
00010000
00000000
00000000
00200000
00000000
00000000
00000000
01300000
00000000
10000000
00000000
00000000
00000000
,
00010000
01000000
00001000
00020000
00000000
00030200
00000000
00000310
,
00000001
00000001
00000200
00000000
00000310
00010000
00001000
00100000
,
00000000
00000000
01000000
00000000
00000000
10000000
00000000
00000000
00200000
00000000
00000000
00000000
01300000
00000000
00001000
00000000
,
00010000
00000000
00000100
00000000
00000000
00000100
00000000
00000000
00000000
00000000
00000010
00000000
00000000
00000010
00000000
00000000
,
00000001
00000000
00000000
00000001
00000000
00000000
00000200
00000000
00000000
00000000
00002300
00000000
00023000
00000000
00230000
00000000
,
00300000
00000000
00000000
00000000
;

//---------------dance-double - ----------------
#NOTEDATA:;
#CHARTNAME:;
#CHARTHASH:1496303086;
#STEPSTYPE:dance-double;
#BANNER:;
#DESCRIPTION:;
#CHARTSTYLE:;
#DIFFICULTY:Hard;
#METER:16;
#METERF:16.000000;
#LASTSECONDHINT:141.333328;
#RADARVALUES:0.691647,0.709823,0.093750,0.348215,0.277902,723.000000,709.000000,14.000000,52.000000,15.000000,0.000000,0.000000,0.000000,0.000000,0.691647,0.709823,0.093750,0.348215,0.277902,723.000000,709.000000,14.000000,52.000000,15.000000,0.000000,0.000000,0.000000,0.000000;
#CREDIT:YOSEFU;
#OFFSET:0.000000;
#BPMS:0.000000=180.000000
;
#STOPS:;
#DELAYS:;
#WARPS:;
#TIMESIGNATURES:0.000000=4=4
;
#TICKCOUNTS:0.000000=4
;
#COMBOS:0.000000=1
;
#SPEEDS:0.000000=1.000000=0.000000=0
;
#SCROLLS:0.000000=1.000000
,8.000000=0.000000
,8.437500=8.000000
,8.500000=0.000000
,8.937500=8.000000
,9.000000=0.000000
,9.437500=8.000000
,9.500000=0.000000
,9.937500=8.000000
,10.000000=0.000000
,10.437500=8.000000
,10.500000=0.000000
,10.937500=8.000000
,11.000000=0.000000
,11.437500=8.000000
,11.500000=0.000000
,11.937500=8.000000
,12.000000=0.000000
,12.437500=8.000000
,12.500000=0.000000
,12.937500=8.000000
,13.000000=0.000000
,13.437500=8.000000
,13.500000=0.000000
,13.937500=8.000000
,14.000000=0.000000
,14.437500=8.000000
,14.500000=0.000000
,14.937500=8.000000
,15.000000=0.000000
,15.437500=8.000000
,15.500000=0.000000
,15.937500=8.000000
,16.000000=0.000000
,16.437500=8.000000
,16.500000=0.000000
,16.937500=8.000000
,17.000000=0.000000
,17.437500=8.000000
,17.500000=0.000000
,17.937500=8.000000
,18.000000=0.000000
,18.437500=8.000000
,18.500000=0.000000
,18.937500=8.000000
,19.000000=0.000000
,19.437500=8.000000
,19.500000=0.000000
,19.937500=8.000000
,20.000000=0.000000
,20.437500=8.000000
,20.500000=0.000000
,20.937500=8.000000
,21.000000=0.000000
,21.437500=8.000000
,21.500000=0.000000
,21.937500=8.000000
,22.000000=0.000000
,22.437500=8.000000
,22.500000=0.000000
,22.937500=8.000000
,23.000000=0.000000
,23.437500=8.000000
,23.500000=0.000000
,23.937500=8.000000
,24.000000=0.000000
,24.437500=8.000000
,24.500000=0.000000
,24.937500=8.000000
,25.000000=0.000000
,25.437500=8.000000
,25.500000=0.000000
,25.937500=8.000000
,26.000000=0.000000
,26.437500=8.000000
,26.500000=0.000000
,26.937500=8.000000
,27.000000=0.000000
,27.437500=8.000000
,27.500000=0.000000
,27.937500=8.000000
,28.000000=0.000000
,28.437500=8.000000
,28.500000=0.000000
,28.937500=8.000000
,29.000000=0.000000
,29.437500=8.000000
,29.500000=0.000000
,29.937500=8.000000
,30.000000=0.000000
,30.437500=8.000000
,30.500000=0.000000
,30.937500=8.000000
,31.000000=0.000000
,31.437500=8.000000
,31.500000=0.000000
,31.937500=8.000000
,32.000000=0.000000
,32.437500=8.000000
,32.500000=0.000000
,32.937500=8.000000
,33.000000=0.000000
,33.437500=8.000000
,33.500000=0.000000
,33.937500=8.000000
,34.000000=0.000000
,34.437500=8.000000
,34.500000=0.000000
,34.937500=8.000000
,35.000000=0.000000
,35.437500=8.000000
,35.500000=0.000000
,35.937500=8.000000
,36.000000=0.000000
,36.437500=8.000000
,36.500000=0.000000
,36.937500=8.000000
,37.000000=0.000000
,37.437500=8.000000
,37.500000=0.000000
,37.937500=8.000000
,38.000000=0.000000
,38.437500=8.000000
,38.500000=0.000000
,38.937500=8.000000
,39.000000=0.000000
,39.437500=8.000000
,39.500000=0.000000
,39.937500=8.000000
,40.000000=0.000000
,40.437500=8.000000
,40.500000=0.000000
,40.937500=8.000000
,41.000000=0.000000
,41.437500=8.000000
,41.500000=0.000000
,41.937500=8.000000
,42.000000=0.000000
,42.437500=8.000000
,42.500000=0.000000
,42.937500=8.000000
,43.000000=0.000000
,43.437500=8.000000
,43.500000=0.000000
,43.937500=8.000000
,44.000000=0.000000
,44.437500=8.000000
,44.500000=0.000000
,44.937500=8.000000
,45.000000=0.000000
,45.437500=8.000000
,45.500000=0.000000
,45.937500=8.000000
,46.000000=0.000000
,46.437500=8.000000
,46.500000=0.000000
,46.937500=8.000000
,47.000000=0.000000
,47.437500=8.000000
,47.500000=0.000000
,47.937500=8.000000
,48.000000=0.000000
,48.437500=8.000000
,48.500000=0.000000
,48.937500=8.000000
,49.000000=0.000000
,49.437500=8.000000
,49.500000=0.000000
,49.937500=8.000000
,50.000000=0.000000
,50.437500=8.000000
,50.500000=0.000000
,50.937500=8.000000
,51.000000=0.000000
,51.437500=8.000000
,51.500000=0.000000
,51.937500=8.000000
,52.000000=0.000000
,52.437500=8.000000
,52.500000=0.000000
,52.937500=8.000000
,53.000000=0.000000
,53.437500=8.000000
,53.500000=0.000000
,53.937500=8.000000
,54.000000=0.000000
,54.437500=8.000000
,54.500000=0.000000
,54.937500=8.000000
,55.000000=0.000000
,55.437500=8.000000
,55.500000=0.000000
,55.937500=8.000000
,56.000000=0.000000
,56.437500=8.000000
,56.500000=0.000000
,56.937500=8.000000
,57.000000=0.000000
,57.437500=8.000000
,57.500000=0.000000
,57.937500=8.000000
,58.000000=0.000000
,58.437500=8.000000
,58.500000=0.000000
,58.937500=8.000000
,59.000000=0.000000
,59.437500=8.000000
,59.500000=0.000000
,59.937500=8.000000
,60.000000=0.000000
,60.437500=8.000000
,60.500000=0.000000
,60.937500=8.000000
,61.000000=0.000000
,61.437500=8.000000
,61.500000=0.000000
,61.937500=8.000000
,62.000000=0.000000
,62.437500=8.000000
,62.500000=0.000000
,62.937500=8.000000
,63.000000=0.000000
,63.437500=8.000000
,63.500000=0.000000
,63.937500=8.000000
,64.000000=0.500000
,68.000000=0.750000
,68.250000=1.000000
,68.500000=1.250000
,68.750000=1.500000
,69.000000=1.750000
,69.250000=2.000000
,69.500000=2.250000
,69.750000=2.500000
,70.000000=2.750000
,70.250000=3.000000
,70.500000=3.250000
,70.750000=3.500000
,71.000000=0.000000
,71.500000=1.000000
,100.000000=0.750000
,104.000000=1.000000
,132.000000=0.950000
,133.000000=0.900000
,134.000000=0.850000
,135.000000=0.800000
,136.000000=0.750000
,196.000000=0.000000
,196.208328=0.100000
,196.395828=0.200000
,196.604172=0.300000
,196.791672=0.400000
,197.000000=0.500000
,197.208328=0.600000
,197.395828=0.700000
,197.604172=0.800000
,197.791672=0.900000
,198.000000=1.000000
,198.208328=1.100000
,198.395828=1.200000
,198.604172=1.300000
,198.791672=1.400000
,199.000000=1.500000
,199.208328=1.600000
,199.395828=1.700000
,199.604172=1.800000
,199.791672=1.900000
,200.000000=2.000000
,200.250000=1.000000
,200.375000=0.500000
,200.625000=1.000000
,200.750000=2.000000
,201.500000=1.000000
,201.750000=0.500000
,202.000000=1.000000
,208.000000=2.000000
,208.250000=1.000000
,208.375000=0.500000
,208.625000=1.000000
,208.750000=2.000000
,209.500000=1.000000
,209.750000=0.500000
,210.000000=1.000000
,216.000000=2.000000
,216.208328=1.800000
,216.395828=1.600000
,216.604172=1.400000
,216.791672=1.200000
,217.000000=1.000000
,217.208328=0.800000
,217.395828=0.600000
,217.604172=0.400000
,217.791672=0.200000
,218.000000=1.000000
,224.000000=0.000000
,224.250000=2.000000
,224.500000=0.000000
,224.750000=2.000000
,225.000000=0.000000
,225.250000=2.000000
,225.500000=0.000000
,225.750000=2.000000
,226.000000=1.000000
,230.000000=0.500000
,232.000000=1.000000
,264.000000=0.750000
,272.000000=1.000000
,288.000000=0.750000
,299.500000=0.000000
,299.875000=1.000000
,300.250000=0.000000
,300.625000=1.000000
,301.000000=0.000000
,301.375000=1.000000
,301.750000=0.000000
,302.125000=1.000000
,302.500000=0.000000
,302.875000=1.000000
,303.000000=0.000000
,303.500000=1.000000
,328.000000=0.750000
,336.000000=1.000000
,352.000000=0.750000
,359.000000=0.700000
,359.250000=0.650000
,359.500000=0.600000
,359.750000=0.550000
,360.000000=0.500000
;
#FAKES:;
#LABELS:0.000000=Song Start
;
#DISPLAYBPM:180.000000;
#NOTES:
00000000
00000000
00000000
00000000
,
00000000
00000000
00000000
00000000
,
00000000
000000M0
00000000
00000000
00000000
00000000
00000000
00000000
,
00000000
00000M00
00000000
00000000
00000000
0M000000
00000000
M0000000
,
00000000
00000M00
00000000
00000000
00000000
00000000
00000000
000000M0
,
00000000
0000000M
00000000
00M00000
00000000
00000000
00000000
M0000000
,
00010000
00001000
00100000
00001000
00100000
00010000
10000000
00010000
,
01000000
00010000
10000000
01000000
00100000
00001000
00010000
00000010
,
00010000
00000010
00001000
00000010
00000100
00000001
00000010
00000100
,
00010000
00000100
00010000
00000100
00010000
00001000
00100000
00001000
,
01000000
00001000
01000000
00010000
10000000
01000000
00100000
00001000
,
00010000
00000100
00010000
00000100
00001000
00000010
00001000
00000010
,
00000100
00000001
00000010
00000100
00000010
00000100
00010000
00000100
,
00010000
00000100
00010000
00001000
01000000
00010000
10000000
00010000
,
10000000
01000000
00100000
01000000
00100000
00001000
00010000
00001000
,
00010000
00000010
00010000
00000010
00001000
00000010
00001000
00000010
,
00000200
00000000
00000000
00000000
,
000MM320
00000000
000MM000
00000030
,
00011000
00010000
00001000
00100000
00010000
01000000
00100000
10000000
,
01000000
00010000
00001000
00000100
00000001
00000010
00000100
00001000
,
00000100
00000010
00000001
00000100
00000010
00000100
00001000
00010000
,
00100000
01000000
00010000
10000000
01000000
00100000
00010000
01000000
,
00100000
10000000
00010000
00100000
01000000
00100000
00001000
00010000
,
00100000
00010000
00001000
00000010
00000100
00001000
00000001
00000100
,
00001000
00010000
00001000
00100000
01000000
10000000
00010000
01000000
,
00001000
00000000
00000000
00000000
01001000
00000000
00000000
00000000
00010100
00000000
00000000
00010100
00000000
00000000
00000000
00000000
,
00011000
00001000
00010000
00000100
00001000
00000010
00000100
00000001
,
00000010
00001000
00010000
00100000
10000000
01000000
00100000
00010000
,
00100000
01000000
10000000
00100000
01000000
00100000
00010000
00001000
,
00000100
00000010
00001000
00000001
00000010
00000100
00001000
00000010
,
00000100
00000001
00001000
00000100
00000010
00000100
00010000
00001000
,
00000100
00001000
00010000
01000000
00100000
00010000
10000000
00100000
,
00010000
00001000
00010000
00000100
00000010
00000001
00001000
00000010
,
00010000
00001000
00000000
00100000
00000000
01000000
10000000
00000000
,
00010000
00000000
00000000
01000000
00001000
00010000
00010000
00000000
,
00000100
00000010
00000000
00000001
00000100
00001000
00010000
00000000
,
00001000
00100000
01000000
01000000
10000000
00100000
01000000
00000000
,
00020000
02030000
03002000
00023000
,
00030100
00000000
00000000
00000010
00000001
00000100
00000100
00000000
,
00000010
00001000
00000000
00000010
00010000
00000000
00001000
00100000
,
01000000
00000000
00100000
00001000
00020000
00000000
00230000
00000000
,
01300000
00100000
00000000
10000000
00010000
00000000
00110000
00000000
,
00100000
01000000
00000000
00010000
00001000
00000000
00000010
00000000
,
00000100
00001000
00000000
00000001
00000100
00000000
00001010
00000000
,
00000001
00000010
00000100
00000100
00000010
00000001
00000100
00001000
,
00020000
00230000
02300000
03020000
,
10030000
01000000
00010000
00001000
00000100
00000001
00000010
00000000
,
00001000
00010000
00100000
00010000
00001000
01000000
00010000
10000000
,
01000000
00010000
00001000
00000100
00000001
00000010
00001000
00010000
,
0M002000
00000000
0M000000
00000000
,
02003000
00000000
00000000
00000000
00000000
00000000
00000000
00000000
03010000
00000000
10000000
01000000
00000000
01000000
00100000
00000000
,
00100000
00001000
00000000
00001000
00010000
00000000
00010000
00000010
00000000
00000010
00000100
00000000
00000001
00000000
00000010
00000000
,
00000200
00000000
00000000
00000000
00000000
00000000
00000000
00000000
00010300
00000000
00001000
00100000
00000000
00001000
01000000
00000000
,
00010000
10000000
00000000
01000000
10000000
00000000
00010000
01000000
00000000
00001000
01000000
00000000
00001000
00010000
00000100
00000000
,
00002000
00000000
00000000
00000000
00000000
00000000
00000000
00000000
00003001
00000000
00000010
00000100
00000000
00000100
00010000
00000000
,
00010000
00001000
00000000
00001000
01000000
00000000
01000000
00100000
00000000
00100000
00010000
00000000
00001000
00000000
00000010
00000000
,
00000100
00000000
00001000
00000000
00000100
00000000
00000001
00000000
00000100
00000000
00000010
00000001
00000000
00000001
00001000
00000000
,
00000010
00000100
00001000
00010000
00002000
00000000
00003000
00000000
,
00011000
00010000
00001000
00000010
00000001
00000100
00001000
00010000
,
00001000
00000010
00000001
00002000
00000000
00003001
00000100
00001000
,
00010000
00000000
00100000
01000000
00010000
00000000
10000000
00000000
00000000
00000000
01000000
00000000
00100000
00000000
00001000
00000000
,
00010000
00001000
00000000
00001000
01000000
00000000
01000000
00100000
00000000
00100000
10000000
00000000
01000000
00000000
00100000
00000000
,
00001000
00000000
00001000
00000000
00020000
00000000
00000000
00000000
00030010
00000100
00000001
00000000
00000010
00000000
00000100
00000000
,
00001000
00000000
00000100
00000000
00000001
00000100
00000000
00010000
00002000
00000000
00000000
00000000
01003000
00000000
00100000
00000000
,
10000000
00000000
01000000
00000000
00100000
00000000
00001000
00000000
00010000
00000000
00100000
00000000
10000000
00010000
00000000
00000000
,
00100000
00000000
10000000
00000000
00100000
00000000
00001000
00010000
00000000
00010000
00000010
00000000
00001000
00000000
00000001
00000000
,
00000200
00000000
00000000
00000000
00000310
00001000
00000000
00000100
,
00000000
00000001
00000000
00000100
00000000
00010000
00001000
01000000
,
00010000
00000000
00100000
01000000
10000000
00000000
00100000
00000000
00010000
00000000
00001000
00000000
00000010
00000000
00000001
00000000
,
00000100
00000010
00000000
00000010
00001000
00000000
00001000
00000100
00000000
00000100
00010000
00000000
00001000
00000000
01000000
00000000
,
00010000
00000000
00010000
00000000
00200000
00000000
00000000
00000000
01300000
10000000
00010000
00000000
01000000
00000000
10000000
00000000
,
01000000
00000000
00001000
00000000
00010000
00000100
00000000
00000010
00000002
00000000
00000000
00000000
00000103
00000000
00001000
00000000
,
00020000
00000000
00000000
00000000
,
00032000
00000000
00000000
00000000
00000000
00000000
01003000
00100000
10000000
00010000
00000000
00000000
,
00210000
00000000
00000000
00000000
01300000
10000000
00000000
10100000
,
00000000
10010000
00000000
00000000
01010000
00000000
00000000
01001000
00000000
00000000
00011000
00000000
00000000
00000000
00000000
00000000
,
00001000
00000000
00000100
00000010
00001000
00000000
00000001
00000000
00000000
00000000
00000010
00000000
00000100
00000000
00010000
00000000
,
00001000
00010000
00000000
00010000
00000010
00000000
00000010
00000100
00000000
00000100
00000001
00000000
00000010
00000000
00000100
00000000
,
00010000
00000000
00010000
00000000
00002000
00000000
00000000
00000000
01003000
00100000
10000000
00000000
01000000
00000000
00100000
00000000
,
00010000
00000000
00100000
00000000
10000000
00100000
00000000
00001000
00020000
00000000
00000000
00000000
00030010
00000000
00000100
00000000
,
00000001
00000000
00000010
00000000
00000100
00000000
00010000
00000000
00001000
00000000
00000100
00000000
00000001
00001000
00000000
00000000
,
00000100
00000000
00000001
00000000
00000100
00000000
00010000
00001000
00000000
00001000
01000000
00000000
00010000
00000000
10000000
00000000
,
00200000
00000000
00000000
00000000
01300000
00010000
00000000
00100000
,
00000000
10000000
00000000
00100000
00000000
00001000
00010000
00000010
,
00001000
00000000
00000100
00000010
00000001
00000000
00000100
00000000
00001000
00000000
00010000
00000000
01000000
00000000
10000000
00000000
,
00100000
01000000
00000000
01000000
00010000
00000000
00010000
00100000
00000000
00100000
00001000
00000000
00010000
00000000
00000010
00000000
,
00001000
00000000
00001000
00000000
00000200
00000000
00000000
00000000
00000310
00000001
00001000
00000000
00000010
00000000
00000001
00000000
,
00000010
00000000
00010000
00000000
00001000
00100000
00000000
01000000
20000000
00000000
00000000
00000000
30100000
00000000
00010000
00000000
,
00002000
00000000
00000000
00000000
00000000
00000000
00000000
00000000
00000000
00000000
00000010
00000000
00000000
00000010
00000000
00000000
,
00010000
00000000
00000000
00010000
00000000
00000000
00100000
00000000
00000000
00000000
00203000
00000000
00302000
00000000
00023000
00000000
,
00030010
00000100
00001000
00000100
00000001
00000010
00001000
00010000
,
00100000
01000000
00010000
10000000
00000000
01000000
00010000
00001000
,
00000100
00000000
00000001
00000100
00000000
00000001
00000100
00000000
00000000
00000000
00000020
00000000
00002030
00000000
00003200
00000000
,
00000301
00000100
00010000
00002000
00000000
01003000
01000000
00010000
,
10000000
00000000
10000000
00000000
02000000
00000000
00000000
00000000
03100000
00010000
10000000
00000000
00100000
00000000
01000000
00000000
,
00001000
00000000
00010000
00000000
00001000
00010000
00000000
00010000
00000020
00000000
00000000
00000000
00000130
00000000
00000001
00000000
,
00001000
00000000
00000100
00000000
00000010
00000001
00000010
00000000
00000100
00000000
00010000
00000000
00001000
00100000
00000000
00000000
,
01000000
00010000
01000000
20000000
00000000
30100000
00100000
01000000
,
00001000
00010000
00001000
00000010
00000001
00000100
00001000
00010000
,
01000000
10000000
00100000
01000000
00000000
00010000
00100000
01000000
,
00010000
00000000
00001000
00010000
00000000
00001000
00020000
00000000
00000000
00000000
00030020
00000000
00000230
00000000
00000302
00000000
,
00000013
00001000
00000010
00000001
00000000
00000100
00000100
00001000
,
00010000
00000000
00010000
00000000
00002000
00000000
00000000
00000000
00103000
00001000
00100000
00000000
00010000
00000000
01000000
00000000
,
00100000
00000000
10000000
00000000
01000000
00010000
00000000
00001000
00020000
00000000
00000000
00000000
00030010
00000000
00000100
00000000
,
00001000
00000000
00010000
00000000
00001000
01000000
00001000
00000000
01000000
00000000
00010000
00000000
10000000
01000000
00000000
00100000
,
00001000
00000000
00010000
00000010
00000000
00000100
00000002
00000000
00000000
00000000
00000023
00000000
00002030
00000000
00023000
00000000
,
00030000
00000000
00000000
00000000
;

//---------------dance-double - ----------------
#NOTEDATA:;
#CHARTNAME:;
#CHARTHASH:870044352;
#STEPSTYPE:dance-double;
#BANNER:;
#DESCRIPTION:;
#CHARTSTYLE:;
#DIFFICULTY:Challenge;
#METER:18;
#METERF:0.000000;
#LASTSECONDHINT:141.333328;
#RADARVALUES:0.802617,0.816297,0.234376,0.495537,0.545760,839.000000,804.000000,35.000000,74.000000,17.000000,0.000000,0.000000,0.000000,0.000000,0.802617,0.816297,0.234376,0.495537,0.545760,839.000000,804.000000,35.000000,74.000000,17.000000,0.000000,0.000000,0.000000,0.000000;
#CREDIT:Yosefu,, ,;
#OFFSET:0.000000;
#BPMS:0.000000=180.000000
;
#STOPS:;
#DELAYS:;
#WARPS:;
#TIMESIGNATURES:0.000000=4=4
;
#TICKCOUNTS:0.000000=4
;
#COMBOS:0.000000=1
;
#SPEEDS:0.000000=1.000000=0.000000=0
;
#SCROLLS:0.000000=1.000000
,8.000000=0.000000
,8.437500=8.000000
,8.500000=0.000000
,8.937500=8.000000
,9.000000=0.000000
,9.437500=8.000000
,9.500000=0.000000
,9.937500=8.000000
,10.000000=0.000000
,10.437500=8.000000
,10.500000=0.000000
,10.937500=8.000000
,11.000000=0.000000
,11.437500=8.000000
,11.500000=0.000000
,11.937500=8.000000
,12.000000=0.000000
,12.437500=8.000000
,12.500000=0.000000
,12.937500=8.000000
,13.000000=0.000000
,13.437500=8.000000
,13.500000=0.000000
,13.937500=8.000000
,14.000000=0.000000
,14.437500=8.000000
,14.500000=0.000000
,14.937500=8.000000
,15.000000=0.000000
,15.437500=8.000000
,15.500000=0.000000
,15.937500=8.000000
,16.000000=0.000000
,16.437500=8.000000
,16.500000=0.000000
,16.937500=8.000000
,17.000000=0.000000
,17.437500=8.000000
,17.500000=0.000000
,17.937500=8.000000
,18.000000=0.000000
,18.437500=8.000000
,18.500000=0.000000
,18.937500=8.000000
,19.000000=0.000000
,19.437500=8.000000
,19.500000=0.000000
,19.937500=8.000000
,20.000000=0.000000
,20.437500=8.000000
,20.500000=0.000000
,20.937500=8.000000
,21.000000=0.000000
,21.437500=8.000000
,21.500000=0.000000
,21.937500=8.000000
,22.000000=0.000000
,22.437500=8.000000
,22.500000=0.000000
,22.937500=8.000000
,23.000000=0.000000
,23.437500=8.000000
,23.500000=0.000000
,23.937500=8.000000
,24.000000=0.000000
,24.437500=8.000000
,24.500000=0.000000
,24.937500=8.000000
,25.000000=0.000000
,25.437500=8.000000
,25.500000=0.000000
,25.937500=8.000000
,26.000000=0.000000
,26.437500=8.000000
,26.500000=0.000000
,26.937500=8.000000
,27.000000=0.000000
,27.437500=8.000000
,27.500000=0.000000
,27.937500=8.000000
,28.000000=0.000000
,28.437500=8.000000
,28.500000=0.000000
,28.937500=8.000000
,29.000000=0.000000
,29.437500=8.000000
,29.500000=0.000000
,29.937500=8.000000
,30.000000=0.000000
,30.437500=8.000000
,30.500000=0.000000
,30.937500=8.000000
,31.000000=0.000000
,31.437500=8.000000
,31.500000=0.000000
,31.937500=8.000000
,32.000000=0.000000
,32.437500=8.000000
,32.500000=0.000000
,32.937500=8.000000
,33.000000=0.000000
,33.437500=8.000000
,33.500000=0.000000
,33.937500=8.000000
,34.000000=0.000000
,34.437500=8.000000
,34.500000=0.000000
,34.937500=8.000000
,35.000000=0.000000
,35.437500=8.000000
,35.500000=0.000000
,35.937500=8.000000
,36.000000=0.000000
,36.437500=8.000000
,36.500000=0.000000
,36.937500=8.000000
,37.000000=0.000000
,37.437500=8.000000
,37.500000=0.000000
,37.937500=8.000000
,38.000000=0.000000
,38.437500=8.000000
,38.500000=0.000000
,38.937500=8.000000
,39.000000=0.000000
,39.437500=8.000000
,39.500000=0.000000
,39.937500=8.000000
,40.000000=0.000000
,40.437500=8.000000
,40.500000=0.000000
,40.937500=8.000000
,41.000000=0.000000
,41.437500=8.000000
,41.500000=0.000000
,41.937500=8.000000
,42.000000=0.000000
,42.437500=8.000000
,42.500000=0.000000
,42.937500=8.000000
,43.000000=0.000000
,43.437500=8.000000
,43.500000=0.000000
,43.937500=8.000000
,44.000000=0.000000
,44.437500=8.000000
,44.500000=0.000000
,44.937500=8.000000
,45.000000=0.000000
,45.437500=8.000000
,45.500000=0.000000
,45.937500=8.000000
,46.000000=0.000000
,46.437500=8.000000
,46.500000=0.000000
,46.937500=8.000000
,47.000000=0.000000
,47.437500=8.000000
,47.500000=0.000000
,47.937500=8.000000
,48.000000=0.000000
,48.437500=8.000000
,48.500000=0.000000
,48.937500=8.000000
,49.000000=0.000000
,49.437500=8.000000
,49.500000=0.000000
,49.937500=8.000000
,50.000000=0.000000
,50.437500=8.000000
,50.500000=0.000000
,50.937500=8.000000
,51.000000=0.000000
,51.437500=8.000000
,51.500000=0.000000
,51.937500=8.000000
,52.000000=0.000000
,52.437500=8.000000
,52.500000=0.000000
,52.937500=8.000000
,53.000000=0.000000
,53.437500=8.000000
,53.500000=0.000000
,53.937500=8.000000
,54.000000=0.000000
,54.437500=8.000000
,54.500000=0.000000
,54.937500=8.000000
,55.000000=0.000000
,55.437500=8.000000
,55.500000=0.000000
,55.937500=8.000000
,56.000000=0.000000
,56.437500=8.000000
,56.500000=0.000000
,56.937500=8.000000
,57.000000=0.000000
,57.437500=8.000000
,57.500000=0.000000
,57.937500=8.000000
,58.000000=0.000000
,58.437500=8.000000
,58.500000=0.000000
,58.937500=8.000000
,59.000000=0.000000
,59.437500=8.000000
,59.500000=0.000000
,59.937500=8.000000
,60.000000=0.000000
,60.437500=8.000000
,60.500000=0.000000
,60.937500=8.000000
,61.000000=0.000000
,61.437500=8.000000
,61.500000=0.000000
,61.937500=8.000000
,62.000000=0.000000
,62.437500=8.000000
,62.500000=0.000000
,62.937500=8.000000
,63.000000=0.000000
,63.437500=8.000000
,63.500000=0.000000
,63.937500=8.000000
,64.000000=0.500000
,68.000000=0.750000
,68.250000=1.000000
,68.500000=1.250000
,68.750000=1.500000
,69.000000=1.750000
,69.250000=2.000000
,69.500000=2.250000
,69.750000=2.500000
,70.000000=2.750000
,70.250000=3.000000
,70.500000=3.250000
,70.750000=3.500000
,71.000000=0.000000
,71.500000=1.000000
,100.000000=0.750000
,104.000000=1.000000
,132.000000=0.950000
,133.000000=0.900000
,134.000000=0.850000
,135.000000=0.800000
,136.000000=0.750000
,196.000000=0.000000
,196.208328=0.100000
,196.395828=0.200000
,196.604172=0.300000
,196.791672=0.400000
,197.000000=0.500000
,197.208328=0.600000
,197.395828=0.700000
,197.604172=0.800000
,197.791672=0.900000
,198.000000=1.000000
,198.208328=1.100000
,198.395828=1.200000
,198.604172=1.300000
,198.791672=1.400000
,199.000000=1.500000
,199.208328=1.600000
,199.395828=1.700000
,199.604172=1.800000
,199.791672=1.900000
,200.000000=2.000000
,200.250000=1.000000
,200.375000=0.500000
,200.625000=1.000000
,200.750000=2.000000
,201.500000=1.000000
,201.750000=0.500000
,202.000000=1.000000
,208.000000=2.000000
,208.250000=1.000000
,208.375000=0.500000
,208.625000=1.000000
,208.750000=2.000000
,209.500000=1.000000
,209.750000=0.500000
,210.000000=1.000000
,216.000000=2.000000
,216.208328=1.800000
,216.395828=1.600000
,216.604172=1.400000
,216.791672=1.200000
,217.000000=1.000000
,217.208328=0.800000
,217.395828=0.600000
,217.604172=0.400000
,217.791672=0.200000
,218.000000=1.000000
,224.000000=0.000000
,224.250000=2.000000
,224.500000=0.000000
,224.750000=2.000000
,225.000000=0.000000
,225.250000=2.000000
,225.500000=0.000000
,225.750000=2.000000
,226.000000=1.000000
,230.000000=0.500000
,232.000000=1.000000
,264.000000=0.750000
,272.000000=1.000000
,288.000000=0.750000
,299.500000=0.000000
,299.875000=1.000000
,300.250000=0.000000
,300.625000=1.000000
,301.000000=0.000000
,301.375000=1.000000
,301.750000=0.000000
,302.125000=1.000000
,302.500000=0.000000
,302.875000=1.000000
,303.000000=0.000000
,303.500000=1.000000
,328.000000=0.750000
,336.000000=1.000000
,352.000000=0.750000
,359.000000=0.700000
,359.250000=0.650000
,359.500000=0.600000
,359.750000=0.550000
,360.000000=0.500000
;
#FAKES:;
#LABELS:0.000000=Song Start
;
#DISPLAYBPM:180.000000;
#NOTES:
00000000
00000000
00000000
00000000
,
00000000
00000000
00000000
00000000
,
00000000
000000M0
00000000
00000000
00000000
00000000
00000000
00000000
,
00000000
00000M00
00000000
00000000
00000000
0M000000
00000000
M0000000
,
00000000
00000M00
00000000
00000000
00000000
00000000
00000000
000000M0
,
00000000
0000000M
00000000
00M00000
00000000
00000000
00000000
M0000000
,
00010000
00001000
00000010
00000001
00000100
00001000
00010000
00000100
,
00000010
00001000
00010000
00100000
01000000
00010000
00100000
01000000
,
10000000
00100000
00010000
00001000
00000010
00000001
00000100
00001000
,
00010000
00100000
01000000
00010000
00100000
01000000
00010000
00001000
,
00000010
00000100
00001000
00000001
00000100
00000010
00001000
00000100
,
00000010
00001000
00010000
00100000
01000000
00100000
00010000
00001000
,
00000010
00000001
00000100
00001000
00010000
01000000
10000000
00100000
,
00010000
00001000
00000100
00000010
00001000
00000100
00000010
00001000
,
00010000
00100000
01000000
00010000
00100000
01000000
10000000
00100000
,
01000000
10000000
01000000
00010000
00100000
01000000
00010000
00001000
,
00000200
00000000
00000000
00000000
,
000MM002
00000000
000MM000
00000303
,
00011000
00000000
00010000
00000000
00001000
00000000
00000100
00000000
00000001
00000000
00000010
00000000
00000100
00000000
00010000
00001000
,
01000000
00000000
00100000
10000000
01000000
00000000
00010000
00000000
00001000
00010000
00100000
00000000
10000000
01000000
00100000
00000000
,
00001000
00000000
00010000
00000000
00100000
00000000
00010000
00000000
00001000
00000000
00000010
00000000
00000100
00000000
00001000
00000010
,
00000100
00000000
00001000
00010000
00100000
00000000
01000000
00000000
00010000
00100000
01000000
00000000
10000000
00100000
01000000
00000000
,
00010000
00000000
10000000
00000000
01000000
00000000
00010000
00000000
00001000
00000000
00000100
00000000
00000001
00000000
00000010
00001000
,
00010000
00000000
00100000
01000000
00010000
00000000
10000000
00000000
01000000
00010000
00001000
00000000
00000010
00000001
00001000
00000000
,
00000010
00000001
00000010
00001000
00000100
00000010
00001000
00010000
,
00011000
00000000
00000000
00000000
00100010
00000000
00000000
00000000
01000000
00000100
00000000
01000000
00000100
00000000
00000000
00000000
,
00011000
00000000
00001000
00000000
00010000
00000000
00100000
00000000
10000000
00000000
01000000
00000000
00100000
00000000
00001000
00010000
,
00000010
00000000
00000100
00000001
00000010
00000000
00001000
00000000
00010000
00001000
00000100
00000000
00000001
00000010
00000100
00000000
,
00010000
00000000
00001000
00000000
00000100
00000000
00001000
00000000
00010000
00000000
01000000
00000000
00100000
00000000
00010000
01000000
,
00100000
00000000
00010000
00001000
00000100
00000000
00000010
00000000
00001000
00000100
00000010
00000000
00000001
00000100
00000010
00000000
,
00001000
00000000
00000001
00000000
00000010
00000000
00001000
00000000
00010000
00000000
00100000
00000000
10000000
00000000
01000000
00010000
,
00001000
00000000
00000100
00000010
00001000
00000000
00000001
00000000
00000010
00001000
00010000
00000000
01000000
10000000
00010000
00000000
,
01000000
10000000
01000000
00010000
00100000
01000000
00010000
00001000
,
00000010
00000001
00000000
00000100
00000000
00000010
00010000
00000000
,
00021000
00000000
00000000
00000000
00000000
00000000
00030100
00000000
00001100
00000000
00001000
00000001
00000100
00000000
00000000
00000000
,
00000020
00001000
00000000
00000130
00000101
00000000
00000001
00000010
,
00001000
00000000
00010000
00000000
00100000
00000000
00100000
00000000
01100000
00000000
01000000
00000000
01000000
00000000
00010000
10000000
,
01000000
00000000
00100000
00000000
00010000
01000000
00000000
00000000
10100000
00000000
00000000
00000000
10010000
00000000
00000000
00000000
,
11000000
00000000
01000000
00000000
00100000
00000000
00100000
00000000
00101000
00000000
00001000
00010000
00000010
00000000
00000100
00000000
,
00000001
00000000
00000100
00000000
00001000
00010000
00001000
00000000
00101000
00000000
00000000
00000000
01010000
00000000
01000000
00000000
,
00010000
00000000
00100000
00000000
01000000
00000000
00010000
00000000
00001000
00000010
00000100
00000000
00000100
00000000
00001000
00000000
,
00000001
00000100
00000010
00000000
00001000
00000100
00000010
00000001
00001000
00000000
00000000
00000000
00001001
00000000
00000000
00000000
,
00000201
00000010
00000001
00000301
00001001
00001000
00000100
00000010
,
00001000
00000000
00010000
00000000
00100000
01000000
00010000
01000000
00010000
00000000
00000000
00000000
10000000
01000000
00100000
00000000
,
10000000
00100000
00001000
00001000
00011000
00010000
00010000
00000010
,
00000100
00000000
00000001
00000000
00001000
00000100
00010000
00001000
01000000
00000000
00100000
00000000
00010000
00000000
00001000
00000000
,
00000010
00000000
00000001
00000000
00000100
00000000
00000100
00000000
00000110
00000000
00000010
00000000
00000010
00001000
00000100
00000010
,
00000001
00000000
00000100
00000000
00001000
00010000
00100000
00000000
01000000
00000000
00000000
00010000
10000000
01000000
00100000
00000000
,
00001000
00010000
00000010
00000010
00000110
00001000
00001000
00000001
,
0000MM20
00000000
0000MM30
00000000
,
00001200
00000000
00000000
00000000
00000000
00000000
00000000
00000000
00000000
00000000
00000000
00000000
00000000
00000000
00000000
00000000
00010000
00000000
00000000
00000000
00000000
00000000
00000000
00000000
00000000
00000000
00000000
00000000
00000000
00000000
00000000
00000000
00001300
00000000
00000000
00000000
00000000
00000000
00000000
00000000
00000100
00000000
00000000
00000000
00010000
00000000
00000000
00000000
00001000
00000000
00000000
00000000
01000000
00000000
00000000
00000000
00020000
00030000
00000000
00000000
00000000
00000000
00000000
00000000
,
00020000
00030000
00000000
00000000
00001000
00000000
00000000
00000000
00100000
00000000
00000000
00000000
00001000
00000000
00000000
00000000
00020000
00030000
00000000
00000000
00000000
00000000
00000000
00000000
00020000
00030000
00000000
00000000
01000000
00000000
00000000
00000000
00001000
00000000
00000000
00000000
00010000
00000000
00000000
00000000
00000100
00000000
00000000
00000000
00000000
00000000
00000000
00000000
00000010
00000000
00000000
00000000
00000000
00000000
00000000
00000000
00000001
00000000
00000000
00000000
00000000
00000000
00000000
00000000
,
00000201
00000000
00000000
00000000
00000000
00000000
00000000
00000000
00000000
00000000
00000000
00000000
00000000
00000000
00000000
00000000
00000010
00000000
00000000
00000000
00000000
00000000
00000000
00000000
00000000
00000000
00000000
00000000
00000000
00000000
00000000
00000000
00000301
00000000
00000000
00000000
00000000
00000000
00000000
00000000
00000010
00000000
00000000
00000000
00000001
00000000
00000000
00000000
00001000
00000000
00000000
00000000
00000010
00000000
00000000
00000000
00020000
00030000
00000000
00000000
00000000
00000000
00000000
00000000
,
00020000
00030000
00000000
00000000
10000000
00000000
00000000
00000000
01000000
00000000
00000000
00000000
00100000
00000000
00000000
00000000
00002000
00003000
00000000
00000000
00000000
00000000
00000000
00000000
00002000
00003000
00000000
00000000
00000001
00000000
00000000
00000000
00000100
00000000
00000000
00000000
00000010
00000000
00000000
00000000
00010000
00000000
00000000
00000000
00000000
00000000
00000000
00000000
00001000
00000000
00000000
00000000
00000000
00000000
00000000
00000000
01000000
00000000
00000000
00000000
00000000
00000000
00000000
00000000
,
00200000
00000000
00000000
00000000
00000000
00000000
00000000
00000000
00000000
00000000
00000000
00000000
00000000
00000000
00000000
00000000
00000000
00000000
00000000
00000000
00000000
00000000
00000000
00000000
00000000
00000000
00000000
00000000
00000000
00000000
00000000
00000000
10300000
00000000
00000000
00000000
00000000
00000000
00000000
00000000
00100000
00000000
00000000
00000000
01000000
00000000
00000000
00000000
00001000
00000000
00000000
00000000
00010000
00000000
00000000
00000000
00000020
00000030
00000000
00000000
00000000
00000000
00000000
00000000
,
00000020
00000030
00000000
00000000
00000001
00000000
00000000
00000000
00000100
00000000
00000000
00000000
00000010
00000000
00000000
00000000
00020000
00030000
00000000
00000000
00000000
00000000
00000000
00000000
00020000
00030000
00000000
00000000
00001000
00000000
00000000
00000000
00100000
00000000
00000000
00000000
01000000
00000000
00000000
00000000
10000000
00000000
00000000
00000000
00000000
00000000
00000000
00000000
00100000
00000000
00000000
00000000
00000000
00000000
00000000
00000000
01000000
00000000
00000000
00000000
00000000
00000000
00000000
00000000
,
00001000
00000000
00000000
00000000
00000000
00000000
00000000
00000000
00010000
00000000
00000000
00000000
00000000
00000000
00000000
00000000
01000000
00000000
00000000
00000000
00000000
00000000
00000000
00000000
00001000
00000000
00000000
00000000
00000000
00000000
00000000
00000000
00000100
00000000
00000000
00000000
00000000
00000000
00000000
00000000
00000010
00000000
00000000
00000000
00000200
00000300
00000000
00000000
00000000
00000000
00000000
00000000
00000200
00000300
00000000
00000000
00000010
00000000
00000000
00000000
00000000
00000000
00000000
00000000
,
00001000
00000010
00000100
00001000
00010000
00000000
00000000
00000000
,
00011000
00000000
00001000
00000000
00100000
00000000
10000000
00000000
00100000
00000000
00001000
01000000
00010000
00000000
01000000
00000000
,
10000000
00000000
01000000
00010000
10000000
00000000
01000000
00010000
00001000
00000000
00000010
00000000
00000001
00000000
00000100
00000000
,
00001000
00000000
00010000
00001000
01000000
00000000
00100000
00000000
10000000
00000000
01000000
00000000
00010000
00000000
00001000
00000000
,
00010000
00000000
00000000
00000000
00000010
00000000
00000000
00000000
00000100
00000000
00000000
00000000
00000001
00000000
00000000
00000000
00002000
00003000
00000000
00000000
00000000
00000000
00000000
00000000
00002000
00003000
00000000
00000000
00010000
00000000
00000000
00000000
00000000
00000000
00000000
00000000
00010000
00000000
00000000
00000000
00002000
00003000
00000000
00000000
00000000
00000000
00000000
00000000
00002000
00003000
00000000
00000000
00000000
00000000
00000000
00000000
00000010
00000000
00000000
00000000
00000000
00000000
00000000
00000000
,
00000100
00000000
00000001
00000000
00000010
00000000
00001000
00010000
00001000
01000000
00010000
00000000
00100000
00000000
01000000
00000000
,
00010000
00000000
00001000
00000000
00000010
00000001
00000000
00000100
00001000
00000000
00010000
00000000
00100000
00000000
01000000
00000000
,
00010000
00100000
10000000
00100000
00010000
10000000
00100000
00001000
,
00100000
00000000
00000000
00000000
00000000
00000000
00000000
00000000
01000000
00000000
00000000
00000000
00000000
00000000
00000000
00000000
00001000
00000000
00000000
00000000
00000000
00000000
00000000
00000000
00010000
00000000
00000000
00000000
00000200
00000300
00000000
00000000
00000000
00000000
00000000
00000000
00000200
00000300
00000000
00000000
00000001
00000000
00000000
00000000
00000000
00000000
00000000
00000000
00000100
00000000
00000000
00000000
00000000
00000000
00000000
00000000
00000010
00000000
00000000
00000000
00000000
00000000
00000000
00000000
,
00020010
00000000
00000000
00000000
00001000
00000100
00000000
00000001
,
00000000
00000010
00000000
00001000
00030000
00010000
00001000
00000010
,
00000100
00000000
00010000
00001000
01000000
00000000
00100000
00000000
00010000
00000000
00001000
00000000
00000010
00000000
00000001
00000000
,
00000100
00000000
00000000
00000000
00000010
00000000
00000000
00000000
00010000
00000000
00000000
00000000
00001000
00000000
00000000
00000000
00200000
00300000
00000000
00000000
00000000
00000000
00000000
00000000
00200000
00300000
00000000
00000000
10000000
00000000
00000000
00000000
00000000
00000000
00000000
00000000
10000000
00000000
00000000
00000000
00200000
00300000
00000000
00000000
00000000
00000000
00000000
00000000
00200000
00300000
00000000
00000000
00000000
00000000
00000000
00000000
00010000
00000000
00000000
00000000
00000000
00000000
00000000
00000000
,
01000000
00000000
10000000
00000000
01000000
00000000
00001000
00010000
01000000
00010000
00001000
00000000
00000010
00000000
00000100
00000000
,
00001000
00000010
00000001
00000010
00010000
00000000
00011000
00000000
,
00202000
00000000
00000000
00003000
,
02300000
00000000
00000000
10000000
00000000
00000000
10000000
00000000
00000000
13000000
00000000
00000000
00100000
00000000
01000000
00000000
00001000
00000000
00010000
00000000
00000000
00000000
00000000
00000000
,
00021000
00000000
00000000
00000000
00030010
00000200
00000300
00000101
,
00000000
00001100
00000000
00000000
00011000
00000000
00000000
01010000
00000000
00000000
00011000
00000000
00000000
00000000
00000000
00000000
,
00010000
00000000
00001000
00010000
00000010
00000000
00000100
00000000
00000001
00000000
00000010
00000000
00001000
00000000
00010000
00000000
,
00001000
00000000
00000000
00000000
01000000
00000000
00000000
00000000
00100000
00000000
00000000
00000000
10000000
00000000
00000000
00000000
00020000
00030000
00000000
00000000
00000000
00000000
00000000
00000000
00020000
00030000
00000000
00000000
00001000
00000000
00000000
00000000
00000000
00000000
00000000
00000000
00001000
00000000
00000000
00000000
00020000
00030000
00000000
00000000
00000000
00000000
00000000
00000000
00020000
00030000
00000000
00000000
00000000
00000000
00000000
00000000
01000000
00000000
00000000
00000000
00000000
00000000
00000000
00000000
,
00100000
00000000
10000000
00000000
01000000
00000000
00010000
00001000
00010000
00000010
00001000
00000000
00000100
00000000
00000010
00000000
,
00001000
00000000
00010000
00000000
01000000
10000000
00000000
00100000
00010000
00000000
00001000
00000000
00000100
00000000
00000010
00000000
,
00001000
00000100
00000001
00000100
00001000
00000001
00000100
00010000
,
00000100
00000000
00000000
00000000
00000000
00000000
00000000
00000000
00000010
00000000
00000000
00000000
00000000
00000000
00000000
00000000
00010000
00000000
00000000
00000000
00000000
00000000
00000000
00000000
00001000
00000000
00000000
00000000
00200000
00300000
00000000
00000000
00000000
00000000
00000000
00000000
00200000
00300000
00000000
00000000
10000000
00000000
00000000
00000000
00000000
00000000
00000000
00000000
00100000
00000000
00000000
00000000
00000000
00000000
00000000
00000000
01000000
00000000
00000000
00000000
00000000
00000000
00000000
00000000
,
01002000
00000000
00000000
00000000
00010000
00100000
00000000
10000000
,
00000000
01000000
00000000
00010000
00003000
00001000
00010000
01000000
,
00100000
00000000
00001000
00010000
00000010
00000000
00000100
00000000
00001000
00000000
00010000
00000000
01000000
00000000
10000000
00000000
,
00100000
00000000
00000000
00000000
01000000
00000000
00000000
00000000
00001000
00000000
00000000
00000000
00010000
00000000
00000000
00000000
00000200
00000300
00000000
00000000
00000000
00000000
00000000
00000000
00000200
00000300
00000000
00000000
00000001
00000000
00000000
00000000
00000000
00000000
00000000
00000000
00000001
00000000
00000000
00000000
00000200
00000300
00000000
00000000
00000000
00000000
00000000
00000000
00000200
00000300
00000000
00000000
00000000
00000000
00000000
00000000
00001000
00000000
00000000
00000000
00000000
00000000
00000000
00000000
,
00000010
00000000
00000001
00000000
00000010
00000000
00010000
00001000
00000010
00001000
00010000
00000000
01000000
00000000
00100000
00000000
,
00010000
01000000
10000000
01000000
00001000
00000000
00011000
00000000
,
00020200
00000000
00000000
00000000
00000000
00000000
00030000
00000000
00000000
00000000
00000001
00000000
00000000
00000001
00000000
00000000
,
00001000
00000000
00000000
00001000
00000000
00000000
00010000
00000000
00000000
00000000
00002300
00000000
00003001
00000100
00000010
00010000
,
00001000
00000010
00000001
00000100
00001000
00000100
00000001
00000010
,
00001000
00010000
00100000
02000000
00000000
03010000
00100000
01000000
,
10000000
00000000
00010000
01000000
00000000
00100000
02000000
00000000
00000000
00000000
03020000
00000000
00230000
00000000
02300000
00000000
,
03010000
00001000
00010000
00200000
00000000
00310000
00010000
00001000
,
00000010
00000000
00000010
00000000
00000200
00000000
00000000
00000000
00000301
00000100
00001000
00000000
00000010
00000000
00000100
00000000
,
00001000
00000000
00010000
00000000
00001000
00000010
00000000
00000001
00000020
00000000
00000000
00000000
00010030
00000000
00000010
00000000
,
00000100
00000000
00010000
00000000
00001000
01000000
00100000
00000000
10000000
00000000
01000000
00000000
00001000
01000000
00000000
00000000
,
00010000
00001000
00000010
00000200
00000000
00010300
00001000
01000000
,
00001000
00000100
00000001
00000010
00001000
00000010
00000001
00000100
,
00001000
00010000
01000000
00200000
00000000
00310000
01000000
00100000
,
10000000
00000000
00010000
00100000
00000000
01000000
00200000
00000000
00000000
00000000
00320000
00000000
02030000
00000000
03200000
00000000
,
00310000
00001000
00010000
02000000
00000000
03010000
00010000
00001000
,
00000100
00000000
00000100
00000000
00000020
00000000
00000000
00000000
00000031
00000010
00001000
00000000
00000100
00000000
00000010
00000000
,
00001000
00000000
00010000
00000000
00001000
00000100
00000000
00000001
00000200
00000000
00000000
00000000
00010300
00000000
00000100
00000000
,
00000010
00000000
00010000
00000000
00001000
00100000
01000000
00000000
10000000
00000000
00100000
00000000
00010000
00001000
00000000
00000010
,
00000100
00000000
00001000
00000010
00000000
00000001
00000020
00000000
00000000
00000000
00002030
00000000
00203000
00000000
02300000
00000000
,
03000000
00000000
00000000
00000000
;

//---------------dance-double - 7-7/15*-4/6-4----------------
#NOTEDATA:;
#CHARTNAME:doubles stabima,, ,;
#CHARTHASH:267162596;
#STEPSTYPE:dance-double;
#BANNER:;
#DESCRIPTION:7-7/15*-4/6-4;
#CHARTSTYLE:;
#DIFFICULTY:Edit;
#METER:19;
#METERF:0.000000;
#LASTSECONDHINT:141.333328;
#RADARVALUES:0.965245,1.171208,0.026786,0.294644,1.191967,1009.000000,1005.000000,4.000000,44.000000,0.000000,0.000000,0.000000,0.000000,0.000000,0.965245,1.171208,0.026786,0.294644,1.191967,1009.000000,1005.000000,4.000000,44.000000,0.000000,0.000000,0.000000,0.000000,0.000000;
#CREDIT:Five Grains;
#DISPLAYBPM:180.000000;
#NOTES:
00000000
00000000
00000000
00000000
,
00000000
00000000
00000000
00000000
,
00000000
00000000
00000000
00000000
,
00000000
00000000
00000000
00000000
,
00000000
00000000
00000000
00000000
,
00000000
00000000
00000000
00000000
,
00010000
00001000
00100000
00010000
10000000
00100000
01000000
00001000
,
00010000
00000100
00001000
00000001
00000100
00000010
00001000
00000100
,
00010000
00001000
01000000
00010000
10000000
01000000
00100000
00001000
,
00010000
00000010
00000100
00000001
00000010
00000100
00010000
00001000
,
01000000
00100000
10000000
00010000
01000000
00001000
00010000
00000100
,
00000010
00000001
00000100
00000010
00010000
00001000
00100000
00010000
,
10000000
00100000
01000000
00001000
00010000
00000100
00000010
00000001
,
00000100
00000010
00010000
00001000
00100000
00010000
10000000
00100000
,
01000000
00001000
00010000
00000100
00001000
00000001
00000100
00000010
,
00001000
00000100
00010000
00001000
01000000
00010000
10000000
01000000
,
00200000
00000000
00000000
00000000
,
00002000
00000000
00000000
00300000
,
00013000
00001000
01000000
00010000
10000000
01000000
00100000
00001000
00010000
00000010
00001000
00000001
00001000
00000010
00000100
00000001
,
00001000
00000100
00010000
00001000
01000000
00010000
10000000
01000000
00100000
00001000
00010000
00000010
00001000
00000001
00000010
00000100
,
00010000
00001000
00100000
00001000
00100000
00010000
10000000
00010000
10000000
01000000
00100000
00001000
00010000
00000010
00001000
00000001
,
00000010
00000100
00001000
00000010
00000100
00000001
00001000
00000100
00000010
00000100
00010000
00001000
00100000
00010000
10000000
00100000
,
01000000
00010000
00100000
01000000
10000000
00010000
01000000
00001000
00010000
00000100
00001000
00000001
00000100
00000010
00001000
00000100
,
00010000
00001000
01000000
00010000
10000000
01000000
00100000
00001000
00010000
00000010
00000100
00000001
00000010
00000100
00001000
00000001
,
00000100
00000010
00001000
00000010
00010000
00001000
00100000
00001000
10000000
00010000
10000000
01000000
00100000
00001000
00010000
00000010
,
00001000
00000000
00000000
00000000
00001010
00000000
00000000
00000000
00011000
00000000
00000000
00011000
00000000
00000000
00000000
00000000
,
00010000
00001000
00100000
00010000
10000000
00100000
01000000
00001000
00010000
00000100
00001000
00000001
00001000
00000100
00000010
00000001
,
00001000
00000010
00010000
00001000
00100000
00010000
10000000
00100000
01000000
00001000
00010000
00000100
00001000
00000001
00000100
00000010
,
00010000
00001000
01000000
00001000
01000000
00010000
10000000
00010000
10000000
00100000
01000000
00001000
00010000
00000100
00001000
00000001
,
00000100
00000010
00001000
00000100
00000010
00000001
00001000
00000010
00000100
00000010
00010000
00001000
01000000
00010000
10000000
01000000
,
00100000
00010000
01000000
00100000
10000000
00010000
00100000
00001000
00010000
00000010
00001000
00000001
00000010
00000100
00001000
00000010
,
00010000
00001000
00100000
00010000
10000000
00100000
01000000
00001000
00010000
00000100
00000010
00000001
00000100
00000010
00001000
00000001
,
00000010
00000100
00001000
00000100
00010000
00001000
01000000
00001000
10000000
00010000
10000000
00100000
01000000
00001000
00010000
00000100
,
00001000
00000010
00000000
00000100
00000000
00000001
00001000
00000000
,
00000100
00000000
00000000
00000010
00000001
00001000
00001000
00000000
,
00000010
00010000
00000000
00001000
00100000
00000000
01000000
00000000
,
10000000
00000000
00000000
00100000
01000000
00001000
00001000
00000000
,
00020000
00030200
00000320
00000032
,
00000103
00000000
00000000
00000010
00010000
00001000
00001000
00000000
,
00100000
00010000
00000000
10000000
00100000
00000000
01000000
00000000
,
00001000
00010000
00000000
00000100
00000020
00000000
00000032
00000000
,
00000203
00000000
00000320
00000000
,
00010030
00000000
00000000
00001000
01000000
00010000
00010000
00000000
,
10000000
01000000
00000000
00100000
00001000
00000000
00010000
00000000
,
00000010
00000000
00000000
00000100
00000001
00001000
00001000
00000000
,
00000200
00000320
00000032
00000203
,
00000310
00000000
00000000
00001000
00000100
00010000
00010000
00000000
,
00001000
01000000
00000000
00010000
10000000
00010000
00100000
00000000
,
01000000
00000000
00000000
10000000
00100000
01000000
01000000
00000000
,
00002000
00000000
00003000
00000000
,
00022000
00000000
00000000
00000000
00033000
00000000
00000000
00000000
00010000
00001000
00100000
00010000
10000000
00010000
01000000
00001000
,
00010000
00001000
00100000
00010000
10000000
00010000
01000000
00001000
00010000
00001000
01000000
00010000
10000000
00010000
01000000
00001000
,
00020000
00000000
00000000
00000000
00000000
00000000
00000000
00000000
00030010
00001000
00000001
00000010
00000100
00010000
00000010
00001000
,
00000001
00000010
00000100
00010000
00000010
00001000
00000001
00000010
00000100
00010000
00000010
00001000
00000001
00000010
00000100
00010000
,
00000020
00000000
00000000
00000000
00000000
00000000
00000000
00000000
00000130
00000001
00001000
00000100
00000010
00000100
00001000
00000001
,
00000100
00000001
00001000
00000100
00000010
00000100
00001000
00000001
00000100
00000001
00001000
00000100
00000010
00000100
00001000
00000001
,
00000100
00000000
00000010
00000000
00010000
00000000
00001000
00000000
00100000
00010000
10000000
00100000
01000000
00010000
00100000
01000000
,
10000000
00010000
01000000
00001000
00010000
00000010
00001000
00000100
00010000
00000000
00000000
00000000
00002000
00000000
00000000
00000000
,
00013000
00001000
00100000
00001000
00100000
00001000
00100000
00010000
10000000
00010000
01000000
00100000
10000000
00010000
10000000
01000000
,
00100000
00001000
00010000
00000010
00010000
00000010
00001000
00000010
00000100
00000001
00001000
00000100
00000010
00000001
00000100
00000010
,
00010000
00001000
00100000
00010000
10000000
00100000
01000000
00010000
00100000
01000000
10000000
00010000
01000000
00001000
00010000
00000100
,
00001000
00000010
00000100
00000001
00001000
00000100
00000010
00000100
00001000
00000001
00000100
00000010
00000100
00000010
00001000
00000010
,
00010000
00001000
00010000
00001000
00100000
00001000
01000000
00010000
10000000
01000000
00100000
00010000
01000000
00100000
01000000
00001000
,
00010000
00000100
00001000
00000001
00000100
00000010
00001000
00000100
00010000
00001000
01000000
00010000
10000000
01000000
00100000
00001000
,
00010000
00000010
00000100
00000001
00001000
00000100
00000010
00000001
00000100
00000010
00001000
00000001
00001000
00000100
00010000
00001000
,
00010000
00001000
01000000
00010000
10000000
01000000
00100000
00001000
00010000
00000010
00000100
00000001
00000010
00000100
00010000
00001000
,
00020000
00000000
00000000
00000000
00031000
01000000
00000000
00100000
,
00000000
10000000
00000000
01000000
00000000
00100000
00002000
00000000
,
00013000
00000010
00001000
00000001
00000010
00000100
00010000
00001000
00100000
00010000
01000000
00100000
10000000
01000000
00100000
01000000
,
10000000
00100000
01000000
00001000
00010000
00000100
00001000
00000010
00000100
00000001
00000010
00000100
00010000
00001000
00100000
00010000
,
01000000
00100000
10000000
01000000
00100000
00001000
00010000
00000100
00001000
00000010
00000100
00000001
00001000
00000100
00000010
00000001
,
00000100
00000010
00010000
00001000
00100000
00010000
10000000
00100000
01000000
00010000
10000000
01000000
00100000
00001000
00010000
00000010
,
00000200
00000000
00000000
00000000
,
00000301
00000000
00000000
00000010
00000000
00000000
00000010
00000000
00000000
00000010
00000000
00000000
00000100
00000000
00010000
00000000
00001000
00000000
01000000
00000000
00000000
00100000
00000000
00000000
,
20000000
00000000
00000000
00000000
31000000
00200000
00000000
01300000
,
00000000
00010000
00000000
00000000
00001000
00000000
00000000
00000100
00000000
00000000
00001000
00000000
00000000
00000000
00000000
00000000
,
00010000
00001000
01000000
00010000
10000000
01000000
00100000
00010000
01000000
00100000
10000000
00010000
00100000
00001000
00010000
00000010
,
00001000
00000100
00000010
00000001
00001000
00000010
00000100
00000010
00001000
00000001
00000010
00000100
00000010
00000100
00001000
00000100
,
00010000
00001000
00010000
00001000
01000000
00001000
00100000
00010000
10000000
00100000
01000000
00010000
00100000
01000000
00100000
00001000
,
00010000
00000010
00001000
00000001
00000010
00000100
00001000
00000010
00010000
00001000
00100000
00010000
10000000
00100000
01000000
00001000
,
00010000
00000100
00000010
00000001
00001000
00000010
00000100
00000001
00000010
00000100
00001000
00000001
00001000
00000010
00010000
00001000
,
00010000
00001000
00100000
00010000
10000000
00100000
01000000
00001000
00010000
00000100
00000010
00000001
00000100
00000010
00010000
00001000
,
00020000
00000000
00000000
00000000
00031000
00100000
00000000
01000000
,
00000000
10000000
00000000
00100000
00000000
01000000
00002000
00000000
,
00013000
00000100
00001000
00000001
00000100
00000010
00010000
00001000
01000000
00010000
00100000
01000000
10000000
00100000
01000000
00100000
,
10000000
01000000
00100000
00001000
00010000
00000010
00001000
00000100
00000010
00000001
00000100
00000010
00010000
00001000
01000000
00010000
,
00100000
01000000
10000000
00100000
01000000
00001000
00010000
00000010
00001000
00000100
00000010
00000001
00001000
00000010
00000100
00000001
,
00000010
00000100
00010000
00001000
01000000
00010000
10000000
01000000
00100000
00010000
10000000
00100000
01000000
00001000
00010000
00000100
,
00000020
00000000
00000000
00000000
00000000
00000000
00000000
00000000
00000000
00000000
00000100
00000000
00000000
00000100
00000000
00000000
,
00000001
00000000
00000000
00000001
00000000
00000000
00000032
00000000
00000000
00000000
00000103
00000000
00000010
00000000
00001000
00000000
,
00000001
00000010
00000100
00000010
00000001
00000100
00000010
00010000
,
00001000
01000000
00100000
20000000
00000000
31000000
00100000
00001000
,
00010000
00000000
00000010
00001000
00000000
00000010
00002000
00000000
00000000
00000000
00003100
00000000
00000010
00000000
00000001
00000000
,
00000100
00001000
00010000
00002000
00000000
00103000
01000000
10000000
,
00010000
00000000
01000000
00000000
00200000
00000000
00000000
00000000
10300000
00010000
00100000
00000000
01000000
00000000
00010000
00000000
,
00001000
00000000
00010000
00000000
00000010
00001000
00000000
00000001
00000200
00000000
00000000
00000000
00000310
00000000
00001000
00000000
,
00000100
00000000
00000010
00000000
00000001
00001000
00000010
00000000
00000100
00000000
00000001
00000000
00001000
00000100
00000000
00000000
,
00010000
00001000
00010000
00200000
00000000
01300000
00010000
10000000
,
01000000
00100000
00010000
01000000
00100000
10000000
00010000
00100000
,
01000000
00100000
00001000
00020000
00000000
00030010
00000100
00000001
,
00001000
00000000
00000100
00000010
00000000
00000100
00000020
00000000
00000000
00000000
00000031
00000000
00000100
00000000
00000010
00000000
,
00000100
00001000
00010000
02000000
00000000
13000000
00100000
01000000
,
00001000
00000000
00010000
00000000
00000200
00000000
00000000
00000000
00000310
00000001
00001000
00000000
00000010
00000000
00000100
00000000
,
00000001
00000000
00000010
00000000
00000100
00001000
00000000
00000100
00020000
00000000
00000000
00000000
00031000
00000000
01000000
00000000
,
00010000
00000000
10000000
00000000
01000000
00100000
00001000
00000000
00010000
00000000
00000010
00000000
00000100
00000010
00000000
00001000
,
00000010
00000000
00010000
00001000
00000000
00100000
00002000
00000000
00000000
00000000
00203000
00000000
02300000
00000000
23000000
00000000
,
30000000
00000000
00000000
00000000
;
