#TITLE:Daydreama;
#SUBTITLE:;
#ARTIST:HiTECH NINJA;
#TITLETRANSLIT:;
#SUBTITLETRANSLIT:;
#ARTISTTRANSLIT:;
#GENRE:Hi Tech;
#CREDIT:;
#BANNER:Daydreama.png;
#BACKGROUND:Daydreama-bg.png;
#LYRICSPATH:;
#CDTITLE:../_YSD cdtitles/ysd br2024 cdtitle.png;
#MUSIC:Daydreama.ogg;
#OFFSET:-0.300000;
#SAMPLESTART:70.897003;
#SAMPLELENGTH:25.098000;
#SELECTABLE:YES;
#BPMS:0.000000=153.000000
;
#STOPS:
;
#BGCHANGES:;
#KEYSOUNDS:;
#ATTACKS:;

//---------------dance-single - Eh... Dreamseeker...?----------------
#NOTES:
     dance-single:
     This ain't Honkai Impact 3rd...:
     Beginner:
     5:
     0.182121,0.306386,0.154954,0.197214,0.000000,181.000000,159.000000,22.000000,28.000000,0.000000,0.000000,0.182121,0.306386,0.154954,0.197214,0.000000,181.000000,159.000000,22.000000,28.000000,0.000000,0.000000:
// measure 0
0000
0000
0000
0000
,  // measure 1
0000
0000
0000
0000
,  // measure 2
0000
0000
0000
0000
,  // measure 3
0000
0000
0000
0000
,  // measure 4
0000
0000
0000
0000
,  // measure 5
2002
0000
0000
0000
0000
3003
0000
0220
,  // measure 6
0000
0000
0000
0330
,  // measure 7
2002
0000
0000
0000
0000
3003
0000
0220
,  // measure 8
0000
0000
0000
0330
,  // measure 9
1000
0000
1000
0000
,  // measure 10
0001
0000
0000
0000
0000
1001
0000
0000
,  // measure 11
1000
0000
1000
0000
,  // measure 12
0010
0000
0100
0000
,  // measure 13
0001
0000
0001
0000
,  // measure 14
0010
0000
0010
0000
,  // measure 15
0200
0000
0000
0000
,  // measure 16
0300
0000
0000
1001
,  // measure 17
0000
0000
0020
0030
0000
0000
0100
0000
,  // measure 18
0000
0010
0000
1000
,  // measure 19
0000
0001
0000
0010
,  // measure 20
0000
0100
0000
1000
,  // measure 21
1000
1000
0000
0100
,  // measure 22
0000
0010
0000
0100
,  // measure 23
0200
0000
0000
0300
,  // measure 24
0020
0000
0000
0030
,  // measure 25
1001
0000
0001
0000
,  // measure 26
1000
0000
0001
0000
,  // measure 27
0100
0000
0010
0000
,  // measure 28
0100
0000
0010
0000
,  // measure 29
1001
1001
1001
0000
,  // measure 30
1000
0000
0001
0000
,  // measure 31
0200
0000
0000
0300
,  // measure 32
0020
0000
0000
0030
,  // measure 33
1000
0000
0001
0000
,  // measure 34
0100
0000
0010
0000
,  // measure 35
1000
0000
0001
0000
,  // measure 36
0010
0010
0010
0000
,  // measure 37
0100
0000
1000
0000
,  // measure 38
0100
0000
1000
0000
,  // measure 39
0002
0000
0000
0003
,  // measure 40
0200
0000
0000
0300
,  // measure 41
0020
0000
0000
0000
,  // measure 42
0000
0000
0000
0000
,  // measure 43
0000
0000
0000
0000
,  // measure 44
0030
0000
0000
1001
,  // measure 45
1000
0000
0001
0000
,  // measure 46
1000
0000
0010
0000
,  // measure 47
0100
0000
0000
0000
0001
0000
0000
0001
,  // measure 48
0000
1000
1000
0000
,  // measure 49
1000
0000
0100
0000
,  // measure 50
0010
0000
0001
0000
,  // measure 51
0100
0000
0000
0000
0010
0000
0000
0010
,  // measure 52
0000
1000
1000
0000
,  // measure 53
1000
0000
0100
0000
,  // measure 54
0010
0000
0100
0000
,  // measure 55
1000
0000
0000
0000
0001
0000
0000
0001
,  // measure 56
0000
0100
0100
0000
,  // measure 57
0001
0000
0010
0000
,  // measure 58
0100
0000
1000
0000
,  // measure 59
0001
0000
0000
0000
0100
0000
0000
0100
,  // measure 60
0000
0001
0001
0000
,  // measure 61
2002
0000
0000
3003
,  // measure 62
0002
0000
0000
0003
0000
1001
0000
0000
,  // measure 63
2000
0000
0000
3000
,  // measure 64
0010
0010
0010
0010
,  // measure 65
0010
0000
0100
0000
,  // measure 66
0001
0000
0100
0000
,  // measure 67
0001
0001
1000
1000
,  // measure 68
0002
0000
0000
0003
,  // measure 69
1000
1000
1000
0000
,  // measure 70
0001
0001
0001
0000
,  // measure 71
0100
0100
0100
0000
,  // measure 72
0010
0010
1000
1000
,  // measure 73
0001
0001
0001
0000
,  // measure 74
0010
0010
0010
0000
,  // measure 75
0200
0000
0000
0300
,  // measure 76
2000
0000
0000
3000
,  // measure 77
1001
0000
0000
0110
,  // measure 78
0110
0000
0000
1001
,  // measure 79
1001
0000
0001
0000
,  // measure 80
0100
0100
0100
0100
,  // measure 81
0010
0010
1000
0000
,  // measure 82
0001
0001
1000
0000
,  // measure 83
0110
0000
1001
0000
,  // measure 84
0220
0000
0330
0000
,  // measure 85
2002
0000
0000
0000
,  // measure 86
0000
0000
0000
0000
,  // measure 87
3003
0000
0000
0000
;

//---------------dance-single - ----------------
#NOTES:
     dance-single:
     :
     Easy:
     10:
     0.405495,0.459578,0.154954,0.246517,0.084520,403.000000,381.000000,22.000000,35.000000,0.000000,0.000000,0.405495,0.459578,0.154954,0.246517,0.084520,403.000000,381.000000,22.000000,35.000000,0.000000,0.000000:
0000
0000
0000
0000
,
0000
0000
0000
0000
,
0000
0000
0000
0000
,
0000
0000
0000
0000
,
0000
0000
0000
0000
,
2002
0000
0000
3003
0000
1100
0000
0022
,
0000
0000
0000
0033
0001
1000
0001
0000
,
2020
0000
0000
3030
0000
1001
0000
0022
,
0000
0000
0030
0003
,
1000
0010
0100
0001
,
1000
0000
0100
0000
0010
0002
0000
0000
,
0103
0010
1000
0100
,
0010
0000
0001
0000
0000
1000
0000
0000
0010
0000
0100
0000
0001
0000
0000
0000
,
1000
0000
0100
0000
1000
0000
0001
0100
,
0001
0000
0010
0000
0100
0000
1000
0001
,
1000
0000
0010
0100
0010
0000
1000
0001
,
2000
0000
0000
0000
3001
0100
0010
0000
,
1000
0000
0200
0000
0310
0001
1000
0000
,
0002
0000
0103
0001
1000
0001
0100
0000
,
0001
1000
0200
0000
0310
0001
1000
0000
,
0020
0000
0130
0001
1000
0000
1100
0000
,
0100
0000
0110
0000
0010
0001
1000
0000
,
0020
0000
0130
0001
1000
0000
0100
0000
,
0010
0000
0000
0000
0001
0000
0000
0001
0000
0000
0001
0000
0000
0001
0000
0000
,
2000
3020
0230
0301
,
1000
0100
1000
0000
0001
0000
0100
0000
,
0010
1000
0010
0000
0100
0000
0001
0000
,
1000
0100
1000
0000
0100
0000
0010
0000
,
0001
1000
0001
0000
0100
0000
0110
0000
,
0010
1000
0001
1000
0010
0000
1001
0000
,
1000
0100
0010
0000
0100
0000
1001
0000
,
0001
0000
0000
0000
0100
0000
0000
0100
0000
0000
0100
0000
0000
0100
0000
0000
,
0020
2030
3002
0103
,
0001
0000
1000
0100
1000
0000
0001
0100
,
0001
0000
1000
0010
1000
0000
0001
0010
,
0001
0000
1000
0100
0010
0000
0001
0100
,
0010
0000
1000
0000
0001
0010
0100
0010
,
0001
0000
1000
0010
1000
0000
0001
0100
,
0001
0000
1000
0100
1000
0000
0001
0010
,
0001
0000
1000
0000
0100
0010
0001
0000
,
1000
0010
0100
0010
1000
0001
1000
0001
,
0200
0000
0000
0000
,
0000
0000
0000
0000
,
0000
0000
0000
0000
,
0301
0000
0001
0000
1000
0100
0010
0000
,
0001
0000
0000
0000
1000
0000
0000
0000
0001
0000
0000
0100
0000
0000
0010
0000
,
1000
0000
0001
0000
0010
0000
0000
0000
0100
0000
0000
1000
0000
0000
0001
0000
,
0100
0000
0000
0000
0010
0000
0000
0000
0100
0000
0000
0001
0000
0000
1000
0000
,
0000
0000
0100
0000
0010
0000
0000
0000
0100
0000
0000
1000
0000
0000
0001
0000
,
0100
0000
0000
0000
0010
0000
0000
0000
1000
0000
0000
0100
0000
0000
0010
0000
,
0001
0000
1000
0000
0010
0000
0000
0000
0100
0000
0000
0001
0000
0000
1000
0000
,
0001
0000
0000
0000
0010
0000
0000
0000
0100
0000
0000
1000
0000
0000
0001
0000
,
0000
0000
0100
0000
0001
0000
0000
0000
1000
0000
0000
0100
0000
0000
0010
0000
,
0100
0000
1000
0000
0001
0000
0100
0000
0010
0000
0000
1000
0000
0000
0001
0000
,
0010
0000
0100
0000
0010
0000
0000
0000
0001
0000
0000
1000
0000
0000
0010
0000
,
0100
0000
0001
0000
1000
0000
0000
0000
0100
0000
0000
0010
0000
0000
0100
0000
,
0000
0000
1000
0000
0001
0000
0100
0000
0010
0000
0000
1000
0000
0000
0001
0000
,
0100
0000
0001
0000
1000
0000
0001
0000
0100
0000
0000
0001
0000
0000
0010
0000
,
0100
0000
1000
0000
0100
0000
0000
0000
0010
0000
0000
0100
0000
0000
1000
0000
,
0001
0000
0100
0000
0001
0000
0000
0000
1000
0000
0000
0100
0000
0000
0010
0000
,
0000
0000
0100
0000
1000
0000
0001
0000
0100
0000
0000
0010
0000
0000
1000
0000
,
2002
0000
0000
0000
,
0000
0000
0000
3003
0000
0220
0000
0330
,
2002
0000
0000
0000
0000
0000
0000
3003
,
0001
0100
0100
1010
,
1000
0000
0001
0000
0100
0000
0001
1000
,
0100
0000
0010
0000
0100
0000
1000
0001
,
0100
0000
0010
1000
0001
0000
0010
0100
,
1000
0000
0000
0000
0001
0100
0010
0000
,
1001
0000
1000
0000
0100
0000
0010
0001
,
1000
0000
0001
0000
0100
0000
0010
1000
,
0001
0000
0010
0000
0100
0000
1000
0001
,
0100
0000
0010
1000
0001
0000
0010
0100
,
1000
0000
0100
0000
0010
0000
0001
1000
,
0010
0000
0100
0000
0001
0000
1000
0100
,
0020
0000
0230
0000
,
1300
0000
0001
0000
0100
0010
1000
0000
,
0001
0000
0100
0000
0010
0000
1000
1000
,
1000
0000
0001
0000
0010
0000
0220
0330
,
1000
0000
0001
0000
0100
0010
1000
0000
,
0100
0000
0000
0010
0000
0010
0000
0010
0000
0000
0001
0000
0002
0000
0003
0000
,
1000
0010
0100
0000
0001
0000
1001
0000
,
1000
0100
0010
0000
0001
0000
1001
0000
,
1000
0110
0001
0110
,
1000
0001
0100
0001
1000
0000
0010
0000
,
2002
0000
0000
0000
,
0000
0000
0000
0000
,
3003
0000
0000
0000
;

//---------------dance-single - ----------------
#NOTES:
     dance-single:
     :
     Medium:
     13:
     0.564474,0.674048,0.464861,0.211300,0.313429,561.000000,495.000000,66.000000,30.000000,0.000000,0.000000,0.564474,0.674048,0.464861,0.211300,0.313429,561.000000,495.000000,66.000000,30.000000,0.000000,0.000000:
0000
0000
0000
0000
,
0000
0000
0000
0000
,
0000
0000
0000
0000
,
0000
0000
0000
0000
,
0000
0000
0000
0000
,
2001
0000
0000
0000
0000
3100
0000
0012
,
0000
0000
0000
0000
0103
1000
0100
0001
,
1002
0000
0000
0000
0000
0013
0000
2100
,
0000
0000
3002
0203
,
0302
1000
0100
0010
,
0100
0000
1000
0000
0103
1002
0000
0000
,
2003
0001
0010
0100
,
3001
0000
1000
0000
0000
1010
0000
0000
0010
0000
0100
0000
0101
0000
0000
0000
,
0001
1000
0001
1000
0100
0010
0100
0010
,
0001
1000
0001
1000
0010
1000
0010
1000
,
0001
0100
1000
0100
0010
1000
0100
0001
,
0200
0000
0000
0000
1300
0001
1001
0000
,
0001
0000
0010
0000
0200
0000
0000
1300
0001
0000
0100
0000
1000
0000
0100
0000
,
0002
0000
0000
0013
0100
0000
1000
0000
0001
0000
0100
0000
0010
0000
0100
0000
,
0001
0000
0010
0000
0200
0000
0000
1300
0001
0000
0100
0000
1000
0000
0100
0000
,
0010
0000
0000
1000
0001
0000
0010
0000
0100
1000
0100
0000
0000
1000
0000
0001
,
1000
0000
0000
0010
0100
0000
0001
0000
0010
0000
1000
0000
0010
0000
0100
0000
,
2000
0000
0000
3001
0100
0000
0010
0000
1000
0000
0100
0000
0010
0000
0000
0000
,
0001
0000
0100
0000
0010
0000
0000
0010
0000
0000
1000
0000
0000
1000
0000
0000
,
2100
0000
0100
0000
0010
0000
0001
3000
,
0001
0100
0010
0100
0001
0100
1000
0100
,
0001
1000
0000
0001
1000
0000
0100
0000
0010
0000
1000
0000
0010
0000
0001
0000
,
0100
0010
1000
0100
0010
1000
0010
0001
,
1000
0010
1000
0000
0100
0000
1000
0000
0010
0000
0000
0000
1001
0000
0000
0000
,
1000
0010
0100
0000
1000
0000
0100
0000
0001
0000
0010
0000
1000
0000
0010
0000
,
0100
1000
0000
0001
1000
0000
0010
0000
0100
0000
0001
0000
1000
0000
0000
0000
,
0100
0000
0010
0000
0001
0000
0000
0001
0000
0000
1000
0000
0000
1000
0000
0000
,
0010
0100
0010
0100
0002
0000
1003
0000
,
0100
0000
0000
0010
0000
0000
0001
0000
1000
0000
0000
0010
0000
0000
0100
0000
,
0001
0000
0000
0010
0000
0000
0100
0000
1000
0000
0000
0001
0000
0000
0100
0000
,
0001
0000
0000
0010
0000
0000
0100
0000
1000
0000
0000
0010
0000
0001
0000
0010
,
0000
0000
0100
0000
0000
0001
0000
1000
0001
0000
0010
0000
0100
0000
1000
0000
,
0001
0000
0000
0100
0000
0000
0010
0000
1000
0000
0000
0100
0000
0000
0010
0000
,
0001
0000
0000
0100
0000
0000
0010
0000
1000
0000
0000
0100
0000
0000
0010
0000
,
0100
0000
0000
1000
0000
0000
0010
0000
0100
0000
0000
1000
0000
0100
0000
0001
,
0000
0000
0010
0000
0000
0100
0000
1000
0001
0000
0100
0000
0010
0000
1000
0000
,
2002
0000
0000
0000
,
0000
0000
0000
0000
,
0000
0000
0000
3003
,
1000
0000
1000
0000
0001
1000
1001
0000
,
1100
0000
0000
0000
1001
0000
0000
0000
0101
0000
0000
1010
0000
0000
0010
0000
,
1000
0000
0100
0000
0110
0000
0000
0000
0011
0000
0000
1001
0000
0000
1000
0000
,
1010
0000
0000
0000
0110
0000
0000
0000
1001
0000
0000
0011
0000
0000
1100
0000
,
0000
0000
0100
0000
1100
0000
0000
0000
1001
0000
0000
0101
0000
0000
0100
0000
,
0110
0000
0000
0000
1010
0000
0000
0000
1001
0000
0000
0011
0000
0000
0010
0000
,
1000
0000
0010
0000
0011
0000
0000
0000
0101
0000
0000
1010
0000
0000
0010
0000
,
1010
0000
0000
0000
1100
0000
0000
0000
1010
0000
0000
0101
0000
0000
1001
0000
,
0000
0000
0001
0000
1001
0000
0000
0000
1100
0000
0000
0110
0000
0000
0011
0000
,
0001
0000
0100
0000
1000
0000
0100
0000
0101
0000
0000
1001
0000
0000
1000
0000
,
0100
0000
0010
0000
0011
0000
0000
0000
1001
0000
1000
0010
0000
0000
0001
0000
,
0010
0000
1000
0000
1010
0000
0000
0000
1001
0000
0001
0010
0000
0000
0110
0000
,
0000
0100
1000
0000
0001
0000
0100
0000
0110
0000
0000
1010
0000
1000
0001
0000
,
0010
0000
1000
0000
0010
0000
0001
0000
1001
0000
0000
1010
0000
0000
0010
0000
,
0100
0000
0001
0000
1001
0000
0000
0000
1100
0000
1000
0001
0000
0000
0100
0000
,
0010
0000
1000
0000
1001
0000
0000
0000
0011
0000
0010
0100
0000
0000
1100
0000
,
0000
1000
0001
0000
0100
0000
0010
0000
1001
0000
0000
0110
0000
1000
0001
0000
,
0102
0000
0000
0000
0000
0000
0000
0023
,
0000
0100
0100
0000
0031
1002
0000
0000
,
0203
0000
0000
0000
0000
0010
0000
0010
0000
0000
0001
0000
0000
0000
0310
0000
,
0100
0001
2000
0000
0100
0000
3010
0000
,
1000
0010
1000
0010
0100
0001
0100
0001
,
0010
0100
0010
0100
1000
0001
1000
0001
,
0100
1000
0100
0001
0010
1000
0010
0001
,
2000
0000
0000
0000
3010
0100
0101
0000
,
0001
0000
0000
1000
0000
0100
0000
0001
0000
0000
0100
0000
1000
0000
0001
0000
,
0100
0000
0000
0001
0000
0010
0000
0100
0000
0000
1000
0000
0001
0000
0100
0000
,
0010
0000
0000
1000
0000
0100
0000
0010
0000
0000
0001
0000
1000
0000
0000
0000
,
0001
0100
1000
0100
0001
0010
1000
0010
,
0001
1000
0000
0001
0000
0010
0000
1000
0000
0000
0010
0000
0001
0000
0000
0000
,
1000
0010
0000
0100
0000
0001
0000
0010
0000
0000
0100
0000
1000
0000
0000
0000
,
0001
0100
0010
0100
0001
0010
0100
1000
,
0001
0100
1000
0100
0010
1000
0200
0000
,
0310
0000
0001
0000
0100
0001
0010
0000
0100
0000
0000
0000
1000
0000
1000
0000
,
0001
0100
1000
0100
0001
0000
2002
3003
,
1000
0000
0000
0010
0000
0000
0100
0000
1000
0000
0100
0010
0000
1000
0000
0001
,
0010
0000
0100
1000
0000
0001
0000
1000
0000
0000
0001
0000
0200
0000
0300
0000
,
0010
0000
1000
0000
0001
0000
0010
0000
0100
0000
1000
0001
0100
0000
0000
0000
,
0010
0000
1000
0000
0100
0000
0010
0000
0001
0000
1000
0010
0100
0000
0000
0000
,
0001
0100
1000
0000
0001
0010
1000
0000
,
0001
0010
1000
0010
0001
0000
1000
0001
,
0202
0000
0000
0000
,
0000
0000
0000
0000
,
0303
0000
0000
0000
;

//---------------dance-single - ----------------
#NOTES:
     dance-single:
     :
     Hard:
     15:
     0.697291,0.735325,0.098607,0.204257,0.887461,693.000000,679.000000,14.000000,29.000000,0.000000,0.000000,0.697291,0.735325,0.098607,0.204257,0.887461,693.000000,679.000000,14.000000,29.000000,0.000000,0.000000:
0000
0000
0000
0000
,
0000
0000
0000
0000
,
0000
0000
0000
0000
,
0000
0000
0000
0000
,
0000
0000
0000
0000
,
1001
0000
0000
0001
0000
0000
0010
0000
0100
0000
1100
0000
0000
0000
1002
0000
,
0000
0000
0100
0000
1003
0100
0010
0100
,
1000
0000
0000
0001
0000
0000
0100
0000
0010
0000
1010
0000
0000
0000
1200
0000
,
0000
0000
0301
0100
,
2000
0100
0001
0010
,
0001
0000
0000
0000
0100
0000
0000
0000
3001
0100
0020
0000
0000
0000
0000
0000
,
0230
0001
0010
0001
,
0310
1000
0001
0000
0000
1001
0000
0000
1000
0000
0100
0000
0010
0000
0100
0000
,
1000
0001
0100
0001
1000
0100
0010
0100
,
1000
0010
0100
0001
0010
0100
1000
0001
,
0100
0010
1000
0000
0001
0010
0100
0000
1000
0100
0010
0001
1000
0010
0100
0001
,
2000
0000
0000
0000
3100
0010
0011
0000
,
0001
0000
0000
0000
0201
0000
0000
0000
0310
0000
1000
0001
0010
0000
0000
0001
,
0200
0000
0000
0000
1300
0100
0020
0000
0130
0000
0001
0000
1000
0000
0001
0000
,
0010
0000
0100
1000
0002
0000
0000
0000
0103
0000
0010
1000
0100
0000
0010
0001
,
0200
0000
0000
0000
1300
0100
0010
0000
0100
0001
1000
0001
0100
0010
0000
1000
,
0002
0000
0000
0000
0013
0000
0100
0000
1000
0000
0010
0100
0001
0000
0010
0000
,
0200
0000
0000
0000
0301
0100
0010
0000
0001
0000
0100
0000
0010
0000
0100
0000
,
0001
0000
1000
0000
0100
0000
1000
0001
0000
1000
0100
0000
1000
0001
0000
1000
,
0010
0100
0001
0000
1000
0100
0010
0000
0001
1000
0010
0000
0100
0001
1000
0000
,
0001
0100
0000
0001
1000
0000
0100
0000
0020
0000
0031
0100
0010
0000
1000
0000
,
0001
0100
0000
0001
1000
0000
0100
0000
1000
0010
0000
1000
0001
0000
0100
0000
,
0010
1000
0000
0001
1000
0000
0100
0000
0010
0001
1000
0001
0100
0000
0010
0000
,
1000
0001
0100
0000
0001
0000
1000
0000
0100
0010
0000
0100
1000
0000
0000
0000
,
0001
0100
0010
0100
0001
1000
0100
0010
0001
0000
0100
0010
1000
0000
0001
0000
,
0100
0001
0000
1000
0100
0000
0010
0000
0001
0100
0000
0010
1000
0000
0100
0000
,
0010
0000
0001
0000
1000
0000
0010
0100
0000
0001
0100
0000
0001
1000
0000
0100
,
0010
0001
0000
1000
0001
0000
0100
0002
0000
0000
0000
0000
1003
0000
0000
0000
,
0100
0000
0000
0010
0000
0100
1000
0000
0001
0000
0100
0010
0000
1000
0010
0000
,
0100
0000
0000
0001
0000
1000
0100
0000
0010
0000
0100
1000
0000
0001
1000
0000
,
0010
0000
0000
0100
0000
0001
0100
0000
0010
0000
0100
1000
0000
0100
0000
0001
,
1000
0000
0100
0010
0000
0100
1000
0000
0001
0000
0100
0000
0010
0000
1000
0000
,
0100
0000
0000
0010
0000
0100
1000
0000
0001
0000
0100
0001
0000
1000
0001
0000
,
0010
0000
0000
0100
0000
1000
0001
0000
0100
0000
0010
1000
0000
0001
1000
0000
,
0100
0000
0000
0010
0000
0001
1000
0000
0010
0000
0100
1000
0000
0100
0000
0001
,
1000
0000
0100
0010
0000
0100
1000
0001
1000
0000
0100
0000
0001
0000
0100
0000
,
2000
0000
0000
0000
,
3002
0000
0000
0000
,
0203
0000
0000
0000
,
0310
1000
0010
1000
0001
1000
1001
0000
,
0001
0100
0000
0010
0000
0001
0000
0000
0010
0100
0001
0000
1000
0001
0000
0010
,
0000
0100
0000
0010
0000
1000
0000
0000
0010
0100
0000
0000
1000
0001
0000
1000
,
0000
0100
1000
0010
0000
0100
0001
1000
0100
0000
0000
0010
0100
1000
0001
0000
,
0000
0100
0000
0010
0000
1000
0100
0010
0001
0000
1000
0000
0010
0100
0000
0000
,
0001
0010
0000
0100
0000
1000
0000
0000
0010
0100
0001
0000
1000
0001
0000
0010
,
0000
0100
0000
1000
0000
0010
0000
0000
0100
0001
0000
0000
1000
0100
0000
1000
,
0000
0001
0100
0010
0000
0000
1000
0001
0010
0000
0100
0000
1000
0001
0000
0000
,
0100
0001
0000
0010
0000
0100
1000
0001
0000
0000
0100
0000
0010
1000
0000
0000
,
0001
0100
0000
0010
0000
0001
0000
0010
0100
0001
1000
0000
0100
0010
0000
0001
,
0000
1000
0000
0010
0000
0001
0000
0000
0010
0100
0000
0001
1000
0100
0000
0010
,
0000
0100
0000
0001
0000
0100
0010
0001
1000
0000
0010
0100
0001
1000
0100
0000
,
0000
0010
0001
0100
0000
0010
0000
1000
0000
0001
0100
0000
0010
1000
0000
0000
,
0100
0010
0000
0100
0000
1000
0000
0010
0000
0100
0001
0000
1000
0100
0000
0010
,
0000
0001
0000
0100
0000
0001
0000
0000
1000
0001
0010
0100
0000
0000
1000
0000
,
0100
0000
1000
0010
0000
0000
0100
0001
1000
0000
0100
0010
0001
0010
0100
0000
,
0000
1000
0001
0000
0100
0000
0001
0000
1000
0000
0001
0010
0200
0000
0000
0000
,
2300
0000
0000
0000
3002
0000
0000
0203
,
0000
0000
0010
0000
0010
0000
0010
0000
0301
1000
0200
0000
0000
0000
0000
0000
,
0320
0000
0000
0000
0000
0001
0000
0001
0000
0000
0100
0000
0000
0031
1000
0000
,
0010
0100
0010
1000
0100
0010
1000
0000
,
0010
0100
0010
0100
1000
0001
1000
0001
,
0100
0001
0100
0001
1000
0010
1000
0010
,
0100
0001
0100
0000
0001
1000
0001
0000
1000
0100
1000
0000
0001
0100
0001
0000
,
2000
0000
0000
0000
3100
0010
1001
0000
,
1000
0001
0000
0001
0000
0100
0010
0001
0000
0010
0100
0000
0001
0000
0100
0000
,
0010
1000
0000
1000
0000
0001
0010
0100
0000
1000
0001
0000
0100
0000
0010
0000
,
0100
0001
0000
0001
0000
1000
0100
0010
0000
0001
1000
0000
0010
0000
0000
0000
,
0100
0001
1000
0000
0100
0010
0001
0000
0100
0010
1000
0001
0010
0100
1000
0000
,
0001
0100
0000
0100
0000
0010
0100
1000
0000
0100
0010
0000
1000
0000
0010
0000
,
0100
0001
0000
0001
0000
1000
0100
0010
0000
0100
1000
0000
0001
0000
0100
0000
,
0001
1000
0000
1000
0000
0100
0010
0001
0000
0000
1000
0000
0010
0000
0000
0000
,
0100
0001
1000
0000
0100
0010
0001
0000
0100
0010
1000
0000
0002
0000
0000
0000
,
1003
0100
0010
0000
1000
0010
0001
0000
1000
0010
0100
0000
0001
0000
1001
0000
,
1000
0000
0100
0000
0110
0000
0000
0000
0001
1000
0010
0000
0001
0010
2000
0000
,
3100
0000
0010
0001
0000
1000
0001
0000
0100
0000
0010
0001
0000
0010
0000
1000
,
0001
0000
0010
0100
0000
1100
0000
1001
0000
0001
0100
0000
0020
0000
0030
0000
,
1000
0001
0100
0000
0001
1000
0100
0000
0010
0001
0100
0000
0010
0000
1000
0000
,
0100
0010
0001
0000
1000
0010
0100
0000
0001
0010
0100
0000
1000
0000
0001
0000
,
1000
0010
0100
0000
1000
0000
0100
0000
0001
0010
0100
0000
0001
0000
0100
0000
,
1000
0100
1000
0100
0010
0001
1000
0000
0010
0000
1000
0000
0100
0010
0001
0000
,
0200
0000
0000
0000
,
0000
0000
0000
0000
,
0300
0000
0000
0000
;

//---------------dance-single - FS, XO----------------
#NOTES:
     dance-single:
     :
     Challenge:
     17:
     0.834133,0.919157,0.105650,0.366254,1.253715,829.000000,814.000000,15.000000,52.000000,0.000000,0.000000,0.834133,0.919157,0.105650,0.366254,1.253715,829.000000,814.000000,15.000000,52.000000,0.000000,0.000000:
0000
0000
0000
0000
,
0000
0000
0000
0000
,
0000
0000
0000
0000
,
0000
0000
0000
0000
,
0000
0000
0000
0000
,
1010
0000
0000
0010
0000
0000
0100
0000
0001
0000
1001
0000
0000
0000
1100
0000
,
1000
0000
0000
0010
0000
0000
0100
0000
0001
1000
0100
0000
0001
0000
0100
0000
,
1000
0000
0000
0010
0000
0000
0100
0000
0000
0000
1001
0000
0001
0010
0200
0000
,
0000
0000
2300
3020
,
0230
0001
1000
0001
,
0320
0000
0000
0000
1000
0000
0000
0000
0130
0001
0020
0000
0000
0000
0000
0000
,
0230
0001
0010
1000
,
0310
0001
1000
0000
0000
1001
0000
0000
0101
0000
0001
0000
1000
0000
0100
0000
,
0010
0001
0010
0001
1000
0010
1000
0010
,
0100
0001
0010
0100
1000
0001
0100
0010
,
1000
0010
1000
0010
0100
0001
0100
0001
0010
0100
1000
0100
0010
0001
1000
0010
,
0200
0000
0000
0000
0301
0010
1001
0000
,
1000
0000
0010
0000
0120
0000
0000
1030
0001
0000
0010
0100
0001
0000
0100
0100
,
0002
0000
0000
1003
0100
0100
0002
0000
0013
0001
1000
0010
0100
0000
0001
0000
,
0010
0100
1000
0010
0200
0000
0000
0301
1000
0000
0010
0100
1000
0000
0100
0100
,
2000
0000
0000
0000
0000
0000
3001
0000
0100
0000
0100
0000
1000
0000
0000
0000
0001
0000
1000
0001
1000
0000
0001
0000
1000
0000
0001
0000
0000
0000
0001
0000
,
0010
0000
0000
0100
1000
0000
0100
0100
0001
0000
0100
0010
0001
0010
1000
0001
,
0020
0000
0000
0031
0100
0100
1000
0000
0001
0100
0010
0100
0001
0000
0020
0000
,
0130
1000
0010
0100
0001
0000
1000
0100
0000
0100
0001
0000
0001
0100
0000
0100
,
1000
0100
1000
0100
0010
0001
0010
0001
1000
0010
1000
0010
0100
0000
0000
0000
,
0001
0000
0010
0000
0000
0000
0001
0000
0100
0000
0000
0000
0010
0000
0000
0000
1000
0001
1000
0000
0001
0000
0100
0000
1000
0000
0100
0000
0001
0000
0000
0000
,
1000
0000
0000
0000
0200
0300
0000
0000
0000
0000
0000
0000
0200
0300
0000
0000
0001
0000
0000
0000
0000
0000
0000
0000
0010
0000
0000
0000
0000
0000
0000
0000
0100
0000
0000
0000
1000
0000
0000
0000
0010
0000
0000
0000
0000
0000
0000
0000
0100
0000
0000
0000
0001
0000
0000
0000
0010
0000
0000
0000
0100
0000
0000
0000
,
2000
0000
3001
0100
0010
0000
0100
0000
0010
0100
1000
0100
0010
0000
0100
0000
,
0001
0100
0100
0000
1000
0000
0100
0000
0001
0000
0100
0000
2000
0000
3400
0000
,
0310
0000
1000
0000
0010
0000
0001
0000
1000
0000
0010
0000
0100
0000
0001
0000
1000
0001
1000
0000
0001
0000
0100
0000
1000
0000
0000
0000
0100
0000
0000
0000
,
0001
0000
0000
0000
0200
0300
0000
0000
0000
0000
0000
0000
0200
0300
0000
0000
1000
0000
0000
0000
0000
0000
0000
0000
0100
0000
0000
0000
0000
0000
0000
0000
0010
0000
0000
0000
0001
0000
0000
0000
0100
0000
0000
0000
0010
0000
0000
0000
1000
0000
0000
0000
0000
0000
0000
0000
0010
0000
0000
0000
0000
0000
0000
0000
,
0100
0000
0001
0000
0010
0000
0001
0100
0000
0001
0010
0000
0100
1000
0000
0010
,
1000
0001
0000
0100
0001
0000
0010
0100
2000
0000
0000
0000
3020
0000
0000
0000
,
0130
0000
0001
0010
0000
0001
0100
0000
0010
0000
1000
0001
0000
0010
0100
1000
,
0001
0000
1000
0010
0000
1000
0100
0000
0010
0000
0001
0100
0000
0010
1000
0001
,
0010
0000
0001
0100
0000
0001
0010
0000
0100
0000
0010
1000
0000
0010
0100
1000
,
0001
0000
0100
0010
0000
0100
0001
0010
0100
0000
1000
0000
0001
0000
1000
0000
,
0100
0000
1000
0010
0000
1000
0100
0000
0010
0000
0001
0100
0000
0001
0010
0100
,
1000
0000
0010
0100
0000
0010
1000
0000
0100
0000
0010
0001
0000
0100
0010
1000
,
0100
0000
1000
0010
0000
1000
0100
0000
0010
0000
0100
0001
0000
0100
0010
0001
,
1000
0000
0010
0100
0000
0010
1000
0001
0010
0000
0100
0000
0001
0000
0100
0000
,
2000
0000
0000
0010
0000
0000
0100
0000
3002
0000
0000
0010
0000
0000
0100
0000
,
2003
0000
0000
0100
0000
0000
0010
0000
3002
0000
0000
0100
0000
0000
1000
0000
,
0023
0000
0000
1000
0000
0000
0100
0000
0032
0000
0000
0100
0000
0000
1000
0000
,
0013
0100
1000
0001
0100
0010
1001
0000
,
1000
0000
0000
0000
0001
0000
0000
0000
0000
0000
0000
0000
0010
0000
0000
0000
0000
0000
0000
0000
1000
0000
0000
0000
0000
0000
0000
0000
0010
0000
0000
0000
0001
0000
0000
0000
1000
0000
0000
0000
0200
0300
0000
0000
0000
0000
0000
0000
0200
0300
0000
0000
0001
0000
0000
0000
0000
0000
0000
0000
1000
0000
0000
0000
,
0010
0000
0000
0000
1000
0000
0000
0000
0000
0000
0000
0000
0010
0000
0000
0000
0000
0000
0000
0000
0001
0000
0000
0000
0000
0000
0000
0000
0010
0000
0000
0000
1000
0000
0000
0000
0200
0300
0000
0000
0000
0000
0000
0000
0200
0300
0000
0000
0001
0000
0000
0000
0100
0000
0000
0000
0000
0000
0000
0000
0010
0000
0000
0000
,
1000
0001
0100
0010
0000
1000
0100
0100
0001
0000
0000
1000
0100
0100
0001
0000
,
1000
0100
1000
0010
1000
0001
0100
0100
1000
0000
0000
0001
0100
0100
1000
0000
,
0001
0000
0000
0000
1000
0000
0000
0000
0000
0000
0000
0000
0100
0000
0000
0000
0000
0000
0000
0000
0001
0000
0000
0000
0000
0000
0000
0000
0100
0000
0000
0000
1000
0000
0000
0000
0001
0000
0000
0000
0200
0300
0000
0000
0000
0000
0000
0000
0200
0300
0000
0000
1000
0000
0000
0000
0000
0000
0000
0000
0001
0000
0000
0000
,
1000
0000
0000
0000
0001
0000
0000
0000
0000
0000
0000
0000
0100
0000
0000
0000
0000
0000
0000
0000
1000
0000
0000
0000
0000
0000
0000
0000
0100
0000
0000
0000
0001
0000
0000
0000
0200
0300
0000
0000
0000
0000
0000
0000
0200
0300
0000
0000
1000
0000
0000
0000
0001
0000
0000
0000
0000
0000
0000
0000
1000
0000
0000
0000
,
0001
0010
0100
1000
0001
0000
0010
0010
1000
0000
0000
1000
0010
0100
0001
0000
,
0000
0010
0000
0100
1000
0000
0010
0010
0001
0000
1000
0100
0010
0001
1000
0000
,
0001
0000
0000
0000
1000
0000
0000
0000
0000
0000
0000
0000
0010
0000
0000
0000
0000
0000
0000
0000
0001
0000
0000
0000
0000
0000
0000
0000
0010
0000
0000
0000
1000
0000
0000
0000
0001
0000
0000
0000
0200
0300
0000
0000
0000
0000
0000
0000
0200
0300
0000
0000
1000
0000
0000
0000
0000
0000
0000
0000
0001
0000
0000
0000
,
0010
0000
0000
0000
0001
0000
0000
0000
0000
0000
0000
0000
0010
0000
0000
0000
0000
0000
0000
0000
1000
0000
0000
0000
0000
0000
0000
0000
0010
0000
0000
0000
0001
0000
0000
0000
0200
0300
0000
0000
0000
0000
0000
0000
0200
0300
0000
0000
1000
0000
0000
0000
0001
0000
0000
0000
0000
0000
0000
0000
0100
0000
0000
0000
,
0001
1000
0100
0010
0000
0001
0100
0100
1000
0000
0001
1000
0100
0100
0001
0000
,
0000
0010
0001
0100
0010
1000
0001
0010
0100
1000
0000
0001
0000
0100
0010
0000
,
1000
0000
0000
0000
0001
0000
0000
0000
0000
0000
0000
0000
0100
0000
0000
0000
0000
0000
0000
0000
1000
0000
0000
0000
0000
0000
0000
0000
0100
0000
0000
0000
0001
0000
0000
0000
1000
0000
0000
0000
0200
0300
0000
0000
0000
0000
0000
0000
0200
0300
0000
0000
0001
0000
0000
0000
0000
0000
0000
0000
1000
0000
0000
0000
,
0001
1000
0000
0100
0000
0001
0000
0100
1000
0000
0001
0100
0000
0001
0010
0100
,
1000
0100
0000
0001
0100
0000
1000
0010
0100
0000
0001
0010
0100
1000
0010
0000
,
0000
0100
0001
0000
1000
0000
0100
0000
0010
0000
1000
0010
0002
0000
0000
0000
,
0203
0000
0300
0000
0000
0010
0000
0000
2000
0000
0000
3100
0000
0000
0020
0000
,
0000
0031
0100
0000
0100
0000
0001
0100
0001
0010
0200
0000
0000
0000
0000
0000
,
0320
0000
0030
0000
0000
0001
0000
0100
0000
0000
0010
0000
0000
1000
0100
0000
,
1000
0100
0010
0100
1000
0100
0001
0000
,
0100
0010
0100
0010
0001
1000
0001
1000
,
0010
0100
0010
1000
0001
0010
0100
1000
,
0001
0100
0010
1000
0001
0010
0100
1000
0001
0100
0010
1000
0100
0010
0001
1000
,
0020
0000
0000
0000
0130
0001
1001
0000
,
1000
0010
0000
0010
0000
1000
0100
0001
0000
0100
1000
0001
0100
0010
0100
0001
,
1000
0100
0000
0100
0000
0010
0001
0100
0000
0010
1000
0001
0010
0000
0100
0000
,
0010
0001
0000
0001
0000
0100
0001
0010
0000
0100
1000
0000
0010
0000
0100
0000
,
0001
0010
0100
1000
0001
0100
0010
1000
0001
0010
0100
1000
0010
0100
0001
1000
,
0100
0010
0000
0010
0000
0001
0100
1000
0000
0100
0010
0100
0001
1000
0100
1000
,
0001
0010
0000
0010
0000
0100
1000
0010
0000
0100
0001
1000
0100
0000
0010
0000
,
0100
1000
0000
0001
0100
0000
0001
0000
1000
0010
0100
0000
0001
1000
0100
0000
,
0010
0001
0010
0100
1000
0010
0100
0001
0010
0001
1000
0001
0200
0000
0000
0000
,
0301
0010
0100
1000
0100
0001
0100
0000
1000
0000
0010
0000
1010
0000
0101
0000
,
0001
0000
0000
0000
0010
0000
0000
0000
1001
0000
0000
0000
1000
0000
0001
0000
0010
0000
0100
0000
1000
0000
0000
0000
0001
1000
0001
0000
0040
0000
0000
0000
,
0031
0000
1000
0010
0000
0100
0001
0000
0010
0100
0010
1000
0000
0010
0001
1000
,
0010
0000
0100
0001
0000
0101
0000
1100
0000
1000
0001
0000
0040
0000
0031
0000
,
1000
0100
1000
0100
0010
0001
0010
0100
1000
0010
0100
0001
0010
0000
0100
0000
,
1000
0001
0100
0001
0100
0010
1000
0100
0010
0001
1000
0010
0100
0000
0001
0000
,
0010
0100
1000
0010
0001
0000
0010
0000
1000
0001
0010
0100
0001
0000
0100
0000
,
1000
0010
0100
0001
0010
0100
1000
0001
0100
0000
0010
0000
1000
0100
0010
0001
,
0200
0000
0000
0000
,
0000
0000
0000
0000
,
0300
0000
0000
0000
;

//---------------dance-double - ----------------
#NOTES:
     dance-double:
     :
     Beginner:
     4:
     0.163003,0.275747,0.112694,0.183127,0.000000,162.000000,146.000000,16.000000,26.000000,0.000000,0.000000,0.163003,0.275747,0.112694,0.183127,0.000000,162.000000,146.000000,16.000000,26.000000,0.000000,0.000000:
00000000
00000000
00000000
00000000
,
00000000
00000000
00000000
00000000
,
00000000
00000000
00000000
00000000
,
00000000
00000000
00000000
00000000
,
00000000
00000000
00000000
00000000
,
00022000
00000000
00000000
00000000
00033000
00000000
00000000
02020000
,
00000000
00000000
03030000
00000000
,
20020000
00000000
00000000
00000000
30030000
00000000
00000000
02200000
,
00000000
00000000
00300000
03000000
,
10000000
00000000
10000000
00000000
,
00010000
00000000
00000000
00000000
00000000
01010000
00000000
00000000
,
00011000
00000000
00010000
00000000
,
00000100
00000000
00001000
00000000
,
00000001
00000000
00000100
00000000
,
00000010
00000000
00001000
00000000
,
00000200
00000000
00000000
00000000
,
00000300
00000000
00000000
00011000
,
00000000
00000000
00020000
00030000
00000000
00000000
00001000
00000000
,
00000000
00100000
00000000
00010000
,
00000000
00000000
20000000
30000000
00000000
00000000
00100000
00000000
,
00000000
01000000
00000000
00001000
,
00000000
00010000
00000000
00001000
,
00000000
00000010
00000000
00000100
,
00000200
00000000
00000000
00000300
,
00002000
00000000
00000000
00003000
,
00000001
00000000
00000100
00000000
,
00000010
00000000
00001000
00000000
,
00000010
00000000
00010000
00000000
,
00001000
00000000
00100000
00000000
,
01000000
00000000
00100000
00000000
,
00010000
00000000
10000000
00000000
,
00200000
00000000
00000000
00300000
,
02000000
00000000
00000000
03000000
,
00010000
00000000
01000000
00000000
,
00001000
00000000
00010000
00000000
,
00000100
00000000
00001000
00000000
,
00000001
00000001
00000001
00000000
,
00000100
00000000
00000010
00000000
,
00001000
00000000
00000100
00000000
,
00020000
00000000
00000000
00030000
,
00002000
00000000
00000000
00003000
,
02000000
00000000
00000000
00000000
,
00000000
00000000
00000000
00000000
,
00000000
00000000
00000000
00000000
,
03000000
00000000
00000000
10010000
,
10000000
00000000
00010000
00000000
,
01000000
00000000
00001000
00000000
,
00010000
00000000
00000100
00000000
,
00000010
00000000
00000001
00000000
,
00000100
00000000
00000010
00000000
,
00010000
00000000
00001000
00000000
,
00100000
00000000
01000000
00000000
,
10000000
00000000
00010000
00000000
,
01000000
00000000
00001000
00000000
,
00010000
00000000
00000100
00000000
,
00000010
00000000
00000001
00000000
,
00000100
00000000
00000010
00000000
,
00010000
00000000
00001000
00000000
,
01000000
00000000
00100000
00000000
,
10000000
00000000
01000000
00000000
,
00100000
00000000
00001000
00000000
,
00022000
00000000
00000000
00033000
,
00020000
00000000
00000000
00030000
00000000
00011000
00000000
00000000
,
00010010
00000000
00000000
00000000
,
00000010
00000010
00000010
00000010
,
00000010
00000000
00000000
00000000
,
00001000
00000000
00000000
00000000
,
00000001
00000000
00001000
00000000
,
00000200
00000000
00000300
00000110
,
00000010
00000000
00000001
00000000
,
00000100
00000000
00000010
00000000
,
00010000
00000000
00001000
00000000
,
00100000
00100000
01000000
01000000
,
10000000
00000000
00010000
00000000
,
01000000
00000000
00001000
00000000
,
00020000
00000000
00030000
00000000
,
00000200
00000000
00000300
00000000
,
00001000
00000000
00000001
00001000
,
00000001
00000000
00000100
00000010
,
00000100
00000000
00000001
00000000
,
00001000
00001000
00000100
00000000
,
00000010
00000010
00000001
00000000
,
00000100
00000100
00000010
00000000
,
00001010
00000000
00001001
00000000
,
00001100
00000000
00000000
00000000
,
00022000
00000000
00000000
00000000
,
00000000
00000000
00000000
00000000
,
00033000
00000000
00000000
00000000
;

//---------------dance-double - ----------------
#NOTES:
     dance-double:
     :
     Easy:
     10:
     0.372291,0.459578,0.119737,0.288777,0.084520,370.000000,353.000000,17.000000,41.000000,0.000000,0.000000,0.372291,0.459578,0.119737,0.288777,0.084520,370.000000,353.000000,17.000000,41.000000,0.000000,0.000000:
00000000
00000000
00000000
00000000
,
00000000
00000000
00000000
00000000
,
00000000
00000000
00000000
00000000
,
00000000
00000000
00000000
00000000
,
00000000
00000000
00000000
00000000
,
00022000
00000000
00000000
00033000
00000000
00001100
00000000
00000220
,
00000000
00000000
00000000
00000330
00000001
00001000
00000010
00000000
,
00002020
00000000
00000000
00003030
00000000
00011000
00000000
02020000
,
00000000
00000000
03000000
00030000
,
10000000
01000000
00100000
00010000
,
01000000
00000000
00001000
00000000
00010000
00000200
00000000
00000000
,
00000310
00000001
00000100
00000010
,
00001000
00000000
00000100
00000000
00000000
00010000
00000000
00000000
00001000
00000000
00100000
00000000
00010000
00000000
00000000
00000000
,
00100000
00000000
01000000
00000000
10000000
00000000
00010000
01000000
,
00001000
00000000
00010000
00000000
00000100
00000000
00000010
00000001
,
00000200
00000000
00000320
00000000
,
00001030
00000000
00000000
00000000
00000100
00010000
00001000
00000000
,
00100000
00020000
01030000
00100000
,
20000000
00000000
31000000
00100000
00010000
00000000
01000000
00000000
,
00001000
00020000
00030100
00000010
,
00000001
00000100
00000010
00000000
00001000
00000000
00000100
00000000
,
00010000
00001000
00100000
00010000
,
02000000
00000000
03100000
10000000
00010000
00000000
00100000
00000000
,
01000000
00000000
00000000
00000000
10000000
00000000
00000000
10000000
00000000
00000000
10000000
00000000
00000000
10000000
00000000
00000000
,
00200000
02300000
03002000
00013000
,
00001000
00010000
00000100
00000000
00000010
00000000
00000001
00000000
,
00000100
00000010
00001000
00000000
00000100
00000000
00010000
00000000
,
00001000
00100000
01000000
00000000
10000000
00000000
00010000
00000000
,
01000000
00001000
00010000
00000000
00000100
00000000
00000110
00000000
,
00000010
00000001
00001000
00000010
00000100
00000000
00001000
00000000
,
00000100
00000010
00001000
00000000
00000100
00000000
00010000
00000000
,
00001000
00000000
00000000
00000000
01000000
00000000
00000000
01000000
00000000
00000000
01000000
00000000
00000000
01000000
00000000
00000000
,
00200000
20300000
32000000
03100000
,
00010000
00000000
01000000
00000000
00001000
00010000
00000100
00000000
,
00000010
00000000
00000001
00000000
00000100
00000010
00010000
00000000
,
00001000
00000000
00000010
00000000
00000001
00000100
00001000
00000000
,
00000100
00000000
00000010
00000000
00001000
00000100
00010000
00001000
,
00100000
00000000
01000000
00000000
10000000
00000000
00010000
01000000
,
00100000
00000000
10000000
00000000
01000000
00000000
00010000
00001000
,
00200000
00000000
00302000
00000000
,
00013000
00000000
00000100
00000000
00000010
00000001
00000100
00000010
,
00002000
00000000
00000000
00000000
,
00000000
00000000
00000000
00000000
,
00000000
00000000
00000000
00000000
,
00003100
00000000
00000100
00000000
00000100
00010000
00001000
00000000
,
01000000
00000000
00000000
00000000
00100000
00000000
00000000
00000000
10000000
00000000
00000000
01000000
00000000
00000000
00100000
00000000
,
00010000
00000000
00100000
00000000
00001000
00000000
00000000
00000000
00010000
00000000
00000000
00000100
00000000
00000000
00000010
00000000
,
00000001
00000000
00000000
00000000
00000100
00000000
00000000
00000000
00000001
00000000
00000000
00000010
00000000
00000000
00000100
00000000
,
00000000
00000000
00001000
00000000
00000001
00000000
00000000
00000000
00000100
00000000
00000000
00000010
00000000
00000000
00010000
00000000
,
00001000
00000000
00000000
00000000
01000000
00000000
00000000
00000000
00100000
00000000
00000000
10000000
00000000
00000000
01000000
00000000
,
00100000
00000000
01000000
00000000
10000000
00000000
00000000
00000000
00010000
00000000
00000000
01000000
00000000
00000000
00100000
00000000
,
01000000
00000000
00000000
00000000
00001000
00000000
00000000
00000000
00010000
00000000
00000000
00000100
00000000
00000000
00000010
00000000
,
00000000
00000000
00000001
00000000
00000100
00000000
00000000
00000000
00001000
00000000
00000000
00010000
00000000
00000000
01000000
00000000
,
10000000
00000000
01000000
00000000
00100000
00000000
00010000
00000000
10000000
00000000
00000000
00100000
00000000
00000000
01000000
00000000
,
00010000
00000000
00100000
00000000
00001000
00000000
00000000
00000000
00010000
00000000
00000000
00000100
00000000
00000000
00000010
00000000
,
00000001
00000000
00000100
00000000
00001000
00000000
00000000
00000000
00010000
00000000
00000000
00100000
00000000
00000000
10000000
00000000
,
00000000
00000000
01000000
00000000
00100000
00000000
00010000
00000000
01000000
00000000
00000000
00100000
00000000
00000000
10000000
00000000
,
01000000
00000000
00010000
00000000
00001000
00000000
00100000
00000000
01000000
00000000
00000000
00010000
00000000
00000000
00001000
00000000
,
01000000
00000000
00001000
00000000
00010000
00000000
00000000
00000000
00000100
00000000
00000000
00000010
00000000
00000000
00000001
00000000
,
00001000
00000000
00000010
00000000
00000100
00000000
00000000
00000000
00001000
00000000
00000000
00010000
00000000
00000000
00000100
00000000
,
00000000
00000000
00000010
00000000
00001000
00000000
00010000
00000000
01000000
00000000
00000000
10000000
00000000
00000000
00100000
00000000
,
20200000
00000000
00000000
00000000
,
00000000
00000000
00000000
00000000
30300000
02020000
00000000
03030000
,
00022000
00000000
00000000
00000000
00000000
00000000
00000000
00033000
,
00010000
00000100
00000010
00000001
,
00000100
00000000
00000010
00000000
00001000
00000000
00000100
00010000
,
00001000
00000000
00100000
00000000
00010000
00000000
01000000
00100000
,
10000000
01000000
00010000
01000000
,
22000000
00000000
33000000
00000000
10000000
00010000
01000000
00000000
,
00010000
00000000
00100000
00000000
01000000
00000000
10000000
00010000
,
01000000
00000000
00001000
00000000
00100000
00000000
00001000
00010000
,
00000100
00000000
00000010
00000000
00000001
00000000
00000100
00000010
,
00001000
00000000
00000010
00000000
00000100
00001000
00010000
00000100
,
00010000
00000000
00001000
00000000
00100000
00000000
01000000
10000000
,
00010000
00000000
01000000
00000000
00100000
00000000
10000000
01000000
,
00020000
00000000
00032000
00000000
,
02003000
00000000
00000000
00000000
03100000
10000000
00010000
00000000
,
00220000
00000000
00030000
00300000
00000000
00000000
00001000
00010000
,
00000100
00000000
00000110
00000000
00001001
00000000
00000002
00000003
,
00000100
00000000
00000010
00000000
00001000
00000100
00010000
00000000
,
00001000
00000000
00000000
01000000
00000000
01000000
00000000
01000000
00000000
00000000
00000000
00000000
00200000
00000000
00300000
00000000
,
10000000
00000000
01000000
00000000
00010000
00000000
00001000
00100000
,
00010000
00000000
00001000
00000000
00010000
00000000
00000100
00000010
,
00000001
00001001
00000100
00011000
,
00100000
01000000
10000000
00000000
,
20020000
00000000
00000000
00000000
,
00000000
00000000
00000000
00000000
,
30030000
00000000
00000000
00000000
;

//---------------dance-double - ----------------
#NOTES:
     dance-double:
     :
     Medium:
     13:
     0.499071,0.582132,0.140867,0.197214,0.257082,496.000000,476.000000,20.000000,28.000000,0.000000,0.000000,0.499071,0.582132,0.140867,0.197214,0.257082,496.000000,476.000000,20.000000,28.000000,0.000000,0.000000:
00000000
00000000
00000000
00000000
,
00000000
00000000
00000000
00000000
,
00000000
00000000
00000000
00000000
,
00000000
00000000
00000000
00000000
,
00000000
00000000
00000000
00000000
,
00022000
00000000
00000000
00033000
00000000
00101000
00000000
02020000
,
00000000
00000000
03030000
00000000
00010000
10000000
01000000
00000000
,
00220000
00000000
00000000
00330000
00000000
00011000
00000000
00002200
,
00000000
00003300
00002002
00003000
,
00000103
00001000
00010000
00100000
,
10000000
00000000
01000000
00000000
00010000
00002000
00000000
00000000
,
01003000
00100000
00010000
00001000
,
00100000
00000000
01000000
00000000
00000000
11000000
00000000
00000000
10000000
00000000
00010000
00000000
01000000
00000000
00000000
00000000
,
00010000
00100000
00001000
00000000
00010000
00000100
00000010
00000000
,
00000001
00000100
00000010
00000000
00001000
00000100
00010000
00000000
,
00001000
01000000
00100000
10000000
01000000
00010000
01000000
10000000
,
00020000
00000000
00000000
00000000
01030000
00001000
00010000
00000000
,
00001000
00010000
00000010
00000000
00000100
00000001
00000010
00000000
,
00000200
00000000
00001300
00000001
00000100
00000010
00001000
00000000
,
00000100
00010000
00002000
00000000
00103000
01000000
10000000
00010000
,
02000000
00000000
03100000
10000000
01000000
00010000
00001000
00100000
,
01000000
00000000
10000000
00000000
00010000
01000000
00001000
00010000
,
00000100
00000000
00000010
00000001
00000100
00000000
00000010
00000000
,
00000100
00000000
00000001
00000000
00001000
00000000
00000000
00000100
00000000
00000000
00000100
00000000
00000000
00010000
00000000
00000000
,
00001000
00000010
00001000
00010000
00100000
10000000
01000000
00100000
,
00010000
10000000
00100000
01000000
00001000
00010000
00000100
00000010
,
00000001
00000100
00000010
00001000
00000100
00010000
00001000
01000000
,
00100000
10000000
01000000
00100000
01000000
10000000
00010000
01000000
,
00001000
00010000
00000100
00000010
00000001
00000100
00001000
00000100
,
00000010
00000100
00000010
00000100
00000010
00000000
00001000
00000000
00000100
00000000
00000001
00000000
00000200
00000000
00000000
00000000
,
00001300
00000010
00000100
00001000
00010000
00000100
00001000
00000010
,
00010000
00000000
00001000
00000000
01000000
00000000
00000000
01000000
00000000
00000000
00100000
00000000
00000000
00100000
00000000
00000000
,
10000000
01000000
00010000
00001000
02000000
00000000
03100000
00000000
,
10000000
00000000
00000000
01000000
00000000
00000000
00100000
00000000
00010000
00000000
00000000
01000000
00000000
00000000
00001000
00000000
,
00010000
00000000
00000000
00000100
00000000
00000000
00000010
00000000
00000001
00000000
00000000
00000100
00000000
00000000
00000010
00000000
,
00001000
00000000
00000000
00000100
00000000
00000000
00010000
00000000
00001000
00000000
00000000
00000100
00000000
00001000
00000000
00010000
,
00000000
00000000
00001000
00000000
00000000
00100000
00000000
00000000
01000000
00000000
10000000
00000000
00010000
00000000
01000000
00000000
,
00100000
00000000
00000000
10000000
00000000
00000000
01000000
00000000
00100000
00000000
00000000
00010000
00000000
00000000
01000000
00000000
,
00001000
00000000
00000000
00010000
00000000
00000000
00000100
00000000
00000010
00000000
00000000
00000001
00000000
00000000
00000100
00000000
,
00000010
00000000
00000000
00001000
00000000
00000000
00000100
00000000
00010000
00000000
00000000
00001000
00000000
00000100
00000000
00001000
,
00000000
00010000
00000000
00001000
01000000
00100000
10000000
01000000
,
00200000
00000000
00000000
00000000
,
00000000
00000000
00000000
00000000
,
00000000
00000000
00000000
00000000
,
00301000
00000000
00010000
00000000
00000100
00000010
00000001
00000000
,
00000101
00000000
00000000
00000000
00001010
00000000
00000000
00000000
00001000
00000000
00000000
00000100
00000000
00000000
00010000
00000000
,
00001000
00000000
00100000
00000000
01000000
00000000
00000000
00000000
00010000
00000000
00000000
00001000
00000000
00000000
00000010
00000000
,
00000001
00000000
00000000
00000000
00000101
00000000
00000000
00000000
00000100
00000000
00000000
00001000
00000000
00000000
00010000
00000000
,
00000000
00000000
00000100
00000000
00000010
00000000
00000000
00000000
00000001
00000000
00000000
00000100
00000000
00000000
00001000
00000000
,
00010000
00000000
00000000
00000000
00011000
00000000
00000000
00000000
00001000
00000000
00000000
01000000
00000000
00000000
00100000
00000000
,
10000000
00000000
01000000
00000000
00100000
00000000
00000000
00000000
00010000
00000000
00000000
01000000
00000000
00000000
00001000
00000000
,
00010000
00000000
00000000
00000000
00001100
00000000
00000000
00000000
00001000
00000000
00000000
00000010
00000000
00000000
00000100
00000000
,
00000000
00000000
00000001
00000000
00000010
00000000
00000000
00000000
00000110
00000000
00000000
00001100
00000000
00000000
00001000
00000000
,
00000010
00000000
00000100
00000000
00001000
00000000
00000100
00000000
00000001
00000000
00000000
00000010
00000000
00000000
00000100
00000000
,
00010000
00000000
00001000
00000000
01000000
00000000
00000000
00000000
00100000
00000000
10000000
00010000
00000000
00000000
00100000
00000000
,
00001000
00000000
00010000
00000000
00000010
00000000
00000000
00000000
00001000
00000000
00000100
00000010
00000000
00000000
00000001
00000000
,
00000000
00001000
00000010
00000000
00000100
00000000
00001000
00000000
00010000
00000000
00000000
00000010
00000000
00001000
00000001
00000000
,
00000010
00000000
00000100
00000000
00010000
00000000
00001000
00000000
01000000
00000000
00000000
00100000
00000000
00000000
10000000
00000000
,
01000000
00000000
00010000
00000000
00001000
00000000
00000000
00000000
01000000
00000000
00100000
10000000
00000000
00000000
01000000
00000000
,
00010000
00000000
00001000
00000000
00100000
00000000
00000000
00000000
00001000
00000000
00010000
00000010
00000000
00000000
00000100
00000000
,
00000000
00000001
00000010
00000000
00001000
00000000
00000010
00000000
00000100
00000000
00000000
00010000
00000000
00001000
00010000
00000000
,
00012000
00000000
00000000
00000000
00000000
00000000
00000000
02003000
,
00000000
00010000
00010000
00000000
03010000
00200000
00000000
00000000
,
02300000
00000000
00000000
00000000
00000000
10000000
00000000
10000000
00000000
00000000
00100000
00000000
00000000
00000000
13000000
00000000
,
00010000
00000000
01000000
00100000
00010000
00001000
00100000
00000000
,
01000000
10000000
01000000
00000000
00100000
00010000
00100000
00000000
,
00001000
00010000
00001000
00000000
00010000
00000100
00010000
00000000
,
00001000
00000010
00000001
00000100
00000010
00001000
00000100
00010000
,
00002000
00000000
00000000
00000000
00103000
01000000
11000000
00000000
,
10000000
00100000
00000000
00100000
00000000
01000000
00000000
00010000
00000000
00000000
00100000
00000000
00001000
00000000
00010000
00000000
,
00000100
00001000
00000000
00001000
00000000
00000001
00000000
00000100
00000000
00000000
00000010
00000000
00001000
00000000
00000100
00000000
,
00000010
00000001
00000000
00000001
00000000
00000100
00000000
00000010
00000000
00000000
00010000
00000000
00001000
00000000
00000000
00000000
,
00100000
01000000
10000000
01000000
00010000
00001000
00000010
00000001
,
00001000
00000010
00000000
00000010
00000000
00000100
00000000
00001000
00000000
00000000
00000100
00000000
00000001
00000000
00000010
00000000
,
00000100
00001000
00000000
00001000
00000000
00000001
00000000
00000100
00000000
00000000
00001000
00000000
00010000
00000000
00000100
00000000
,
00000010
00001000
00010000
01000000
10000000
00100000
01000000
00010000
,
00100000
00001000
00010000
00100000
10000000
01000000
00020000
00000000
,
01030000
10000000
00010000
00010000
00000000
00000000
01000000
01001000
,
00001000
00010000
00000100
00000000
00000110
00000000
00002002
00003003
,
00000001
00000000
00000000
00000010
00000000
00000000
00000100
00000000
00000001
00000000
00000000
00000100
00000000
00001000
00000000
00000010
,
00010000
00000000
00001000
00010000
00000000
00001000
00000000
00001000
00000000
00000000
01000000
00000000
00200000
00000000
00300000
00000000
,
10000000
01000000
00010000
00001000
01000000
00100000
00010000
00000000
,
00001000
00000010
00000001
00000100
00000010
00000100
00001000
00000000
,
00010000
00100000
10000000
00000000
01000000
00010000
00001000
00000000
,
00000010
00000001
00000100
00001000
00010000
00000000
00001000
00100000
,
02000000
00000000
00000000
00000000
,
00000000
00000000
00000000
00000000
,
03000000
00000000
00000000
00000000
;

//---------------dance-double - ----------------
#NOTES:
     dance-double:
     :
     Hard:
     16:
     0.654025,0.735325,0.063390,0.176084,0.802941,650.000000,641.000000,9.000000,25.000000,0.000000,0.000000,0.654025,0.735325,0.063390,0.176084,0.802941,650.000000,641.000000,9.000000,25.000000,0.000000,0.000000:
00000000
00000000
00000000
00000000
,
00000000
00000000
00000000
00000000
,
00000000
00000000
00000000
00000000
,
00000000
00000000
00000000
00000000
,
00000000
00000000
00000000
00000000
,
00011000
00000000
00000000
00010000
00000000
00000000
00001000
00000000
00000010
00000000
00000001
00000000
00000000
00000000
00001001
00000000
,
00001000
00000000
00000000
00000010
00000000
00000000
00000100
00000000
00001000
00000100
00000010
00000000
00000100
00000000
00000001
00000000
,
00000010
00000000
00000000
00000100
00000000
00000000
00010000
00000000
00001000
00000000
01000000
00000000
00000000
00000000
02020000
00000000
,
00000000
00000000
03000000
00030000
,
10000000
01000000
00100000
00010000
,
01000000
00000000
00000000
00000000
00001000
00000000
00000000
00000000
00010000
00000100
00000020
00000000
00000000
00000000
00000000
00000000
,
00000031
00000100
00000010
00010000
,
00001000
00100000
00010000
00000000
00000000
00110000
00000000
00000000
00100000
00000000
01000000
00000000
10000000
00000000
00000000
00000000
,
00100000
10000000
00100000
10000000
00010000
01000000
00010000
01000000
,
00001000
00010000
00001000
00010000
00000100
00001000
00000100
00001000
,
00000100
00000010
00000001
00000100
00001000
00010000
00000100
00000010
,
00000002
00000000
00000000
00000000
00000103
00000010
00001010
00000000
,
00001000
00000000
00000100
00000000
00020000
00000000
00000000
00031000
00100000
00000000
01000000
10000000
00100000
00000000
00000000
01000000
,
00020000
00000000
00000000
00000000
00130000
00001000
00010000
00000000
00000100
00000000
00000010
00000000
00000001
00000000
00000100
00000000
,
00000010
00000000
00000000
00001000
00000200
00000000
00000000
00010300
00001000
00000000
00100000
01000000
10000000
00000000
00100000
00000000
,
02000000
00000000
00000000
00000000
03100000
10000000
00010000
00000000
00100000
01000000
10000000
00010000
01000000
00001000
00000000
00010000
,
00001000
00000000
00000000
00010000
00000100
00000000
00000010
00000000
00000001
00000000
00000100
00000010
00001000
00000000
00000000
00000100
,
00020000
00000000
00000000
00000000
00031000
00100000
00010000
00000000
01000000
00000000
10000000
00000000
01000000
00000000
00010000
00000000
,
00100000
00000000
01000000
00000000
10000000
00000000
00010000
10000000
00000000
00010000
01000000
00000000
00001000
00010000
00000000
00000100
,
00010000
00000100
00001000
00000000
00000001
00000100
00000010
00000000
00001000
00000010
00010000
00000000
00001000
00000000
00000010
00000000
,
00000001
00000100
00000000
00000010
00001000
00000000
00000001
00000000
00000010
00000100
00000000
00001000
00000001
00000000
00000100
00000000
,
00000010
00001000
00000000
00000100
00010000
00000000
00001000
00000000
00100000
00001000
00000000
01000000
00010000
00000000
10000000
00000000
,
01000000
00100000
00000000
00010000
10000000
00000000
00100000
00000000
01000000
00010000
00000000
00100000
00001000
00000000
00010000
00000000
,
00000100
00001000
00000000
00000001
00001000
00000000
00000010
00000000
00000100
00001000
00000000
00000100
00000001
00000000
00000010
00000000
,
00000100
00000001
00000100
00001000
00000010
00010000
00001000
00100000
00010000
00000000
01000000
00100000
20000000
00000000
00000000
00000000
,
31000000
00100000
00000000
00010000
01000000
00000000
00001000
00000000
00010000
00001000
00000000
00010000
00000100
00000000
00000010
00000000
,
00000001
00000000
00000100
00000000
00000010
00000000
00001000
00000100
00000000
00010000
00001000
00000000
00100000
00010000
00000000
10000000
,
00100000
01000000
00000000
00010000
00100000
00000000
01000000
20000000
00000000
00000000
00000000
00000000
30100000
00000000
00000000
00000000
,
01000000
00000000
00000000
00010000
00000000
00000000
00100000
00000000
01000000
00000000
10000000
00010000
00000000
01000000
00010000
00000000
,
00100000
00000000
00000000
00001000
00000000
00000000
00010000
00000000
00000100
00000000
00001000
00000001
00000000
00000100
00000001
00000000
,
00000010
00000000
00000000
00000100
00000000
00000000
00001000
00000000
00000010
00000000
00000000
00000100
00000000
00001000
00000000
00010000
,
00000000
00000000
00001000
01000000
00000000
00010000
01000000
00000000
10000000
00000000
01000000
00000000
00010000
00000000
00100000
00000000
,
01000000
00000000
00000000
10000000
00000000
00000000
00010000
00000000
01000000
00000000
00100000
10000000
00000000
01000000
00100000
00000000
,
00010000
00000000
00000000
01000000
00000000
00000000
00001000
00000000
00010000
00000000
00000100
00001000
00000000
00000001
00000100
00000000
,
00000010
00000000
00000000
00001000
00000000
00000000
00000100
00000000
00000001
00000000
00000100
00001000
00000000
00000010
00000000
00010000
,
00001000
00000000
00100000
00001000
00000000
01000000
00010000
10000000
00010000
00000000
00100000
00000000
01000000
00000000
10000000
00000000
,
00020000
00000000
00000000
00000000
,
02030000
00000000
00000000
00000000
,
03200000
00000000
00000000
00000000
,
10300000
01000000
00100000
00010000
10000000
00100000
10100000
00000000
,
00100000
10000000
00000000
01000000
00000000
00010000
00000000
00000000
00001000
00010000
00000100
00000000
00001000
00000001
00000000
00000100
,
00000000
00000010
00000000
00000100
00000000
00001000
00000000
00000000
00010000
00001000
00000000
00000000
01000000
00001000
00000000
00010000
,
00000000
00001000
01000000
00010000
00000000
10000000
01000000
00100000
00010000
00000000
00000000
00100000
01000000
10000000
00010000
00000000
,
00000000
01000000
00000000
00100000
00000000
10000000
01000000
00100000
00001000
00000000
00010000
00000000
00000100
00000010
00000000
00000000
,
00000001
00000100
00000000
00000010
00000000
00010000
00000000
00000000
00001000
01000000
00100000
00000000
10000000
00010000
00000000
00100000
,
00000000
01000000
00000000
10000000
00000000
00100000
00000000
00000000
01000000
00010000
00000000
00000000
10000000
01000000
00000000
00100000
,
00000000
00001000
00010000
01000000
00000000
00000000
10000000
00100000
01000000
00000000
00010000
00000000
00100000
00001000
00000000
00000000
,
00010000
00000100
00000000
00000010
00000000
00000001
00000100
00000010
00000000
00000000
00010000
00000000
00001000
00010000
00000000
00000000
,
00001000
01000000
00000000
00100000
00000000
00010000
00000000
00100000
01000000
00010000
10000000
00000000
01000000
00100000
00000000
00001000
,
00000000
00010000
00000000
00000100
00000000
00000010
00000000
00000000
00001000
00000010
00000000
00000001
00001000
00000010
00000000
00010000
,
00000000
00001000
00000000
01000000
00000000
00100000
10000000
00010000
00100000
00000000
01000000
10000000
00010000
01000000
00001000
00000000
,
00000000
00100000
01000000
00010000
00000000
01000000
00000000
10000000
00000000
00010000
01000000
00000000
00001000
00010000
00000000
00000000
,
00000100
00000010
00000000
00000001
00000000
00000100
00000000
00000010
00000000
00010000
00001000
00000000
00100000
00001000
00000000
01000000
,
00000000
00010000
00000000
00100000
00000000
10000000
00000000
00000000
00100000
00010000
10000000
00100000
00000000
00000000
01000000
00000000
,
00010000
00000000
00100000
00001000
00000000
00000000
00010000
00000100
00000010
00000000
00000001
00000100
00000010
00000100
00000001
00000000
,
00000000
00001000
00000100
00000000
00010000
00000000
00001000
00000000
01000000
00000000
00100000
10000000
02000000
00000000
00000000
00000000
,
03200000
00000000
00000000
00000000
00302000
00000000
00000000
00023000
,
00000000
00000000
00000100
00000000
00000100
00000000
00000000
00000000
00031000
00100000
02000000
00000000
00000000
00000000
00000000
00000000
,
23000000
00000000
00000000
00000000
00000000
00100000
00000000
00100000
00000000
00000000
01000000
00000000
00000000
00000000
30010000
00000000
,
01000000
10000000
01000000
00010000
00100000
01000000
00010000
00000000
,
01000000
10000000
00010000
01000000
00001000
00010000
00000100
00000010
,
00000001
00000100
00000010
00001000
00000001
00000100
00000010
00010000
,
00001000
00100000
01000000
10000000
00010000
01000000
00001000
00010000
,
00000200
00000000
00000000
00000000
00000310
00000001
00001001
00000000
,
00001000
00000100
00000000
00000100
00000000
00000010
00000000
00000001
00000000
00001000
00000010
00000000
00000100
00000000
00001000
00000000
,
00010000
00001000
00000000
00001000
00000000
00100000
00000000
01000000
00000000
10000000
00010000
00000000
01000000
00000000
00100000
00000000
,
01000000
00001000
00000000
00001000
00000000
00010000
00000000
00000100
00000000
00000000
00000010
00000000
00000001
00000000
00000000
00000000
,
00001000
00000010
00001000
00000000
00000100
00010000
00000100
00000000
00100000
00001000
00100000
00000000
00010000
01000000
00010000
00000000
,
00100000
00001000
00000000
00001000
00000000
00010000
00000000
00000100
00000000
00001000
00000001
00000000
00000010
00000000
00000100
00000000
,
00010000
00001000
00000000
00001000
00000000
00010000
00000000
00000100
00000000
00000010
00000001
00000000
00000100
00000000
00000010
00000000
,
00001000
00000010
00000100
00001000
00000100
00000001
00000010
00000100
,
00000001
00000100
00001000
00000010
00000100
00001000
00020000
00000000
,
00031000
00000000
01000000
00000000
00100000
00010000
00001000
00000000
00100000
00000000
00100000
00000000
01000000
00000000
01000000
00000000
,
10000000
00010000
00110000
00000000
00001000
00010000
00000010
00000200
,
00000310
00000000
00000100
00000001
00000000
00000100
00000010
00000000
00000001
00000000
00000010
00000100
00000000
00001000
00000000
00010000
,
00001000
00000000
00100000
00010000
00000000
00100000
00000000
00110000
00000000
00010000
00100000
00000000
02000000
00000000
03000000
00000000
,
10000000
00000000
01000000
00000000
00010000
00000000
00001000
00000000
00000010
00000001
00001000
00000010
00000100
00000000
00000000
00000000
,
00000001
00000000
00000100
00000000
00001000
00000000
00010000
00000000
00100000
10000000
00010000
10000000
01000000
00000000
00000000
00000000
,
00010000
00000000
00001000
00100000
00010000
00000000
00000000
00000000
01000000
00000000
00001000
00010000
00000100
00000000
00000000
00000000
,
00001000
00000010
00000100
00000001
00000010
00000100
00010000
00001000
01000000
00000000
00100000
00000000
10000000
01000000
00100000
00010000
,
20000000
00000000
00000000
00000000
,
00000000
00000000
00000000
00000000
,
30000000
00000000
00000000
00000000
;

//---------------dance-double - ----------------
#NOTES:
     dance-double:
     :
     Challenge:
     18:
     0.797910,0.888518,0.147910,0.352167,1.126935,793.000000,772.000000,21.000000,50.000000,0.000000,0.000000,0.797910,0.888518,0.147910,0.352167,1.126935,793.000000,772.000000,21.000000,50.000000,0.000000,0.000000:
00000000
00000000
00000000
00000000
,
00000000
00000000
00000000
00000000
,
00000000
00000000
00000000
00000000
,
00000000
00000000
00000000
00000000
,
00000000
00000000
00000000
00000000
,
00011000
00000000
00000000
00010000
00000000
00000000
00100000
00000000
10000000
00000000
10010000
00000000
00000000
00000000
00110000
00000000
,
00010000
00000000
00000000
01000000
00000000
00000000
10000000
00000000
01000000
00001000
00010000
00000000
00000100
00000000
00000010
00000000
,
00000001
00000000
00000000
00000100
00000000
00000000
00000010
00000000
00001000
00000000
00001100
00000000
00000000
00000000
00012000
00000000
,
00000000
00000000
02003000
03200000
,
10300000
01000000
00100000
00010000
,
00001000
00000000
00000000
00000000
00000100
00000000
00000000
00000000
00000010
00000001
00000200
00000000
00000000
00000000
00000000
00000000
,
00001300
00010000
00100000
10000000
,
01000000
00100000
00010000
00000000
00000000
00011000
00000000
00000000
00010010
00000000
00000010
00000000
00001000
00000000
00000100
00000000
,
00000010
00000001
00001000
00000010
00000100
00000001
00000010
00000100
,
00001000
00010000
00000100
00001000
00010000
00100000
10000000
01000000
,
00010000
01000000
00010000
01000000
00010000
00001000
00010000
00001000
00000010
00001000
00000010
00001000
00000010
00000001
00000010
00000001
,
00002000
00000000
00000000
00000000
00003010
00000100
00001001
00000000
,
00000001
00000000
00000100
00000000
00002000
00000000
00003000
00000100
00000010
00000000
00010000
00001000
01000000
00000000
00100000
10000000
,
02000000
00000000
03000000
00100000
00001000
00010000
00000200
00000000
00000310
00000001
00001000
00000010
00000100
00000000
00000001
00000000
,
00000100
00001000
00010000
00000100
00002000
00000000
00003000
00000010
00010000
00000000
00001000
00000010
00000100
00000000
00010000
00001000
,
02000000
00000000
03000000
00100000
10000000
01000000
00200000
00000000
01300000
00010000
00001000
00000010
00000001
00001000
00000000
00000010
,
00000100
00000000
00000000
00000001
00001000
00000000
00000100
00000010
00000001
00000000
00000100
00001000
00010000
00001000
00100000
01000000
,
20000000
00000000
30000000
00010000
01000000
00001000
00020000
00000000
00030100
00000010
00000001
00001000
00000010
00000000
00000100
00000000
,
00001000
00000000
00010000
00000000
01000000
00000000
00000000
01010000
00000000
00000000
01100000
00000000
00000000
11000000
00000000
00000000
,
10000000
00010000
01000000
00001000
00010000
00001000
01000000
00010000
10000000
00010000
01000000
00001000
00010000
00000000
00000000
00000000
,
00001000
00010000
00000000
00001000
00000010
00000000
00000001
00000000
00000200
00000000
00001300
00000100
00000010
00000000
00001000
00000000
,
00000100
00000010
00000000
00000001
00001000
00000000
00000010
00000000
00010000
00001000
00000000
01000000
00010000
00100000
01000000
10000000
,
00010000
00000000
01000000
00000000
10000000
00000000
01000000
00000000
00010000
00100000
10000000
00100000
00010000
00000000
01000000
00000000
,
00001000
00010000
00000100
00000000
00000010
00000000
00000001
00000000
00000100
00000010
00000000
00001000
00000100
00000000
00010000
00000000
,
00001000
00000010
00000001
00000100
00001000
00010000
00100000
10000000
02000000
00000000
03010000
00001000
00000020
00000000
00000000
00000000
,
00000031
00000100
00000000
00000010
00001000
00000000
00000100
00000000
00000010
00001000
00010000
00100000
01000000
00010000
10000000
00000000
,
01000000
00000000
00100000
00000000
00110000
00000000
00000000
00011000
00000000
00000000
00001100
00000000
00000000
00000110
00000000
00000000
,
00000001
00000100
00000000
00000010
00001000
00000000
00000100
00010000
00001000
00000000
01000000
00000000
00100000
00000000
00000000
00000000
,
10000000
00000000
00010000
00100000
00000000
00010000
01000000
00000000
00100000
00000000
10000000
01000000
00000000
00100000
00001000
00010000
,
00000010
00000000
00001000
00000010
00000000
00000100
00000001
00000000
00000010
00000000
00000100
00001000
00000000
00000100
00010000
00001000
,
01000000
00000000
00100000
10000000
00000000
01000000
00100000
00000000
01000000
00000000
00010000
00001000
00000000
00000100
00000000
00000001
,
00000000
00000000
00000010
00000100
00001000
00000000
00000001
00000100
00000010
00000000
00000100
00000000
00001000
00000000
00010000
00000000
,
00100000
00000000
00010000
00100000
00000000
01000000
00010000
00000000
10000000
00000000
00010000
01000000
00000000
00001000
00010000
00000100
,
00000010
00000000
00000001
00000100
00000000
00000001
00000010
00000000
00000100
00000000
00001000
00000010
00000000
00000100
00001000
00000100
,
00000010
00000000
00000100
00000001
00000000
00000010
00000100
00000000
00010000
00000000
00001000
00000010
00000000
00000100
00000000
00001000
,
00000100
00000000
00100000
00001000
00000000
00100000
01000000
10000000
00100000
00000000
01000000
00000000
00001000
00000000
00010000
00000000
,
00002000
00000000
00000000
00010000
00000000
00000000
00100000
00000000
00023000
00000000
00000000
01000000
00000000
00000000
00031000
00000000
,
00020000
00000000
00000000
00001000
00000000
00000000
00000010
00000000
00032000
00000000
00000000
00000100
00000000
00000000
00013000
00000000
,
00020000
00000000
00000000
00100000
00000000
00000000
00001000
00000000
00032000
00000000
00000000
00000010
00000000
00000000
00010000
00000000
,
00013000
00000010
00000100
00001000
00010000
00100000
01100000
00000000
,
10000000
00000000
00000000
00000000
00100000
00000000
00000000
00000000
00000000
00000000
00000000
00000000
00010000
00000000
00000000
00000000
00000000
00000000
00000000
00000000
00001000
00000000
00000000
00000000
00000000
00000000
00000000
00000000
00000000
00000000
00000000
00000000
00010000
00000000
00000000
00000000
00001000
00000000
00000000
00000000
00000020
00000030
00000000
00000000
00000000
00000000
00000000
00000000
00000020
00000030
00000000
00000000
00001000
00000000
00000000
00000000
00000000
00000000
00000000
00000000
00000001
00000000
00000000
00000000
,
00000100
00000000
00000000
00000000
00001000
00000000
00000000
00000000
00000000
00000000
00000000
00000000
00010000
00000000
00000000
00000000
00000000
00000000
00000000
00000000
00100000
00000000
00000000
00000000
00000000
00000000
00000000
00000000
00000000
00000000
00000000
00000000
00010000
00000000
00000000
00000000
00002000
00003000
00000000
00000000
00000000
00000000
00000000
00000000
00002000
00003000
00000000
00000000
00000100
00000000
00000000
00000000
00010000
00000000
00000000
00000000
00000000
00000000
00000000
00000000
00001000
00000000
00000000
00000000
,
01000000
00001000
00010000
00100000
00000000
10000000
01000000
01000000
00010000
00000000
00000000
01000000
00010000
00010000
00001000
00000000
,
00010000
00001000
00000010
00000100
00001000
00000001
00000100
00000100
00001000
00000000
00000000
00000010
00001000
00001000
00010000
00000000
,
00001000
00000000
00000000
00000000
01000000
00000000
00000000
00000000
00000000
00000000
00000000
00000000
00100000
00000000
00000000
00000000
00000000
00000000
00000000
00000000
10000000
00000000
00000000
00000000
00000000
00000000
00000000
00000000
00000000
00000000
00000000
00000000
01000000
00000000
00000000
00000000
00100000
00000000
00000000
00000000
00020000
00030000
00000000
00000000
00000000
00000000
00000000
00000000
00020000
00030000
00000000
00000000
00001000
00000000
00000000
00000000
00000000
00000000
00000000
00000000
00000000
00000000
00000000
00000000
,
00010000
00000000
00000000
00000000
00100000
00000000
00000000
00000000
00000000
00000000
00000000
00000000
01000000
00000000
00000000
00000000
00000000
00000000
00000000
00000000
00001000
00000000
00000000
00000000
00000000
00000000
00000000
00000000
00000000
00000000
00000000
00000000
00010000
00000000
00000000
00000000
00002000
00003000
00000000
00000000
00000000
00000000
00000000
00000000
00002000
00003000
00000000
00000000
00000100
00000000
00000000
00000000
00000010
00000000
00000000
00000000
00000000
00000000
00000000
00000000
00000001
00000000
00000000
00000000
,
00000100
00000010
00001000
00000100
00000000
00000010
00000001
00000100
00000010
00000000
00000000
00001000
00000100
00010000
00001000
00000000
,
00000000
01000000
00000000
00100000
10000000
00000000
01000000
00100000
00000000
00010000
01000000
00000000
00010000
10000000
01000000
00000000
,
00100000
00000000
00000000
00000000
01000000
00000000
00000000
00000000
00000000
00000000
00000000
00000000
00010000
00000000
00000000
00000000
00000000
00000000
00000000
00000000
00001000
00000000
00000000
00000000
00010000
00000000
00000000
00000000
00000000
00000000
00000000
00000000
00001000
00000000
00000000
00000000
00100000
00000000
00000000
00000000
00020000
00030000
00000000
00000000
00000000
00000000
00000000
00000000
00020000
00030000
00000000
00000000
00001000
00000000
00000000
00000000
00000000
00000000
00000000
00000000
00010000
00000000
00000000
00000000
,
00000100
00000000
00000000
00000000
00001000
00000000
00000000
00000000
00000000
00000000
00000000
00000000
00000010
00000000
00000000
00000000
00000000
00000000
00000000
00000000
00000001
00000000
00000000
00000000
00000000
00000000
00000000
00000000
00000000
00000000
00000000
00000000
00000010
00000000
00000000
00000000
00002000
00003000
00000000
00000000
00000000
00000000
00000000
00000000
00002000
00003000
00000000
00000000
00010000
00000000
00000000
00000000
00100000
00000000
00000000
00000000
00000000
00000000
00000000
00000000
10000000
00000000
00000000
00000000
,
00010000
00100000
01000000
10000000
00000000
00010000
01000000
01000000
10000000
00000000
01000000
00100000
00010000
00010000
00001000
00000000
,
00000000
00010000
00001000
00000010
00000000
00000001
00000000
00000100
00000010
00001000
00000001
00000000
00000010
00000100
00001000
00000000
,
00000001
00000000
00000000
00000000
00000100
00000000
00000000
00000000
00000000
00000000
00000000
00000000
00001000
00000000
00000000
00000000
00000000
00000000
00000000
00000000
00010000
00000000
00000000
00000000
00001000
00000000
00000000
00000000
00000000
00000000
00000000
00000000
00010000
00000000
00000000
00000000
00001000
00000000
00000000
00000000
02000000
03000000
00000000
00000000
00000000
00000000
00000000
00000000
02000000
03000000
00000000
00000000
10000000
00000000
00000000
00000000
00000000
00000000
00000000
00000000
01000000
00000000
00000000
00000000
,
00100000
00000000
00000000
00000000
00010000
00000000
00000000
00000000
00000000
00000000
00000000
00000000
01000000
00000000
00000000
00000000
00000000
00000000
00000000
00000000
00001000
00000000
00000000
00000000
00000000
00000000
00000000
00000000
00000000
00000000
00000000
00000000
00010000
00000000
00000000
00000000
00002000
00003000
00000000
00000000
00000000
00000000
00000000
00000000
00002000
00003000
00000000
00000000
00000010
00000000
00000000
00000000
00000100
00000000
00000000
00000000
00000000
00000000
00000000
00000000
00000000
00000000
00000000
00000000
,
00000001
00000010
00000000
00001000
00000010
00000000
00000001
00001000
00000010
00000000
00000100
00001000
00010000
00000010
00001000
00000000
,
00000100
00010000
00001000
00000000
01000000
00000000
00100000
00000000
01000000
00000000
10000000
01000000
00020000
00000000
00000000
00000000
,
02030000
00000000
03000000
00000000
00000000
00010000
00000000
00000000
00200000
00000000
00000000
00301000
00000000
00000000
00020000
00000000
,
00030000
00000100
00001000
00000000
00001000
00000000
00000010
00000100
00000001
00000010
00000200
00000000
00000000
00000000
00000000
00000000
,
00020300
00000000
00030000
00000000
00000000
00001000
00000000
01000000
00000000
00000000
00200000
00000000
00300000
10000000
00010000
00000000
,
00100000
00001000
00010000
00000010
00000100
00001000
00010000
00000000
,
00001000
01000000
00100000
10000000
01000000
00100000
00001000
00010000
,
00000100
00000010
00000001
00000100
00000010
00010000
00001000
01000000
,
00100000
10000000
01000000
00000000
00010000
00001000
00100000
00000000
00001000
00010000
00000010
00000000
00001000
00000001
00000100
00000000
,
00000020
00000000
00000000
00000000
00001030
00000100
00001100
00000000
,
00000100
00001000
00000000
00001000
00000000
00000001
00000100
00001000
00000000
00000100
00000010
00000100
00000001
00000000
00000010
00000100
,
00001000
00000010
00000000
00000010
00000000
00010000
00001000
00100000
00000000
01000000
10000000
00010000
01000000
00000000
00100000
00000000
,
10000000
01000000
00000000
01000000
00000000
00010000
00001000
00100000
00000000
00001000
01000000
00000000
00010000
00000000
00000000
00000000
,
10000000
00100000
01000000
00010000
00100000
00001000
00010000
00000100
00000010
00000001
00000100
00001000
00010000
00100000
10000000
00010000
,
00100000
01000000
00000000
01000000
00000000
10000000
00100000
00010000
00000000
00001000
00010000
00000100
00001000
00000000
00000100
00000010
,
00000001
00000100
00000000
00000100
00000000
00000010
00001000
00000100
00000000
00010000
00001000
00000000
00100000
00000000
01000000
00000000
,
10000000
00100000
01000000
00100000
10000000
01000000
00010000
00001000
,
00000010
00000100
00001000
00000001
00000100
00000010
00010000
00001000
00100000
01000000
10000000
00010000
02000000
00000000
00000000
00000000
,
03001000
00010000
01000000
00010000
00001000
00010000
00001000
00000000
00000010
00001000
00010000
00000000
00011000
00000000
00011000
00000000
,
00001000
00000000
00001000
00000000
00010000
00000000
00000010
00000000
00000100
00000001
00000010
00000000
00000100
00000000
00020000
00000000
,
00031000
00000000
00100000
01000000
00000000
10000000
00010000
00000000
01000000
00000000
10000000
01000000
00000000
00001000
00010000
00000100
,
00000010
00000000
00000001
00000100
00000000
00001010
00000000
00011000
00000000
00001000
01000000
00000000
00200000
00000000
10300000
00000000
,
01000000
10000000
00100000
01000000
00001000
00010000
01000000
00010000
00001000
00000100
00000010
00001000
00000100
00000000
00000010
00000000
,
00000001
00000100
00000001
00000010
00000100
00010000
00001000
01000000
00100000
00010000
00001000
00100000
01000000
00000000
10000000
00000000
,
01000000
00010000
00001000
00000010
00000001
00000000
00000100
00000000
00000010
00000100
00001000
00010000
00100000
00000000
10000000
00000000
,
01000000
00010000
00001000
00000010
00000001
00000100
00001000
00010000
01000000
00000000
10000000
00000000
00010000
01000000
00010000
00100000
,
02000000
00000000
00000000
00000000
,
00000000
00000000
00000000
00000000
,
03000000
00000000
00000000
00000000
;
