#VERSION:0.83;
#TITLE:DESPERATE ERROR;
#SUBTITLE:;
#ARTIST:山本真央樹;
#TITLETRANSLIT:;
#SUBTITLETRANSLIT:;
#ARTISTTRANSLIT:Maoki Yamamoto;
#GENRE:;
#ORIGIN:GITADORA GALAXY WAVE;
#TAGS:;
#CREDIT:;
#BANNER:DESPERATE ERROR.png;
#BACKGROUND:DESPERATE ERROR-bg.png;
#PREVIEWVID:;
#JACKET:DESPERATE ERROR-jacket.png;
#CDIMAGE:;
#DISCIMAGE:;
#LYRICSPATH:;
#CDTITLE:../_YSD cdtitles/ysd sc2024 cdtitle.png;
#MUSIC:DESPERATE ERROR.ogg;
#OFFSET:-0.118000;
#SAMPLESTART:14.785000;
#SAMPLELENGTH:15.000000;
#SELECTABLE:YES;
#DISPLAYBPM:127.000000:180.000000;
#BPMS:0.000000=180.000000
,197.500000=165.000000
,198.500000=171.000000
,200.000000=146.000000
,201.500000=141.000000
,203.000000=137.000000
,204.500000=126.999992
,206.000000=127.110001
,227.000000=216.000000
,228.000000=180.000000
;
#STOPS:227.000000=0.833333
;
#DELAYS:;
#WARPS:;
#TIMESIGNATURES:0.000000=4=4
,44.000000=7=4
,72.000000=5=4
,77.000000=7=4
,126.000000=2=17
,134.500000=4=4
,162.500000=2=7
,166.000000=4=4
,226.000000=2=4
,228.000000=7=4
,256.000000=2=15
,263.500000=7=4
,312.500000=2=17
,321.000000=6=4
,327.000000=2=15
,334.500000=4=4
;
#TICKCOUNTS:0.000000=4
;
#COMBOS:0.000000=1
;
#SPEEDS:0.000000=1.000000=0.000000=0
;
#SCROLLS:0.000000=1.000000
;
#FAKES:;
#LABELS:0.000000=Song Start
;
#BGCHANGES:;
#KEYSOUNDS:;
#ATTACKS:
;

//---------------dance-single - ----------------
#NOTEDATA:;
#CHARTNAME:;
#CHARTHASH:2880004004;
#STEPSTYPE:dance-single;
#BANNER:;
#DESCRIPTION:;
#CHARTSTYLE:;
#DIFFICULTY:Beginner;
#METER:6;
#METERF:0.000000;
#LASTSECONDHINT:118.818741;
#RADARVALUES:0.274491,0.390602,0.256744,0.082821,0.004141,232.000000,201.000000,31.000000,10.000000,0.000000,0.000000,0.000000,0.000000,0.000000,0.274491,0.390602,0.256744,0.082821,0.004141,232.000000,201.000000,31.000000,10.000000,0.000000,0.000000,0.000000,0.000000,0.000000;
#CREDIT:YOSEFU;
#DISPLAYBPM:127.000000:180.000000;
#NOTES:
0000
0000
0000
0000
,
0000
0000
0000
0000
,
0000
0000
0000
0000
,
1000
0000
0001
0000
,
0100
0100
0100
0000
,
0001
0000
1000
0000
,
0000
0000
0110
0000
0000
0010
0000
0000
,
0000
1001
1001
1001
,
0000
0001
0000
2002
0000
0000
0000
0000
,
0000
0000
0000
0000
,
0000
0000
3003
0000
,
1000
0000
0000
0000
0000
0001
0000
0000
,
0000
1000
1000
1000
,
0000
0000
0000
0001
0000
0000
0000
0000
,
0100
0100
0100
0000
,
0000
0010
0000
0000
0000
0000
1000
0000
,
1000
0000
1000
0000
0000
0000
0000
0100
,
0000
0100
0000
0100
0000
0100
0000
0000
,
0100
0000
0010
0000
,
0000
0000
1001
0000
0000
0000
0000
0001
,
0000
0000
1000
1000
,
1000
0000
0000
0000
0000
0010
0000
0000
,
0000
0100
0100
0100
,
0000
0000
0000
0001
0000
0000
0000
0000
,
1000
1000
1000
0000
,
0000
0100
0000
0000
0000
0000
0010
0000
,
0000
0000
1001
0000
0000
0000
0000
0001
,
0000
0000
0100
0100
,
0100
0000
0000
0000
0000
0110
0000
0000
,
0000
1000
1000
1001
,
0000
0000
0000
0000
0000
0110
0000
0000
,
0000
0000
1001
0000
,
0000
0001
0000
1000
0000
0001
0000
1000
,
0000
0000
0000
0000
0000
1001
0000
0000
,
0000
0000
1000
0000
1000
0000
0000
1000
,
0000
0000
0000
0000
0000
0100
0000
0000
,
0100
0000
0000
0010
0000
0000
0000
0000
,
0001
0000
0001
0000
0000
1001
0000
0000
,
0000
0000
0100
0100
,
0000
0010
0000
0000
0000
1000
0000
1000
,
0000
0001
0000
0001
0000
0000
0100
0000
,
0100
0010
0010
0000
,
1000
0000
0000
1001
0000
0000
0000
0000
,
0001
0000
0000
0000
0011
0000
0000
1000
,
0000
0000
0000
1010
0000
0000
0000
0000
,
0001
0001
0100
0100
,
0100
0000
0001
0001
,
0001
0000
1000
1000
,
1000
0000
0100
0000
,
2002
0000
0000
3003
0000
0001
0000
0000
,
1000
0000
0000
0010
0000
0000
0100
0000
,
0000
0001
0000
0000
1000
0000
0000
0000
,
0100
0000
1000
0000
,
0010
0000
0100
0010
,
0100
0010
0000
1000
,
0000
0001
0000
0000
0000
0000
1000
0000
0000
0000
0100
0000
0000
0000
0010
0000
,
0000
0110
1000
1001
,
0001
0000
0000
0100
0000
0000
0000
0010
,
0000
0010
0000
0000
1000
0000
0000
0001
,
0000
1000
0000
1000
0000
0000
0100
0000
,
0000
0010
0000
0000
0010
0000
0000
0001
,
0000
0000
0000
1000
0000
1000
0000
0000
,
0010
0000
0000
0100
0000
0010
0000
0000
,
0000
1000
0000
1000
0000
0001
0000
0000
,
0001
0000
0000
1000
0000
0000
0010
0000
,
0000
0100
0000
0000
0001
0000
0000
2002
,
0000
0000
0000
0000
,
0000
0000
0000
3003
0000
0000
0000
1000
,
0000
0000
0001
0000
0000
0100
0000
0010
,
0000
0010
0000
1000
0000
0000
0001
0000
,
0001
0000
0001
0000
0000
1000
0000
0010
,
0000
1000
0000
0010
0000
0000
0100
0000
,
0000
0001
1000
0001
,
1001
0000
0000
0000
1000
0000
0000
0100
,
0000
0010
0000
0000
1001
0000
1001
0000
,
2002
0000
0000
0000
3003
0000
0000
0001
,
0000
1000
0000
1001
0000
0000
0001
0000
,
0000
0000
0110
0000
0000
0100
0000
0000
,
0000
1001
0000
0000
1000
0000
0001
0000
,
0001
0000
0001
0000
0000
0100
0000
0000
,
0001
0000
0100
0000
0000
0100
0000
0000
,
0100
0000
0000
0100
0000
0000
0000
0001
,
0000
0000
0000
1000
0000
0100
0000
0100
,
0000
0100
0000
0000
0000
0110
0000
0000
,
0010
0000
1001
0000
,
0000
0110
0000
0000
2002
0000
3003
0000
;

//---------------dance-single - ----------------
#NOTEDATA:;
#CHARTNAME:;
#CHARTHASH:2124869681;
#STEPSTYPE:dance-single;
#BANNER:;
#DESCRIPTION:;
#CHARTSTYLE:;
#DIFFICULTY:Easy;
#METER:12;
#METERF:0.000000;
#LASTSECONDHINT:118.818741;
#RADARVALUES:0.539517,0.603658,0.372692,0.215333,0.033128,456.000000,411.000000,45.000000,26.000000,0.000000,0.000000,0.000000,0.000000,0.000000,0.539517,0.603658,0.372692,0.215333,0.033128,456.000000,411.000000,45.000000,26.000000,0.000000,0.000000,0.000000,0.000000,0.000000;
#CREDIT:YOSEFU;
#DISPLAYBPM:127.000000:180.000000;
#NOTES:
0000
0000
0000
0000
,
0000
0000
0000
0000
,
0000
0000
0000
0000
,
1000
0000
0001
0100
0000
0010
0000
0000
,
1000
0000
0100
0000
0001
0100
0000
1000
,
0000
0001
0000
0110
0000
0001
1000
0000
,
1001
0000
1100
0000
0000
1001
0000
0101
,
0000
0000
1010
0000
1100
0000
1000
0001
,
1000
0001
0000
0220
0000
0000
0000
0000
,
0000
0000
0000
0000
,
0000
0000
0300
0030
,
1000
0000
0001
0100
0010
2000
0000
0000
,
0100
0001
0001
3010
,
1000
0100
0010
0002
0000
0000
0100
0000
,
0010
0000
1003
0000
0001
0000
1000
0001
,
0010
2000
0000
3010
0001
1000
0010
0000
,
0101
0000
0100
0001
0010
0100
0010
1000
,
0000
0010
0000
0011
0000
0202
0000
0000
,
0303
0000
0000
0001
0100
0000
0001
0000
,
1000
0000
0100
1000
0100
0000
1000
0001
,
0100
0001
1000
0000
0100
0010
0100
0010
,
0100
0000
1000
0001
0100
0001
0010
0000
,
0000
0000
0100
1000
0100
0010
0001
0000
,
0100
0001
0000
2000
0000
0000
0100
0000
,
0010
0000
0100
0000
3001
0000
0100
0020
,
0000
0001
0000
1030
0001
0010
0100
0000
,
1000
0000
0001
0100
0001
0100
0001
1000
,
0000
0100
0010
0001
0010
0100
1000
0001
,
0100
0000
0010
1000
0100
0002
0000
0000
,
0000
0103
0010
0100
0010
0001
1000
0000
,
0001
0100
0000
0001
1000
0001
0000
1000
,
0100
0000
0010
0100
0010
0000
0001
1000
,
0000
1010
0000
0110
0000
0101
0000
0001
,
0100
0001
0100
0010
1000
0002
0000
0103
,
0002
0000
1003
0000
0100
0000
0010
0020
,
0000
0000
0000
0031
1000
0010
0000
0100
,
0001
0000
1000
0200
0000
0000
0010
0000
,
0001
0000
1300
0000
0001
0200
0000
1300
,
0200
0000
0301
0000
1000
0000
0100
0200
,
0000
0000
0300
0000
1000
0001
0100
0010
,
1000
1000
0001
0100
0000
0001
1000
0100
,
0010
0001
0100
0001
1000
0000
0001
0100
,
0000
0010
0000
1000
0000
0000
0100
0000
,
0010
0000
0001
0000
0010
0000
0100
1000
,
0000
0001
0100
0010
0000
0100
0001
0000
,
1000
0100
0010
0000
0001
0000
0010
0000
,
0100
0000
1000
0000
0100
0010
0100
0000
,
1000
0001
0000
0100
0010
0100
0010
0100
,
0001
1000
0001
1000
0001
0000
0010
0000
,
0110
0000
0000
1100
0000
1000
0000
0000
,
0101
0000
0000
0010
0000
0000
1100
0000
,
0000
0001
0000
0000
1001
0000
1000
0001
,
0000
0100
0001
0000
1000
0100
0000
0010
,
0001
1000
0000
0010
0100
0000
0001
1000
,
0000
0100
0010
1000
0010
0001
1000
0000
,
0000
0010
0000
0000
0000
0000
0100
0000
0001
0000
1000
0000
0100
0000
0010
0000
,
0100
1000
0001
0100
0010
1000
1001
0000
,
0001
0000
0100
0000
0001
1000
0000
1100
,
0000
0011
0000
1000
0001
1000
0001
0100
,
0001
0100
0001
1000
0100
0010
0100
1000
,
0001
0100
0010
0000
1010
0000
1000
0001
,
0000
0010
0000
0101
0000
1010
0000
1000
,
0001
0010
0100
1000
0100
0010
0001
1000
,
0010
0100
0000
0101
0000
0001
1000
0000
,
1100
0000
0000
1001
0000
0000
0011
0000
,
0000
0110
0000
0000
1000
0001
0100
0020
,
0000
0000
0000
0000
,
0000
0000
0000
0000
0000
1030
0000
0001
,
0010
0000
0100
0000
2000
0000
0000
0100
0000
0000
0100
0000
0000
0000
0001
0000
,
0000
0001
0000
3100
0000
0000
0011
0000
,
1100
0000
0101
0000
1010
0000
1000
0001
,
0010
0100
0000
0010
0001
0000
1000
0000
,
0001
0100
0010
1000
0001
0100
0010
1000
,
0001
0000
0010
0100
2000
0000
3001
0100
,
0010
0100
0001
1000
0100
0010
0001
0000
,
0011
0000
1001
0000
1000
0000
0020
0230
,
0302
2003
3200
0310
0000
0001
0010
0000
,
0011
0000
1001
0000
1000
0010
0000
0110
,
0000
0101
0000
1000
0100
0000
0011
0000
,
1100
0000
0101
0000
0001
0100
0001
0100
,
0010
0000
1000
0000
0010
0000
0000
0010
0000
0000
0100
0000
0000
0100
0000
0000
,
0001
0000
0000
0001
0000
0000
1000
0000
0000
1000
0000
0000
0000
0000
0100
0000
,
0000
0000
0000
0000
1000
0000
1000
0000
0000
0000
0000
0001
0000
0000
0000
0100
,
0000
0010
0000
1000
0000
1001
0000
0001
,
0100
0000
0010
0000
0110
0000
0100
0001
,
0000
1000
0100
0010
0002
0000
0003
0000
;

//---------------dance-single - ----------------
#NOTEDATA:;
#CHARTNAME:;
#CHARTHASH:854667493;
#STEPSTYPE:dance-single;
#BANNER:;
#DESCRIPTION:;
#CHARTSTYLE:;
#DIFFICULTY:Medium;
#METER:14;
#METERF:0.000000;
#LASTSECONDHINT:118.818741;
#RADARVALUES:0.714623,0.781205,0.513487,0.463795,0.198769,604.000000,542.000000,62.000000,56.000000,0.000000,0.000000,0.000000,0.000000,0.000000,0.714623,0.781205,0.513487,0.463795,0.198769,604.000000,542.000000,62.000000,56.000000,0.000000,0.000000,0.000000,0.000000,0.000000;
#CREDIT:YOSEFU;
#DISPLAYBPM:127.000000:180.000000;
#NOTES:
0000
0000
0000
0000
,
0000
0000
0000
0000
,
0000
0000
0000
0000
,
1010
0000
1000
1001
0000
0011
0000
0001
,
1000
0010
1000
0000
0001
0010
0001
0000
1000
0000
0010
0000
0100
0000
0001
0000
,
0000
0101
0000
0100
0001
0010
0100
1000
,
0010
0100
0101
0001
1000
1100
0100
0110
,
0000
0010
0011
0001
1001
1000
0010
0010
,
0010
0110
0000
2002
0000
0000
0000
0000
,
0000
0000
0000
0000
,
0000
0000
3000
0003
,
2010
0000
3100
0010
1000
0020
0000
0031
,
0100
0010
1010
0000
1000
0001
0020
0000
,
0130
1000
0001
0010
0000
0100
1000
0010
,
0100
0001
1000
0100
1200
0000
0310
0001
,
0100
2000
0000
3100
0001
0010
0100
1000
,
0001
0100
0201
0000
0310
0100
0001
1001
,
0000
1100
0000
0011
0000
0202
0000
0303
,
0100
0000
0000
0000
0001
0000
1000
0100
1000
0000
0000
0001
0100
0000
0000
0010
,
1000
0100
0010
0001
0010
0100
1000
0010
,
0100
0001
1000
0100
0010
0001
0010
0100
,
1000
0001
0100
0010
1000
0100
0020
0000
,
0100
0000
0031
0100
0010
0001
0010
0000
,
0100
0001
0000
1002
0000
0103
0010
1000
,
0100
0010
0001
0100
0201
0000
0310
1000
,
0100
0020
0000
1030
0010
0100
2000
0000
,
3001
0010
0110
0100
0010
0001
1000
1010
,
0010
0100
0001
1000
0100
0010
1000
0010
,
0001
1000
0010
0001
1000
0200
0000
0000
,
0000
0301
0010
0100
1000
0001
0101
0000
,
0100
0010
0000
1010
1000
0001
0000
0010
,
0100
0000
1000
0001
0101
0000
0100
0010
,
0000
1010
0000
1001
0000
0011
0000
0020
,
0230
2300
3020
0230
0302
0023
0000
0031
,
0100
0000
0010
1000
0002
0000
0013
0020
,
0000
0130
1000
0100
0010
0001
0100
0010
,
0001
0000
0001
0000
0010
0000
1000
0000
0010
0000
0000
0010
0100
0000
0000
0100
,
0001
0000
0000
0001
1000
0000
0000
0000
0100
0000
0210
0000
0000
0000
1300
0000
,
0001
0000
0100
0010
2000
0000
3100
0200
,
0000
0310
0001
0100
1000
0100
0010
1000
,
0001
0000
0001
0000
0010
0000
0100
0000
1000
0000
0000
0001
0100
0000
0001
0000
,
1000
0001
1000
0000
0001
1000
0001
0000
0200
0000
0000
0000
0310
0000
1000
0000
,
0000
0100
0010
0012
0000
0103
0001
0100
,
0010
1000
0100
0010
0021
0000
0130
1000
,
0001
0100
1000
0200
0000
0301
0010
0100
,
1000
0100
0010
0001
1001
0000
1000
0010
,
0001
0010
0100
0001
1000
0100
0010
0001
,
0100
0000
0010
0000
1000
0000
0001
0000
0100
0000
0001
0100
0001
0000
1000
0000
,
0100
1000
0100
0000
1000
0000
0001
0000
0100
0000
1000
0000
0100
0000
0001
0000
,
1001
0000
0000
1100
0000
0011
0000
0000
,
1100
0000
0000
0101
0000
0000
1010
0000
,
0000
1001
0000
0000
1000
1000
0100
0010
,
0001
0100
0010
0100
0001
0010
0100
1000
,
0001
0100
0010
0001
0010
1000
0100
0010
,
0001
0000
0000
0000
0000
0000
0010
0000
0000
0000
0000
0000
0100
0000
0000
1000
0000
0000
0100
0000
0000
1000
0000
0000
0100
0000
0000
0010
0000
0000
0001
0000
0000
0010
0000
0000
0100
0000
0000
0000
1000
0000
0000
0000
0001
0000
0000
0000
,
0000
0100
0010
0000
1000
0000
0100
0000
0010
0000
0001
0000
0100
0000
0010
0000
,
0001
0000
0000
0000
0010
0000
0000
0000
1000
0000
0000
0000
0100
0000
0000
0000
0110
0000
0000
0000
0011
0000
0000
0000
2002
3003
0000
0000
0000
0000
0000
0000
,
1000
0000
0010
0000
0100
0000
0001
0000
0000
0000
1001
0000
0000
0000
1000
0100
,
0000
0000
1000
0010
0000
0000
0100
0000
0001
1000
0000
0000
0100
0000
0010
0000
,
0000
0001
0100
0010
1000
0100
0010
0001
,
0100
0010
1000
0000
1001
0001
0010
1000
,
0010
0000
0001
0000
0100
0000
0010
1000
0000
0000
0001
0100
0000
0000
0001
0000
,
1000
0100
0000
0000
0010
0000
0001
0000
0100
0000
0010
0000
1000
0000
0100
0000
,
0010
0000
0001
1000
0000
0000
0010
0100
0000
0000
0001
0000
1000
0000
0000
0000
,
1100
0000
0000
0100
0000
0000
0010
0000
0000
0000
0000
0000
1001
0000
0000
0100
,
0000
0010
0000
0000
1001
0001
0010
0120
,
0000
0000
0000
0000
0000
0000
0000
0000
0031
0000
0000
0000
0000
1000
0001
0000
,
0000
0100
0001
0000
0000
0000
1000
0000
0010
0000
0100
0001
0000
0000
0010
0000
,
1000
0000
0010
0000
0001
0000
1000
0010
0000
1000
0010
0000
0000
0000
0100
0000
,
0001
0010
0100
2000
0000
0010
0001
0000
,
0001
0000
3100
0000
1000
0001
0100
0010
,
0001
0010
1000
0001
0010
0100
0020
0000
,
0031
0100
0010
1000
0100
0010
0001
0100
,
0101
0000
0001
1000
0200
0000
0320
0230
,
2300
3002
0203
0320
2030
3001
0101
0000
,
0100
0000
0000
0001
0000
0100
0000
0001
0000
0100
0000
0000
0000
0000
0000
0001
0000
1000
0000
0001
0000
2000
0000
0000
,
3200
0320
0031
1001
0000
1000
0010
0000
,
0100
0001
1001
0000
1000
0100
0000
0010
,
0001
1001
0000
1000
0010
0000
0110
0000
,
0101
0000
1001
0000
2000
3200
0320
0032
,
0203
0000
0320
0000
1030
0000
0000
1010
0000
0000
0010
0000
0000
0110
0000
0000
,
0100
0000
0000
0101
0000
0000
0001
0000
0000
1001
0000
0000
0000
1000
0100
0000
,
0000
0000
0000
0000
1000
0001
1000
0000
0000
0000
0000
0001
0100
0000
0000
0010
,
1000
0001
0010
0100
0000
1000
0100
0010
,
0100
1000
0010
0000
0100
0001
0010
1000
,
0010
0001
0100
0010
2020
0000
3030
0000
;

//---------------dance-single - ----------------
#NOTEDATA:;
#CHARTNAME:;
#CHARTHASH:4002034914;
#STEPSTYPE:dance-single;
#BANNER:;
#DESCRIPTION:;
#CHARTSTYLE:;
#DIFFICULTY:Hard;
#METER:17;
#METERF:0.000000;
#LASTSECONDHINT:118.818741;
#RADARVALUES:0.913392,0.994261,0.712257,0.670846,0.633577,772.000000,686.000000,86.000000,81.000000,0.000000,0.000000,0.000000,0.000000,0.000000,0.913392,0.994261,0.712257,0.670846,0.633577,772.000000,686.000000,86.000000,81.000000,0.000000,0.000000,0.000000,0.000000,0.000000;
#CREDIT:ERROR CODE, Y0$3FU;
#DISPLAYBPM:127.000000:180.000000;
#NOTES:
0000
0000
0000
0000
,
0000
0000
0000
0000
,
0000
0000
0000
0000
,
1010
0010
0100
0101
0000
1001
0000
1000
,
0100
0010
0100
1000
0001
0100
0010
1000
0001
0000
0010
0000
0100
0000
1000
0000
,
0010
0100
1000
0100
0001
0010
0110
0000
,
1100
0000
1001
0001
0100
0110
0010
1010
,
1000
0000
0001
0010
0100
0000
1000
0010
0100
0000
0001
0010
0100
0000
0100
0000
,
0100
1100
0000
2002
0000
0000
0000
0000
,
0000
0000
0000
0000
,
0000
0000
3000
0003
,
0101
0000
0000
0000
1001
0000
0000
1000
0100
0000
0020
0000
0000
0000
0100
0000
,
0031
0000
1000
0000
1010
0000
0000
0000
0010
0000
0100
0001
2000
0000
0000
0000
,
0010
3001
0100
0020
0000
1000
0130
0001
,
1001
0000
0000
0000
1000
0100
0010
0000
0021
0000
0000
0000
0130
0000
0000
1000
,
0001
0200
0000
0010
0301
1000
1100
0000
,
0100
0010
0001
0000
0200
0000
0000
0000
0010
0000
0301
0000
1000
0100
0002
0000
,
0000
0000
0103
0000
1000
0000
0001
0100
0010
0000
1000
0000
0001
0010
0100
0010
,
0001
0000
0000
1000
0100
0010
0100
1000
0010
0000
0000
0100
0001
0000
1000
0100
,
0010
0001
1002
0100
1003
0010
0001
0020
,
0100
1030
0010
0100
0001
0010
0100
0010
,
0002
0100
1003
0020
0230
0302
2000
3003
,
0101
0001
1001
1000
0100
0010
0021
0000
,
0100
0031
1000
0020
0000
0130
0101
0001
,
1001
0000
0000
0000
1000
0001
0100
0000
0020
0000
0000
0000
1000
0000
0130
0000
,
0001
0000
0020
0000
0000
0000
0230
0000
2300
0000
3020
0000
0230
0000
0301
1000
,
0010
1000
0001
0000
1002
0000
0100
0000
1003
0000
0100
0000
0001
0000
0200
0000
,
0010
0000
1300
0000
0001
0000
0100
0000
0010
0000
1000
0000
0100
0010
0001
0000
,
2000
0000
0001
0000
3010
0000
1000
0000
0100
0000
0002
0000
0000
0000
0103
0010
,
0001
0000
0100
0010
1000
0000
0001
0000
0010
0000
0100
0000
1100
0000
0000
0000
,
1000
0000
1001
0000
0000
0000
0001
0010
0100
1000
0001
0000
0000
0100
0010
1000
,
0001
0000
0020
0031
0101
0000
0100
0110
,
0000
1010
1000
1001
0000
0011
0000
0020
,
0032
0023
0230
2300
3010
0120
0000
0001
,
0130
0001
1001
0000
2010
0000
0100
3100
,
0010
1000
0010
0001
0200
0000
0302
0010
,
0010
0000
2003
0000
0010
0000
3001
0000
1000
0000
0001
0010
0001
0000
1000
0010
,
1000
0000
0001
0100
0001
0000
1000
0100
1000
0000
1020
0000
0000
0000
0001
0000
,
0130
0001
2000
0100
3002
0000
0100
0100
,
2003
0000
3100
0001
0100
1000
0001
0001
,
0010
0000
0010
0000
0100
0000
1000
0000
0001
0000
0100
0010
1000
0010
0100
0001
,
1000
0100
0010
0001
0100
0010
1000
0001
2000
0000
0000
3100
0010
0000
0001
1000
,
0010
0000
0100
0001
1000
0000
2100
0000
0000
0000
0010
0000
3001
0000
0100
0010
,
1000
0010
1000
0001
0010
0100
1000
0100
0010
0000
0000
0001
0100
0000
0010
1000
,
0010
0100
0001
1000
0100
0000
0210
0000
0000
0000
0010
0000
1300
0000
0001
0100
,
0010
0100
0001
1000
0001
1000
0100
0000
1000
0000
0001
0100
0010
0000
1000
0000
,
0001
0000
0010
0100
1000
0000
0100
0000
0010
0000
0001
0010
0100
0000
1000
0001
,
0100
0000
0010
1000
0001
0000
0010
0100
1000
0000
0001
0100
0001
0100
0010
0000
,
1000
0000
0000
0100
0000
0000
0010
0000
0000
0001
0000
0000
1000
0000
0000
0010
0000
0000
0100
0000
0000
0001
0000
0000
0010
0000
0000
0000
0000
0000
0001
0000
0010
0000
0100
0000
1000
0000
0000
0000
0000
0000
0000
0000
0000
0000
0000
0000
,
2020
0000
3030
0101
0000
0022
0000
0033
,
0202
0000
0303
2020
0000
3030
2200
0000
,
3300
0202
0000
0303
1001
1000
0002
0100
,
1003
0020
0100
1030
0001
0020
0100
0031
,
1000
0000
0001
0100
0010
0000
0110
0000
1020
0000
0100
0000
0031
0000
0020
0000
,
0100
0000
0000
0000
0000
0000
1030
0000
0000
0000
0000
0000
0001
0000
0000
0010
0000
0000
0100
0000
0000
1000
0000
0000
0001
0000
0000
0100
0000
0000
0010
0000
0000
1000
0000
0000
0100
0000
0000
0000
0010
0000
0000
0000
0001
0000
0000
0000
,
0000
0100
0010
0000
0001
0000
0010
0000
1000
0000
0100
0000
0010
0000
0001
0000
,
0011
0000
0000
0000
1001
0000
0000
0000
1010
0000
0000
0000
0100
0000
0000
0000
1001
0000
0000
0000
1100
0000
0000
0000
0022
0033
0000
0000
0000
0000
0000
0000
,
1001
0000
1000
0000
0001
0000
0100
0000
0001
0000
1001
0000
0000
0000
1000
0100
,
0010
0000
0001
0100
0010
0000
1000
0000
0001
0010
0100
0000
1000
0000
0010
0000
,
0100
0001
0010
0110
0000
0100
1000
1001
,
0000
0000
0001
0100
0010
0000
0100
0000
1001
0000
1000
0100
0010
0001
1000
0010
,
0100
0001
1000
0000
0001
0000
0100
0010
1000
0000
0100
0010
0001
0000
0100
0000
,
0001
0010
0100
0000
1000
0000
0010
0000
0100
0000
0001
0000
0010
0000
1000
0000
,
0010
0000
0100
1000
0010
0000
0100
0001
0010
0000
0100
0000
1000
0010
0000
0000
,
1010
0000
0000
0100
0000
0000
2002
0000
0000
3003
0000
0000
0011
0000
0000
0100
,
0000
0000
2002
0000
0000
3003
0000
0000
1000
0100
0010
0001
1000
0010
0200
0000
,
0000
0000
0000
0000
0000
0000
0000
0000
0310
0000
0000
0000
1000
0001
0010
0000
,
0100
1000
0001
0000
0100
0001
0010
0000
0100
0000
1000
0000
0001
0000
0101
0000
,
0100
0001
1000
0001
0100
0000
0001
1000
0100
1000
0001
0000
0010
0100
1000
0000
,
0010
0000
0000
0100
0000
0000
0001
0000
0000
0101
0000
0000
0100
0000
0000
0010
0000
0000
1000
0010
0100
0001
0000
0000
,
1000
0000
0010
0000
0100
0000
0001
0000
0000
0000
0000
0000
1000
0000
0100
0000
0010
0000
0001
0000
0000
0000
0000
0000
0010
0000
0000
0000
0000
0000
0001
0000
0000
1000
0000
0000
0010
0000
0000
0100
0000
0000
0001
0000
0000
0010
0000
0000
,
0100
0000
1000
0000
0010
0000
0100
0001
1000
0000
0100
0000
0010
0000
0001
0010
,
0100
1000
0010
0100
0001
1000
0100
0000
0010
0000
1000
0000
0010
0000
0001
0000
,
1001
0000
1000
1010
0020
0000
0001
0230
,
0302
0023
0230
1300
1001
0001
0101
0100
,
1001
0000
0000
1000
0000
0100
0000
0010
0000
1000
0000
0010
0000
0001
0000
1000
0000
0010
0000
0100
0000
1000
0000
0100
,
0000
0000
0001
0000
0000
0000
1000
0000
0000
0000
0000
0000
0100
0000
0000
0000
0000
0000
0011
0000
0000
0000
0000
0000
0000
0000
0000
0001
0000
0000
0100
0000
0000
0000
0000
0000
1001
0000
0000
0000
0000
0000
1000
0000
0000
0100
0000
0000
,
0010
0001
0010
0100
1000
0000
0000
0001
0100
0000
0101
0000
0001
1000
0000
0000
,
0100
0010
0001
0000
0100
0000
0010
0000
1010
0000
0000
0000
1001
0000
1000
0000
,
1100
0000
0011
0000
0002
0203
2300
3200
,
0320
0000
1030
0000
1010
0000
0000
1001
0000
0000
0011
0000
0000
1100
0000
0000
,
1001
0000
0000
0101
0000
0000
0110
0000
0000
1010
0000
0000
0000
1000
0010
0000
,
0000
1000
0100
0010
0001
1000
0001
0000
0000
0000
0100
0001
1000
0000
0010
0100
,
0001
0000
1000
0010
1000
0100
0010
0000
0000
0000
1100
0000
1000
0000
0100
0000
,
0010
0001
0100
0000
1001
0001
0010
0100
,
1000
0000
0101
0000
0001
0100
0001
0010
0200
0000
0000
0000
0300
0000
0000
0000
;

//---------------dance-double - ----------------
#NOTEDATA:;
#CHARTNAME:;
#CHARTHASH:475548414;
#STEPSTYPE:dance-double;
#BANNER:;
#DESCRIPTION:;
#CHARTSTYLE:;
#DIFFICULTY:Beginner;
#METER:6;
#METERF:0.000000;
#LASTSECONDHINT:118.818741;
#RADARVALUES:0.236630,0.390602,0.190487,0.107667,0.004141,200.000000,177.000000,23.000000,13.000000,0.000000,0.000000,0.000000,0.000000,0.000000,0.236630,0.390602,0.190487,0.107667,0.004141,200.000000,177.000000,23.000000,13.000000,0.000000,0.000000,0.000000,0.000000,0.000000;
#CREDIT:YOSEFU;
#DISPLAYBPM:127.000000:180.000000;
#NOTES:
00000000
00000000
00000000
00000000
,
00000000
00000000
00000000
00000000
,
00000000
00000000
00000000
00000000
,
00010000
00000000
00001000
00000000
,
01000000
00000000
01000000
00000000
01000000
00000000
00000000
00010000
,
00000000
00000000
00000000
10000000
00000000
00000000
00010000
00000000
,
00000000
00000000
10010000
00000000
00000000
00000000
00000000
10010000
,
00000000
01100000
01100000
00010000
,
00000000
01000000
00000000
00002000
00000000
00000000
00000000
00000000
,
00000000
00000000
00000000
00000000
,
00000000
00000000
00003000
00000000
,
00010000
00000000
00000000
00000000
00000000
00001000
00000000
00000000
,
00000000
00000010
00000000
00000100
,
00000000
00000000
00000000
00001000
00000000
00000000
00000000
00000000
,
00000001
00000000
00000100
00000000
,
00000000
00000010
00000000
00000000
00000000
00000000
00010000
00000000
,
00000000
00000000
00001000
00000000
00000000
00000000
00000000
00010000
,
00000000
00000000
00000000
00001000
00000000
00000000
00000000
00000000
,
01000000
00000000
00010000
00000000
,
10000000
00000000
10000000
00000000
00000000
00000000
00000000
00100000
,
00000000
00000000
01000000
00000000
,
00001000
00000000
00000000
00000000
00000000
00010000
00000000
00000000
,
00000000
00100000
00000000
00010000
,
00000000
00000000
00000000
00001000
00000000
00000000
00000000
00000000
,
00000100
00000000
00001000
00000000
,
00000000
00010000
00000000
00000000
00000000
00000000
00000100
00000000
,
00000000
00000000
00000110
00000000
00000000
00000000
00000000
00000010
,
00000000
00000000
00000001
00000000
,
00000100
00000000
00000000
00000000
00000000
00001000
00000000
00000000
,
00000000
00010000
00000000
00001000
,
00000000
00001000
00000000
00000000
00000000
00100000
00000000
00000000
,
00100000
00000000
00000000
00000000
01000000
00000000
00000000
01000000
,
00000000
00000000
00000000
00100000
00000000
00100000
00000000
00000000
,
00000000
00000000
00000000
00000000
00000000
01100000
00000000
00000000
,
00000000
00000000
10000000
00000000
,
00000000
00000000
00000000
00000000
00000000
00010000
00000000
00000000
,
00000000
01000000
00000000
00000000
00000000
00001000
00000000
00000000
,
00000000
00000000
00000000
00000000
00000000
00011000
00000000
00000000
,
00000000
00000000
00010000
00000000
,
00000000
00000000
00000000
00000000
00000000
00000100
00000000
00000000
,
00000000
00000010
00000000
00000000
00000000
00000001
00000000
00000000
,
00000000
00001000
00000000
00000000
00001001
00000000
00000000
00000000
,
00000000
00000010
00000000
00000100
00000000
00000000
00000000
00000000
,
00001001
00000000
00001000
00000000
,
00000000
00000100
00000000
00000100
00000000
00000000
00000000
00000000
,
00010000
00010000
00010000
00000000
,
00001000
00000000
01000000
00000000
,
00010000
00000000
10000000
00000000
,
01000000
00000000
00100000
00000000
,
02200000
00000000
00000000
03300000
00000000
00020000
00000000
00000000
,
00030000
00000000
00000000
20000000
00000000
00000000
30000000
00000000
,
00000000
00100000
00000000
00000000
01000000
00000000
00000000
00000000
,
00001000
00000000
00010000
00000000
,
00000100
00000010
00000001
00000000
,
00000100
00000010
00000000
00010000
,
00000000
00001000
00000000
00000000
00000000
00000000
00000000
00000000
00100000
00000000
00000000
00000000
00001000
00000000
00000000
00000000
,
01000000
00100000
10010000
10010000
,
10000000
00000000
00000000
00010000
00000000
00000000
00000000
01000000
,
00000000
01000000
00000000
00000000
00001000
00000000
00000000
00010000
,
00000000
00010000
00000000
00000100
00000000
00000000
00000000
00001000
,
00000000
00000000
00000000
00000000
00001001
00000000
00000000
00000001
,
00000000
00000000
00000000
00000100
00000000
00000100
00000000
00000000
,
00000010
00000000
00000000
00010000
00000000
00010000
00000000
00001000
,
00000000
00010000
00000000
00010000
00000000
00011000
00000000
00000000
,
00200000
00000000
00000000
00300000
00000000
00000000
00020000
00000000
,
00000000
00030000
00000000
00000000
10000000
00000000
00000000
20020000
,
00000000
00000000
00000000
00000000
,
00000000
00000000
30030000
00000000
00000000
10000000
00000000
00010000
,
00000000
00000000
00010000
00000000
00000000
01000000
00000000
00001000
,
00000000
00010000
00000000
00001000
00000000
00000000
00010000
00000000
,
00010000
00000000
00010000
00000000
00000000
00000010
00000000
00000010
,
00000000
00001000
00000000
00000000
00000000
00000010
00000000
00001000
,
00000000
00000100
00000000
00000000
00000000
00010000
00000000
00000000
,
00011000
00000000
00000000
00001000
00000000
00000000
00000000
01000000
,
00000000
00100000
00000000
00000000
01100000
00000000
01100000
00000000
,
20020000
00000000
00000000
00000000
30030000
00000000
00000000
00010000
,
00000000
01000000
00000000
00100000
00000000
00000000
01100000
00000000
,
00000000
00000000
00001000
00000000
00000000
00011000
00000000
00000000
,
00000000
00010000
00000000
00000000
00000100
00000000
00001000
00000000
,
00001000
00001000
00000000
00000000
,
00000000
00000000
00000001
00000000
00000000
00000001
00000000
00000000
,
00000001
00000000
00000000
00000001
00000000
00000000
00000000
00000100
,
00000000
00000000
00000000
00000010
00000000
00010000
00000000
00010000
,
00000000
00010000
00000000
00001000
00000000
00011000
00000000
00000000
,
00100000
00000000
01000000
00000000
,
00000000
00100000
00000000
00000000
02200000
00000000
03300000
00000000
;

//---------------dance-double - ----------------
#NOTEDATA:;
#CHARTNAME:;
#CHARTHASH:2641545558;
#STEPSTYPE:dance-double;
#BANNER:;
#DESCRIPTION:;
#CHARTSTYLE:;
#DIFFICULTY:Easy;
#METER:12;
#METERF:0.000000;
#LASTSECONDHINT:118.818741;
#RADARVALUES:0.525319,0.639167,0.331282,0.256744,0.057974,444.000000,404.000000,40.000000,31.000000,0.000000,0.000000,0.000000,0.000000,0.000000,0.525319,0.639167,0.331282,0.256744,0.057974,444.000000,404.000000,40.000000,31.000000,0.000000,0.000000,0.000000,0.000000,0.000000;
#CREDIT:YOSEFU;
#DISPLAYBPM:127.000000:180.000000;
#NOTES:
00000000
00000000
00000000
00000000
,
00000000
00000000
00000000
00000000
,
00000000
00000000
00000000
00000000
,
00011000
00000000
00000000
01001000
00000000
01010000
00000000
00000000
,
00010000
00000000
10000000
00000000
01000000
00100000
00000000
00110000
,
00000000
00101000
00000000
00011000
00000000
00010000
00000010
00000000
,
00000110
00000000
00000100
00000000
00000001
00001000
00000000
00001100
,
00000000
00000100
00010000
00000000
00011000
00000000
01000000
00000000
,
00010000
10000000
00000000
20020000
00000000
00000000
00000000
00000000
,
00000000
00000000
00000000
00000000
,
00000000
00000000
00030000
30000000
,
10010000
00000000
00010000
01000000
00100000
20000000
00000000
00000000
,
01000000
00000000
30010000
00000000
01000000
00001000
00020000
00000000
,
00000100
00000000
00000000
00030100
00000000
00000000
00000010
00000100
,
00001000
00000000
00000001
00000000
00001001
00000000
00001000
00000010
,
00000100
00000002
00000000
00000000
00001000
00000000
00001003
00000000
,
00000100
00000010
00001000
00000000
00000010
00010000
00001000
00010000
,
00000000
00011000
00000000
00101000
00000000
00110000
00000000
00000000
,
00100000
00000000
00010000
10000000
,
00100000
00000000
01000000
00000000
00010000
10000000
00100000
02000000
,
00000000
03001000
00010000
00000000
00001000
00000000
00010000
00000100
,
00000010
00000000
00000100
00000000
00001000
00000001
00000200
00000000
,
00000300
00000000
00000010
00010000
00001000
00000000
00200000
00000000
,
00310000
10000000
00000000
00200000
00000000
00000000
01000000
00000000
,
01300000
00000000
00010000
10000000
02000000
00000000
03100000
00001000
,
00000000
00020000
00000000
00031000
00010000
00000000
00000200
00000000
,
00000300
00000010
00000001
00000000
00001000
00000001
00000100
00000020
,
00000000
00010030
00001000
00000000
00010000
00000000
00001000
00100000
,
01000000
00000000
10000000
00010000
01000000
00001000
00000000
00000000
,
00000000
00010000
00001000
00000000
00000010
00000000
00000200
00000000
,
00000300
00000100
00000000
00010000
00001000
02000000
00000000
03000000
,
01000000
00000000
00100000
10000000
00020000
00000000
00030000
00100000
,
00000000
01000000
00000000
10000000
00000000
00010000
00000000
01000000
,
00001000
00000000
00010000
00000000
00000100
00000010
00000000
00000001
,
00000100
00000000
00000010
00000000
00001000
00000000
00000001
00000002
,
00000000
00000000
00000000
00000000
00000000
00001003
00000100
00000100
,
00000010
00000010
00000001
00001000
00000000
00000010
00000000
00010000
,
00000000
00001000
00000000
00100000
00000000
01100000
00000000
10000000
,
00010000
00000000
01000000
00000000
00100000
00000000
10000000
20000000
,
00000000
00000000
00000000
00000000
00000000
00000000
31000000
00100000
,
00100000
00001000
00001000
00010000
00000000
00000010
00001000
00000001
,
00000000
00000100
00000010
00001000
00000002
00000000
00000013
00000100
,
00000000
00000010
00000001
00000200
00000000
00000000
00000310
00000100
,
00001000
00000000
00010000
00000000
00011000
00000000
00001000
00100000
,
00000000
01000000
00010000
02000000
00000000
13000000
00100000
00000000
,
00010000
00001000
00000020
00000000
00000030
00000000
00000001
00001000
,
00000010
00000000
00000100
00000001
00001000
00000000
00000100
00010000
,
00001000
00000000
00000010
00001000
00010000
00000000
00100000
01000000
,
00010000
00000000
10000000
01000000
00100000
00010000
10000000
00000000
,
10100000
00000000
00000000
01010000
00000000
00011000
00000000
00000000
,
00010100
00000000
00000000
00001100
00000000
00000000
00001001
00000000
,
00000000
00000101
00000000
00000000
00001000
00001000
00000000
00000010
,
00001000
00000000
00000001
00000010
00000100
00000000
00000010
00001000
,
00010000
00100000
01000000
00000000
00010000
10000000
01000000
00100000
,
00000000
00000000
00000000
00010000
00000000
00000000
00100000
00000000
00000000
01000000
00000000
00000000
00100000
00000000
00000000
00010000
00000000
00000000
10000000
00000000
00000000
00000000
00100000
00000000
,
00000000
01000000
00000000
00000000
00001000
00000000
00010000
00000000
00001000
00000000
00000010
00000000
00001000
00000000
00010000
00000000
,
00100000
01000000
00010000
00000000
11000000
01010000
10100000
00000000
,
10000000
00100000
00000000
01000000
00000000
00001000
00010000
00000100
,
00000000
00001100
00000000
00001000
00000001
00000100
00000000
00000010
,
00001000
00000001
00000000
00000011
00000000
00000010
00000100
00001000
,
00000000
00000100
00010000
00001000
00010000
00000000
00100000
01000000
,
00010000
10000000
01000000
00100000
00000000
00110000
00000000
00010000
,
01000000
00001000
00000000
00011000
00000000
00010000
00000000
00001000
,
00000000
00000010
00000001
00000100
00000000
00000010
00001000
00000000
,
00001010
00000000
00000000
00011000
00000000
00000000
00110000
00000000
,
00000000
11000000
00000000
00000000
10010000
00000000
00000000
02010000
,
00000000
00000000
00000000
00000000
10000000
00000000
00000000
00001000
,
00000000
00001000
00000000
03010000
00100000
20000000
00000000
30100000
,
00000000
00001000
00000000
00000000
00010000
00000000
00000000
00000010
00000000
00000000
00001000
00000000
00000000
00000000
00000001
00000000
,
00000010
00000100
00000010
00000002
00000000
00000000
00000100
00000000
,
00001000
00000000
00000000
00000000
00000013
00000000
00000000
00000000
00000100
00000000
00010000
00000000
00000000
00001000
00000000
00000000
,
01000000
00020000
00000000
10030000
01000000
00000000
00100000
00010000
,
10000000
00100000
00010000
00001000
00010000
00001000
00010000
00000100
,
00000010
00000000
00000001
00000100
00000020
00000000
00001030
00000001
,
00000010
00000100
00001000
00000001
00000100
00000000
00001010
00000000
,
00011000
00000000
00000000
00010000
00000000
00000000
00000000
00010000
00000000
00001000
00000000
00000000
00000000
00001000
00000000
01000000
00000000
00000000
00000000
01000000
00000000
00100000
00000000
00000000
,
10000000
00010000
01000000
00200000
00000000
10300000
00100000
00000000
,
01000000
00000000
00002000
00000000
00013000
00001000
00000000
00000010
,
00000000
00000200
00000000
00001300
00000001
00000000
00000100
00000010
,
00010000
00000000
00011000
00000000
00001000
00010000
00001000
01000000
,
00010000
00000000
10000000
00000000
01000000
00000000
00000000
01000000
00000000
00000000
00100000
00000000
00000000
00100000
00000000
00000000
,
00001000
00000000
00000000
00001000
00000000
00000000
00010000
00000000
00000000
00010000
00000000
00000000
00000000
00000000
00000010
00000000
,
00000000
00000000
00000000
00000000
00001000
00000000
00000001
00000000
00000000
00000000
00000000
00000010
00000000
00000000
00000000
00000100
,
00000000
00010000
00000000
00001000
00000000
00100000
00000000
00010000
,
10000000
00100000
01000000
00000000
00010000
10000000
01000000
00000000
,
00100000
00001000
00010000
00000010
00002000
00000000
00003000
00000000
;

//---------------dance-double - ----------------
#NOTEDATA:;
#CHARTNAME:;
#CHARTHASH:2033580417;
#STEPSTYPE:dance-double;
#BANNER:;
#DESCRIPTION:;
#CHARTSTYLE:;
#DIFFICULTY:Medium;
#METER:15;
#METERF:0.000000;
#LASTSECONDHINT:118.818741;
#RADARVALUES:0.700425,0.781205,0.364410,0.323000,0.256744,592.000000,548.000000,44.000000,39.000000,0.000000,0.000000,0.000000,0.000000,0.000000,0.700425,0.781205,0.364410,0.323000,0.256744,592.000000,548.000000,44.000000,39.000000,0.000000,0.000000,0.000000,0.000000,0.000000;
#CREDIT:YOSEFU;
#DISPLAYBPM:127.000000:180.000000;
#NOTES:
00000000
00000000
00000000
00000000
,
00000000
00000000
00000000
00000000
,
00000000
00000000
00000000
00000000
,
00011000
00000000
00001000
01000000
00000000
01100000
00000000
00100000
,
01000000
10000000
01000000
00010000
01000000
00001000
00010000
00000100
,
00000010
00000001
00001000
00000010
00000000
00000100
00000001
00000000
,
00001001
00000000
00001000
00000100
00000001
00000100
00001000
00000010
,
00000100
00001000
00010000
00100000
01000000
00010000
00100000
00100000
,
00100000
00100000
00000000
20020000
00000000
00000000
00000000
00000000
,
00000000
00000000
00000000
00000000
,
00000000
00000000
00030000
30000000
,
10010000
00000000
00010000
01000000
10000000
02000000
00000000
03001000
,
00010000
00000100
00000010
00000000
00000001
00000100
00000010
00000000
,
00000100
00001000
00010000
00200000
00000000
00310000
10000000
01000000
,
00100000
01000000
10000000
00010000
01000000
00000000
00100000
00010000
,
00001000
00000020
00000000
00000130
00001000
00000001
00000100
00000000
,
00000010
00010000
00001000
00000000
00000010
00001000
00010000
00100000
,
00000000
00110000
00000000
10010000
00000000
11000000
00000000
01000000
,
00100000
00000000
00000000
00000000
00010000
00000000
10000000
00000000
00100000
00000000
00000000
00010000
00001000
00000000
00000000
00000100
,
00000010
00001000
00000001
00000100
00000010
00000100
00001000
00010000
,
00100000
01000000
00100000
10000000
00010000
01000000
00100000
00010000
,
00001000
00000010
00001000
00010000
00000010
00001000
00000001
00000000
,
00001000
00000100
00000010
00000001
00000100
00000010
00002000
00000000
,
00003001
00000010
00000000
00000200
00000000
00000310
00000001
00000100
,
00000010
00000000
00000100
00001000
00020000
00000000
00130000
01000000
,
00000000
00020000
00000000
10030000
01000000
00100000
00020000
00000000
,
00000000
01030000
00100000
10000000
01000000
00010000
00001000
00000010
,
00001000
00010000
00001000
00000010
00000100
00001000
00000001
00000100
,
00000001
00000000
00000010
00000000
00000001
00000000
00000100
00000000
00001000
00000000
00020000
00000000
00000000
00000000
00130000
01000000
,
00100000
01000000
10000000
01000000
00100000
01000000
00010000
00000000
,
01000000
00001000
00000000
00010000
00000100
00000010
00000000
00000100
,
00001000
00000000
00000001
00000100
00000010
00000000
00000100
00001000
,
00000000
00000100
00000010
00010000
00000000
00011000
00000000
00002000
,
00003020
00000032
00000203
00002300
00023000
00032000
00000000
01003000
,
00010000
01000000
00100000
10000000
00010000
00000000
10000000
10000000
,
00000000
01000000
00100000
00010000
10000000
00100000
00010000
00010000
,
00001000
00000000
00001000
00000000
00000010
00000000
00000100
00000000
00001000
00000000
00000000
00001000
00000001
00000000
00000000
00000001
,
00000100
00000000
00000000
00000100
00000010
00000000
00000000
00000010
00001000
00000000
00000002
00000000
00000000
00000000
00000013
00000000
,
00000100
00000010
00000001
00000100
00000010
00001000
00000010
00010000
,
00001000
00000000
00010000
00100000
01000000
00100000
10000000
10000000
,
00010000
00000000
00010000
00000000
00100000
00000000
01000000
00000000
00000000
00000000
10000000
01000000
10000000
00000000
00010000
00000000
,
01000000
00000000
00001000
00010000
00001000
00000000
00010000
00000000
00000200
00000000
00000000
00000000
00000310
00000000
00000001
00000000
,
00000100
00000010
00001000
00000002
00000000
00000013
00000100
00000010
,
00000001
00000100
00000010
00000100
00002000
00000000
00013000
00100000
,
10000000
01000000
00100000
10000000
00000000
00100000
00010000
10000000
,
00100000
00010000
00001000
00010000
00100000
00000000
01000000
00010000
,
00100000
01000000
10000000
01000000
00010000
00001000
00000100
00000001
,
00000010
00000000
00000100
00000000
00001000
00000000
00000010
00000000
00000001
00000000
00000010
00000100
00000000
00000000
00000001
00000000
,
00001000
00000100
00000000
00000000
00000010
00000000
00000001
00000000
00001000
00000010
00000000
00000000
00000100
00000000
00000000
00000000
,
00001010
00000000
00000000
00011000
00000000
00110000
00000000
00000000
,
11000000
00000000
00000000
10100000
00000000
00000000
01010000
00000000
,
00000000
00011000
00000000
00000000
00011000
00010000
00001000
00010000
,
00000010
00000100
00000010
00001000
00000001
00000010
00000100
00000010
,
00001000
00010000
01000000
00100000
00010000
10000000
00100000
01000000
,
00010000
00000000
00000000
00000000
00000000
00000000
00100000
00000000
00000000
00000000
00000000
00000000
01000000
00000000
00000000
10000000
00000000
00000000
01000000
00000000
00000000
10000000
00000000
00000000
00010000
00000000
00000000
01000000
00000000
00000000
00010000
00000000
00000000
01000000
00000000
00000000
00100000
00000000
00000000
00000000
10000000
00000000
00000000
00000000
00010000
00000000
00000000
00000000
,
00000000
00100000
00001000
00000000
00010000
00000000
00000010
00000000
00000100
00000000
00000001
00000000
00001000
00000000
00000100
00000000
,
00000001
00000000
00000000
00000000
00000100
00000000
00000000
00000000
00001000
00000000
00000000
00000000
00000000
00000000
00000000
00000000
00001100
00000000
00000000
00000000
00011000
00000000
00000000
00000000
02020000
03030000
00000000
00000000
00000000
00000000
00000000
00000000
,
01000000
00000000
00010000
00000000
00000000
00000000
10000000
00000000
01000000
00000000
00010000
00000000
00000000
00000000
00001000
00000100
,
00000000
00000000
00000001
00000010
00000000
00000000
00000100
00000000
00001000
00000001
00001000
00000000
00000000
00000000
00000010
00000000
,
00000100
00000001
00000100
00000010
00000100
00001000
00010000
00001000
,
00010000
00000100
00010000
00000010
00010000
00001000
00000000
00010000
,
00100000
00000000
01000000
00000000
00000000
00000000
10000000
01000000
00000000
00000000
00001000
00010000
00000000
00000000
00000100
00000000
,
00000010
00000001
00000010
00000000
00000000
00000000
00000100
00000000
00000001
00000000
00000100
00000000
00000010
00000000
00000100
00000000
,
00010000
00000000
00001000
00100000
00000000
00000000
00010000
10000000
00000000
00000000
00100000
00000000
01000000
00010000
00000000
00000000
,
01100000
00000000
00000000
00001000
00000000
00000000
00022000
00000000
00000000
00033000
00000000
00000000
00000110
00000000
00000000
00010000
,
00000000
00000000
00022000
00000000
00000000
00033000
00000000
00000000
00010000
00000000
00100000
01000000
00010000
00000000
10020000
00000000
,
00000000
00000000
00000000
00000000
00000000
00000000
00000000
00000000
01000000
00000000
00000000
00000000
00000000
10030000
00010000
00000000
,
00000000
01000000
00001000
00000000
00000000
00000000
00010000
00000000
00001000
00000000
00000010
00000001
00000000
00000000
00000011
00000000
,
00000000
00001010
00000000
00000000
00011000
00000000
00000000
00110000
00000000
00000000
10010000
00000000
10000000
00000000
00100000
00000000
,
01000000
00100000
01000000
00002000
00000000
00010000
01000000
00000000
,
01000000
00000000
00000000
00000000
00013000
00000000
00000000
00000000
00000000
00000000
00011000
00000000
00000000
00101000
00000000
00100000
,
00010000
00000000
10000000
00010000
00000000
10000000
00010000
00000000
01000000
00000000
00100000
00000000
00010000
00000000
00001000
00000000
,
00000000
00010000
00000100
00000000
00000010
00000000
00001000
00000000
00000010
00000000
00000001
00000000
00000100
00000000
00001000
00000000
,
00020000
00000000
00130000
01000000
00020000
00000000
10030000
01000000
,
00100000
00010000
00001000
00000100
00000010
00000000
00001100
00000000
,
00010000
00000000
00000000
00001000
00000000
00010000
00000000
00001000
00000000
00010000
00000000
00001000
00000000
00100000
00000000
00001000
00000000
00100000
00000000
00001000
00000000
01000000
00000000
00010000
,
00000000
00000000
01000000
00000000
00000000
00000000
00010000
00000000
00000000
00000000
00000000
00000000
10000000
00000000
00000000
00000000
00000000
00000000
00100000
00000000
00000000
00000000
00000000
00000000
00000000
00000000
00000000
01000000
00000000
00000000
00010000
00000000
00000000
00000000
00000000
00000000
01010000
00000000
00000000
00000000
00000000
00000000
00000000
00000000
00000000
00000000
00000000
00000000
,
01000000
00000000
00001000
00000000
00011000
00000000
00000000
00010000
00000100
00000000
00001100
00000000
00000000
00000000
00001000
00000000
,
00000001
00000101
00000000
00000100
00000110
00000000
00000010
00010000
,
00011000
00000000
00101000
00000000
00002000
00023000
00230000
20300000
,
32000000
00000000
03200000
00000000
00310000
00000000
00000000
00110000
00000000
00000000
10000000
00000000
00000000
10100000
00000000
00000000
,
00010000
00000000
00000000
01010000
00000000
00000000
00001000
00000000
00000000
00011000
00000000
00000000
00000000
00010000
00001000
00000000
,
00000000
00000000
00000010
00000000
00000100
00000000
00001000
00000000
00000000
00000000
00000000
00000001
00001000
00000000
00000000
00000010
,
00000100
00000000
00001000
00000000
00010000
00001000
00010000
00000000
00000000
00000000
00100000
00000000
10000000
00000000
01000000
00000000
,
00100000
00010000
01000000
00000000
00100000
00010000
00001000
00000010
,
00000001
00000100
00001000
01000000
00200000
00000000
00300000
00000000
;

//---------------dance-double - ----------------
#NOTEDATA:;
#CHARTNAME:;
#CHARTHASH:1268318684;
#STEPSTYPE:dance-double;
#BANNER:;
#DESCRIPTION:;
#CHARTSTYLE:;
#DIFFICULTY:Hard;
#METER:17;
#METERF:0.000000;
#LASTSECONDHINT:118.818741;
#RADARVALUES:0.925224,0.958751,0.919308,0.480359,0.646000,782.000000,671.000000,111.000000,58.000000,0.000000,0.000000,0.000000,0.000000,0.000000,0.925224,0.958751,0.919308,0.480359,0.646000,782.000000,671.000000,111.000000,58.000000,0.000000,0.000000,0.000000,0.000000,0.000000;
#CREDIT:3RR0R (0D3, Y0$3FU;
#DISPLAYBPM:127.000000:180.000000;
#NOTES:
// measure 0
00000000
00000000
00000000
00000000
,  // measure 1
00000000
00000000
00000000
00000000
,  // measure 2
00000000
00000000
00000000
00000000
,  // measure 3
00011000
00010000
00000010
00000110
00000000
00001001
00000000
00001000
,  // measure 4
00000100
00000001
00000100
00000010
00000100
00001000
00000100
00010000
00001000
00000000
01000000
00000000
00010000
00000000
10000000
00000000
,  // measure 5
01000000
00100000
00000000
00110000
00000000
00010000
01010000
00000000
,  // measure 6
10100000
00000000
10000000
00010000
00100000
00000000
10000000
00000000
00100000
00000000
00110000
00000000
00001000
00000000
00011000
00000000
,  // measure 7
00000000
00000000
00010000
00000010
00001000
00000000
00000100
00000010
00000001
00000000
00000100
00000000
00001010
00000000
00001010
00000000
,  // measure 8
00001010
00001010
00000000
00022000
00000000
00000000
00000000
00000000
,  // measure 9
00000000
00000000
00000000
00000000
,  // measure 10
00000000
00000000
00030000
00003000
,  // measure 11
00011000
00000000
00000000
00000000
01001000
00000000
00000000
01000000
00010000
00000000
00200000
00000000
00000000
00000000
10000000
00000000
,  // measure 12
01300000
00000000
00000000
00000000
11000000
00000000
00000000
00000000
10000000
00100000
01000000
00000000
00001000
00000000
00000000
00000000
,  // measure 13
00011000
00000000
00010000
00000100
00000010
00000100
00002000
00000000
00000000
00000000
00003001
00000000
00000101
00000000
00000000
00000000
,  // measure 14
00001100
00000000
00010000
00000000
00001000
00000000
01000000
00000000
01100000
00000000
00000000
00000000
10100000
00000000
00000000
10000000
,  // measure 15
01000000
00020000
00000000
01000000
00031000
00000000
00000110
00000001
,  // measure 16
00000100
00001000
00010000
00000000
01000000
00000000
00000000
00000000
01100000
00000000
00010000
00000000
10000000
00100000
00010000
00000000
,  // measure 17
00000000
00000000
00011000
00000000
00010000
00000000
00001100
00000000
00001000
00000000
00000001
00000000
00000100
00000010
00000100
00001000
,  // measure 18
00010000
00000000
00000000
00000000
00001000
00000010
00001000
00010000
01000000
00000000
00000000
00100000
10000000
00000000
01000000
00100000
,  // measure 19
00010000
10000000
00100000
00010000
00001000
00010000
00000100
00000210
,  // measure 20
00000001
00000010
00001300
00000001
00001001
00001000
00000010
00000100
,  // measure 21
00001000
00000000
00010000
00000000
00100000
00000000
01000000
00010000
10000000
00000000
01000000
00000000
00010000
00000000
00000000
00000000
,  // measure 22
01100000
00010000
10000000
00100000
01000000
00010000
00120000
00000000
,  // measure 23
01030000
00100000
00010000
00021000
00000000
00000100
00031000
00000100
,  // measure 24
00000110
00000000
00000001
00000000
00000100
00001000
00010000
00000000
00002000
00000000
00000000
00000000
00003010
00000000
00001000
00010000
,  // measure 25
00001000
00200000
00000000
01300000
11000000
00010000
01010000
00000000
,  // measure 26
01000000
00100000
00010000
00001000
00010000
00000000
00001000
00000000
00000010
00000000
00000001
00000000
00000100
00000000
00000210
00000000
,  // measure 27
00001000
00000010
00000301
00001000
00001100
00000100
00000001
00000100
,  // measure 28
00010000
00001000
00000100
00001000
00010000
02000000
00000000
00010000
,  // measure 29
13000000
00000000
00100000
01000000
00001000
00010000
00000100
00000000
00000010
00000001
00000100
00000010
00001000
00000000
00000000
00000000
,  // measure 30
00000001
00000000
00000010
00000000
00000000
00000000
00000100
00001000
00000001
00000100
00000010
00000000
00000000
00001000
00000010
00010000
,  // measure 31
00001000
00000000
00100000
01000000
10000000
00000000
00100000
01000000
,  // measure 32
00000000
10000000
01000000
00010000
00000000
01001000
00000000
00002000
,  // measure 33
00023000
00230000
20300000
32000000
03020000
00032000
00000000
00000010
,  // measure 34
00013000
00000010
00001010
00000000
00001001
00000000
00001000
00001100
,  // measure 35
00000100
00000010
00000001
00000100
00001000
00010000
00200000
10000000
,  // measure 36
10000000
00000000
02300000
00000000
00010000
00000000
03100000
00000000
10000000
00000000
01000000
00100000
00010000
00000000
00001000
00000100
,  // measure 37
00000010
00000000
00000001
00000100
00000010
00000000
00001000
00000100
00000010
00000000
00000021
00000000
00000000
00000000
00001000
00000000
,  // measure 38
00000031
00000100
00001100
00000000
00011000
00000000
00100000
00010000
,  // measure 39
01010000
00000000
01000000
10000000
11000000
02000000
00010000
00010000
,  // measure 40
03002000
00000000
00010000
00000000
00003010
00000000
00000100
00000000
00001000
00000000
00000001
00000100
00000010
00001000
00000010
00010000
,  // measure 41
00001000
00100000
01000000
10000000
00100000
01000000
00010000
00100000
02000000
00000000
00000000
13000000
00100000
00000000
00010000
00001000
,  // measure 42
00010000
00000000
00000100
00000010
00000001
00000000
00000102
00000000
00000000
00000000
00001000
00000000
00000013
00000000
00000100
00001000
,  // measure 43
00000001
00000000
00000100
00001000
00010000
00001000
00100000
01000000
20000000
00000000
00000000
30010000
01000000
00000000
00100000
00010000
,  // measure 44
00001000
00010000
00000100
00000010
00000001
00000000
00001002
00000000
00000000
00000000
00000100
00000000
00001003
00000000
00000100
00000010
,  // measure 45
00000001
00000000
00000100
00000010
00000100
00001000
00010000
00000000
00011000
00000000
00001000
00100000
00010000
00000000
10000000
00000000
,  // measure 46
10010000
00000000
00010000
01000000
00001000
00000000
00010000
00000000
00011000
00000000
00001000
00010000
00000010
00000000
00000100
00000000
,  // measure 47
00000101
00000000
00001000
00000000
00001100
00000000
00010000
00000000
00011000
00000000
00001000
00010000
00100000
01000000
00010000
00000000
,  // measure 48
00100000
00000000
00000000
01000000
00000000
00000000
00010000
00000000
00000000
00001000
00000000
00000000
00000010
00000000
00000000
00000100
00000000
00000000
00001000
00000000
00000000
00000000
00000000
00000000
00000001
00000000
00000000
00000000
00000000
00000000
00001000
00000000
00000010
00000000
00000100
00000000
00000001
00000000
00000000
00000000
00000000
00000000
00000000
00000000
00000000
00000000
00000000
00000000
,  // measure 49
00002020
00000000
00000000
00003030
00000000
00000000
00001100
00000000
00000000
00000000
00022000
00000000
00000000
00033000
00000000
00000000
,  // measure 50
02020000
00000000
00000000
03030000
00000000
00000000
20200000
00000000
00000000
30300000
00000000
00000000
00202000
00000000
00000000
00303000
,  // measure 51
00000000
00000000
00020020
00000000
00000000
00030030
00000000
00000000
00001001
00000000
00001000
00000000
00000110
00000000
00000001
00000000
,  // measure 52
00000010
00000110
00001000
00000010
00010000
00011000
00100000
01000000
,  // measure 53
11000000
00000000
10000000
00100000
00010000
00000000
00110000
00000000
01100000
00000000
10000000
00000000
01000000
00000000
01100000
00000000
,  // measure 54
00010000
00000000
00000000
00000000
00000000
00000000
00101000
00000000
00000000
00000000
00000000
00000000
00001000
00000000
00000000
00010000
00000000
00000000
01000000
00000000
00000000
00010000
00000000
00000000
00001000
00000000
00000000
00000010
00000000
00000000
00001000
00000000
00000000
00010000
00000000
00000000
00100000
00000000
00000000
00000000
01000000
00000000
00000000
00000000
10000000
00000000
00000000
00000000
,  // measure 55
00000000
01000000
00001000
00000000
00010000
00000000
00100000
00000000
00010000
00000000
00000010
00000000
00001000
00000000
00000100
00000000
,  // measure 56
00000110
00000000
00000000
00000000
00011000
00000000
00000000
00000000
01001000
00000000
00000000
00000000
00000000
00000000
00000000
00000000
01000100
00000000
00000000
00000000
00011000
00000000
00000000
00000000
00200020
00300030
00000000
00000000
00000000
00000000
00000000
00000000
,  // measure 57
00011000
00000000
00010000
00000000
00001000
00000000
00000010
00000000
00000000
00000000
00000011
00000000
00000001
00000000
00000100
00001000
,  // measure 58
00010000
00000000
00100000
01000000
10000000
00000000
00000000
00000000
01000000
00100000
10000000
00000000
00100000
00000000
10100000
00000000
,  // measure 59
10000000
00000000
01000000
00010000
00001000
00000000
00011000
00000000
00000000
00000000
00010000
00000000
00000010
00000000
00000110
00000000
,  // measure 60
00000000
00000000
00000100
00000001
00001000
00000100
00000010
00000000
00000011
00000000
00000001
00000010
00000100
00000010
00001000
00000000
,  // measure 61
00010000
00000000
00011000
00000000
00000000
00000000
00001000
00010000
00100000
00000000
01000000
00010000
00100000
00000000
01000000
00000000
,  // measure 62
10000000
01000000
00100000
00000000
00001000
00000000
00011000
00000000
00010000
00000000
00000010
00000000
00000100
00000000
00001000
00000000
,  // measure 63
00000100
00000000
00000010
00001000
00000100
00000000
00000010
00000001
00000100
00000000
00000010
00000000
00010000
00001000
00000000
00000000
,  // measure 64
00011000
00000000
00000000
01100000
00000000
00000000
20020000
00000000
00000000
30030000
00000000
00000000
00011000
00000000
00000000
00000110
,  // measure 65
00000000
00000000
00002002
00000000
00000000
00003003
00000000
00000000
00001000
00000100
00000010
00001000
00010000
00100000
02000000
00000000
,  // measure 66
00000000
00000000
00000000
00000000
10000000
00000000
00000000
03010000
,  // measure 67
01000000
00100000
00010000
00000000
00001000
00000100
00000010
00000000
00000001
00000000
00000010
00000100
00000000
00000000
00001010
00000000
,  // measure 68
00000010
00010000
00000000
00001000
00010000
00000000
00001000
00000010
00000100
00001000
00000001
00000000
00000100
00000010
00010000
00000000
,  // measure 69
00001000
00000000
00000000
00000010
00000000
00000000
00001000
00000000
00000000
00010000
00000000
00000000
00100000
00000000
00000000
01000000
00000000
00000000
00010000
00100000
01000000
10000000
00000000
00000000
,  // measure 70
00010000
00000000
00100000
00000000
01000000
00000000
10000000
00000000
00000000
00000000
00000000
00000000
00010000
00000000
01000000
00000000
00100000
00000000
10000000
00000000
00000000
00000000
00000000
00000000
00010000
00000000
00000000
00000000
00000000
00000000
10000000
00000000
00000000
01000000
00000000
00000000
00000000
00000000
00000000
00100000
00000000
00000000
00001000
00000000
00000000
00010000
00000000
00000000
,  // measure 71
00100000
00000000
01000000
00010000
00000000
01000000
00010000
10000000
01000000
00000000
00100000
00000000
00001000
00000000
00010000
00000000
,  // measure 72
00000010
00001000
00000001
00000010
00000100
00000010
00001000
00000000
00010000
00000000
00001000
00000000
00000100
00000000
00000001
00000000
,  // measure 73
00001001
00000000
00001000
00000100
00010100
00000000
00020000
02030000
,  // measure 74
23000000
30200000
00320000
00031000
00011000
00000000
01100000
00000000
,  // measure 75
10010000
00000000
00000000
10000000
00000000
01000000
00000000
00100000
00000000
00010000
00000000
00001000
00000000
00000100
00000000
00000010
00000000
00000001
00000000
00000100
00000000
00001000
00000000
00010000
,  // measure 76
00000000
00000000
00100000
00000000
00000000
00000000
01000000
00000000
00000000
00000000
00000000
00000000
00010000
00000000
00000000
00000000
00000000
00000000
10000000
00000000
00000000
00000000
00000000
00000000
00000000
00000000
00000000
01000000
00000000
00000000
00100000
00000000
00000000
00000000
00000000
00000000
00101000
00000000
00000000
00000000
00000000
00000000
00001000
00000000
00000000
00010000
00000000
00000000
,  // measure 77
00000010
00001000
00000001
00000000
00001001
00000000
00000000
00001000
00000100
00000000
00000110
00000000
00000001
00001000
00000001
00000000
,  // measure 78
00000100
00000010
00010000
00000000
00001000
00000000
00100000
00000000
01100000
00000000
00000000
00000000
11000000
00000000
10000000
00000000
,  // measure 79
10010000
00000000
01100000
00000000
20000000
30200000
00320000
00032000
,  // measure 80
00203000
00000000
00301000
00000000
00101000
00000000
00000000
00010010
00000000
00000000
00011000
00000000
00000000
01001000
00000000
00000000
,  // measure 81
00010100
00000000
00000000
00011000
00000000
00000000
00100010
00000000
00000000
00011000
00000000
00000000
00000000
00010000
00001000
00000000
,  // measure 82
00000000
00000010
00000100
00001000
00000001
00000100
00000001
00000000
00000000
00000000
00000010
00001000
00010000
00000000
01000000
00010000
,  // measure 83
10000000
00000000
00100000
01000000
00001000
00010000
00000100
00000000
00000000
00000000
00000011
00000000
00001000
00000000
00000010
00000000
,  // measure 84
00010000
00001000
00100000
00000000
01100000
10000000
00100000
00010000
,  // measure 85
00001000
00000000
00000010
00000001
00001000
00000010
00010000
00001000
00000200
00000000
00000000
00000000
00000300
00000000
00000000
00000000
;
