#TITLE:Cockroach Cooking;
#SUBTITLE:;
#ARTIST:Yosk!;
#TITLETRANSLIT:;
#SUBTITLETRANSLIT:;
#ARTISTTRANSLIT:;
#GENRE:ゴキBreak;
#CREDIT:;
#BANNER:Cockroach Cooking.png;
#BACKGROUND:Cockroach Cooking-bg.png;
#LYRICSPATH:;
#CDTITLE:../_YSD cdtitles/ysd sc2024 cdtitle.png;
#MUSIC:Cockroach Cooking.ogg;
#OFFSET:-0.050000;
#SAMPLESTART:89.414001;
#SAMPLELENGTH:20.757000;
#SELECTABLE:YES;
#DISPLAYBPM:185.000000:362.000000;
#BPMS:0.000000=185.000000
,36.000000=740.000000
,84.000000=185.000000
,231.000000=188.000000
,233.000000=191.000000
,235.000000=193.000000
,237.000000=196.000000
,239.000000=197.000000
,241.000000=200.000000
,243.000000=203.000000
,245.000000=205.000000
,247.000000=206.000000
,249.000000=210.000000
,251.000000=211.000000
,253.000000=214.000000
,255.000000=216.000000
,257.000000=218.000000
,259.000000=220.000000
,261.000000=229.000000
,263.000000=231.000000
,264.000000=240.000000
,265.000000=245.000015
,267.000000=249.000000
,269.000000=267.000000
,271.000000=275.000000
,274.000000=288.000000
,276.000000=296.000000
,278.000000=302.000000
,279.000000=305.000000
,280.000000=320.000000
,283.000000=325.000000
,285.000000=330.000000
,286.000000=336.000000
,288.000000=362.000000
,293.000000=185.000000
;
#STOPS:84.000000=0.972973
;
#BGCHANGES:4.000=Cockroach Cooking.avi=1.000=1=0=0=StretchNoLoop==CrossFade==,
99999=-nosongbg-=1.000=0=0=0 // don't automatically add -songbackground-
;
#KEYSOUNDS:;
#ATTACKS:;

//---------------dance-single - ----------------
#NOTES:
     dance-single:
     Number 12 - CAULK:
     Hard:
     16:
     0.702565,0.995704,0.016151,0.468377,0.472414,609.000000,607.000000,2.000000,58.000000,0.000000,0.000000,0.702565,0.995704,0.016151,0.468377,0.472414,609.000000,607.000000,2.000000,58.000000,0.000000,0.000000:
0000
0000
0000
0000
,
0000
0000
0000
0000
,
0000
0000
0000
0000
,
0000
0000
0000
0000
,
0000
0000
0000
0000
,
0000
0000
0000
0000
,
0000
0000
0000
0000
,
0000
0000
0000
0000
,
0000
0000
0000
0000
,
2002
0000
0000
0000
,
0000
0000
0000
0000
,
0000
0000
0000
0000
,
0000
0000
0000
0000
,
0000
0000
0000
0000
,
0000
0000
0000
0000
,
0000
0000
0000
0000
,
0000
0000
0000
0000
,
0000
0000
0000
0000
,
0000
0000
0000
0000
,
0000
0000
0000
0000
,
0000
0000
0000
0000
,
3003
0000
0000
0000
1000
0000
0001
0000
0100
0000
0001
1000
0000
0100
1000
0000
,
0001
0000
0100
0000
1000
0000
0100
0000
0001
0000
0010
0100
0000
0010
0100
0000
,
0001
0000
0100
0000
1000
0000
0001
0000
0100
0000
0010
1000
0000
0001
1000
0000
,
0100
0000
0010
0000
0001
0000
1000
0010
1000
0000
0001
0000
1000
0100
0010
0100
,
1000
0000
0001
0000
0100
0000
0010
0000
0100
0000
0001
1000
0000
0100
1000
0000
,
0001
0000
0010
0000
1000
0000
0010
0000
0001
0000
1000
0010
0000
0100
0001
0000
,
0010
0000
1000
0000
0010
0000
0100
0000
1000
0000
0001
0100
0000
0010
1000
0000
,
0001
0010
0100
0000
0100
0000
0100
0000
,
0100
2000
3020
0230
,
0302
0000
0013
1000
0010
0001
0200
0000
,
0300
0010
2000
0000
3200
0000
0320
0000
,
0032
0000
1003
0010
0001
0010
0200
0000
,
0301
0000
0010
0000
0100
0000
0000
0100
1000
0000
0000
1000
0010
0000
0000
0010
,
0100
0000
0000
0100
1000
0000
0100
0000
0001
0000
0010
0000
0100
0000
1000
0000
,
0001
0000
0100
0000
0010
1000
0100
0000
0010
0001
0100
0000
0010
1000
0001
0000
,
0010
0100
1000
0000
0010
0100
0001
0100
0010
0000
0000
0000
1000
0100
0010
0100
,
1000
0000
0001
0000
0100
0001
0100
0000
,
0100
0001
0100
0001
0100
0010
1000
0000
,
0200
0000
0000
0302
0000
0000
0103
0000
1000
0020
0000
0000
,
0130
0000
0000
0000
0001
0000
0010
0000
0000
0100
0000
0000
0010
0000
0000
0001
0000
0000
2000
0000
0000
0000
0000
0000
,
3020
0000
0000
0000
0130
0000
0001
1000
0001
0000
0010
0000
0200
0000
0000
0000
,
2300
0000
0000
0000
3010
0000
0001
0010
0100
0000
0001
0000
0200
0000
0000
0000
,
0310
0000
1000
0100
0020
0000
0000
0000
0031
0000
0100
0010
2000
0000
0000
0000
,
3200
0000
0000
0000
0310
0000
0001
0100
0010
0000
1000
0001
0020
0000
0000
0000
,
2030
0000
0000
0000
3010
0000
0001
0100
0010
0000
0100
0000
0002
0000
0000
0000
,
1003
0000
0100
0000
0010
0000
1000
0010
0100
0000
1000
0000
0002
0000
0000
0000
,
0203
0000
0000
0000
0310
0000
1000
0100
0010
0000
0001
0000
1000
0000
0010
0000
,
0100
0010
1000
0100
0001
0100
2000
0000
,
3002
0000
0000
0000
1003
0000
0000
1000
0010
0000
0000
0010
0100
0000
0001
0000
,
0010
0100
0001
0100
1000
0001
0200
0000
,
0310
0000
1000
0000
0100
0000
1000
0001
1000
0000
0001
0100
0001
0000
0010
0000
,
0001
0100
0010
1000
0100
0010
0001
0100
,
0010
0000
1000
0000
0100
0000
0000
0100
0002
0000
0000
0000
0103
0000
1000
0000
,
0010
0100
1000
0100
0001
0010
0200
0000
,
2300
0000
0000
0000
3001
0000
0000
0001
0100
0000
0000
0100
1000
0000
0000
1000
,
0100
0000
0000
0100
0001
0100
0001
0000
1000
0100
1000
0000
0001
0010
0100
0000
,
1000
0000
0001
0000
0100
0000
0001
1000
0001
0000
1000
0000
0100
0000
0010
0001
,
0010
0000
0100
0000
1000
0000
0001
0100
0001
0000
1000
0000
0100
0000
0000
0000
,
0010
0000
0000
0000
0001
0000
1000
0100
1000
0000
0100
0000
0010
0000
0001
1000
,
0001
0000
0100
0000
0010
0000
1000
0100
1000
0000
0010
0000
0100
0000
0000
0001
,
0010
0000
0100
0000
0001
0000
0000
0100
0010
0000
0001
0000
0200
0000
0000
0000
,
0320
0000
0000
0000
1030
0000
0000
0010
1000
0000
0010
0000
0200
0000
0000
0000
,
0301
0010
0100
1000
0010
0100
0001
1000
,
0100
0001
0100
1000
0001
0100
1000
0000
,
0200
0000
0301
1000
0100
0000
0010
0001
,
0100
0010
1000
0001
0000
1000
0001
0000
,
0100
0001
1000
0100
0000
1000
0100
0000
,
0010
0001
0100
0001
0000
0100
0001
0010
,
0001
1000
0100
0000
0010
0000
0001
0010
,
0100
0010
1000
0020
0000
0031
0100
1000
,
0100
0001
1000
0100
0010
0001
0100
0010
,
1000
0100
0001
0000
0100
0000
1000
0000
,
0001
0100
0000
0000
,
0000
0000
0000
0000
,
0000
0000
0000
0000
,
0000
0000
0000
0000
,
0001
0010
0100
1000
0002
0000
0000
0000
1000
0000
0203
0000
0000
0000
0000
0000
,
0310
0000
1000
0000
0001
0010
0100
0000
1000
0010
0100
0000
0010
1000
0001
0000
,
1000
0000
0100
0000
0010
0000
0001
0000
0100
0000
0010
0000
1000
0010
0100
0001
,
1000
0100
0010
0001
0100
0000
0000
0000
0000
0000
0000
0000
0002
0000
0023
0000
,
0230
0000
2300
0000
3001
0000
0000
0001
0100
0000
0000
0100
0010
0000
0000
0010
,
1000
0000
0000
1000
0100
0000
0001
0000
0100
0000
1000
0000
0002
0000
0000
0000
,
0103
0000
0010
0000
1000
0000
0000
1000
0100
0000
0000
0100
0010
0000
0000
0010
,
0100
0000
0000
0100
1000
0000
0001
0100
0010
0000
0001
0000
0020
0000
0000
0000
,
2030
0000
0000
0000
3100
0000
0010
0001
0010
0000
0100
0000
2000
0000
0000
0000
,
3002
0000
0000
0000
0103
0000
0010
1000
0010
0000
0100
0000
0002
0000
0000
0000
,
0023
0000
0000
0000
0130
1000
0010
0000
0100
0001
0010
0000
0100
1000
0001
0000
,
1000
0010
0100
0001
1000
0000
0000
0100
1000
0000
0010
0000
0100
0000
0000
0000
,
0002
0000
0000
0000
1003
0000
0000
1000
0100
0000
0000
0100
0010
0000
0000
0010
,
0001
0000
0000
0001
0100
0000
1000
0000
0100
0000
0001
0000
0020
0000
0000
0000
,
0130
0000
1000
0000
0010
0000
0000
0010
1000
0000
0000
1000
0100
0000
0000
0100
,
0001
0000
0000
0100
1000
0000
0010
0000
0100
0000
0001
0000
2000
0000
0000
0000
,
3100
0010
0001
1000
0100
0000
0010
0001
0010
0000
0100
0000
1000
0000
0001
1000
,
0001
0100
0010
1000
0010
0100
2000
0000
,
3200
0000
0000
0000
0301
1000
0100
0000
1000
0001
0100
0000
0010
0100
0001
0100
,
0010
1000
0001
0000
0020
0000
0000
0000
0000
0000
0000
0000
0000
0000
0000
0000
,
0030
0000
0000
0000
0100
0000
1000
0000
0001
0000
1000
0100
0000
1000
0100
0000
,
0010
0000
0001
0000
0100
0000
1000
0000
0100
0000
0001
1000
0000
0100
1000
0000
,
0010
0000
1000
0000
0100
0000
0010
0000
0001
0000
0100
0010
0000
1000
0001
0000
,
0010
0000
0100
0000
1000
0000
0010
0100
1000
0100
0010
0000
1000
0000
0001
0010
,
0100
0000
0000
0000
1000
0010
0100
0001
0010
0000
0000
0000
0001
0100
0010
1000
,
0100
0010
0001
1000
0010
0000
0000
0000
0000
0000
0000
0000
1001
0000
0000
0000
;

//---------------dance-single - ----------------
#NOTES:
     dance-single:
     :
     Beginner:
     5:
     0.203040,0.331901,0.137283,0.024226,0.000000,176.000000,159.000000,17.000000,3.000000,0.000000,0.000000,0.203040,0.331901,0.137283,0.024226,0.000000,176.000000,159.000000,17.000000,3.000000,0.000000,0.000000:
0000
0000
0000
0000
,
0000
0000
0000
0000
,
0000
0000
0000
0000
,
0000
0000
0000
0000
,
0000
0000
0000
0000
,
0000
0000
0000
0000
,
0000
0000
0000
0000
,
0000
0000
0000
0000
,
0000
0000
0000
0000
,
2002
0000
0000
0000
,
0000
0000
0000
0000
,
0000
0000
0000
0000
,
0000
0000
0000
0000
,
0000
0000
0000
0000
,
0000
0000
0000
0000
,
0000
0000
0000
0000
,
0000
0000
0000
0000
,
0000
0000
0000
0000
,
0000
0000
0000
0000
,
0000
0000
0000
0000
,
0000
0000
0000
0000
,
3003
1001
0000
0001
,
0000
1000
0000
0010
,
0000
1000
0000
0001
,
0000
1001
0000
0000
,
0000
1001
0000
1000
,
0000
0100
0000
1000
,
0000
0001
0000
0100
,
0000
0110
0000
0000
,
0000
1001
0000
0000
,
0000
0001
0000
0000
,
0000
1000
0000
0000
,
0000
0100
0000
0000
,
0000
0110
0000
0010
,
0000
0100
0000
1000
,
0000
0001
0000
0000
,
0000
0100
0000
0100
,
0000
0110
0000
0000
,
0000
0000
0000
0000
,
0000
0010
0000
0000
,
0000
1000
0000
0000
,
0000
1001
0000
0001
,
0000
1000
0000
0100
,
0000
1000
0000
0001
,
0000
0100
0000
0010
,
0000
1000
0000
0001
,
0000
1000
0000
0100
,
0000
0010
0000
0100
,
0000
0110
0000
0010
,
0000
1001
0000
0001
,
0000
1000
1000
1000
,
0000
0100
0000
0010
,
0000
0001
0001
0001
,
0000
1000
0000
0100
,
0000
0010
0010
0010
,
0000
0001
0000
1000
,
0000
0100
0000
0010
,
0000
0001
0000
1000
,
0000
0010
0000
1000
,
0000
0001
0000
0010
,
0000
0001
0000
1000
,
0000
0100
0000
0010
,
0000
0100
0000
0010
,
0000
0100
0000
0010
,
0000
0100
0000
1000
,
0000
0001
0000
1000
,
0000
0001
0000
1000
,
0000
0001
0000
1000
,
0000
0001
0000
1000
,
0000
0001
0000
1000
,
0000
0001
0000
1000
,
0000
0001
0000
1000
,
0000
0001
0000
1000
,
0000
0001
0000
0000
,
0000
0000
0000
0000
,
0000
0000
0000
0000
,
0000
0000
0000
0000
,
0000
1001
0000
0001
,
0000
0100
0100
0100
,
0000
1000
0000
0001
,
0001
0001
0000
0000
,
0000
1001
0000
0001
,
0000
1000
1000
1000
,
0000
0010
0000
0100
,
0000
0001
0001
0001
,
0000
1000
0000
0100
,
0000
0010
0010
0010
,
0000
0001
0001
0001
,
0000
1000
1000
1000
,
0000
1001
0000
0001
,
0000
0100
0100
0100
,
0000
0010
0000
1000
,
0000
0001
0001
0001
,
0000
0010
0000
0100
,
0000
1000
1000
1000
,
0000
0001
0000
0100
,
0000
0020
0000
0000
,
0030
0110
0000
0100
,
0000
0001
0000
1000
,
0000
0001
0000
1000
,
0000
0100
0100
0100
,
0000
0010
0010
0010
,
0000
1001
0000
0110
;

//---------------dance-single - ----------------
#NOTES:
     dance-single:
     28 HEALTH CODE VIOLATIONS:
     Easy:
     12:
     0.419924,0.622315,0.113056,0.080755,0.036340,364.000000,350.000000,14.000000,10.000000,0.000000,0.000000,0.419924,0.622315,0.113056,0.080755,0.036340,364.000000,350.000000,14.000000,10.000000,0.000000,0.000000:
0000
0000
0000
0000
,
0000
0000
0000
0000
,
0000
0000
0000
0000
,
0000
0000
0000
0000
,
0000
0000
0000
0000
,
0000
0000
0000
0000
,
0000
0000
0000
0000
,
0000
0000
0000
0000
,
0000
0000
0000
0000
,
2002
0000
0000
0000
,
0000
0000
0000
0000
,
0000
0000
0000
0000
,
0000
0000
0000
0000
,
0000
0000
0000
0000
,
0000
0000
0000
0000
,
0000
0000
0000
0000
,
0000
0000
0000
0000
,
0000
0000
0000
0000
,
0000
0000
0000
0000
,
0000
0000
0000
0000
,
0000
0000
0000
0000
,
3003
0000
0000
0000
1000
0000
0001
0000
0100
0000
0000
0001
0000
0000
0001
0000
,
1000
0000
0000
0000
0100
0000
0010
0000
0001
0000
0000
1000
0000
0000
1000
0000
,
0010
0000
0000
0000
0100
0000
0001
0000
1000
0000
0000
0100
0000
0000
0100
0000
,
0010
1001
0000
0000
,
0000
0000
0000
0000
1000
0000
0001
0000
0100
0000
0000
0010
0000
0000
0010
0000
,
1000
0000
0000
0000
0100
0000
0010
0000
0001
0000
0000
1000
0000
0000
1000
0000
,
0001
0000
0000
0000
0100
0000
0010
0000
1000
0000
0000
0001
0000
0000
0001
0000
,
0010
0200
0000
0000
,
0300
1000
0001
0100
,
0010
0000
1000
0001
1000
0000
0001
0000
,
0000
0010
0100
1000
,
0100
0000
0010
0001
0010
0000
0100
0000
,
0000
1000
0001
0100
,
0010
0000
1000
0001
0100
0000
1000
0000
,
0100
0101
1001
1100
,
1001
0101
0000
0110
,
0000
1001
0000
0000
,
0000
0000
0000
0000
,
0001
1000
0100
0010
,
0100
0000
1000
0100
0010
0000
0001
0000
,
0200
0000
0310
0000
1000
0001
1000
0000
,
0001
0000
0100
0010
0100
0000
0001
0000
,
0100
0001
0100
0000
0001
1000
0001
0000
,
1000
0000
0100
0010
0100
0000
1000
0000
,
0010
0000
0100
0000
0010
1000
0010
0000
,
0100
0000
0001
1000
0001
0000
0100
0000
,
0010
0000
1000
0001
1000
0000
0001
0000
,
0010
0000
0100
1000
0100
0000
0020
0000
,
0030
0000
0001
0000
0001
0000
0100
0010
,
0100
0000
0001
1000
0001
0000
0100
0000
,
0010
0000
1000
0000
1000
0000
0100
1000
,
0100
0000
0010
0001
0010
0000
0100
0000
,
1000
0100
0001
0100
,
1000
0000
1000
0001
1000
0000
0010
0000
,
0100
0001
0001
1000
,
1000
0000
0100
0010
0100
0000
1000
0001
,
1000
0100
0010
0001
,
0100
0000
0010
1000
0010
0000
0100
0000
,
0001
1000
0100
0010
,
0001
0000
1000
0100
1000
0000
0001
0000
,
0100
0010
0010
1000
,
1000
0001
0001
0100
,
0100
0000
0010
1000
0010
0000
0100
0000
,
0001
0000
1000
0100
1000
0000
0001
0000
,
2000
3100
0100
0010
,
0010
0001
0001
1000
,
1000
0001
0001
0100
,
0100
0010
0010
1000
,
1000
0001
1000
0001
,
1000
0100
0010
0100
,
0010
0001
0100
0010
,
1000
0001
0001
0001
,
0000
1000
0000
0000
,
0000
0000
0000
0000
,
0000
0000
0000
0000
,
0000
0000
0000
0000
,
0000
0000
0002
0000
0000
0203
0000
0000
,
0301
0000
1000
0100
0010
0000
0001
0000
,
0100
0010
0001
0010
,
1000
0001
0100
0000
0000
0000
0001
0000
,
1000
0001
0100
0010
,
1000
0000
0001
0100
0001
0100
0001
0000
,
0000
0010
0100
1000
,
0001
0000
0100
0001
1000
0001
0100
0000
,
0010
0000
1000
0000
1000
0100
0010
0000
,
0001
0000
0100
0000
0100
0001
1000
0000
,
0010
0000
1000
0010
0100
0000
0001
0000
,
0010
0000
0100
0000
1000
0001
0100
0000
,
0020
0130
0001
0100
,
0010
0000
1000
0001
0100
0001
1000
0000
,
0000
0100
0010
0001
,
0100
0000
0010
1000
0100
1000
0010
0000
,
0100
0000
0001
0010
0100
0000
1000
0100
,
0010
0000
0001
0010
0100
0010
0001
0000
,
1000
0000
0001
0100
0010
0000
1000
0100
,
0010
0002
0000
0000
,
0003
0000
0000
0000
1000
0000
0100
0000
0010
0000
0000
0001
0000
0000
0001
0000
,
1000
0000
0000
0000
0010
0000
0100
0000
0001
0000
0000
1000
0000
0000
1000
0000
,
0100
0000
0000
0000
0010
0000
0001
0000
1000
0000
0000
0010
0000
0000
0010
0000
,
0100
0101
0010
1001
,
0100
1001
0010
0101
,
0001
0010
0100
0000
0000
0000
1001
0000
;

//---------------dance-single - Move over Remy...----------------
#NOTES:
     dance-single:
     ...there's a new chef in town.:
     Medium:
     14:
     0.562975,0.788266,0.024226,0.516829,0.181698,488.000000,485.000000,3.000000,64.000000,0.000000,0.000000,0.562975,0.788266,0.024226,0.516829,0.181698,488.000000,485.000000,3.000000,64.000000,0.000000,0.000000:
0000
0000
0000
0000
,
0000
0000
0000
0000
,
0000
0000
0000
0000
,
0000
0000
0000
0000
,
0000
0000
0000
0000
,
0000
0000
0000
0000
,
0000
0000
0000
0000
,
0000
0000
0000
0000
,
0000
0000
0000
0000
,
2002
0000
0000
0000
,
0000
0000
0000
0000
,
0000
0000
0000
0000
,
0000
0000
0000
0000
,
0000
0000
0000
0000
,
0000
0000
0000
0000
,
0000
0000
0000
0000
,
0000
0000
0000
0000
,
0000
0000
0000
0000
,
0000
0000
0000
0000
,
0000
0000
0000
0000
,
0000
0000
0000
0000
,
3003
0000
0000
0000
1000
0000
0001
0000
0100
0000
0001
1000
0000
0000
0001
0000
,
1000
0000
0100
0000
0001
0000
0100
0000
1000
0000
0001
0100
0000
0000
0001
0000
,
0010
0000
0100
0000
1000
0000
0010
0000
0100
0000
0010
1000
0000
0000
0001
0000
,
0010
0000
0100
0000
0010
0000
0001
0000
1000
0000
0000
0000
0001
0100
0001
0000
,
1000
0000
0100
0000
0010
0000
0001
0000
0100
0000
0001
0010
0000
0000
0100
0000
,
1000
0000
0010
0000
0001
0000
0010
0000
0100
0000
0001
1000
0000
0000
0100
0000
,
0010
0000
0100
0000
1000
0000
0001
0000
0100
0000
0010
1000
0000
0000
0100
0000
,
0010
0001
1000
0000
1000
0000
1000
0000
,
1000
0002
0203
0320
,
2030
0000
3100
0010
0001
0010
0200
0000
,
0300
1000
0020
0000
0230
0000
0302
0000
,
0203
0000
0310
0001
0010
1000
0002
0000
,
0013
0000
0000
0000
0100
0000
0000
0100
1000
0000
0000
1000
0001
0000
0000
0001
,
0100
0000
0000
0100
0010
0000
0100
0000
0001
0000
0010
0000
1000
0000
0010
0000
,
0001
0000
0100
0000
0010
0000
0000
0010
1000
0000
0000
1000
0100
0000
0000
0100
,
0010
0000
0000
0010
0001
0000
1000
0000
0010
0000
0000
0000
0100
0001
0100
0000
,
0001
1001
0000
0000
,
0000
0000
0000
0000
,
2000
0000
0000
3200
0000
0000
0310
0000
1000
0020
0000
0000
,
0032
0000
0103
0010
1000
0010
0200
0000
,
0302
0000
0000
0000
0013
0000
0000
0100
1000
0000
0001
0000
0200
0000
0000
0000
,
0320
0000
0031
0010
0100
0001
2000
0000
,
3100
0001
0200
0000
1300
0010
0200
0000
,
0302
0000
1003
0100
0001
0100
2000
0000
,
3020
0000
0000
0000
0031
0000
0000
0010
0100
0000
0001
0000
2000
0000
0000
0000
,
3100
0010
0100
1000
0010
0100
0002
0000
,
0203
0000
0000
0000
0301
0000
0000
0010
0100
0000
1000
0000
0001
0000
0100
0000
,
0010
1000
0100
0010
1000
0010
0002
0000
,
0003
0000
0000
0000
1000
0000
0000
1000
0010
0000
0000
0010
1000
0000
0100
0000
,
0010
0001
0100
0010
1000
0001
0200
0000
,
1300
0000
0100
0000
0001
0000
0000
0001
0100
0000
0000
0100
0001
0000
0010
0000
,
0100
1000
0001
0100
0010
1000
0100
0010
,
0001
0000
0100
0000
0010
0000
0000
0100
2000
0000
0000
0000
3100
0000
0001
0000
,
0010
0100
1000
0010
0001
0010
1000
0000
,
0200
0000
0000
0000
1300
0000
0000
1000
0010
0000
0000
0010
1000
0000
0000
1000
,
0100
0000
0000
0100
0010
0000
0001
0000
0100
0000
0010
0000
1000
0000
0010
0000
,
0100
0001
0010
0100
1000
0000
0010
0100
,
0001
0000
1000
0100
0010
0100
1000
0000
,
0001
0000
0100
0010
1000
0000
0100
0010
,
0001
0000
0100
0010
1000
0001
0010
0000
,
0100
0000
0001
0000
0100
1000
0001
0000
,
0100
0000
0010
0000
0001
0010
0100
0000
,
0001
1000
0100
1000
0100
1000
0001
0100
,
0001
0100
0010
1000
0100
0010
0001
0000
,
0200
0000
0301
0000
1000
0000
0100
0010
,
0000
0000
0001
1000
0000
0001
1000
0000
,
0001
0000
0100
0010
0000
0100
0010
0000
,
1000
0000
0001
0010
0000
0001
0010
0000
,
0100
0000
1000
0000
0001
0000
0100
0001
,
0100
0000
0001
1000
0000
0001
1000
0000
,
0100
0000
0010
0001
0000
0010
0001
0000
,
1000
0010
0010
0010
,
1000
0001
0000
0000
,
0000
0000
0000
0000
,
0000
0000
0000
0000
,
0000
0000
0000
0000
,
0000
0000
1000
0000
0000
0010
0000
0000
,
0100
0001
0010
0100
1000
0010
0100
0001
,
1000
0100
0001
0100
1000
0001
0010
0100
,
0001
0100
1000
0000
0000
0000
0002
0023
,
0230
2300
3002
0000
0203
0000
0320
0000
,
2030
0000
3100
0010
0100
1000
0002
0000
,
0103
0010
2000
0000
3200
0000
0320
0000
,
0230
0000
0000
0000
1300
0000
0000
0001
0100
0000
0010
0000
2000
0000
0000
0000
,
3200
0000
0310
1000
0010
0001
0200
0000
,
0320
0000
1030
0100
0010
0001
0200
0000
,
0320
0000
0000
0000
1030
0000
0000
0001
0100
0000
0000
0010
1000
0000
0000
0100
,
0010
0000
0001
0000
1000
0000
0000
0001
0100
0000
0010
0000
1000
0000
0000
0000
,
0200
0320
0032
0203
,
0320
0000
0031
0010
1000
0100
0020
0000
,
0031
0100
0020
0000
0032
0000
0023
0000
,
2030
0000
3100
0001
1000
0010
0001
0000
,
0100
0000
0010
0000
1000
0000
0000
0100
0010
0000
0001
0000
0100
0000
0000
0010
,
1000
0100
0010
0001
0100
0010
0001
0000
,
0010
0000
1000
0000
0100
0000
0001
0000
0100
0000
1000
0000
0001
0100
0001
0000
,
1000
0100
0020
0000
0000
0000
0000
0000
,
0030
0000
0000
0000
0001
0000
0100
0000
0010
0000
0100
0001
0000
0000
1000
0000
,
0001
0000
0010
0000
1000
0000
0010
0000
0001
0000
1000
0010
0000
0000
0100
0000
,
1000
0000
0100
0000
0001
0000
0010
0000
0100
0000
1000
0001
0000
1000
0001
0000
,
0100
0000
0010
0000
1000
0000
0001
0100
0010
0000
0000
0000
1000
0000
0100
0010
,
0001
0000
0000
0000
0100
0010
1000
0000
0001
0000
0000
0000
0010
0100
1000
0000
,
0010
0100
0000
1001
;

//---------------dance-double - ----------------
#NOTES:
     dance-double:
     :
     Beginner:
     5:
     0.171892,0.414877,0.161509,0.016151,0.000000,149.000000,129.000000,20.000000,2.000000,0.000000,0.000000,0.171892,0.414877,0.161509,0.016151,0.000000,149.000000,129.000000,20.000000,2.000000,0.000000,0.000000:
00000000
00000000
00000000
00000000
,
00000000
00000000
00000000
00000000
,
00000000
00000000
00000000
00000000
,
00000000
00000000
00000000
00000000
,
00000000
00000000
00000000
00000000
,
00000000
00000000
00000000
00000000
,
00000000
00000000
00000000
00000000
,
00000000
00000000
00000000
00000000
,
00000000
00000000
00000000
00000000
,
00022000
00000000
00000000
00000000
,
00000000
00000000
00000000
00000000
,
00000000
00000000
00000000
00000000
,
00000000
00000000
00000000
00000000
,
00000000
00000000
00000000
00000000
,
00000000
00000000
00000000
00000000
,
00000000
00000000
00000000
00000000
,
00000000
00000000
00000000
00000000
,
00000000
00000000
00000000
00000000
,
00000000
00000000
00000000
00000000
,
00000000
00000000
00000000
00000000
,
00000000
00000000
00000000
00000000
,
00033000
00011000
00000000
00001000
,
00000000
00010000
00000000
00001000
,
00000000
01000000
00000000
00010000
,
00000000
10000000
00000000
00000000
,
00000000
10010000
00000000
00010000
,
00000000
10000000
00000000
01000000
,
00000000
00100000
00000000
01000000
,
00000000
00100000
00000000
00000000
,
00000000
01100000
00000000
00000000
,
00000000
00100000
00000000
00000000
,
00000000
00001000
00000000
00000000
,
00000000
00010000
00000000
00000000
,
00000000
00011000
00000000
00010000
,
00000000
00001000
00000000
00010000
,
00000000
00011000
00000000
00000000
,
00000000
00000110
00000000
00000000
,
00000000
00001001
00000000
00000000
,
00000000
00000000
00000000
00000000
,
00000000
00000001
00000000
00000000
,
00000000
00001000
00000000
00000000
,
00000000
00000010
00000000
00000100
,
00000000
00000001
00000000
00001000
,
00000000
00000001
00000000
00000100
,
00000000
00000010
00000000
00010000
,
00000000
00000010
00000000
00010000
,
00000000
00001000
00000000
00100000
,
00000000
00001000
00000000
00100000
,
00000000
00010000
00000000
10000000
,
00000000
10010000
00000000
00010000
,
00000000
10000000
00000000
00100000
,
00000000
01000000
00000000
00100000
,
00000000
01000000
00000000
00010000
,
00000000
01000000
00000000
00001000
,
00000000
00010000
00000000
00000100
,
00000000
00010000
00000000
00000100
,
00000000
00001000
00000000
00000001
,
00000000
00000100
00000000
00000010
,
00000000
00001000
00000000
00000000
,
00000000
00000001
00000000
00001000
,
00000000
00000100
00000000
00000000
,
00000000
00000010
00000000
00000001
,
00000000
00001000
00000000
00000000
,
00000000
00000010
00000000
00000100
,
00000000
00000001
00000000
00000000
,
00000000
00001000
00000000
00000000
,
00000000
00000001
00000000
00000000
,
00000000
00001000
00000000
00000000
,
00000000
00000001
00000000
00000000
,
00000000
00001000
00000000
00000000
,
00000000
00000001
00000000
00000000
,
00000000
00001000
00000000
00000000
,
00000000
00000001
00000000
00000000
,
00000000
00001000
00000000
00000000
,
00000000
00000000
00000000
00000000
,
00000000
00000000
00000000
00000000
,
00000000
00000000
00000000
00000000
,
00000000
00001001
00000000
00000000
,
00000000
00000001
00000000
00000000
,
00000000
00000100
00000000
00000010
,
00000000
00010000
00000000
00000000
,
00000000
00011000
00000000
00001000
,
00000000
00100000
00000000
00010000
,
00000000
10000000
00000000
00100000
,
00000000
01000000
00000000
00010000
,
00000000
00100000
00000000
01000000
,
00000000
10000000
00000000
00010000
,
00000000
10000000
00000000
00010000
,
00000000
01000000
00000000
00001000
,
00000000
00011000
00000000
00010000
,
00000000
00000100
00000000
00001000
,
00000000
00000010
00000000
00000100
,
00000000
00000001
00000000
00000010
,
00000000
00000100
00000000
00001000
,
00000000
00000001
00000000
00000100
,
00000000
00000010
00000000
00001000
,
00000000
00001001
00000000
00000000
,
00000000
00001001
00000000
00000001
,
00000000
00000010
00000000
00000100
,
00000000
00010000
00000000
00001000
,
00000000
00011000
00000000
00011000
,
00000000
01100000
00000000
01100000
,
00000000
10010000
00000000
10010000
;

//---------------dance-double - ----------------
#NOTES:
     dance-double:
     :
     Easy:
     11:
     0.364549,0.539340,0.080755,0.395697,0.000000,316.000000,306.000000,10.000000,49.000000,0.000000,0.000000,0.364549,0.539340,0.080755,0.395697,0.000000,316.000000,306.000000,10.000000,49.000000,0.000000,0.000000:
00000000
00000000
00000000
00000000
,
00000000
00000000
00000000
00000000
,
00000000
00000000
00000000
00000000
,
00000000
00000000
00000000
00000000
,
00000000
00000000
00000000
00000000
,
00000000
00000000
00000000
00000000
,
00000000
00000000
00000000
00000000
,
00000000
00000000
00000000
00000000
,
00000000
00000000
00000000
00000000
,
00022000
00000000
00000000
00000000
,
00000000
00000000
00000000
00000000
,
00000000
00000000
00000000
00000000
,
00000000
00000000
00000000
00000000
,
00000000
00000000
00000000
00000000
,
00000000
00000000
00000000
00000000
,
00000000
00000000
00000000
00000000
,
00000000
00000000
00000000
00000000
,
00000000
00000000
00000000
00000000
,
00000000
00000000
00000000
00000000
,
00000000
00000000
00000000
00000000
,
00000000
00000000
00000000
00000000
,
00033000
00010000
00001000
00010000
,
00001000
00100000
00010000
00100000
,
00010000
10000000
00100000
01000000
,
00010000
20020000
00000000
30030000
,
00000000
10000000
00100000
01000000
,
00100000
10000000
00010000
01000000
,
00010000
01000000
00001000
00010000
,
00000100
00000010
00000010
00000010
,
00000010
00000200
00002300
00003200
,
00000320
00000032
00002003
00003020
,
00000030
00000200
00000302
00000203
,
00000320
00002030
00003002
00000023
,
00000030
00000100
00001000
00000001
,
00000100
00000010
00001000
00000010
,
00010000
00011000
00000000
00101000
,
00000000
01010000
00000000
10100000
,
00000000
20020000
00000000
00000000
,
00000000
00000000
00000000
00000000
,
30030000
10000000
00010000
01000000
,
00001000
00010000
00000100
00000010
,
00000002
00001003
00000010
00000001
,
00000010
00001000
00000001
00000010
,
00000100
00000001
00000100
00001000
,
00000001
00000100
00001000
00000100
,
00000001
00001000
00000100
00000010
,
00001000
00010000
00100000
01000000
,
00010000
10000000
01000000
00010000
,
01000000
10000000
00010000
01000000
,
20000000
31000000
01000000
00010000
,
00010000
00000000
10000000
00100000
10000000
00000000
00010000
00000000
,
00000000
10000000
10000000
01000000
,
01000000
00000000
00100000
00010000
00100000
00000000
01000000
00000000
,
00100000
00001000
00020000
00030010
,
00001000
00000000
00000010
00000100
00000010
00000000
00001000
00000000
,
00000001
00001000
00001000
00000100
,
00000100
00000000
00000010
00000001
00000010
00000000
00000100
00000000
,
00001000
00000001
00000001
00000100
,
00000100
00000010
00000010
00010000
,
00000000
00001000
00001000
00100000
,
00100000
01000000
01000000
00100000
,
00000000
00010000
00010000
10000000
,
10000000
00100000
00100000
01000000
,
01000000
00010000
01000000
10000000
,
01000000
00010000
10000000
01000000
,
00000000
00100000
00100000
00010000
,
00010000
10000000
10000000
00100000
,
00100000
01000000
01000000
00001000
,
00001000
00010000
00010000
00000100
,
00000100
00000010
00000010
00000001
,
00000001
00001000
00001000
00000010
,
00000010
00000100
00000100
00000001
,
00000001
00001000
00001000
00001000
,
00000000
00001001
00000000
00000000
,
00000000
00000000
00000000
00000000
,
00000000
00000000
00000000
00000000
,
00000000
00000000
00000000
00000000
,
00000001
00000100
00000020
00000000
00000000
00002030
00000000
00000000
,
00003001
00000010
00000100
00000010
,
00000001
00000000
00001000
00000001
00001000
00000000
00000010
00000000
,
00000100
00000002
00000000
00001003
,
00000100
00000010
00001000
00010000
,
00100000
00000000
01000000
00010000
01000000
00000000
00200000
00000000
,
00300000
20000000
32000000
03200000
,
02300000
00000000
13000000
00010000
10000000
00000000
00200000
00000000
,
02300000
00000000
03001000
00010000
00001000
00000000
00010000
00000000
,
00000100
00000000
00001000
00000001
00001000
00000000
00000010
00000000
,
00000100
00000000
00000001
00001000
00000001
00000000
00001000
00000000
,
00000100
00000010
00000001
00001000
,
00000020
00000230
00002300
00023000
,
02030000
00000000
13000000
00010000
10000000
00000000
00200000
00000000
,
00300000
02000000
23000000
32000000
,
03020000
00000000
01030000
00001000
01000000
00000000
00002000
00000000
,
00023000
00000000
00030100
00000010
00000100
00000000
00001000
00000001
,
00001000
00000010
00000100
00000002
,
00002003
00000000
00003100
00000010
00000100
00000000
00001000
00000001
,
00001000
00002020
00000000
00000000
,
00003030
00000010
00000100
00001000
,
00010000
01000000
10000000
00100000
,
00010000
00001000
00010000
01000000
,
10000000
00000000
00100000
01000000
00010000
00000000
01000000
00100000
,
10000000
00000000
00010000
01000000
00001000
00000000
00010000
00000100
,
00000010
00000001
00000000
00001001
;

//---------------dance-double - ----------------
#NOTES:
     dance-double:
     :
     Medium:
     14:
     0.523751,0.746778,0.121132,0.492603,0.048453,454.000000,439.000000,15.000000,61.000000,0.000000,0.000000,0.523751,0.746778,0.121132,0.492603,0.048453,454.000000,439.000000,15.000000,61.000000,0.000000,0.000000:
00000000
00000000
00000000
00000000
,
00000000
00000000
00000000
00000000
,
00000000
00000000
00000000
00000000
,
00000000
00000000
00000000
00000000
,
00000000
00000000
00000000
00000000
,
00000000
00000000
00000000
00000000
,
00000000
00000000
00000000
00000000
,
00000000
00000000
00000000
00000000
,
00000000
00000000
00000000
00000000
,
00022000
00000000
00000000
00000000
,
00000000
00000000
00000000
00000000
,
00000000
00000000
00000000
00000000
,
00000000
00000000
00000000
00000000
,
00000000
00000000
00000000
00000000
,
00000000
00000000
00000000
00000000
,
00000000
00000000
00000000
00000000
,
00000000
00000000
00000000
00000000
,
00000000
00000000
00000000
00000000
,
00000000
00000000
00000000
00000000
,
00000000
00000000
00000000
00000000
,
00000000
00000000
00000000
00000000
,
00033000
00000000
00000000
00000000
00010000
00000000
00001000
00000000
00010000
00000000
00000000
00001000
00000000
00000000
00010000
00000000
,
00001000
00000000
01000000
00000000
00100000
00000000
10000000
00000000
00100000
00000000
00000000
10000000
00000000
00000000
00100000
00000000
,
01000000
00000000
00010000
00000000
01000000
00000000
00001000
00000000
01000000
00000000
00000000
00001000
00000000
00000000
01000000
00000000
,
00001000
00010000
00000100
00001000
00000001
00001000
00000100
00000010
,
00000001
00000000
00001000
00000000
00000010
00000000
00000100
00000000
00000001
00000000
00000000
00000100
00000000
00000000
00000001
00000000
,
00000100
00000000
00000010
00000000
00001000
00000000
00000001
00000000
00001000
00000000
00000000
00000001
00000000
00000000
00001000
00000000
,
00000100
00000000
00010000
00000000
00001000
00000000
00010000
00000000
00001000
00000000
00000000
01000000
00000000
00000000
00010000
00000000
,
10000000
00100000
01000000
00000000
01000000
00000000
01000000
00000000
,
01000000
00020000
20030000
30200000
,
02300000
00000000
03010000
10000000
01000000
00100000
00002000
00000000
,
00003000
00010000
00000020
00000000
00000230
00000000
00000302
00000000
,
00002003
00000000
00003100
00000010
00000001
00001000
00000020
00000000
,
00000230
00000301
00000010
00000100
,
00000010
00000000
00001000
00010000
00100000
00010000
00001000
00000000
,
00100000
00110000
01100000
11000000
,
10100000
01100000
00000000
00011000
,
00000000
00000220
00000000
00000000
,
00000000
00000000
00000000
00000000
,
00000330
00000000
00000000
00002000
00000000
00000000
00003001
00000000
00000100
00000002
00000000
00000000
,
00002003
00000000
00003100
00000010
00000001
00001000
00000020
00000000
,
00000032
00000000
00000013
00000000
00001000
00000001
00000010
00000000
,
00000100
00000000
00000010
00001000
00010000
00001000
00020000
00000000
,
00031000
00100000
02000000
00000000
03100000
00010000
02000000
00000000
,
03200000
00000000
10300000
00100000
00010000
00100000
20000000
00000000
,
32000000
00000000
03020000
00000000
00031000
00000100
00000002
00000000
,
00000013
00000100
00001000
00000010
00000100
00000001
00001000
00000000
,
00000100
00000000
00000010
00000001
00000100
00000010
00001000
00000100
,
00000010
00000001
00000100
00001000
00010000
01000000
20000000
00000000
,
30020000
00000000
01030000
00000000
01000000
00000000
00100000
01000000
,
00010000
10000000
01000000
00100000
01000000
00010000
00002000
00000000
,
00013000
00000010
00000100
00000000
00000100
00000000
00000010
00001000
,
00000001
00000010
00000100
00000010
00000001
00000100
00000010
00001000
,
00000100
00000010
00000001
00000000
00001010
00000000
00000001
00000010
,
00000100
00000010
00001000
00010000
00100000
01000000
00200000
00000000
,
20300000
30010000
00010000
00100000
,
00100000
00000000
10000000
00100000
01000000
10000000
00100000
01000000
,
00010000
10000000
01000000
00100000
00010000
00000000
01000000
00100000
,
10000000
00000000
00010000
01000000
00001000
00010000
00000100
00000000
,
00000010
00000000
00000001
00001000
00000010
00000000
00000100
00000001
,
00001000
00000000
00000100
00000010
00000100
00010000
00001000
00000000
,
00100000
00000000
00001000
00000000
01000000
00010000
10000000
00000000
,
00010000
00000000
01000000
00000000
00100000
10000000
00010000
00000000
,
00100000
00000000
01000000
00100000
00010000
00000000
01000000
00100000
,
10000000
00000000
00010000
01000000
00001000
00010000
00000100
00000000
,
00000020
00000031
00000001
00000100
,
00000100
00000000
00000010
00010000
00000000
00000010
00010000
00000000
,
00001000
00000000
00100000
00001000
00000000
00100000
00001000
00000000
,
10000000
00000000
00100000
10000000
00000000
00100000
10000000
00000000
,
00001000
00000000
01000000
00000000
01000000
00000000
00001000
00010000
,
00001000
00000000
00010000
00000100
00000000
00010000
00000100
00000000
,
00000010
00000000
00000001
00001000
00000000
00000001
00001000
00000000
,
00000010
00000100
00000100
00000100
,
00000000
00000110
00000000
00000000
,
00000000
00000000
00000000
00000000
,
00000000
00000000
00000000
00000000
,
00000000
00000000
00000000
00000000
,
00000001
00000010
00000200
00000000
00000000
00002300
00000000
00000000
,
00003001
00000100
00000010
00000100
00000001
00000010
00000100
00000010
,
00001000
00010000
00100000
01000000
00100000
10000000
00010000
00100000
,
01000000
10000000
00200000
00000000
00000000
00000000
00310000
00100000
,
10000000
01000000
00200000
00000000
20300000
00000000
30200000
00000000
,
00302000
00000000
00013000
00100000
00010000
00001000
00020000
00000000
,
00030000
00001000
00000010
00000000
00000100
00000000
00001000
00000000
,
00000010
00000000
00000100
00001000
00000100
00000010
00002000
00000000
,
00003002
00000000
00000013
00001000
00000010
00000001
00002000
00000000
,
00003020
00000000
00000130
00001000
00000100
00000001
00002000
00000000
,
00003200
00000000
00000310
00001000
00010000
01000000
00100000
01000000
,
10000000
00000000
00010000
00000000
01000000
00000000
00000000
01000000
00100000
00000000
10000000
00000000
00010000
00000000
00000000
00000000
,
20000000
32000000
03200000
00320000
,
00032000
00000000
00003100
00000010
00000001
00000010
00000200
00000000
,
00000300
00001000
00000002
00000000
00000203
00000000
00000320
00000000
,
00002030
00000000
00013000
01000000
00100000
10000000
00010000
00000000
,
10000000
01000000
00100000
00000000
10000000
00100000
00010000
00000000
,
10000000
00100000
00010000
00001000
00010000
00100000
20000000
00000000
,
32000000
00000000
03010000
00001000
00000100
00000001
00000010
00001000
,
00010000
00100000
20000000
00000000
00000000
00000000
00000000
00000000
,
31000000
00000000
00010000
00000000
00001000
00000000
00000010
00000000
00000100
00000000
00001000
00000001
00000000
00000000
00001000
00000000
,
00000010
00000000
00000100
00000000
00000001
00000000
00000010
00000000
00001000
00000000
00010000
00001000
00000000
00000000
00010000
00000000
,
00100000
00000000
01000000
00000000
00010000
00000000
10000000
00000000
01000000
00000000
00100000
00010000
00000000
00010000
00100000
00000000
,
01000000
10000000
00100000
00000000
01010000
00000000
00100000
00000000
,
01001000
00010000
00100010
00010000
,
01000100
00010000
00000000
00001001
;

//---------------dance-double - ----------------
#NOTES:
     dance-double:
     :
     Hard:
     16:
     0.656419,0.954216,0.032302,0.363396,0.351282,569.000000,565.000000,4.000000,45.000000,0.000000,0.000000,0.656419,0.954216,0.032302,0.363396,0.351282,569.000000,565.000000,4.000000,45.000000,0.000000,0.000000:
// measure 0
00000000
00000000
00000000
00000000
,  // measure 1
00000000
00000000
00000000
00000000
,  // measure 2
00000000
00000000
00000000
00000000
,  // measure 3
00000000
00000000
00000000
00000000
,  // measure 4
00000000
00000000
00000000
00000000
,  // measure 5
00000000
00000000
00000000
00000000
,  // measure 6
00000000
00000000
00000000
00000000
,  // measure 7
00000000
00000000
00000000
00000000
,  // measure 8
00000000
00000000
00000000
00000000
,  // measure 9
00022000
00000000
00000000
00000000
,  // measure 10
00000000
00000000
00000000
00000000
,  // measure 11
00000000
00000000
00000000
00000000
,  // measure 12
00000000
00000000
00000000
00000000
,  // measure 13
00000000
00000000
00000000
00000000
,  // measure 14
00000000
00000000
00000000
00000000
,  // measure 15
00000000
00000000
00000000
00000000
,  // measure 16
00000000
00000000
00000000
00000000
,  // measure 17
00000000
00000000
00000000
00000000
,  // measure 18
00000000
00000000
00000000
00000000
,  // measure 19
00000000
00000000
00000000
00000000
,  // measure 20
00000000
00000000
00000000
00000000
,  // measure 21
00033000
00000000
00000000
00000000
00010000
00000000
00001000
00000000
00010000
00000000
00000010
00001000
00000000
00001000
00000010
00000000
,  // measure 22
00000100
00000000
00000001
00000000
00000010
00000000
00000100
00000000
00000010
00000000
00001000
00010000
00000000
00010000
00001000
00000000
,  // measure 23
00010000
00000000
00100000
00000000
01000000
00000000
00010000
00000000
01000000
00000000
00100000
10000000
00000000
10000000
00100000
00000000
,  // measure 24
01000000
00000000
00010000
00000000
10000000
00000000
01000000
00100000
01000000
00000000
10000000
00000000
00010000
01000000
00010000
00000000
,  // measure 25
01000000
00000000
00100000
00000000
10000000
00000000
00010000
00000000
10000000
00000000
00010000
01000000
00000000
01000000
00010000
00000000
,  // measure 26
01000000
00000000
00100000
00000000
00010000
00000000
00001000
00000000
00010000
00000000
00000010
00001000
00000000
00001000
00000010
00000000
,  // measure 27
00000100
00000000
00000001
00000000
00000010
00000000
00000100
00000000
00000010
00000000
00000100
00001000
00000000
00001000
00000100
00000000
,  // measure 28
00000010
00001000
00010000
00000000
00010000
00000000
00010000
00000000
,  // measure 29
00010000
00020000
00032000
00203000
,  // measure 30
02300000
00000000
03010000
00001000
00000100
00000001
00001000
00000000
,  // measure 31
00000000
00000100
00000010
00000000
00000001
00000000
00000100
00000000
,  // measure 32
00001000
00000000
00000000
00000000
00010000
00000000
00001000
01000000
00010000
00000000
01000000
00000000
00010000
00000000
00000000
00000000
,  // measure 33
10000000
01000000
00100000
00010000
10000000
00000000
00100000
00000000
10000000
00000000
01000000
00000000
10000000
00000000
00010000
00000000
,  // measure 34
01000000
00000000
10000000
00000000
01000000
00100000
01000000
00000000
00010000
00000000
01000000
00000000
10000000
00000000
01000000
00000000
,  // measure 35
00010000
01000000
10000000
01000000
00100000
00010000
00001000
00000100
,  // measure 36
00000010
00000000
00000001
00000000
00000010
00000000
00001000
00000001
00000010
00000000
00000000
00000000
00000100
00000000
00001000
00000001
,  // measure 37
00000100
00000000
00000010
00000000
00000000
00001000
00000010
00000000
,  // measure 38
00000000
00001000
00000010
00001000
00000001
00000010
00000100
00000000
,  // measure 39
00000020
00000000
00000000
00002030
00000000
00000000
00013000
00000000
00100000
02000000
00000000
00000000
,  // measure 40
03020000
00000000
10030000
01000000
00100000
01000000
10000000
00000000
,  // measure 41
00020000
00000000
00000000
00000000
01030000
00000000
00000000
01000000
00100000
00000000
10000000
00000000
02000000
00000000
00000000
00000000
,  // measure 42
03020000
00000000
10030000
00100000
00010000
00001000
00020000
00000000
,  // measure 43
00130000
01000000
00020000
00000000
00130000
01000000
00002000
00000000
,  // measure 44
02003000
00000000
00000000
00000000
03010000
00000000
00001000
00010000
00000100
00000000
00001000
00000000
00000002
00000000
00000000
00000000
,  // measure 45
00000203
00000000
00000000
00000000
00001300
00000000
00000000
00001000
00010000
00000000
00100000
00000000
02000000
00000000
00000000
00000000
,  // measure 46
03010000
00100000
10000000
00100000
00010000
01000000
00200000
00000000
,  // measure 47
00310000
00000000
00000000
00000000
00001000
00000000
00000010
00001000
00010000
00000000
00001000
00000000
00000010
00000000
00000100
00000000
,  // measure 48
00001000
00000001
00000010
00001000
00010000
00100000
02000000
00000000
,  // measure 49
03020000
00000000
00000000
00000000
10030000
00000000
00000000
10000000
01000000
00000000
00000000
01000000
00010000
00000000
01000000
00000000
,  // measure 50
10000000
00000000
00100000
00000000
00010000
00000000
00001000
00000000
00000100
00000000
00000001
00000000
00000010
00000000
00000000
00000010
,  // measure 51
00000100
00000000
00001000
00000000
00000010
00000000
00000000
00000010
00000100
00000000
00000000
00000100
00000001
00000000
00000010
00000000
,  // measure 52
00000100
00000010
00001000
00010000
00100000
01000000
00010000
00100000
,  // measure 53
10000000
00100000
00020000
00030000
20200000
30300000
10000000
01000000
,  // measure 54
00100000
01000000
00010000
00001000
00000010
00000100
00000020
00000000
,  // measure 55
00000032
00000000
00000000
00000000
00000103
00000000
00000000
00000100
00001000
00000000
00000000
00001000
00010000
00000000
00000000
00010000
,  // measure 56
00100000
00000000
00000000
00100000
01000000
00000000
00010000
00000000
10000000
00000000
01000000
00000000
00100000
00010000
00100000
00000000
,  // measure 57
01000000
00000000
10000000
00000000
00100000
00000000
01000000
00010000
01000000
00000000
00100000
00000000
10000000
00000000
00010000
00100000
,  // measure 58
00010000
00000000
00100000
00000000
00001000
00000000
00010000
00001000
00010000
00000000
00000010
00000000
00001000
00000000
00000000
00000000
,  // measure 59
00000001
00000000
00000000
00000000
00000010
00000000
00000100
00001000
00000100
00000000
00000010
00000000
00000001
00000000
00001000
00000010
,  // measure 60
00001000
00000000
00000100
00000000
00000010
00000000
00000001
00001000
00000001
00000000
00000100
00000000
00000010
00000000
00000000
00000000
,  // measure 61
00000200
00000000
00000000
00000000
00001300
00000000
00000000
00001000
00010000
00000000
00001000
00000000
00200000
00000000
00000000
00000000
,  // measure 62
02300000
00000000
00000000
00000000
13000000
00000000
00000000
10000000
00100000
00000000
01000000
00000000
00002000
00000000
00000000
00000000
,  // measure 63
00013000
00001000
00010000
00000010
00001000
00000001
00000100
00000010
,  // measure 64
00000100
00001000
00010000
01000000
00100000
01000000
10000000
00000000
,  // measure 65
00020000
00000000
01030000
00000000
00100000
00000000
10000000
00010000
,  // measure 66
00000000
00010000
00100000
01000000
00000000
01000000
00100000
00000000
,  // measure 67
00010000
00000000
10000000
00100000
00000000
10000000
00100000
00000000
,  // measure 68
01000000
00001000
00010000
00000100
00000000
00010000
00000100
00000000
,  // measure 69
00001000
00000010
00000100
00000000
00000001
00000000
00001000
00000100
,  // measure 70
00001000
00000100
00000010
00000001
00000000
00001000
00000010
00000100
,  // measure 71
00001000
00000100
00000010
00000100
00000000
00000100
00000010
00000100
,  // measure 72
00001000
00010000
00001000
00000000
00010000
00000000
00001000
00000000
,  // measure 73
00000000
00011000
00000000
00000000
,  // measure 74
00000000
00000000
00000000
00000000
,  // measure 75
00000000
00000000
00000000
00000000
,  // measure 76
00000000
00000000
00000000
00000000
,  // measure 77
00010000
00100000
20000000
00000000
00000000
31000000
00000000
00000000
,  // measure 78
00100000
00010000
01000000
10000000
01000000
00010000
10000000
01000000
,  // measure 79
10000000
00010000
10000000
01000000
00100000
00010000
00001000
00000100
,  // measure 80
00000010
00000001
00002000
00000000
00000000
00000000
00003001
00000100
,  // measure 81
00001000
00000000
00010000
00000000
00001000
00000000
00000000
00001000
00010000
00000000
00000000
00010000
00100000
00000000
00000000
00100000
,  // measure 82
01000000
00000000
00000000
01000000
00010000
00000000
00100000
00000000
01000000
00000000
10000000
00000000
00020000
00000000
00000000
00000000
,  // measure 83
01030000
00000000
00100000
00000000
10000000
00000000
00000000
10000000
01000000
00000000
00000000
01000000
00100000
00000000
00000000
00100000
,  // measure 84
00010000
00000000
00000000
00010000
01000000
00000000
00100000
10000000
00010000
00000000
01000000
00000000
20000000
00000000
00000000
00000000
,  // measure 85
32000000
00000000
00000000
00000000
03001000
00000000
00000000
00001000
00010000
00000000
00001000
00000000
00000020
00000000
00000000
00000000
,  // measure 86
00000230
00000000
00000000
00000000
00001300
00000000
00000000
00001000
00000010
00000000
00000100
00000000
00001000
00000000
00000000
00000000
,  // measure 87
00010000
00000000
00000000
00000000
00001000
00000100
00000010
00000000
00000100
00000001
00001000
00000000
00000100
00000010
00000001
00000000
,  // measure 88
00000100
00000010
00001000
00000000
00000100
00000000
00000000
00000100
00000010
00000000
00001000
00000000
00010000
00000000
00000000
00000000
,  // measure 89
00200000
00000000
00000000
00000000
01300000
00000000
00000000
01000000
00010000
00000000
00000000
00010000
00100000
00000000
00000000
00100000
,  // measure 90
10000000
00000000
00000000
10000000
00100000
00000000
00001000
00000000
00010000
00000000
00000010
00000000
00000200
00000000
00000000
00000000
,  // measure 91
00000301
00000000
00001000
00000000
00000100
00000000
00000000
00000100
00000001
00000000
00000000
00000001
00000100
00000000
00000000
00000100
,  // measure 92
00010000
00000000
00000000
00010000
00001000
00000000
00000010
00000000
00000001
00000000
00000100
00000000
00020000
00000000
00000000
00000000
,  // measure 93
00030100
00001000
00010000
00000000
00001000
00000000
00000000
00001000
00010000
00000000
00001000
00000000
00100000
00000000
00000000
00100000
,  // measure 94
00010000
10000000
00100000
01000000
10000000
01000000
00002000
00000000
,  // measure 95
10003000
01000000
00100000
00010000
00001000
00000100
00000010
00000001
,  // measure 96
00000100
00001000
00020000
00000000
00000000
00000000
00000000
00000000
,  // measure 97
00130000
01000000
00010000
10000000
01000000
00000000
00100000
00000000
01000000
00000000
00010000
00001000
00000000
00001000
00010000
00000000
,  // measure 98
00001000
00000000
00000010
00000000
00000001
00000000
00000100
00000000
00001000
00000000
00010000
00001000
00000000
00001000
00010000
00000000
,  // measure 99
00100000
00000000
01000000
00000000
00010000
00000000
10000000
00000000
01000000
00000000
00010000
00001000
00000000
00001000
00010000
00000000
,  // measure 100
00000010
00000000
00000100
00000000
00001000
00000000
00010000
00100000
01000000
00000000
00000000
00000000
00010000
10000000
01000000
00100000
,  // measure 101
00010000
00000000
00000000
00000000
01000000
00100000
00010000
00001000
00010000
00000000
00000000
00000000
00001000
00000010
00000100
00001000
,  // measure 102
00000001
00000100
00000010
00001000
00000100
00000000
00000000
00000000
00000000
00000000
00000000
00000000
00000011
00000000
00000000
00000000
;
