#TITLE:Cheval;
#SUBTITLE:;
#ARTIST:Igorrr;
#TITLETRANSLIT:;
#SUBTITLETRANSLIT:;
#ARTISTTRANSLIT:;
#GENRE:Industrial Death Waltz;
#CREDIT:skeleton made by Peter;
#BANNER:Cheval.png;
#BACKGROUND:Cheval-bg.png;
#LYRICSPATH:;
#CDTITLE:../_YSD cdtitles/ysd sale2 cdtitle.png;
#MUSIC:Cheval.ogg;
#OFFSET:0.055000;
#SAMPLESTART:7.088000;
#SAMPLELENGTH:27.429001;
#SELECTABLE:YES;
#BPMS:0.000000=210.000000
,171.000000=70.000000
,185.000000=210.000000
,287.000000=70.000000
,311.000000=210.000000
;
#STOPS:
;
#BGCHANGES:;
#KEYSOUNDS:;
#ATTACKS:;

//---------------dance-single - ----------------
#NOTES:
     dance-single:
     :
     Beginner:
     4:
     0.175714,0.222850,0.262583,0.138202,0.000000,178.000000,140.000000,38.000000,20.000000,0.000000,0.000000,0.175714,0.222850,0.262583,0.138202,0.000000,178.000000,140.000000,38.000000,20.000000,0.000000,0.000000:
// measure 0
0000
0000
0000
0000
,  // measure 1
0000
0000
0000
0000
,  // measure 2
0000
0000
0000
0000
,  // measure 3
0000
0000
0000
0000
,  // measure 4
0000
0000
0000
0000
,  // measure 5
0000
0000
0000
0000
,  // measure 6
0000
0000
0000
1000
,  // measure 7
0000
0000
1001
0000
,  // measure 8
0000
0001
0000
0000
,  // measure 9
0110
0000
0000
1000
,  // measure 10
0000
0000
1001
0000
,  // measure 11
0000
0010
0000
0000
,  // measure 12
0110
0000
0000
0001
,  // measure 13
0000
0000
1001
0000
,  // measure 14
0000
1000
0000
0000
,  // measure 15
0110
0000
0000
0001
,  // measure 16
0000
0000
1001
0000
,  // measure 17
0000
1000
0000
0000
,  // measure 18
0110
0000
0000
0001
,  // measure 19
0000
0000
0110
0000
,  // measure 20
0000
1000
0000
0000
,  // measure 21
1001
0000
0000
0001
,  // measure 22
0000
0000
1001
0000
,  // measure 23
0000
0100
0000
0000
,  // measure 24
0110
0000
0000
0001
,  // measure 25
0000
0000
1001
0000
,  // measure 26
0000
1000
0000
0000
,  // measure 27
0110
0000
0000
0001
,  // measure 28
0000
0000
1001
0000
,  // measure 29
0000
1000
0000
0000
,  // measure 30
0020
0000
0000
0030
0000
0000
0200
0000
,  // measure 31
0300
0000
0002
0003
,  // measure 32
0000
2000
3000
0000
,  // measure 33
0200
0300
0000
0020
,  // measure 34
0030
0000
0200
0300
,  // measure 35
0000
2000
3000
0000
,  // measure 36
0002
0003
0000
0200
,  // measure 37
0300
0000
0020
0030
,  // measure 38
0000
2000
3000
0000
,  // measure 39
0200
0300
0000
0020
,  // measure 40
0030
0000
0002
0003
,  // measure 41
0000
0200
0300
0000
,  // measure 42
0020
0030
0000
1000
,  // measure 43
0000
0100
0000
0010
,  // measure 44
0000
0001
0000
0100
,  // measure 45
0000
0010
0000
1000
,  // measure 46
0000
0001
0000
0000
,  // measure 47
1001
0000
0000
1000
,  // measure 48
0000
0000
0110
0000
,  // measure 49
0000
0001
0000
0000
,  // measure 50
0110
0000
0000
1000
,  // measure 51
0000
0000
0110
0000
,  // measure 52
0000
0001
0000
0000
,  // measure 53
1001
0000
0000
1000
,  // measure 54
0000
0000
1001
0000
,  // measure 55
0000
0010
0000
0000
,  // measure 56
0110
0000
0000
1000
,  // measure 57
0000
0000
1001
0000
,  // measure 58
0000
0001
0000
0000
,  // measure 59
0100
0000
0000
0010
,  // measure 60
0000
0000
1000
0000
,  // measure 61
0000
0100
0000
0000
,  // measure 62
0010
0000
0000
0100
,  // measure 63
0000
0000
1000
0000
,  // measure 64
0000
0010
0000
0000
,  // measure 65
0100
0000
0000
0001
,  // measure 66
0000
0000
1000
0000
,  // measure 67
0000
0100
0000
0000
,  // measure 68
0010
0000
0000
0001
,  // measure 69
0000
0000
1000
0000
,  // measure 70
0000
0010
0000
0000
,  // measure 71
0110
0000
0000
0100
,  // measure 72
0000
0001
0000
1000
,  // measure 73
0000
0100
0000
0010
,  // measure 74
0000
0001
0000
0100
,  // measure 75
0000
0010
0000
1000
,  // measure 76
0000
0100
0000
0010
,  // measure 77
0000
0001
0000
0100
,  // measure 78
0000
0000
0110
0000
,  // measure 79
0000
0001
0000
0000
,  // measure 80
1001
0000
0000
1000
,  // measure 81
0000
0000
0110
0000
,  // measure 82
0000
0001
0000
0000
,  // measure 83
1000
0000
0000
0100
,  // measure 84
0000
0000
0110
0000
,  // measure 85
0000
0001
0000
0000
,  // measure 86
1001
0000
0000
1000
,  // measure 87
0000
0000
0110
0000
,  // measure 88
0000
0001
0000
0000
,  // measure 89
1001
0000
0000
1000
,  // measure 90
0000
0000
0110
0000
,  // measure 91
0000
0001
0000
0000
,  // measure 92
0110
0000
0000
1000
,  // measure 93
0000
0000
1001
0000
,  // measure 94
0000
0002
0000
0000
,  // measure 95
0000
0000
0003
0000
,  // measure 96
1000
0000
0001
0000
,  // measure 97
0000
0000
1000
0000
,  // measure 98
0100
0000
0000
0000
,  // measure 99
1000
0000
0001
0000
,  // measure 100
0000
0000
1000
0000
,  // measure 101
0010
0000
0000
0000
,  // measure 102
0100
0000
0001
0000
,  // measure 103
0000
0000
0010
0000
,  // measure 104
0100
0000
0000
1001
,  // measure 105
0000
0000
0110
0000
,  // measure 106
0000
1001
0000
0000
,  // measure 107
0220
0000
0330
0000
;

//---------------dance-single - ----------------
#NOTES:
     dance-single:
     :
     Easy:
     10:
     0.405721,0.519984,0.456066,0.131292,0.000000,411.000000,345.000000,66.000000,19.000000,0.000000,0.000000,0.405721,0.519984,0.456066,0.131292,0.000000,411.000000,345.000000,66.000000,19.000000,0.000000,0.000000:
0000
0000
0000
0000
,
0000
0000
0000
0000
,
0000
0000
0000
0000
,
0000
0000
0000
0000
,
0000
0000
0000
0000
,
0000
0000
0000
0000
,
0000
0000
0000
1000
,
0010
1000
0101
0001
,
0010
0100
1000
0001
,
1010
1000
0100
0010
,
0001
1000
0101
0001
,
0010
0100
1000
0001
,
1010
1000
0010
0100
,
0001
1000
0101
0001
,
0010
0100
1000
0001
,
1010
0010
0100
0001
,
1000
0100
0011
0001
,
0100
0010
0001
0010
,
1000
0000
0000
0100
,
0010
0001
1010
0001
,
1000
0100
0010
0001
,
1100
0001
0100
0010
,
1000
0100
0011
1000
,
0001
0100
0010
1000
,
0011
1000
0100
0010
,
0001
0100
1010
0010
,
0100
0001
1000
0100
,
0011
0010
0100
1000
,
0001
0100
1010
0001
,
1000
0100
0010
0001
,
0200
0000
0000
0310
,
1000
0010
0100
0001
,
1000
0100
0010
0001
,
1000
0010
0100
0001
,
0010
0100
1000
0001
,
0100
0010
1000
0100
,
0010
0001
1000
0010
,
0001
0010
1000
0100
,
0010
1000
0010
0001
,
0100
0010
1000
0100
,
0001
0100
1000
0001
,
0100
1000
0001
0010
,
1000
0100
0010
0002
,
0000
0203
0000
0320
,
0000
2030
0000
3200
,
0000
0320
0000
0032
,
0000
2003
0000
0000
,
3020
0000
0000
0130
,
0001
1000
1100
0100
,
0010
0011
0001
1000
,
1010
0000
0000
0011
,
0010
0100
1100
0001
,
0100
1010
1000
0100
,
0011
0000
0000
0011
,
0100
0010
1001
0000
,
0000
1100
0010
0100
,
1001
0000
0000
1100
,
0010
0001
1001
0000
,
0000
1000
0010
0001
,
0010
0100
0001
1000
,
0000
0100
0110
0000
,
0001
1001
0000
1000
,
1010
0010
0100
0101
,
0000
0001
1001
0000
,
1000
1100
0000
0100
,
0110
0010
0001
1001
,
0000
1000
1010
0000
,
0010
0101
0000
0010
,
1100
1000
0001
1100
,
0000
0001
1010
0000
,
0100
1001
0001
0010
,
1100
0001
0000
0100
,
0010
1000
0001
1000
,
0100
0010
0001
0100
,
1000
0100
0010
0001
,
0100
1000
0200
0301
,
0010
0100
1000
0010
,
0001
0010
0100
0001
,
0000
1000
1100
0000
,
0001
0101
0000
0010
,
1001
0000
0100
1001
,
0000
0010
1100
0000
,
0010
0101
0001
1000
,
0100
0010
0001
1000
,
0000
0010
0110
0000
,
0001
1100
0000
0001
,
1010
0000
0001
1100
,
0000
0001
0110
0000
,
1000
0110
0000
0001
,
1010
0000
0100
1010
,
0000
0001
0110
0000
,
1000
0101
0000
0010
,
1001
0000
0100
0011
,
0000
0100
1010
0000
,
0001
2000
3020
0230
,
0302
0023
0230
1300
,
0001
0100
1000
0100
,
0001
1000
0001
0010
,
1000
0010
0001
1000
,
0001
0100
1000
0100
,
0001
1000
0001
0010
,
1000
0010
0001
1000
,
0001
0100
1000
0001
,
0010
1000
0001
0010
,
1000
0001
0100
1000
,
0001
0100
0110
0010
,
1000
0011
1100
1010
,
0202
0000
0303
0000
;

//---------------dance-single - ----------------
#NOTES:
     dance-single:
     :
     Medium:
     13:
     0.658432,0.891401,0.200392,0.193482,0.563172,667.000000,638.000000,29.000000,28.000000,0.000000,0.000000,0.658432,0.891401,0.200392,0.193482,0.563172,667.000000,638.000000,29.000000,28.000000,0.000000,0.000000:
0000
0000
0000
0000
,
0000
0000
0000
0000
,
0000
0000
0000
0000
,
0000
0000
0000
0000
,
0000
0000
0000
0000
,
0000
0000
0000
0000
,
0000
0000
0000
1000
,
0001
0000
0001
0100
0000
0000
0110
0000
0000
0010
0000
0010
,
1000
0000
0000
0001
0000
0000
1000
0000
1000
0100
0000
0000
,
0110
0000
0000
0010
0000
0010
0001
0000
0001
1000
0000
0000
,
0010
0000
0010
0100
0000
0000
0101
0000
0000
1000
0000
1000
,
0100
0000
0000
0010
0000
0010
0001
0000
0001
1000
0000
0000
,
1010
0000
0000
0010
0000
0010
0100
0000
0100
0001
0000
0000
,
1000
0000
1000
0100
0000
0100
0010
0000
0000
0001
0000
0001
,
0100
0000
0000
0000
0100
0000
0010
0000
0000
0000
0000
0000
1000
0000
0000
0001
0000
0000
1000
0000
0000
0001
0000
0000
,
1000
0000
0000
0100
0000
0000
0010
0001
0010
0001
0000
0000
,
1000
0000
0000
0010
0100
0010
0100
0000
0000
0001
0000
0000
,
1000
0000
0100
0000
1000
0000
0100
0000
0000
0010
0000
0000
0001
0000
0000
0010
0000
0000
0100
0000
0000
1000
0000
0000
,
0001
0000
0000
0100
,
0010
0000
0010
1000
0000
0000
1010
0000
0000
0001
0000
0001
,
0010
0000
0000
0100
0000
0000
0100
0000
0100
1000
0000
0000
,
1001
0000
0000
0001
0100
0001
0100
0000
0000
0001
0000
0000
,
1000
0000
1000
0100
0000
0000
0110
0000
0000
0010
0000
0010
,
0001
0000
0000
1000
0000
0000
0010
0000
0010
0100
0000
0000
,
0101
0000
0000
0001
0000
0001
0010
0000
0010
0100
0000
0000
,
1000
0100
1000
0000
1100
0000
0001
0100
,
0001
0000
0000
0010
0000
0000
0100
0000
1000
0001
0000
1000
,
0001
0000
0000
0100
0000
0010
1000
0000
0001
0100
0000
0000
,
0001
0000
0010
0100
0000
1000
0001
0000
0000
0100
0000
0010
,
1000
0000
0000
0000
0001
0000
0100
0000
0000
0001
0000
0000
0100
0000
0000
0010
0000
0000
1000
0000
0000
0001
0000
0000
,
0020
0000
0000
0000
0000
0000
0000
0000
0000
0031
0000
1000
,
0001
0000
1000
0001
0000
1000
0010
0000
1000
0010
0000
1000
,
0010
0000
1000
0010
0000
0100
0001
0000
0100
0001
0000
0100
,
0001
0000
1000
0001
0000
1000
0001
0000
1000
0100
0000
1000
,
0100
0000
1000
0100
0000
0010
0001
0000
0010
0001
0000
0010
,
0001
0000
1000
0010
0000
1000
0010
0000
1000
0010
0000
0100
,
0001
0000
0100
0001
0000
0100
0001
0000
1000
0100
0000
1000
,
0010
0000
1000
0001
0000
1000
0010
0000
1000
0100
0000
1000
,
0001
0000
0100
0001
0000
0010
0001
0000
1000
0001
0000
0100
,
0001
0000
0010
0001
0000
1000
0001
0000
0100
0010
0000
1000
,
0010
0000
0100
0001
0000
0010
0001
0000
1000
0100
0000
1000
,
0010
0000
0100
0001
0000
1000
0100
0000
0010
0001
0000
0100
,
0010
0000
1000
0001
0000
0100
0001
0100
0001
0200
0000
0000
,
0320
2030
3200
0320
,
0032
0203
0320
2030
,
3200
0320
0032
2003
,
3020
0000
0130
0001
0100
0001
0100
0001
,
0020
0000
0000
0130
,
1000
0001
0101
0100
,
0010
1010
1000
0100
,
0010
0100
0010
0100
1000
0001
1000
0001
1000
0001
0000
0000
,
0100
0000
0000
0010
0000
0000
1000
0001
1000
0001
1000
0001
,
0010
0001
0010
0001
0000
0000
1000
0000
0000
0010
0000
0000
,
0202
0000
0303
1100
,
1000
0010
0101
0001
,
0010
1100
1000
0001
,
0100
0010
0100
0001
0100
0001
1000
0100
,
1000
0100
0010
0100
2000
0000
0010
0000
,
0001
0000
3100
0010
0001
1000
0001
0100
,
0010
1000
0010
1000
0001
1000
0001
0000
,
0100
0000
0010
1000
0000
0010
1000
0000
0000
0001
0000
0010
,
0001
0000
0010
0001
0000
0000
1000
0000
0100
1000
0000
0100
,
1000
0000
0000
0001
0000
0100
0001
0000
0100
0001
0000
0000
,
1000
0000
0100
0010
0000
0100
0010
0000
0000
0001
0000
0100
,
0010
0000
0100
0010
0000
0000
1000
0000
0001
0010
0000
0001
,
0010
0000
0000
0001
0000
1000
0010
0000
1000
0010
0000
0000
,
0100
0000
0001
1000
0000
0100
0010
0000
0000
0001
0000
1000
,
0010
0000
0100
0001
0000
0000
1000
0000
0100
0010
0000
0001
,
1000
0000
0000
0010
0000
0100
0001
0000
1000
0100
0000
0000
,
0010
0000
0001
0100
0000
0010
1000
0000
0000
0100
0000
0010
,
0001
0010
0100
1000
0100
0010
0001
1000
,
0020
0000
0000
0130
0000
0000
0000
0000
0000
0010
0000
1000
,
1000
0001
0010
0100
0000
0010
0010
0001
1000
0010
0000
0100
,
0100
0010
1000
0100
0100
0010
0001
0000
0000
1000
0000
0010
,
0010
0100
0001
0010
0000
0100
0100
1000
0001
0100
0010
1000
,
0100
0000
1000
0000
0001
0000
0100
0001
0100
0001
0100
0001
0020
0000
0000
0000
0000
0000
0130
0000
0000
0000
1000
0000
,
1000
0010
0100
0001
0000
1000
1000
0100
0010
0100
0000
1000
,
1000
0010
0100
0001
0001
0010
0100
0000
0000
1000
0000
0000
,
0001
0100
0001
0100
0010
0000
1000
0100
,
1000
0100
0010
0000
0001
0100
0001
0100
,
0010
0000
1000
0100
0010
0100
1000
0000
,
0001
0100
0010
1000
0100
0000
0010
0001
,
1000
0010
0100
0001
0100
0001
1000
0100
,
1000
0100
0010
0001
0010
0001
0100
0000
,
0010
1000
1001
0001
,
0010
0110
0100
1000
,
1001
0001
0100
0110
,
0010
1000
1001
0001
,
0010
0110
0100
1000
,
1010
0010
0100
0101
,
0001
0010
0110
0100
,
1000
1010
0010
0100
,
0101
0001
0010
0110
,
0100
1000
1010
0010
,
0100
0002
0023
0032
,
0203
0320
2030
3001
,
1000
0010
1000
0010
0100
0001
0100
0001
,
0100
0001
1000
0000
0001
0010
0001
0010
,
0100
1000
0100
1000
0100
1000
0001
0000
,
1000
0100
1000
0100
0010
0001
0010
0001
,
0010
0001
1000
0000
0001
0100
0001
0100
,
0010
1000
0010
1000
0010
1000
0001
0000
,
0010
0001
0010
0001
0100
0010
0100
0010
,
0100
0010
1000
0000
0100
0010
0100
0010
,
0001
0100
0001
0100
0001
0100
0010
0000
,
1000
0000
0100
0000
0011
0000
0001
0100
,
0010
0000
1000
0001
1000
0001
0010
0100
,
2000
0000
3000
0000
;

//---------------dance-single - ----------------
#NOTES:
     dance-single:
     :
     Hard:
     16:
     0.795647,1.188535,0.117471,0.096741,0.967412,806.000000,789.000000,17.000000,14.000000,0.000000,0.000000,0.795647,1.188535,0.117471,0.096741,0.967412,806.000000,789.000000,17.000000,14.000000,0.000000,0.000000:
0000
0000
0000
0000
,
0000
0000
0000
0000
,
0000
0000
0000
0000
,
0000
0000
0000
0000
,
0000
0000
0000
0000
,
0000
0000
0000
0000
,
0000
0000
0000
0000
0000
0000
0000
0000
0000
1000
0000
0010
,
1000
0000
0000
0000
0001
0000
0100
0000
0000
0010
0000
0000
1000
0000
0000
0000
0000
0000
0100
0000
0000
0010
0000
0000
,
0001
0000
0000
1000
0000
0000
0010
0000
0000
0000
0000
0000
0100
0000
0001
0000
1000
0000
0001
0000
0000
0000
1000
0000
,
0100
0000
0000
0010
0100
0010
0100
1000
0100
1000
0000
0000
,
0001
0000
0000
0000
0100
0000
0010
0000
0000
0000
1000
0000
0001
0000
0000
0000
0000
0000
0010
0000
0000
0100
0000
0000
,
1000
0000
0001
0100
0000
0000
0010
1000
0010
1000
0000
0001
,
1000
0000
0000
0100
0000
0010
0001
0000
1000
0001
0000
0000
,
0100
0000
0010
1000
0000
0100
0010
0000
0000
0001
0000
1000
,
0010
0000
0000
0000
0100
0000
0001
0000
0000
1000
0000
0000
0100
0000
0000
0100
0000
0000
0100
0000
0000
0100
0000
0000
,
0100
0000
0000
0010
0001
1000
0001
0000
0000
0100
0000
0000
,
0010
1000
0001
1000
0000
0000
0100
0000
0000
0010
0001
0010
,
0001
0000
1000
1000
0100
0100
0010
0010
,
0002
0003
0000
1010
,
0010
1000
0010
1000
0000
0001
0010
0000
0000
0001
1000
0001
,
1000
0000
0000
0010
0000
0000
0100
0001
1000
0100
0000
0000
,
0110
0000
0000
0010
0001
0010
0001
0000
1000
0010
0000
0000
,
1000
0000
0000
0100
0000
0000
0010
0000
0000
0000
0001
0000
0100
0000
0000
0000
0000
0000
0010
0000
0000
1000
0000
0000
,
0100
0000
0000
0010
0000
0000
0001
0000
0000
0000
0000
0000
0100
0000
0000
0010
0000
0000
1000
0000
0000
0000
0001
0000
,
0010
0000
0000
0000
0100
0000
1000
0000
0000
0100
0000
0000
0010
0000
0000
0100
0000
0000
1000
0000
0000
0010
0000
0000
,
0100
0001
0010
0100
1000
0000
0001
1000
,
0010
0000
0000
0100
0000
0000
1000
0000
0000
0000
0000
0000
0100
0000
0000
0000
0010
0000
1000
0000
0000
0000
0001
0000
,
1000
0000
0100
0010
0100
1000
0010
0000
,
1000
0100
0001
0100
1000
0000
0001
0100
,
1000
0100
0001
0001
0010
0010
0100
0100
,
2000
0000
0000
0000
0000
0000
3001
1000
0001
1000
0010
1000
,
0010
0100
0001
0100
0000
0000
0001
1000
0001
1000
0100
1000
,
0100
0000
0000
0010
0001
0010
0001
1000
0001
1000
0000
0000
,
0010
0100
0010
0100
0001
0100
0001
0000
0000
1000
0100
1000
,
0100
0010
0100
0010
0000
0000
0001
0100
0001
0100
0010
0100
,
0010
0000
0000
1000
0001
1000
0001
0010
0001
0010
0000
0000
,
0100
1000
0100
1000
0001
1000
0001
0000
0000
0100
0001
0100
,
0001
1000
0001
1000
0100
1000
0100
0010
0001
0010
0001
1000
,
0001
0000
0000
0100
0010
0100
0010
1000
0010
1000
0001
1000
,
0001
0010
0001
0010
0100
0010
0100
0000
0000
1000
0001
1000
,
0001
0100
0001
0100
0010
1000
0010
1000
0001
1000
0001
0010
,
0100
0000
0000
1000
0001
1000
0001
1000
0010
1000
0010
0100
,
0001
0100
0001
1000
0100
1000
0100
0010
0001
1000
0000
0000
,
0010
0000
0100
0001
0000
0010
0100
0000
1000
0001
0000
0000
,
0100
0000
0000
0010
0000
0000
1000
0000
0001
0010
0000
0000
,
0100
0000
0010
0001
0000
0000
0100
0000
0010
1000
0000
0000
,
0100
0000
1000
0100
0001
1000
0010
0001
,
2000
0000
0000
3010
,
0100
0001
0010
0100
1000
0001
0100
0000
0000
0010
1000
0001
,
0010
0100
1000
0010
0000
0000
0100
0001
1000
0100
0010
0001
,
1000
0100
0010
0001
0100
0010
1000
0100
0010
0001
0000
0000
,
1000
0010
0100
0001
1000
0100
1000
0001
0100
0010
1000
0100
,
0010
0001
0100
0010
0000
0000
1000
0000
0000
0100
0000
0000
,
0022
0000
0030
1003
,
0010
0000
0000
0100
0000
0000
0001
0010
0100
1000
0010
0100
,
0001
0000
0000
1000
0100
0010
0001
0100
0010
1000
0000
0000
,
0001
0100
0010
0100
0001
1000
0100
0010
,
0100
1000
0001
0100
0010
0000
1000
0001
,
0010
0100
1000
1000
0010
0010
0100
0100
,
0001
0000
0000
0000
0000
0000
0001
0000
0000
0000
0000
0000
0010
0000
0000
0000
0000
0000
0010
0000
0000
0000
0000
0000
0100
0000
0000
1000
0000
0000
0100
0000
0000
1000
0000
0000
0001
0000
0000
0000
0000
0000
0000
0000
0100
0000
0000
0000
,
0001
0000
1000
0001
0000
0010
0001
0000
1000
0010
0000
0100
,
0010
0000
1000
0010
0000
1000
0001
0000
1000
0100
0000
1000
,
0010
0000
0100
0010
0000
0100
0001
0000
0010
0100
0000
1000
,
0100
0000
1000
0001
0000
0100
0001
0000
1000
0100
0000
0010
,
0001
0000
1000
0001
0000
0100
0001
0000
0010
0001
0000
1000
,
0010
0000
0100
0001
0000
0010
0100
0000
1000
0001
0000
0100
,
0010
0000
1000
0001
0000
0010
0100
0000
1000
0010
0000
0100
,
0001
0000
0010
0100
0000
1000
0010
0000
0100
0001
0000
1000
,
0100
0000
0010
0100
0000
1000
0001
0000
0100
0010
0000
1000
,
0001
0000
0010
0100
0000
1000
0001
0000
0100
0010
0000
1000
,
0001
0000
0001
0000
0010
0000
0010
0000
0100
0000
0100
0000
1000
0100
1000
0100
,
2000
0000
0000
0000
0000
0000
3010
0000
0000
0000
0000
0000
0000
0000
0000
0000
0000
0000
0100
0000
0000
0100
0001
0000
,
0001
0000
0010
0000
0100
0000
0100
0000
0000
1000
0001
0000
0001
0000
0100
0000
0010
0000
1000
0000
0000
1000
0100
0000
,
0100
0000
0010
0000
0001
0000
0100
0000
0100
0000
0010
0000
1000
0000
0000
0000
0100
0010
0001
0000
0000
0001
1000
0000
,
1000
0000
0010
0000
0100
0000
1000
0000
0000
0100
0001
0000
0001
0000
0010
0000
0100
0000
1000
0001
0100
0010
1000
0000
,
0100
0010
0001
1000
0010
0000
0100
0001
1000
0100
0010
0001
0200
0000
0000
0000
0000
0000
0301
0000
0000
1000
0100
0000
,
0100
0000
0010
0000
0100
0000
1000
0000
0001
0100
0010
0000
0010
0000
1000
0000
0001
0000
0010
0000
0000
0100
0010
0000
,
0010
0001
1000
0010
0010
0100
0001
0000
0000
1000
0000
0000
,
0001
0010
0100
0010
0001
0000
1000
0010
,
0100
0010
1000
0000
0001
0010
0100
1000
,
0010
0000
0100
0001
1000
0100
0010
0000
,
0001
0100
1000
0100
0001
0000
1000
0100
,
0001
0100
1000
1000
0001
0001
0100
0100
,
0010
0010
1000
1000
0001
0001
1001
0000
,
0001
0100
0101
0001
,
0010
0110
0100
1000
,
1001
0001
0100
0110
,
0010
1000
1100
0100
,
0010
0011
0001
1000
,
1010
0010
0100
1001
,
0001
0010
1100
1000
,
0001
0110
1000
0001
,
0011
1000
0010
0101
,
1000
0100
0011
0001
,
0010
0200
0302
0203
,
2300
3020
0230
0301
,
1000
0010
1000
0000
0010
1000
0010
0000
1000
0001
1000
0000
0001
1000
0001
0000
,
1000
0001
1000
0000
0100
0000
0000
0000
0010
0001
0010
0000
0001
0010
0001
0000
,
1000
0001
1000
0000
0001
1000
0001
0000
1000
0001
1000
0000
0010
0000
0000
0000
,
0100
0001
0100
0000
0001
0100
0001
0000
1000
0001
1000
0000
0001
1000
0001
0000
,
1000
0001
1000
0000
0100
0000
0000
0000
0010
0001
0010
0000
0001
0010
0001
0000
,
1000
0010
1000
0000
0010
1000
0010
0000
1000
0010
1000
0000
0001
0000
0000
0000
,
0010
0001
0010
0000
0001
0010
0001
0000
0100
0010
0100
0000
0010
0100
0010
0000
,
0100
0010
0100
0000
0001
0000
0000
0000
1000
0100
1000
0000
0100
1000
0100
0000
,
1000
0010
1000
0000
0010
1000
0010
0000
1000
0010
1000
0000
0001
0000
0000
0000
,
0100
0000
0000
0000
0010
0000
1000
0001
0010
0000
0000
0000
0100
0000
1000
0000
,
0001
0000
0000
0000
0100
0001
0100
0000
0001
1000
0001
0000
1000
0100
1000
0000
,
0020
0000
0030
0000
;

//---------------dance-single - ----------------
#NOTES:
     dance-single:
     :
     Challenge:
     18:
     0.991104,1.299960,0.103651,0.317864,1.610050,1004.000000,989.000000,15.000000,46.000000,0.000000,0.000000,0.991104,1.299960,0.103651,0.317864,1.610050,1004.000000,989.000000,15.000000,46.000000,0.000000,0.000000:
0000
0000
0000
0000
,
0000
0000
0000
0000
,
0000
0000
0000
0000
,
0000
0000
0000
0000
,
0000
0000
0000
0000
,
0000
0000
0000
0000
,
0000
0000
0000
1000
0100
0010
0001
0000
1000
0010
0000
0100
,
0001
0010
0100
1000
1010
0000
0010
0100
,
0001
0000
0000
0000
0000
0000
0010
0000
0000
0000
0000
0000
0100
0000
0000
0000
0000
0000
0000
0000
0000
1000
0000
0000
0001
0000
0000
0000
0000
0000
0100
0000
0000
0010
0000
0000
1000
0000
0000
0000
0000
0000
0000
0000
0001
0000
0000
0000
,
0100
0000
0010
0001
0010
0100
0001
1000
0100
0010
0000
0000
,
0001
0000
0000
0100
0000
0000
0010
0000
0000
0000
1000
0000
0001
0000
0000
0000
0000
0000
0010
0000
0000
0100
0000
0000
,
0001
0000
0100
1000
0000
0001
0100
0010
1000
0001
0000
0010
,
0100
0000
0000
0000
0000
0000
0000
0000
1000
0000
0000
0000
0010
0000
0000
0000
0000
0000
0000
0000
0100
0000
0000
0000
0001
0000
0000
0000
0000
0000
0000
0000
0010
0000
0000
0000
0100
0000
0000
0000
0000
0000
0000
0000
0000
1000
0000
0000
,
0001
0000
0010
0000
0100
0000
1000
0000
1010
0000
0000
0010
0100
0000
0001
0000
,
0010
0100
1000
0001
0100
0100
0100
0100
,
0200
0000
0000
0310
1000
0001
0010
0100
1000
0001
0000
0000
,
0100
0000
0001
0000
1000
0000
0100
0000
0000
0010
0000
0000
0011
0000
0000
0000
0000
0000
0001
0000
0100
0000
0010
0000
,
1000
0000
0001
0000
1000
0010
1000
0010
0100
0001
0100
0001
1000
0100
1000
0100
,
0020
0000
0000
0030
0000
0000
0000
0000
0000
0001
0010
0100
,
1000
0001
0100
0010
0100
1000
0100
0000
0000
0010
0100
0001
,
1000
0100
0010
0001
0010
0100
1000
0010
0100
0001
0000
0000
,
1001
0000
0000
1000
0100
0010
0001
0100
0010
1000
0000
0000
,
0001
0000
0000
0100
0000
0000
0010
0000
0000
0000
1000
0000
0001
0000
0000
0000
0000
0000
0010
0000
0000
0001
0000
0000
,
0100
0000
0000
0010
0000
0000
1000
0000
0000
0000
0000
0000
0100
0000
0000
0010
0000
0000
0001
0000
0000
0000
1000
0000
,
0010
0000
0000
0000
0100
0000
0001
0000
0000
0100
0000
0000
1000
0000
0000
0100
0000
0000
0010
0000
0000
0100
0000
0000
,
0001
0010
0100
1000
1001
0000
0001
0010
,
0100
0000
0000
0010
0000
0000
1000
0000
0000
0000
0000
0000
0010
0000
0000
0000
0001
0000
1000
0000
0010
0000
0100
0000
,
0001
0000
0000
1000
0100
0000
0001
0000
0100
0000
1000
0000
0010
0000
0000
0100
,
0001
0000
0010
0000
0100
0000
1000
0000
1010
0000
0000
0010
0100
0000
1000
0000
,
0100
0000
0001
0000
0010
0001
0010
0001
1000
0010
1000
0010
0100
0001
0100
0001
,
0020
0000
0000
0000
0000
0000
0031
0100
0001
0100
0010
1000
,
0010
0100
0001
1000
0100
0010
0100
1000
0010
0100
0001
1000
,
0100
0010
0001
1000
0010
0100
0001
1000
0100
0010
0001
0100
,
0010
1000
0001
0010
0100
1000
0001
0100
0001
1000
0100
0010
,
0001
1000
0010
0100
0001
0010
0100
1000
0001
0100
0001
1000
,
0100
0010
0001
1000
0010
0100
0001
0010
0100
1000
0001
0100
,
0010
1000
0100
0010
0001
1000
0010
0100
0010
0001
0010
0100
,
0010
1000
0001
0010
0100
1000
0010
0100
0001
1000
0100
0010
,
0001
0100
0010
0001
0010
0100
0001
1000
0100
0010
0001
0100
,
0010
1000
0001
0010
0100
1000
0001
1000
0010
0001
0010
0100
,
0001
1000
0100
0010
0001
0100
0010
1000
0001
0010
0100
1000
,
0001
1000
0100
0001
0100
1000
0001
0100
0010
1000
0100
0010
,
0001
0100
1000
0100
0010
1000
0100
0010
0001
2000
0000
0000
,
3002
0000
0100
0023
0000
0100
0032
0000
0100
2003
0000
0000
,
3200
0000
0000
0320
0000
0000
0032
0000
0100
2003
0000
0000
,
3020
0000
0100
0032
0000
0000
0023
0000
0100
2030
0000
0000
,
3200
0000
0000
0000
1300
0100
0010
0001
1000
0010
0100
0001
1000
0010
0100
0001
,
0020
0000
0000
0130
,
1000
0010
0100
0001
0010
0100
0001
0100
0010
0001
1000
0010
,
0100
0001
0010
0100
1000
0001
0100
0010
1000
0001
0010
0001
,
0100
0000
0000
0000
0000
0000
0010
0000
0000
0000
0000
0000
1000
0000
0000
0000
0000
0000
0000
0000
0000
0001
0000
0000
0000
0000
0000
0000
0000
0000
0000
0000
0010
0000
0000
0000
0000
0000
0000
0000
1000
0000
0000
0000
0000
0000
0000
0000
0010
0000
0000
0000
0000
0000
0000
0000
0001
0000
0000
0000
0000
0000
0000
0000
0100
0000
0000
0000
0000
0000
0000
0000
0020
0000
0000
0000
0000
0000
0000
0000
0000
0000
0000
0000
0000
0000
0000
0000
0000
0000
0000
0000
0000
0000
0000
0000
,
1000
0000
0000
0000
0000
0000
0000
0000
0000
0000
0000
0000
0000
0000
0000
0000
0130
0000
0000
0000
0000
0000
0000
0000
0001
0000
0000
0000
0000
0000
0000
0000
0010
0000
0000
0000
0000
0000
0000
0000
0100
0000
0000
0000
0000
0000
0000
0000
1000
0000
0000
0000
0000
0000
0010
0000
0000
0000
0000
0000
0100
0000
0000
0000
0000
0000
0000
0000
0000
0001
0000
0000
0000
0000
0000
0000
0000
0000
0000
0000
1000
0000
0000
0000
0000
0000
0000
0000
0010
0000
0000
0000
0000
0000
0000
0000
,
0001
0000
0000
0000
0000
0000
0000
0000
0010
0000
0000
0000
0000
0000
0000
0000
1000
0000
0000
0000
0000
0000
0000
0000
0001
0000
0000
0000
0000
0000
0000
0000
0000
0000
0000
0000
0000
0000
0000
0000
0000
0000
0000
0100
0000
0000
0000
0000
0010
0000
0000
0000
0000
0000
0000
0000
0000
0000
0000
0000
1000
0000
0000
0000
0000
0000
0001
0000
0000
0000
0000
0000
0000
0000
0000
0000
1000
0000
0000
0000
0000
0000
0001
0000
0000
0000
0000
0000
0000
0000
0000
0000
0000
0000
0000
0000
,
0202
0000
0300
0023
,
0001
0000
0000
0130
1000
0001
1000
0001
0100
0010
1000
0100
,
0001
0100
1000
0010
0100
0001
0010
0100
1000
0010
1000
0100
,
0001
0000
0100
0000
1000
0000
0001
0000
0100
0000
0010
0000
1000
0001
1000
0001
,
0100
0001
0100
0001
1000
0010
1000
0010
0200
0000
0000
0000
0301
0010
0001
0010
,
0100
1000
0001
0100
0010
1000
0010
0100
0001
1000
0100
0010
0001
1000
0010
0100
,
0001
0000
0000
0010
0000
0000
0100
0000
0000
1000
0000
0000
0001
0000
0000
0100
0000
0000
0010
0000
0000
1000
0000
0000
0001
0000
0000
0010
0000
0000
0100
0000
0000
1000
0000
0000
0001
0000
0000
0000
0000
0000
0000
0000
0100
0000
0000
0000
,
0001
0000
1000
0010
0000
0100
0001
0000
0010
0100
1000
0010
,
0100
0000
0001
1000
0100
0010
0001
0000
0100
0001
0000
0010
,
0100
0000
1000
0010
0100
0001
0010
0100
1000
0001
0100
0010
,
0100
0000
0001
0010
0000
0100
1000
0000
0001
0100
0001
0010
,
0100
0000
1000
0001
0000
0100
0010
1000
0100
0010
0001
0100
,
0001
0000
1000
0010
1000
0100
0010
0000
0001
0100
0000
0010
,
1000
0000
0100
0010
0001
0100
1000
0100
0010
1000
0100
0010
,
0001
0100
0010
1000
0000
0100
0010
0000
0100
1000
0001
0100
,
0010
1000
0001
0010
0100
1000
0010
0100
0001
1000
0100
0010
,
0001
0100
0010
1000
0001
0010
0100
1000
0001
1000
0000
0000
,
0001
0010
0001
0010
0100
1000
0100
1000
0010
0100
0010
0100
0001
1000
0001
1000
,
0200
0000
0000
0000
0000
0000
0310
0000
0000
0000
0000
0000
0000
0000
0000
0000
0000
0000
0001
0000
0000
0100
0010
0000
,
0010
0000
0001
0000
0010
0000
0100
0000
0001
1000
0100
0000
0100
0000
0010
0000
0100
0000
0001
0000
0000
0100
0010
0000
,
0010
0000
0001
0000
0100
0000
0010
0000
0010
0000
1000
0000
0100
0000
0000
0000
0010
0001
1000
0000
0000
0100
0010
0000
,
0010
0000
0001
0000
1000
0000
0010
0000
0000
0001
0010
0000
0010
0000
0100
0010
1000
0000
0100
1000
0010
0100
0001
0100
,
0010
1000
0001
0010
0100
0010
0001
0010
0100
0010
1000
0010
0002
0000
0000
0000
0000
0000
0013
0000
0000
0100
0010
0000
,
0010
0000
1000
0000
0010
0000
0001
0000
0100
0010
1000
0000
1000
0000
0001
0000
0010
0000
1000
0000
0000
0010
0100
0000
,
0100
0000
0000
0000
0000
0000
0000
0000
0000
0000
0000
0000
0000
0000
0000
0000
1000
0000
0000
0000
0000
0000
0000
0000
0000
0000
0000
0000
0000
0000
0000
0000
0001
0000
0000
0000
0000
0000
0000
0000
0000
0000
0000
0000
0000
0000
0000
0000
0100
0000
0000
0000
0000
0000
0000
0000
0000
0000
0000
0000
0000
0000
0000
0000
0001
0000
0000
0000
0100
0000
0000
0000
0001
0000
0000
0000
0100
0000
0000
0000
0001
0000
0000
0000
0100
0000
0000
0000
0001
0000
0000
0000
0100
0000
0000
0000
0010
0000
0000
0000
0000
0000
0000
0000
0000
0000
0000
0000
0000
0000
0000
0000
0000
0000
0000
0000
0000
0000
0000
0000
0000
0000
0000
1000
0000
0000
0000
0000
0000
0001
0000
0000
0000
0000
0000
0000
0000
0000
1000
0000
0000
0000
0000
0000
0001
0000
0000
0000
0000
0000
0000
0000
0000
0000
0000
0000
0000
0000
0000
0000
0000
0000
0000
0000
0000
0000
0000
0000
0000
0000
0000
0000
0000
0000
0000
0000
0000
0000
0000
0000
0000
0000
0000
0000
0000
0000
0000
0000
0000
0000
0000
0000
,
1000
0100
0001
0100
1000
0000
0001
0100
,
1000
0100
0001
0000
1000
0010
0001
0010
,
1000
0000
0001
0010
1000
0001
0100
0000
,
1000
0010
1000
0010
0100
0010
0100
0010
1000
0000
0000
0000
0001
0010
0001
0010
,
0100
0010
0100
0010
0001
1000
0001
1000
0010
1000
0010
1000
0001
0100
0001
0100
,
0001
1000
0001
1000
0100
0010
0100
0010
0001
0010
0100
1000
0002
0000
0000
0000
,
0100
0013
2001
0100
,
3010
0000
1000
0002
0000
0000
0010
0000
0000
1003
0000
0000
,
2100
0000
0000
0001
0000
0000
3010
0000
1000
0002
0000
0000
,
0100
1003
2010
0001
,
3010
0000
1000
0002
0000
0000
0100
0000
0000
0013
0000
0000
,
1200
0000
0000
0001
0000
0000
1300
0000
0010
2000
0000
0000
,
0100
3001
0102
0010
,
1003
0000
0001
0200
0000
0000
0010
0000
0000
0301
0000
0000
,
2010
0100
3001
0201
,
1000
0301
0021
1000
,
0001
2030
3002
2003
,
3020
0230
2300
3001
,
1000
0010
0100
0010
1000
0010
0100
0010
1000
0001
0010
0001
1000
0001
0010
0001
,
1000
0001
0010
0001
1000
0000
0000
0000
0001
1000
0010
1000
0001
1000
0010
1000
,
0001
0010
0100
0010
0001
0010
0100
0010
0001
0010
0100
0010
0001
0000
0000
0000
,
1000
0100
0010
0100
1000
0100
0010
0100
1000
0001
0100
0001
1000
0001
0100
0001
,
1000
0001
0100
0001
1000
0000
0000
0000
0001
0100
0010
0100
0001
0100
0010
0100
,
0001
1000
0100
1000
0001
1000
0100
1000
0001
1000
0100
1000
0001
0000
0000
0000
,
1000
0100
0010
0100
1000
0100
0010
0100
1000
0010
0100
0010
1000
0010
0100
0010
,
1000
0010
0100
0010
1000
0000
0000
0000
0001
0010
0100
0010
0001
0010
0100
0010
,
0001
0100
0010
0100
0001
0100
0010
0100
0001
0100
0010
0100
0001
0000
0000
0000
,
0100
0000
0000
0000
1000
0000
0100
0010
1000
0000
0000
0000
0100
0010
0001
0000
,
0100
0000
0010
1000
0001
0100
0001
0010
0100
1000
0010
1000
0100
1000
0001
0100
,
0020
0000
0030
0000
;

//---------------dance-double - ----------------
#NOTES:
     dance-double:
     :
     Beginner:
     4:
     0.162881,0.222850,0.172752,0.145112,0.000000,165.000000,140.000000,25.000000,21.000000,0.000000,0.000000,0.162881,0.222850,0.172752,0.145112,0.000000,165.000000,140.000000,25.000000,21.000000,0.000000,0.000000:
00000000
00000000
00000000
00000000
,
00000000
00000000
00000000
00000000
,
00000000
00000000
00000000
00000000
,
00000000
00000000
00000000
00000000
,
00000000
00000000
00000000
00000000
,
00000000
00000000
00000000
00000000
,
00000000
00000000
00000000
00001000
,
00000000
00000000
00010000
00000000
,
00000000
00000100
00000000
00000000
,
00001000
00000000
00000000
00000001
,
00000000
00000000
00000100
00000000
,
00000000
00000010
00000000
00000000
,
00010000
00000000
00000000
00001000
,
00000000
00000000
00100000
00000000
,
00000000
01000000
00000000
00000000
,
10000000
00000000
00000000
00010000
,
00000000
00000000
01000000
00000000
,
00000000
00100000
00000000
00000000
,
01100000
00000000
00000000
10000000
,
00000000
00000000
00010000
00000000
,
00000000
10000000
00000000
00000000
,
01000000
00000000
00000000
00100000
,
00000000
00000000
00001000
00000000
,
00000000
00010000
00000000
00000000
,
00000010
00000000
00000000
00001000
,
00000000
00000000
00000001
00000000
,
00000000
00000010
00000000
00000000
,
00000100
00000000
00000000
00010000
,
00000000
00000000
00001000
00000000
,
00000000
01000000
00000000
00000000
,
02200000
03300000
00000000
02000000
,
03000000
00000000
00020000
00030000
,
00000000
20000000
30000000
00000000
,
02000000
03000000
00000000
00200000
,
00300000
00000000
00002000
00003000
,
00000000
00020000
00030000
00000000
,
00000020
00000030
00000000
00002000
,
00003000
00000000
00000002
00000003
,
00000000
00000020
00000030
00000000
,
00000200
00000300
00000000
00020000
,
00030000
00000000
00002000
00003000
,
00000000
02000000
03000000
00000000
,
00200000
00300000
00000000
10000000
,
00000000
00010000
00000000
01000000
,
00000000
00001000
00000000
00010000
,
00000000
00000100
00000000
00000010
,
00000000
00000001
00000000
00000000
,
00001001
00000000
00000000
00000001
,
00000000
00000000
00000110
00000000
,
00000000
00001000
00000000
00000000
,
00001001
00000000
00000000
00000001
,
00000000
00000000
00000110
00000000
,
00000000
00001000
00000000
00000000
,
00001001
00000000
00000000
00000010
,
00000000
00000000
00001010
00000000
,
00000000
00010000
00000000
00000000
,
00101000
00000000
00000000
00001000
,
00000000
00000000
01100000
00000000
,
00000000
10000000
00000000
00000000
,
00010000
00000000
00000000
01000000
,
00000000
00000000
00100000
00000000
,
00000000
10000000
00000000
00000000
,
01000000
00000000
00000000
00100000
,
00000000
00000000
00001000
00000000
,
00000000
00010000
00000000
00000000
,
00000010
00000000
00000000
00001000
,
00000000
00000000
00000001
00000000
,
00000000
00000100
00000000
00000000
,
00000010
00000000
00000000
00001000
,
00000000
00000000
00000100
00000000
,
00000000
00010000
00000000
00000000
,
00011000
00000000
00000000
00001000
,
00000000
00010000
00000000
00100000
,
00000000
01000000
00000000
00010000
,
00000000
00100000
00000000
01000000
,
00000000
10000000
00000000
00010000
,
00000000
01000000
00000000
00001000
,
00000000
00010000
00000000
00000100
,
00000000
00000000
00000110
00000000
,
00000000
00000001
00000000
00000000
,
00001001
00000000
00000000
00001000
,
00000000
00000000
00001010
00000000
,
00000000
00010000
00000000
00000000
,
00001000
00000000
00000000
00100000
,
00000000
00000000
01100000
00000000
,
00000000
10000000
00000000
00000000
,
10010000
00000000
00000000
00010000
,
00000000
00000000
01010000
00000000
,
00000000
00001000
00000000
00000000
,
00011000
00000000
00000000
00010000
,
00000000
00000000
00010100
00000000
,
00000000
00000100
00000000
00000000
,
00000110
00000000
00000000
00000001
,
00000000
00000000
00001001
00000000
,
00000000
00002000
00000000
00000000
,
00000000
00003000
00000000
00000000
,
00000001
00000000
00000100
00000000
,
00000000
00000000
00000010
00000000
,
00010000
00000000
00000000
00000000
,
00001000
00000000
00100000
00000000
,
00000000
00000000
01000000
00000000
,
00100000
00000000
00000000
00000000
,
00010000
00000000
01000000
00000000
,
00000000
00000000
00001000
00000000
,
00010000
00000000
00000000
00010100
,
00000000
00000000
00000110
00000000
,
00000000
00001001
00000000
00000000
,
00000220
00000000
00000330
00000000
;

//---------------dance-double - ----------------
#NOTES:
     dance-double:
     :
     Easy:
     9:
     0.371170,0.371417,0.145112,0.069101,0.000000,376.000000,355.000000,21.000000,10.000000,0.000000,0.000000,0.371170,0.371417,0.145112,0.069101,0.000000,376.000000,355.000000,21.000000,10.000000,0.000000,0.000000:
00000000
00000000
00000000
00000000
,
00000000
00000000
00000000
00000000
,
00000000
00000000
00000000
00000000
,
00000000
00000000
00000000
00000000
,
00000000
00000000
00000000
00000000
,
00000000
00000000
00000000
00000000
,
00000000
00000000
00000000
00010000
,
00001000
00010000
00000010
00001000
,
00000001
00001000
00000100
00000010
,
00000001
00000100
00000010
00010000
,
00001000
00100000
00010000
10000000
,
00100000
01000000
00001000
00010000
,
00000100
00001000
00000001
00000100
,
00000010
00001000
00000100
00000010
,
00000001
00000100
00000010
00001000
,
00000010
00010000
00001000
00100000
,
00010000
10000000
00100000
01000000
,
00010000
10000000
01000000
00010000
,
00001000
00000000
00000000
00010000
,
00000010
00000100
00000001
00000010
,
00000100
00010000
00000100
00000010
,
00000001
00000100
00000010
00010000
,
00001000
00100000
01000000
10000000
,
00100000
01000000
00010000
10000000
,
01000000
00100000
00001000
00010000
,
00000010
00000100
00000001
00000010
,
00000100
00010000
00001000
00100000
,
00010000
01000000
00100000
10000000
,
01000000
00010000
00001000
00000010
,
00000001
00000100
00001000
00010000
,
00001000
00000000
00000000
00010000
,
00001000
00100000
00010000
01000000
,
00100000
10000000
01000000
10000000
,
00100000
01000000
00010000
00100000
,
00001000
00010000
00000100
00001000
,
00000010
00000100
00000001
00000010
,
00000001
00000100
00000010
00001000
,
00000100
00010000
00001000
00100000
,
00010000
01000000
00100000
10000000
,
01000000
10000000
00100000
01000000
,
00010000
00100000
00001000
00010000
,
00000100
00001000
00000010
00000100
,
00000001
00000010
00000001
00000200
,
00000300
00000020
00000030
00002000
,
00003000
00000200
00000300
00000020
,
00000030
00000002
00000003
00000200
,
00000300
00002000
00000000
00003000
,
00011000
00000000
00000000
00001000
,
00010000
00001000
01000000
00010000
,
10000000
00010000
00100000
01000000
,
10000000
00100000
01000000
00001000
,
00010000
00000100
00001000
00000001
,
00000100
00000010
00010000
00001000
,
00100000
00010000
10000000
00100000
,
01000000
00010000
00100000
01000000
,
10000000
00100000
01000000
00010000
,
01000000
00001000
00010000
00000100
,
00001000
00000001
00000100
00000010
,
00001000
00000001
00000010
00001000
,
00010000
00000000
00000000
00001000
,
01000000
00100000
10000000
01000000
,
00100000
00001000
00100000
01000000
,
10000000
00100000
01000000
00001000
,
00010000
00000100
00000010
00000001
,
00000100
00000010
00001000
00000001
,
00000010
00000100
00010000
00001000
,
01000000
00100000
10000000
01000000
,
00100000
00001000
00010000
00000100
,
00001000
00000010
00000100
00000001
,
00000010
00001000
00010000
01000000
,
10000000
00100000
00010000
00001000
,
00010000
00001000
00000000
00010000
,
00001000
00010000
00000010
00000100
,
00000001
00000010
00000100
00000010
,
00000001
00000100
00001000
00010000
,
00100000
01000000
00010000
10000000
,
01000000
00010000
00001000
00000010
,
00000001
00001000
00000010
00000100
,
00000000
00000001
00000101
00000000
,
00001000
00001100
00000000
00100000
,
00110000
00000000
10000000
10010000
,
00000000
00010000
01010000
00000000
,
00001000
00011000
00010000
00000010
,
00001000
00000010
00000100
00000001
,
00000000
00001000
00001100
00000000
,
00010000
00011000
00000000
10000000
,
10100000
00000000
00010000
00110000
,
00000000
00001000
00011000
00000000
,
00000010
00001010
00000000
00000100
,
00000101
00000000
00010000
00011000
,
00000000
10000000
10100000
00000000
,
00001000
00011000
00000000
00000001
,
00001001
00000000
00010000
10010000
,
00000000
00100000
01100000
00000000
,
00001000
00020000
00000000
00000000
,
00000000
00000000
00000000
00031000
,
00000010
00001000
00010000
01000000
,
00010000
00001000
00000100
00001000
,
00010000
00100000
00010000
00001000
,
00000010
00001000
00010000
00100000
,
00010000
00001000
00000100
00001000
,
00010000
01000000
00010000
00001000
,
00000010
00000001
00000100
00001000
,
00010000
00100000
10000000
01000000
,
00010000
00001000
00000010
00000001
,
00000000
00000000
00001001
00000000
,
00000000
00000001
00001000
00010000
,
00200000
00000000
00300000
00000000
;

//---------------dance-double - ----------------
#NOTES:
     dance-double:
     :
     Medium:
     13:
     0.551820,0.705692,0.089831,0.228033,0.324774,559.000000,546.000000,13.000000,33.000000,0.000000,0.000000,0.551820,0.705692,0.089831,0.228033,0.324774,559.000000,546.000000,13.000000,33.000000,0.000000,0.000000:
00000000
00000000
00000000
00000000
,
00000000
00000000
00000000
00000000
,
00000000
00000000
00000000
00000000
,
00000000
00000000
00000000
00000000
,
00000000
00000000
00000000
00000000
,
00000000
00000000
00000000
00000000
,
00000000
00000000
00000000
00010000
,
00001000
00000010
00000011
00000001
,
00000100
00000000
00000000
00001000
00000000
00000000
00010000
00000000
00000000
00100000
00000000
01000000
,
00010000
10000000
01000000
00100000
,
00001000
00000000
00000000
00010000
00000000
00000010
00010000
00000000
00000000
00000010
00000000
00000000
,
00001000
00000000
00000001
00000100
00000000
00000000
00000001
00000000
00000000
00001000
00000000
00000001
,
00000100
00000010
00000100
00000001
,
00001000
00000100
00010100
00010000
,
00001000
00000000
00100000
00000000
00010000
10000000
00010000
10000000
,
00010000
00100000
01000000
10000000
,
00100000
01000000
01010000
00001000
,
00010000
00000000
00000100
00001000
00000001
00000010
00000100
00001000
,
00000001
00000000
00000000
00001000
,
00000010
00000100
00000101
00000001
,
00001000
00000000
00000000
00000100
00000000
00000000
00010000
00000000
00000000
00001000
00000000
00100000
,
00010000
10000000
00100000
01000000
,
00010000
00000000
00000000
10000000
00000000
01000000
00100000
00000000
00000000
00001000
00000000
00000000
,
00010000
00000000
00000000
00000010
00000000
00000000
00001000
00000000
00000000
00000001
00000000
00000100
,
00000010
00001000
00000100
00000010
,
00000001
00001000
00001010
00000010
,
00010000
00000000
00000000
00001000
00000000
00000000
00100000
00000000
00000000
01000000
00000000
10000000
,
00100000
01000000
00010000
10000000
,
01000000
00010000
00001000
00000010
,
00000001
00000000
00000100
00001000
00010000
00100000
00010000
00001000
,
00020000
00000000
00000000
00000000
00000000
00000000
00000000
00000000
00000000
00031000
00000000
00100000
,
00001000
00000000
01000000
00010000
00000000
10000000
01000000
00000000
00100000
00001000
00000000
00010000
,
00000010
00000000
00000100
00000001
00000000
00001000
00000100
00000000
00000010
00000001
00000000
00001000
,
00000010
00000000
00010000
00001000
00000000
00100000
00010000
00000000
10000000
00100000
00000000
01000000
,
00010000
00000000
10000000
01000000
00000000
00100000
00001000
00000000
00010000
00001000
00000000
00010000
,
00000010
00000000
00000100
00000001
00000000
00000010
00000100
00000000
00010000
00001000
00000000
01000000
,
00100000
00000000
10000000
00010000
00000000
00100000
01000000
00000000
10000000
00010000
00000000
01000000
,
00001000
00000000
00010000
00000010
00000000
00000100
00001000
00000000
00010000
00100000
00000000
01000000
,
00010000
00000000
10000000
01000000
00000000
00100000
00010000
00000000
10000000
00100000
00000000
01000000
,
00001000
00000000
00010000
00000100
00000000
00000010
00000001
00000000
00000100
00001000
00000000
00010000
,
00100000
00000000
01000000
00010000
00000000
00100000
01000000
00000000
10000000
01000000
00000000
00010000
,
00001000
00000000
00000100
00000010
00000000
00000100
00000001
00000000
00000010
00000100
00000000
00001000
,
00000001
00000000
00000100
00001000
00000000
00010000
00100000
00000000
01000000
00020000
00000000
00000000
,
20030000
32000000
03200000
00302000
,
00023000
00030020
00000230
00002300
,
00023000
00230000
02300000
03020000
,
20030000
00000000
31000000
00100000
00010000
00100000
01000000
00100000
,
00020000
00000000
00000000
10030000
,
00100000
01000000
00001000
00010000
,
00000010
00000100
00001000
00010000
,
00100000
01000000
00010000
01000000
00010000
00100000
00010000
01000000
00001000
00010000
00000000
00000000
,
00001000
00000000
00000000
00000010
00000000
00000000
00000100
00001000
00000100
00000010
00000100
00001000
,
00000001
00001000
00000001
00000100
00000000
00000000
00001000
00000000
00000000
00010000
00000000
00000000
,
00200000
00000000
00000000
10300000
,
01000000
00100000
00020000
00000000
,
00000000
01030000
00100000
00010000
,
00002000
00000000
00000000
00013000
,
00001000
00000100
00000020
00000000
,
00000130
00000001
00000100
00001000
,
00010000
00100000
01000000
00010000
,
10000000
01000000
00110000
00001000
,
00100000
00000100
00010000
00000010
,
00001100
00001000
00000001
00000100
,
00000010
00000100
00011000
00100000
,
00010000
01000000
00100000
10000000
,
10010000
10000000
01000000
00100000
,
10000000
00100000
01000000
00010000
,
00001000
00000100
00000001
00000010
,
00000110
00010000
00001000
01000000
,
00100000
10000000
10010000
00010000
,
10000000
01000000
00010000
00001000
00010000
00100000
10000000
00100000
,
00020000
00031000
00000000
00020000
,
00031000
00010000
00000100
00002000
00000000
00000000
00003001
00000100
00000010
00002000
00000000
00000000
,
00003001
00000010
00001000
00010000
00100000
10000000
02000000
00000000
00000000
03200000
00000000
00000000
,
01300000
10000000
00010000
02000000
00000000
00000000
13000000
01000000
00010000
00100000
01000000
00010000
,
00001000
00000010
00000001
00000100
00001000
00010000
00200000
00000000
00000000
20300000
00000000
00000000
,
31000000
00010000
00001000
00000020
00000000
00000000
00000031
00000100
00001000
00020000
00000000
00000000
,
00031000
00000010
00000001
00000100
00001000
00010000
02000000
00000000
00000000
13000000
00000000
00000000
,
01000000
00010000
00001000
00000000
00011000
00000000
00010000
00000010
,
00000100
00000000
00000001
00000000
00000100
00001000
00010000
00000000
,
00011000
00000000
00001000
00100000
01000000
10000000
00010000
00000000
,
01000000
00100000
00010000
00001000
00000010
00000000
00001000
00010000
,
00100000
01000000
00010000
10000000
01000000
00100000
00001000
00010000
,
00000010
00000100
00001000
00010000
00001000
00010000
00001000
00000000
,
00010000
01000000
10000000
00100000
,
01000000
00100000
10000000
00010000
,
00100000
01000000
00100000
00010000
,
10000000
00100000
00010000
00001000
,
00000100
00000010
00001000
00000001
,
00000010
00001000
00010000
00001000
,
00000100
00000001
00000100
00001000
,
00010000
01000000
10000000
01000000
,
00010000
00001000
00010000
00100000
,
10000000
00100000
00010000
00001000
,
00000100
00000010
00001000
00000001
,
00000010
00000100
00001000
00000001
,
00000010
00001000
00010000
00001000
00000100
00000001
00000100
00001000
,
00010000
00001000
00010000
00000000
00001000
00010000
01000000
00010000
,
00001000
00010000
00100000
00010000
00001000
01000000
00010000
00000000
,
10000000
00100000
00010000
00001000
00010000
01000000
00010000
00001000
,
00100000
00001000
00010000
00000000
00001000
00000100
00000001
00000100
,
00001000
00010000
00001000
00000010
00000001
00001000
00000010
00000000
,
00010000
00000010
00000001
00000010
00010000
00000100
00000001
00000100
,
00010000
00000100
00010000
00000000
00001000
01000000
10000000
01000000
,
00001000
00100000
10000000
00100000
00001000
00010000
01000000
00000000
,
10000000
00000000
00100000
00000000
01000000
00000000
00010000
00100000
,
01000000
00000000
10000000
00100000
00010000
00001000
00000100
00000001
,
00000020
00000000
00000030
00000000
;

//---------------dance-double - ----------------
#NOTES:
     dance-double:
     :
     Hard:
     16:
     0.756161,0.891401,0.082921,0.089831,0.939772,766.000000,754.000000,12.000000,13.000000,0.000000,0.000000,0.756161,0.891401,0.082921,0.089831,0.939772,766.000000,754.000000,12.000000,13.000000,0.000000,0.000000:
00000000
00000000
00000000
00000000
,
00000000
00000000
00000000
00000000
,
00000000
00000000
00000000
00000000
,
00000000
00000000
00000000
00000000
,
00000000
00000000
00000000
00000000
,
00000000
00000000
00000000
00000000
,
00000000
00000000
00000000
00011000
,
00010000
00000000
00000010
00001000
00000000
00000001
00000100
00000000
00000000
00000001
00000000
00000010
,
00000100
00000000
00010000
00001000
00000000
00000000
10000000
00000000
00010000
00100000
00000000
00000000
,
10010000
00000000
00000000
10000000
01000000
00100000
00010000
00100000
01000000
10000000
00000000
00000000
,
00010000
00000000
01000000
00001000
00000000
00010000
00001000
00000000
00000000
00010000
00000000
00000010
,
00000100
00000000
00000001
00001000
00000000
00000000
00000100
00000000
00000010
00000001
00000000
00000000
,
00001001
00000000
00000000
00001000
00000000
00000010
00000100
00000000
00000001
00001000
00000000
00000000
,
00000001
00000000
00000010
00000100
00000000
00010000
00001000
00000000
00000000
00100000
00000000
00010000
,
10000000
00000000
00000000
00000000
00100000
00000000
01000000
00000000
00000000
00000000
00000000
00000000
00001000
00000000
00000000
00010000
00000000
00000000
00001000
00000000
00000000
00010000
00000000
00000000
,
00001000
00000000
00000000
00010000
00000010
00001000
00000100
00000000
00000010
00000001
00000000
00000000
,
00001000
00000010
00000100
00000001
00000000
00000010
00000100
00000000
00000000
00010000
00001000
00100000
,
00010000
00000000
10000000
00100000
00010000
00001000
00000010
00000001
,
00000100
00000000
00000000
00011000
,
00001000
00000000
01000000
00010000
00000000
10000000
00100000
00000000
00000000
10000000
00000000
01000000
,
00100000
00000000
00001000
00010000
00000000
00000000
00000001
00000000
00001000
00000100
00000000
00000000
,
00001001
00000000
00000000
00000001
00000010
00000100
00001000
00000100
00000010
00000001
00000000
00000000
,
00001000
00000000
00000010
00010000
00000000
00001000
00010000
00000000
00000000
00001000
00000000
01000000
,
00100000
00000000
10000000
00010000
00000000
00000000
00100000
00000000
01000000
10000000
00000000
00000000
,
10010000
00000000
00000000
00010000
00000000
01000000
00100000
00000000
10000000
00010000
00000000
00000000
,
10000000
00000000
01000000
00100000
00000000
00001000
00010000
00000000
00000000
00000100
00000000
00001000
,
00000001
00000000
00000000
00000000
00000100
00000000
00000010
00000000
00000000
00000000
00000000
00000000
00010000
00000000
00000000
00001000
00000000
00000000
00010000
00000000
00000000
00001000
00000000
00000000
,
00010000
00000000
00000000
00001000
01000000
00010000
00100000
00000000
01000000
10000000
00000000
00000000
,
00010000
01000000
00100000
10000000
00000000
01000000
00100000
00000000
00000000
00001000
00010000
00000100
,
00001000
00000000
00000001
00000100
00001000
00010000
01000000
10000000
,
00200000
00000000
00000000
00000000
00000000
00000000
01300000
00010000
01000000
00010000
10000000
01000000
,
00100000
00001000
00010000
00001000
00000000
00000000
00010000
00000010
00001000
00000001
00001000
00000100
,
00000010
00000000
00000000
00000001
00000100
00000010
00010000
00001000
00100000
00001000
00000000
00000000
,
10000000
00010000
01000000
00100000
10000000
01000000
00100000
00000000
00000000
00001000
00010000
00000010
,
00001000
00000001
00000100
00000010
00000000
00000000
00010000
00001000
00100000
00010000
10000000
00100000
,
01000000
00000000
00000000
00001000
00010000
00000100
00001000
00000001
00000100
00000010
00000000
00000000
,
00001000
00000100
00000010
00000001
00001000
00000010
00000100
00000000
00000000
00000001
00000100
00000010
,
00010000
00001000
00000010
00001000
00000000
00000000
00010000
00100000
01000000
00010000
10000000
01000000
,
00100000
00000000
00000000
01000000
10000000
00010000
01000000
00001000
00010000
00000100
00000000
00000000
,
00000010
00000100
00001000
00000001
00000100
00000010
00000100
00000000
00000000
00001000
00010000
00100000
,
01000000
00010000
10000000
01000000
00000000
00000000
00100000
01000000
00010000
00001000
00000010
00000100
,
00001000
00000000
00000000
00000001
00000100
00000010
00000100
00001000
00010000
00100000
01000000
00010000
,
10000000
00010000
10000000
01000000
00100000
00010000
10000000
00000000
00000000
00100000
00000000
00000000
,
01000000
00000000
00001000
00010000
00000000
00000010
00001000
00000000
00000001
00000010
00000000
00000000
,
00000100
00000000
00000000
00001000
00000000
00000000
00000010
00000000
00000100
00001000
00000000
00000000
,
00010000
00000000
00100000
01000000
00000000
00000000
00010000
00000000
10000000
01000000
00000000
00000000
,
00010000
00000000
00001000
00000010
00000001
00000100
00001000
00010000
,
00200000
00000000
00000000
01300000
,
00010000
10000000
01000000
00100000
00001000
00010000
00000010
00000000
00000000
00000100
00000001
00000010
,
00000100
00010000
00001000
00010000
00000000
00000000
00001000
00100000
01000000
10000000
00100000
01000000
,
00001000
00010000
00100000
00010000
00001000
00000010
00001000
00010000
00100000
01000000
00000000
00000000
,
00100000
10000000
00010000
10000000
01000000
00010000
00001000
00000010
00001000
00010000
00100000
00010000
,
00001000
00000010
00000100
00001000
00000000
00000000
00000100
00000000
00000000
00000010
00000000
00000000
,
00002002
00000000
00003000
00000013
,
00000100
00000000
00000000
00001000
00000000
00000000
00000001
00000100
00001000
00010000
00100000
01000000
,
00010000
00000000
10000000
00000000
01000000
00000000
00100000
00000000
00000000
00010000
00000000
00000000
10000000
00000000
00000000
00100000
00000000
00000000
01000000
00000000
00000000
10000000
00000000
00000000
,
01000000
00010000
00100000
01000000
00010000
00001000
00000010
00000001
,
00000100
00001000
00010000
00100000
10000000
00000000
01000000
00100000
,
00010000
10000000
00100000
00100000
01000000
01000000
00001000
00001000
,
00010000
00000000
00000000
00010000
00000000
00000000
00000100
00000000
00000000
00000100
00000000
00000000
00000010
00000000
00000000
00000001
00000000
00000000
00001000
00000000
00000000
00000000
00000010
00000000
,
00001000
00000000
00000001
00001000
00000000
00000100
00000010
00000000
00000001
00001000
00000000
00000010
,
00010000
00000000
00001000
00100000
00000000
00010000
10000000
00000000
00100000
01000000
00000000
00010000
,
10000000
00000000
01000000
00100000
00000000
00001000
00010000
00000000
00000010
00001000
00000000
00000001
,
00000100
00000000
00000010
00000100
00000000
00010000
00001000
00000000
01000000
00100000
00000000
10000000
,
00010000
00000000
01000000
00010000
00000000
00100000
00001000
00000000
00010000
00000010
00000000
00001000
,
00000001
00000000
00000010
00000100
00000000
00010000
00001000
00000000
00100000
00010000
00000000
10000000
,
01000000
00000000
00010000
00001000
00000000
00000010
00000001
00000000
00000100
00001000
00000000
00010000
,
00100000
00000000
01000000
10000000
00000000
01000000
00010000
00000000
00100000
10000000
00000000
00100000
,
00010000
00000000
10000000
00100000
00000000
01000000
00010000
00000000
10000000
01000000
00000000
00010000
,
00001000
00000000
00000100
00000001
00000000
00000010
00001000
00000000
00010000
00100000
00000000
00000000
,
10000000
01000000
00100000
00010000
01000000
00100000
00010000
00001000
,
00000200
00000000
00000000
00000301
00000000
00000000
00000000
00000000
00000000
00000100
00000000
00000010
,
00000010
00001000
00000100
00000010
00000000
00000001
00000001
00000100
00001000
00010000
00000000
00100000
,
00100000
01000000
00010000
10000000
10000000
01000000
00100000
00000000
00000000
00001000
00000000
00010000
,
00010000
00000010
00000100
00001000
00000000
00010000
00010000
00100000
00010000
00001000
00000010
00000001
,
00000100
00000000
00001000
00000000
00010000
00000000
00100000
01000000
00010000
10000000
01000000
00100000
00020000
00000000
00000000
00000000
00000000
00000000
01030000
00000000
00000000
00000000
00100000
00000000
,
00100000
10000000
01000000
00100000
00000000
01000000
01000000
00010000
00001000
00000010
00000000
00000001
,
00000001
00000100
00001000
00010000
00100000
01000000
00010000
00000000
00000000
10000000
00000000
00000000
,
00010000
01000000
10000000
01000000
00010000
00000000
10000000
01000000
,
00010000
00001000
01000000
00000000
00100000
00010000
00001000
00000010
,
00000001
00000000
00001000
00000010
00000001
00000010
00001000
00000000
,
00000001
00000010
00001000
00010000
00100000
00000000
01000000
00010000
,
10000000
01000000
00100000
00001000
00010000
00000010
00001000
00000001
,
00000100
00001000
00010000
00100000
01000000
00010000
10000000
00000000
,
01000000
00100000
00011000
00001000
,
00010000
00000010
00001000
00000001
,
00000011
00000010
00000100
00010000
,
00001000
01000000
10010000
10000000
,
01000000
00010000
00001000
00000010
,
00000001
00000100
00001000
00010000
,
00100000
01000000
01010000
10000000
,
01000000
00010000
00001000
00000010
,
00000110
00000001
00001000
00000010
,
00000100
00001000
00010000
00100000
,
01000000
00020000
20030000
32000000
,
03200000
00320000
20030000
30100000
,
01000000
00010000
01000000
00000000
00010000
01000000
00010000
00000000
00100000
00001000
00100000
00000000
00001000
00100000
00001000
00000000
,
00100000
00001000
00100000
00000000
00001000
00000000
00000000
00000000
00010000
00000100
00010000
00000000
00000100
00010000
00000100
00000000
,
00001000
00000010
00001000
00000000
00000010
00001000
00000010
00000000
00001000
00000010
00001000
00000000
00000001
00000000
00000000
00000000
,
00000100
00000001
00000100
00000000
00000001
00000100
00000001
00000000
00001000
00000010
00001000
00000000
00000010
00001000
00000010
00000000
,
00001000
00000010
00001000
00000000
00000100
00000000
00000000
00000000
00010000
00001000
00010000
00000000
00001000
00010000
00001000
00000000
,
00100000
00001000
00100000
00000000
00001000
00100000
00001000
00000000
00100000
00001000
00100000
00000000
00010000
00000000
00000000
00000000
,
00100000
01000000
00100000
00000000
01000000
00100000
01000000
00000000
00010000
00001000
00010000
00000000
00001000
00010000
00001000
00000000
,
00010000
00001000
00010000
00000000
00000010
00000000
00000000
00000000
00000100
00000010
00000100
00000000
00000010
00000100
00000010
00000000
,
00010000
00001000
00010000
00000000
00001000
00010000
00001000
00000000
00010000
00001000
00010000
00000000
00001000
00000000
00000000
00000000
,
00100000
00000000
00000000
00000000
01000000
00000000
00100000
00010000
10000000
00000000
00000000
00000000
00100000
01000000
00010000
00000000
,
10000000
00000000
01000000
00010000
00001000
00000010
00000001
00001000
,
00000020
00000000
00000030
00000000
;

//---------------dance-double - ----------------
#NOTES:
     dance-double:
     :
     Challenge:
     18:
     0.931874,1.262818,0.013820,0.310954,1.451118,944.000000,942.000000,2.000000,45.000000,0.000000,0.000000,0.931874,1.262818,0.013820,0.310954,1.451118,944.000000,942.000000,2.000000,45.000000,0.000000,0.000000:
00000000
00000000
00000000
00000000
,
00000000
00000000
00000000
00000000
,
00000000
00000000
00000000
00000000
,
00000000
00000000
00000000
00000000
,
00000000
00000000
00000000
00000000
,
00000000
00000000
00000000
00000000
,
00000000
00000000
00000000
00010000
00001000
00000010
00000100
00000000
00001000
00000001
00000000
00000100
,
00000010
00000100
00001000
00010000
00100000
00000000
01000000
00010000
,
10000000
00000000
00000000
01000000
00000000
00000000
00100000
00000000
00000000
00000000
00000000
00000000
10000000
00000000
00000000
00100000
00000000
00000000
00001000
00000000
00000000
00000000
00010000
00000000
,
00001000
00000000
00010000
00000010
00000100
00001000
00010000
00100000
01000000
00010000
00000000
00000000
,
10000000
00000000
00000000
01000000
00000000
00000000
00100000
00000000
00000000
00000000
00001000
00000000
00010000
00000000
00000000
00000000
00000000
00000000
00001000
00000000
00000000
00000010
00000000
00000000
,
00000100
00000000
00001000
00000001
00000000
00000100
00000010
00001000
00000001
00000010
00000000
00001000
,
00000100
00000000
00010000
00001000
00000000
00100000
00001000
00000000
10000000
00100000
00000000
00000000
,
10000000
01000000
00100000
00001000
00010000
00000000
00000010
00001000
,
00000001
00000010
00000100
00001000
00000010
00000010
00000010
00000010
,
00000020
00000000
00000000
00000130
00000001
00001000
00000100
00010000
00001000
00100000
00000000
00000000
,
01000000
00000000
10000000
00000000
00010000
00000000
01000000
00000000
00000000
00001000
00000000
00000000
00010000
00000000
00000000
00000000
00000000
00000000
00000100
00000000
00000010
00000000
00000001
00000000
,
00001000
00000000
00000010
00000000
00000100
00000001
00000100
00000000
00000010
00001000
00000010
00000000
00010000
00001000
00010000
00000000
,
00002000
00000000
00000000
00003000
00000000
00000000
00000000
00000000
00000000
01000000
00001000
01000000
,
00010000
10000000
01000000
00100000
00001000
00010000
00000010
00000000
00000000
00001000
00000001
00001000
,
00000100
00000010
00000001
00001000
00000010
00010000
00001000
00100000
01000000
10000000
00000000
00000000
,
00010000
00000000
00000000
00100000
01000000
00010000
00001000
00000010
00000100
00001000
00000000
00000000
,
00000001
00000000
00000000
00000100
00000000
00000000
00000010
00000000
00000000
00000000
00001000
00000000
00000010
00000000
00000000
00000000
00000000
00000000
00001000
00000000
00000000
00000100
00000000
00000000
,
00000010
00000000
00000000
00000001
00000000
00000000
00000100
00000000
00000000
00000000
00000000
00000000
00000010
00000000
00000000
00010000
00000000
00000000
00001000
00000000
00000000
00000000
00100000
00000000
,
00001000
00000000
00000000
00000000
00100000
00000000
00010000
00000000
00000000
10000000
00000000
00000000
00100000
00000000
00000000
01000000
00000000
00000000
00010000
00000000
00000000
00100000
00000000
00000000
,
01000000
00010000
00001000
00000010
00000100
00000000
00001000
00000001
,
00000100
00000000
00000000
00001000
00000000
00000000
00010000
00000000
00000000
00000000
00000000
00000000
00001000
00000000
00000000
00000000
00000000
00000000
00100000
00000000
01000000
00000000
10000000
00000000
,
00010000
00000000
10000000
01000000
00010000
00001000
00100000
00000000
,
00001000
00010000
00000010
00000100
00000001
00000000
00000100
00001000
,
00010000
00000000
00100000
00000000
01000000
00010000
01000000
00000000
00010000
10000000
00010000
00000000
10000000
01000000
10000000
01000000
,
00200000
00000000
00000000
00000000
00000000
00000000
00310000
10000000
00010000
10000000
01000000
00100000
,
01000000
10000000
00010000
01000000
00100000
10000000
00010000
00100000
00001000
00010000
00000010
00001000
,
00000001
00000010
00000100
00001000
00000001
00000100
00000010
00001000
00000100
00000010
00000001
00001000
,
00000100
00000010
00000001
00001000
00000010
00010000
00001000
00100000
00010000
10000000
00100000
01000000
,
00010000
00100000
01000000
10000000
00010000
01000000
00100000
10000000
00010000
01000000
00001000
00010000
,
00000100
00001000
00000001
00000100
00000010
00001000
00000001
00000010
00000100
00001000
00000001
00000100
,
00000010
00001000
00000100
00010000
00001000
01000000
00010000
10000000
01000000
00100000
01000000
10000000
,
00010000
01000000
00100000
10000000
01000000
00100000
01000000
00010000
00001000
00000010
00000100
00001000
,
00000001
00000100
00000010
00000100
00000001
00001000
00000100
00000010
00000001
00000100
00000010
00000100
,
00001000
00010000
00100000
01000000
00010000
10000000
01000000
00100000
00010000
10000000
00100000
01000000
,
00010000
00100000
01000000
10000000
00100000
01000000
00100000
00010000
00001000
00000010
00000100
00001000
,
00000001
00000100
00000010
00001000
00000001
00000010
00000100
00001000
00000010
00000100
00001000
00010000
,
00100000
01000000
00010000
10000000
01000000
00010000
00001000
00000010
00000100
00002000
00000000
00000000
,
00023000
00000000
00031000
00200000
00000000
00310000
20000000
00000000
31000000
00200000
00000000
00000000
,
00302000
00000000
00000000
00023000
00000000
00000000
00030020
00000000
00000130
00000002
00000000
00000000
,
00000023
00000000
00001030
00020000
00000000
00000000
00230000
00000000
01300000
00020000
00000000
00000000
,
20030000
00000000
00000000
00000000
31000000
00100000
01000000
00000000
10000000
00010000
10000000
00000000
00010000
01000000
00010000
01000000
,
00002000
00000000
00000000
00013000
,
00001000
00000010
00000100
00001000
00000001
00000100
00000010
00001000
00000100
00010000
00001000
01000000
,
00100000
00010000
00001000
00100000
01000000
10000000
00010000
01000000
00001000
00010000
00000100
00000010
,
00000001
00000100
00001000
00010000
00100000
01000000
00010000
10000000
01000000
00100000
00000000
00000000
,
00010000
01000000
00100000
10000000
01000000
00100000
01000000
00001000
00010000
00001000
00100000
01000000
,
00010000
00000000
00001000
00000000
00000010
00000000
00000001
00000000
00000000
00000000
00000000
00000000
00001000
00000000
00000000
00000010
00000000
00000000
00000000
00000100
00000000
00000000
00000000
00000000
,
00000202
00000000
00000303
00000021
,
00000100
00000000
00000000
00000031
00000010
00001000
00010000
00100000
10000000
00010000
00100000
01000000
,
10000000
00100000
01000000
00010000
10000000
01000000
00100000
00001000
00010000
00000010
00000100
00000000
,
00000001
00000100
00001000
00010000
00100000
01000000
00010000
10000000
,
01000000
00010000
00001000
00000010
00000100
00000000
00001000
00000010
,
00000100
00000000
00000001
00000000
00000100
00000010
00001000
00000000
00000010
00010000
00001000
00000000
00100000
00010000
10000000
00000000
,
00100000
00000000
00000000
01000000
00000000
00000000
00100000
00000000
00000000
01000000
00000000
00000000
00010000
00000000
00000000
01000000
00000000
00000000
00010000
00000000
00000000
01000000
00000000
00000000
00010000
00000000
00000000
10000000
00000000
00000000
00010000
00000000
00000000
10000000
00000000
00000000
01000000
00000000
00000000
00000000
00000000
00000000
00000000
00000000
00100000
00000000
00000000
00000000
,
01000000
00000000
10000000
00010000
00000000
01000000
00001000
00000000
00010000
00001000
00010000
00000010
,
00000100
00000000
00000001
00001000
00000100
00000010
00000001
00000000
00000100
00000001
00000000
00001000
,
00000100
00000000
00010000
00001000
00100000
01000000
10000000
00000000
00100000
01000000
00001000
00010000
,
00000100
00000000
00001000
00000001
00000000
00000010
00000100
00000000
00001000
00000001
00000100
00000010
,
00010000
00000000
00001000
00010000
00000000
00001000
01000000
00010000
10000000
01000000
00100000
00001000
,
00010000
00000000
00100000
01000000
00001000
00010000
00000100
00000000
00001000
00000001
00000000
00000100
,
00000010
00000000
00001000
00000100
00000010
00000001
00000100
00001000
00010000
00100000
00010000
00001000
,
00000010
00000000
00000100
00001000
00000000
00000001
00000100
00000000
00000010
00010000
00001000
00100000
,
01000000
10000000
00010000
01000000
00100000
10000000
01000000
00100000
00001000
00010000
00000010
00000100
,
00001000
00010000
00100000
00010000
00001000
01000000
00001000
00100000
01000000
10000000
00000000
00000000
,
00100000
01000000
00100000
00000000
01000000
00010000
01000000
00000000
00001000
00010000
00001000
00000000
00010000
00000100
00010000
00000100
,
00002000
00000000
00000000
00000000
00000000
00000000
00003010
00000000
00000000
00000000
00000000
00000000
00000000
00000000
00000000
00000000
00000000
00000000
00000100
00000000
00000000
00000001
00000010
00000000
,
00000010
00000000
00001000
00000000
00000010
00000000
00000100
00000000
00000000
00010000
00001000
00000000
00001000
00000000
00100000
00000000
01000000
00000000
10000000
00000000
00000000
00100000
01000000
00000000
,
01000000
00000000
00010000
00000000
00100000
00000000
01000000
00000000
01000000
00000000
10000000
00000000
00010000
00000000
00000000
00000000
01000000
00100000
10000000
00000000
00000000
01000000
00100000
00000000
,
00100000
00000000
00001000
00000000
00010000
00000000
00100000
00000000
00000000
00010000
00001000
00000000
00001000
00000000
00000010
00000000
00000100
00000000
00001000
00000100
00000010
00000100
00001000
00000001
,
00000100
00000010
00001000
00000100
00000010
00000001
00000100
00001000
00010000
00100000
01000000
00010000
20000000
00000000
00000000
00000000
00000000
00000000
31000000
00000000
00000000
00100000
00010000
00000000
,
00010000
00000000
01000000
00000000
10000000
00000000
01000000
00000000
00010000
00100000
01000000
00000000
01000000
00000000
00010000
00000000
00001000
00000000
00000100
00000000
00000000
00000001
00001000
00000000
,
00001000
00000000
00000000
00000000
00000100
00000000
00000000
00000000
00000010
00000000
00000000
00000000
00001000
00000000
00000000
00000000
00010000
00001000
00010000
00001000
00010000
00001000
00010000
00001000
00020000
00000000
00000000
00000000
00000000
00000000
00000000
00000000
00000000
00000000
00000000
00000000
00031000
00000000
00000000
00000000
00000000
00000000
00000000
00000000
00000000
00000000
00000000
00000000
,
00010000
00100000
10000000
01000000
00010000
00000000
00001000
00000010
,
00000001
00000100
00001000
00000000
00010000
01000000
10000000
00100000
,
00010000
00000000
00001000
00000010
00000001
00000100
00001000
00000000
,
00010000
00001000
00100000
00000000
00010000
10000000
00010000
10000000
01000000
00000000
00000000
00000000
00100000
00001000
00010000
00000000
,
00000100
00010000
00000100
00010000
00000010
00001000
00000001
00000000
00001000
00000100
00000010
00000000
00000001
00001000
00000010
00000000
,
00010000
00001000
00010000
00001000
00100000
00010000
00100000
00010000
10000000
00100000
10000000
00100000
02000000
00000000
00000000
00000000
,
00100000
00010000
03002000
01000000
,
00010000
00000000
00103000
00002000
00000000
00000000
01000000
00000000
00000000
00100000
00000000
00000000
,
00023000
00000000
00000000
00001000
00000000
00000000
00000010
00000000
00030100
00002000
00000000
00000000
,
00000001
00000100
00003020
00000100
,
00001000
00000000
00010030
00002000
00000000
00000000
00100000
00000000
00000000
00010000
00000000
00000000
,
02003000
00000000
00000000
00100000
00000000
00000000
00010000
00000000
03001000
00020000
00000000
00000000
,
00001000
01000000
00032000
00100000
,
01000000
00000000
00013000
00000200
00000000
00000000
00000001
00000000
00000000
00000010
00000000
00000000
,
00002300
00000010
00000100
00003002
,
00000100
00000010
00002003
00000010
,
00000100
00023000
00230000
20300000
,
32000000
03020000
00032000
00003010
,
00001000
00000100
00001000
00000100
00001000
00000100
00001000
00000100
00000010
00000001
00000010
00000001
00000010
00000001
00000010
00000001
,
00000010
00000001
00000010
00000001
00000010
00000000
00000000
00000000
00000001
00000100
00000001
00000100
00000001
00000100
00000001
00000100
,
00000010
00010000
00000010
00010000
00000010
00010000
00000010
00010000
00000010
00010000
00000010
00010000
00000010
00000000
00000000
00000000
,
00010000
00001000
00010000
00001000
00010000
00001000
00010000
00001000
01000000
00010000
01000000
00010000
01000000
00010000
01000000
00010000
,
01000000
00010000
01000000
00010000
01000000
00000000
00000000
00000000
00100000
10000000
00100000
10000000
00100000
10000000
00100000
10000000
,
00010000
01000000
00010000
01000000
00010000
01000000
00010000
01000000
00010000
01000000
00010000
01000000
00010000
00000000
00000000
00000000
,
00100000
01000000
00100000
01000000
00100000
01000000
00100000
01000000
00010000
00001000
00010000
00001000
00010000
00001000
00010000
00001000
,
00010000
00001000
00010000
00001000
00010000
00000000
00000000
00000000
00000100
00000010
00000100
00000010
00000100
00000010
00000100
00000010
,
00001000
00010000
00001000
00010000
00001000
00010000
00001000
00010000
00001000
00010000
00001000
00010000
00001000
00000000
00000000
00000000
,
00010000
00000000
00000000
00000000
01000000
00000000
10000000
00010000
01000000
00000000
00000000
00000000
00100000
10000000
00010000
00100000
,
01000000
00000000
00100000
00001000
00010000
00000010
00001000
00000000
00000001
00000010
00000100
00000000
00010000
00001000
00100000
00010000
,
20000000
00000000
30000000
00000000
;
