#TITLE:CENTAUR;
#SUBTITLE:;
#ARTIST:Jimmy Weckl;
#TITLETRANSLIT:;
#SUBTITLETRANSLIT:;
#ARTISTTRANSLIT:;
#GENRE:;
#CREDIT:;
#BANNER:CENTAUR.png;
#BACKGROUND:CENTAUR-bg.png;
#LYRICSPATH:;
#CDTITLE:../_YSD cdtitles/ysd sc2024 cdtitle.png;
#MUSIC:CENTAUR.ogg;
#OFFSET:0.000000;
#SAMPLESTART:1.721000;
#SAMPLELENGTH:15.000000;
#SELECTABLE:YES;
#DISPLAYBPM:140.000000;
#BPMS:0.000000=139.399994
,4.000000=140.000000
,146.000000=132.000000
,147.000000=140.000000
;
#STOPS:
;
#BGCHANGES:;
#KEYSOUNDS:;
#ATTACKS:;

//---------------dance-single - ----------------
#NOTES:
     dance-single:
     :
     Beginner:
     2:
     0.108348,0.168063,0.103423,0.000000,0.097678,66.000000,57.000000,9.000000,0.000000,0.000000,0.000000,0.108348,0.168063,0.103423,0.000000,0.097678,66.000000,57.000000,9.000000,0.000000,0.000000,0.000000:
// measure 0
0000
0000
0000
0000
,  // measure 1
0000
0000
0000
0000
,  // measure 2
0000
0000
0000
0000
,  // measure 3
0000
0000
0000
0000
,  // measure 4
0000
0000
0000
0000
,  // measure 5
1001
0000
0000
0000
,  // measure 6
1000
0000
0000
0000
,  // measure 7
0001
0000
0000
0000
,  // measure 8
0100
0000
0000
0000
0000
0000
0000
0000
0000
0000
0000
0000
0000
0000
0000
0010
,  // measure 9
0000
0000
0000
0000
,  // measure 10
0000
0000
0000
1000
0000
0000
0000
0000
0000
0000
0000
0000
0000
0000
0000
0000
0000
0000
0000
0000
0000
0000
0000
0000
0000
0000
0000
0000
0000
0000
0000
0000
0000
0000
0000
0000
0000
0000
0001
0000
0000
0000
0000
0000
0000
0000
0000
0000
,  // measure 11
0000
0000
0000
0000
,  // measure 12
0000
0000
0000
0000
0000
0000
0000
1000
,  // measure 13
0000
0000
0000
0000
0000
0000
0000
0001
,  // measure 14
0000
0000
0000
0000
0000
0000
0000
0000
0000
0000
0000
0000
0000
1000
0000
0000
,  // measure 15
0000
0000
0000
0000
,  // measure 16
0001
0000
0000
0000
0000
0000
0000
1000
,  // measure 17
0000
0000
0000
0000
0000
0000
0000
0001
,  // measure 18
0000
0000
0000
0000
0000
0000
0000
0010
,  // measure 19
0000
0000
0000
0000
0000
0000
0000
0100
,  // measure 20
0000
0000
0000
0000
0000
0000
0000
1000
,  // measure 21
0000
0000
0000
0000
0000
0000
0000
0001
,  // measure 22
0000
0000
0000
0000
0000
0000
0100
0000
0000
0000
0000
0000
0000
0010
0000
0000
,  // measure 23
0000
0000
0000
0000
0000
0000
0000
1000
,  // measure 24
0000
0000
0000
0000
0000
0000
0100
0000
0000
0000
0000
0000
0000
0010
0000
0000
,  // measure 25
0000
0000
0000
0000
0000
0000
0000
0001
,  // measure 26
0000
0000
0000
0000
0000
0000
1000
0000
0000
0000
0000
0000
0000
0001
0000
0000
,  // measure 27
0000
0000
0000
0000
,  // measure 28
0000
0000
0100
0000
0000
0000
0000
0000
0000
0010
0000
0000
0000
0000
0000
0000
,  // measure 29
0000
1001
0000
0000
0000
0000
0000
0000
0000
0000
0000
0000
0000
0000
0000
0000
,  // measure 30
0000
0000
0000
0000
0000
0110
0000
0000
,  // measure 31
0000
1001
0000
0000
0000
0000
0000
0000
0000
0000
0000
0000
0000
0000
0000
0000
,  // measure 32
0000
0000
0000
0000
0000
0100
0000
0000
,  // measure 33
0000
1001
0000
0000
0000
0000
0000
0000
0000
0000
0000
0000
0000
0000
1000
0000
,  // measure 34
0000
0000
0000
0000
,  // measure 35
0000
1001
0000
0000
0000
0000
0000
0000
0000
0000
0000
0000
0000
0000
0000
0000
,  // measure 36
0000
0000
0000
0010
0000
0000
0110
0000
,  // measure 37
0000
1000
0000
0001
,  // measure 38
0000
1000
0000
0010
,  // measure 39
0000
0100
0000
0010
,  // measure 40
0000
1000
0000
1001
,  // measure 41
0000
0001
0000
0010
,  // measure 42
0000
0100
0000
0010
,  // measure 43
0000
0001
0000
1000
,  // measure 44
0000
0000
0000
0000
0010
0000
0000
0000
0000
0000
0000
0000
0000
0100
0000
0000
,  // measure 45
0000
0000
0000
0001
0000
0000
0000
0000
0000
0000
0000
0000
0000
0000
0000
0000
,  // measure 46
0000
0000
0000
0000
0000
0000
0000
0000
0000
0000
0000
0000
0000
1000
0000
0000
,  // measure 47
0000
0000
0000
0100
0000
0000
0000
0000
0000
0000
0000
0010
0000
0000
0000
0000
,  // measure 48
0000
0000
0000
1001
;

//---------------dance-single - ----------------
#NOTES:
     dance-single:
     :
     Challenge:
     16:
     0.819178,0.802393,0.494134,0.264304,1.338757,499.000000,456.000000,43.000000,23.000000,0.000000,0.000000,0.819178,0.802393,0.494134,0.264304,1.338757,499.000000,456.000000,43.000000,23.000000,0.000000,0.000000:
// measure 0
0000
0000
0000
0000
,  // measure 1
0000
0000
0000
0000
,  // measure 2
0000
0000
0000
0000
,  // measure 3
0000
0011
0000
0000
1100
0000
0000
0101
0000
1000
0000
0100
0010
0000
0000
1010
,  // measure 4
0000
0001
0000
0010
0100
0000
1000
0001
0100
0010
0000
0010
0000
0010
1000
0000
,  // measure 5
1001
0000
0001
0000
0010
0001
1000
0010
0100
0001
1000
0100
0001
0100
0010
0001
,  // measure 6
0000
0000
0000
1001
0000
0000
0000
0000
0000
0000
0000
0000
1000
0000
0000
0001
0000
0000
0000
0000
1000
0000
0000
0000
0000
0000
0000
1000
0000
0000
0100
0000
0000
0010
0000
0000
0001
0000
0000
1000
0000
0000
0010
0000
0000
0100
0000
0000
,  // measure 7
0000
0001
0010
0000
0001
1000
0001
1000
0001
0010
0100
0001
0000
0100
0000
1000
,  // measure 8
0000
0000
0000
1100
0000
0000
0000
0000
0000
0001
0000
0000
1000
0000
0000
0010
0000
0000
1000
0000
0000
1100
0000
0000
0000
0000
0000
0000
0000
0000
0000
0000
0000
0011
0000
0000
0000
0000
0000
0000
0000
0000
0000
0000
1010
0000
0000
0000
,  // measure 9
0000
0000
0000
0101
0000
0000
1001
0000
1000
0010
0100
0001
0010
0100
0110
0000
,  // measure 10
0000
0000
0000
0000
0000
0000
0000
0000
0000
0000
0000
0000
0011
0000
0000
0000
0000
0000
0000
0000
0000
0000
0000
0000
0000
0000
0000
0000
0000
0000
0000
0000
0000
0000
0000
0000
0000
0000
0000
0000
0000
0000
0000
0000
0000
0000
0000
0000
1000
0000
0000
0000
0000
0000
0000
0000
0000
0000
0000
0000
0001
0000
0000
0000
0000
0000
0000
0000
0000
0000
0000
0000
0100
0000
0000
0000
0000
0000
0000
0000
0000
0000
0000
0000
0010
0000
0000
0000
0000
0000
0000
0000
0000
0000
0000
0000
1000
0000
0000
0000
0000
0000
0000
0000
0000
0000
0000
0000
0000
0000
0000
0000
0000
0000
0000
1100
0000
0000
0000
0000
0000
0000
0000
0000
0000
0000
0000
0000
0000
0000
0000
0000
0000
0000
0000
0000
0000
0000
0000
0000
0000
0000
0000
0000
0000
0000
0000
0000
0000
0000
0000
0000
0011
0000
0000
0000
0000
0000
0000
0000
0000
0000
0000
0000
0000
0000
0000
0000
0000
0000
0000
0000
0000
0000
0000
0000
0000
0000
0000
0000
0000
0000
0000
0000
0000
0000
0000
0000
0000
0000
0000
0000
,  // measure 11
1000
0000
0000
0000
0000
0000
0010
0000
0100
0000
0001
0000
1000
0000
0000
0000
0100
0000
0000
0000
0000
0000
0000
0000
0010
0000
0000
0001
0000
0000
1000
0000
0000
0010
0000
0000
0100
0000
0000
0001
0000
0000
1001
0000
0000
0000
0000
0000
,  // measure 12
0001
0100
0010
0100
0001
2000
3000
0000
0000
0100
0010
0000
0001
1000
0010
0000
,  // measure 13
0100
0001
1000
0010
0000
0001
0000
0010
0000
1000
0000
0001
0100
0001
0010
0000
,  // measure 14
0100
0001
0000
0100
1000
0001
0000
0100
0000
0000
0010
0000
1000
0002
0000
0000
,  // measure 15
0000
0000
0103
0010
0000
0000
1000
0001
0000
0010
0000
0100
1000
0001
0100
0000
,  // measure 16
0010
0100
0000
1000
0000
0100
0000
0001
0000
0011
0000
0110
0000
1100
0000
0000
,  // measure 17
1000
0001
0100
0010
0000
0100
0000
0001
0010
0001
0000
1000
0001
0100
0010
0000
,  // measure 18
0100
1000
0000
0100
0001
1000
0000
0100
0000
0000
0010
0000
0001
0100
0010
1000
,  // measure 19
0001
1000
0010
0100
0000
0001
0010
0000
0001
1000
0000
0100
1000
0010
0000
0100
,  // measure 20
0001
0000
1000
0100
0010
0001
0000
1001
0000
0101
0000
0021
0000
0000
0130
1000
,  // measure 21
0001
0100
0010
0000
1000
0001
0020
0000
0031
0010
0200
0000
1300
0001
0200
0000
,  // measure 22
0310
1000
0002
0000
0013
0100
1000
0001
0100
0000
0020
0030
0000
1001
0000
0000
,  // measure 23
0001
0100
0010
0000
1000
0001
0010
0100
0000
1000
0010
0100
0001
1000
0200
0000
,  // measure 24
0310
0100
2000
0000
3001
0100
0020
0000
0031
0010
0200
0000
0301
1000
0000
0000
,  // measure 25
0100
0010
0001
0000
0100
0001
1000
0100
0000
0010
0001
0000
0100
0010
0000
0000
,  // measure 26
0100
0001
1000
0100
0000
0010
0001
0000
0000
0100
0001
0000
1000
0100
0000
0000
,  // measure 27
0010
0100
1000
0000
0001
0100
0000
0100
0000
0100
0010
0000
1000
0000
0000
1100
,  // measure 28
0000
0000
1010
0000
0000
0000
0101
0000
0000
0011
0000
0000
0000
0000
1001
0000
,  // measure 29
1000
0020
0000
0000
0000
0000
0130
0001
0000
1000
0000
0100
0000
0020
0000
0030
,  // measure 30
0000
0001
0000
1000
0010
0100
0000
0001
0010
0100
2000
0000
3000
0000
1010
0000
,  // measure 31
0001
0200
0000
0000
0000
0301
1000
0000
0100
0000
0000
0010
0000
0000
0001
0000
,  // measure 32
0000
0100
0000
0000
0010
0000
1000
0000
0000
0000
1001
0000
0000
0000
0011
0000
,  // measure 33
1000
0010
0000
0000
0100
0001
0010
0100
1000
0001
0100
0010
1000
0001
0100
0010
,  // measure 34
0000
1000
0000
0100
0010
0000
0000
0001
0010
0100
0000
1000
0010
0000
1010
0000
,  // measure 35
1000
0000
0000
0001
0000
0000
0000
0000
0000
0000
0000
0000
0000
0000
0000
0001
0000
0000
1000
0000
0000
0010
0000
0000
0100
0000
0000
0001
0000
0000
0011
0000
0000
0000
0000
0000
0010
0000
0100
0000
1000
0000
0001
0000
0000
0100
0000
0000
,  // measure 36
0000
0000
0000
0000
0000
0000
0010
0000
0000
0000
1000
0000
0000
0000
0001
0000
0000
0000
0010
0000
0100
0000
1000
0000
0001
0000
0000
0100
0000
0000
0010
0000
0000
1000
0000
0000
0020
0000
0000
0000
0000
0000
0000
0000
0000
0000
0000
0000
,  // measure 37
0001
0000
0000
0000
0000
1030
0002
0000
0010
0000
1000
0000
1003
0000
0000
0001
,  // measure 38
0200
0000
0000
0000
0000
0000
0010
0000
0000
0000
0000
0000
0301
0000
0000
1000
0000
0000
0000
0000
0000
0000
0000
0000
0100
0000
0000
0010
0000
0000
0100
0000
0000
1000
0000
0000
0001
0000
0100
0000
0010
0000
1000
0000
0000
0000
0000
0000
,  // measure 39
1010
0000
0010
0000
0000
0100
0001
0000
0011
0000
0010
0000
0100
0000
1000
0000
,  // measure 40
1010
0000
0010
0000
0100
0001
0000
1000
0100
0010
0001
0000
1000
0010
0100
0001
,  // measure 41
0000
0010
0000
0100
1000
0000
0001
0100
0010
0100
0001
0010
0100
1000
0000
1000
,  // measure 42
0000
0010
0000
0100
1000
0000
0100
0000
0001
0000
0010
0000
0200
0000
0000
0000
,  // measure 43
1300
0000
0000
0000
0000
0000
0002
0000
0000
0000
0000
0000
0000
0000
0000
0000
0000
0000
0000
0000
0003
0000
0000
0000
0100
0000
0000
0001
0000
0000
0010
0000
0000
0000
0000
0000
0100
0000
0000
1000
0000
0000
0010
0000
0000
0000
0000
0000
,  // measure 44
0100
0000
1000
0100
0010
0100
0001
1000
0100
0010
0001
0000
1000
0010
0000
0000
,  // measure 45
0011
0000
0000
1001
0000
0000
1000
0000
0001
0100
0000
0100
1000
0100
0000
0100
,  // measure 46
0001
0100
0000
0010
0000
0010
1000
0000
0001
0000
0001
1000
0001
0010
0000
0000
,  // measure 47
1100
0000
0000
0101
0000
1000
0000
0100
0010
0000
0000
1010
0000
0001
0000
0010
,  // measure 48
0100
0000
0000
0000
0000
0000
1000
0000
0000
0001
0000
0000
0100
0000
0000
0000
0010
0000
0000
0000
1000
0000
0000
0000
0100
0000
0000
0000
0010
0000
0000
0000
0001
0000
0000
0000
2002
0000
0000
0000
0000
0000
0000
0000
0000
0000
0000
0000
,  // measure 49
0000
0000
0000
0000
0000
0000
0000
3003
;

//---------------dance-single - ----------------
#NOTES:
     dance-single:
     :
     Easy:
     8:
     0.306987,0.372539,0.206847,0.379219,0.361982,187.000000,169.000000,18.000000,33.000000,0.000000,0.000000,0.306987,0.372539,0.206847,0.379219,0.361982,187.000000,169.000000,18.000000,33.000000,0.000000,0.000000:
// measure 0
0000
0000
0000
0000
,  // measure 1
0000
0000
0000
0000
,  // measure 2
0000
0000
0000
0000
,  // measure 3
0000
0000
0000
0000
,  // measure 4
0000
0000
0000
0000
,  // measure 5
1000
0000
0000
0000
0000
0000
0000
0000
0001
0000
0000
0000
0100
0000
0000
0010
,  // measure 6
0000
0000
0000
0000
0000
0000
0000
0000
0000
0000
0000
0000
0000
0000
0000
0000
0000
0000
0000
0000
1000
0000
0000
0000
0000
0000
0000
0000
0000
0000
0000
0000
0100
0000
0000
0000
0000
0000
0000
0000
0000
0000
0000
0000
0000
0010
0000
0000
,  // measure 7
0000
0000
0000
0000
0000
0001
0000
0000
0100
0000
0000
0010
0000
0000
0000
0000
,  // measure 8
0000
0000
0000
1000
0000
0000
0000
0000
0000
0001
0000
0000
0000
0000
0000
0000
0000
0000
0000
0000
0000
0010
0000
0000
0000
0000
0000
0000
0000
0000
0000
0000
0000
0100
0000
0000
0000
0000
0000
0000
0000
0000
0000
0000
0010
0000
0000
0000
,  // measure 9
0000
0000
0000
0001
0000
0000
2000
0000
0000
0000
0000
0000
0000
0000
3010
0000
,  // measure 10
0000
0000
0000
0000
0000
0000
0000
0000
0000
0000
0000
0000
0200
0000
0000
0000
0000
0000
0000
0000
0000
0000
0000
0000
0000
0000
0000
0000
0000
0000
0000
0000
0000
0000
0000
0000
0000
0000
0000
0000
0000
0000
0000
0000
0000
0000
0000
0000
0000
0000
0000
0000
0000
0000
0000
0000
0000
0000
0000
0000
0000
0000
0000
0000
0000
0000
0000
0000
0000
0000
0000
0000
0000
0000
0000
0000
0000
0000
0000
0000
0000
0000
0000
0000
0000
0000
0000
0000
0000
0000
0000
0000
0000
0000
0000
0000
0000
0000
0000
0000
0000
0000
0000
0000
0000
0000
0000
0000
0000
0000
0000
0000
0000
0000
0000
0301
0000
0000
0000
0000
0000
0000
0000
0000
0000
0000
0000
0000
0000
0000
0000
0000
0000
0000
0000
0000
0000
0000
0000
0000
0000
0000
0000
0000
0000
0000
0000
0000
0000
0000
0000
0000
2000
0000
0000
0000
0000
0000
0000
0000
0000
0000
0000
0000
0000
0000
0000
0000
0000
0000
0000
0000
0000
0000
0000
0000
0000
0000
0000
0000
0000
0000
0000
0000
0000
0000
0000
0000
0000
0000
0000
0000
,  // measure 11
0000
0010
0000
0100
0000
0010
0000
3001
,  // measure 12
0000
0000
0000
0010
0000
0100
0000
1000
,  // measure 13
0000
0000
0010
0000
0000
0100
0000
0000
0000
0000
0000
0001
0000
0000
1000
0000
,  // measure 14
0000
0100
0000
0010
0000
0001
0000
1000
0000
0000
0010
0000
0000
0200
0000
0000
,  // measure 15
0000
0010
0000
0001
0000
0310
0000
1000
,  // measure 16
0000
0001
0000
0100
0000
0000
0000
0010
0000
0000
0000
1000
0000
0001
0000
0000
,  // measure 17
0000
0000
1000
0000
0000
0100
0000
0000
0000
0000
0000
0000
0000
0000
0010
0000
,  // measure 18
0000
0001
0000
0000
0000
1000
0000
0010
0000
0000
0100
0000
0000
0002
0000
0000
,  // measure 19
0000
0010
0000
1000
0000
0100
0000
1003
,  // measure 20
0000
0000
0100
0000
0000
0010
0000
0001
0000
0000
0000
1001
0000
0000
1000
0000
,  // measure 21
0000
0010
0100
0002
0000
2003
0000
3200
,  // measure 22
0000
0000
0320
0000
0000
0000
0032
0000
0000
0000
2003
0000
0000
3020
0000
0000
,  // measure 23
0000
0000
0000
0000
0000
0000
0000
0130
0000
0001
0000
0010
0000
0000
0200
0000
,  // measure 24
0000
0000
0302
0000
0000
0000
0203
0000
0000
0000
2300
0000
0000
3002
0000
0000
,  // measure 25
0000
0000
0000
0000
0000
0000
0000
0103
0000
0000
0010
0000
0000
2000
0000
0000
,  // measure 26
0000
0000
0000
0000
0000
0000
3200
0000
0000
0000
0320
0000
0000
0032
0000
0000
,  // measure 27
0000
0000
0000
0000
0000
0000
0000
0000
0000
0000
0000
0000
0000
0000
0000
0103
,  // measure 28
0000
0000
1010
0000
0000
0000
0100
0000
0000
0011
0000
0000
0000
0000
1000
0000
,  // measure 29
0000
1001
0000
0000
0000
0000
0001
0000
0000
0000
0101
0000
0000
0000
1000
0000
,  // measure 30
0000
1000
0000
0000
0000
0000
0001
0000
0000
0000
0010
0000
0000
0000
0100
0000
,  // measure 31
0000
1100
0000
0000
0000
0000
1000
0000
0000
0000
1001
0000
0000
0000
0001
0000
,  // measure 32
0000
0100
0000
0000
0010
0000
0000
0000
0000
0000
1010
0000
0000
0000
1000
0000
,  // measure 33
0000
1001
0000
0000
0000
0000
0001
0000
0000
0000
0010
0000
0000
0000
0100
0000
,  // measure 34
0000
1000
0000
0000
0001
0000
0000
0100
0000
0010
0000
0000
1000
0000
0001
0000
,  // measure 35
0000
0011
0000
0000
0000
0000
0000
0010
0000
0000
0100
0000
0000
0000
1000
0000
,  // measure 36
0000
0001
0000
0100
0010
0000
2000
0000
,  // measure 37
0100
0010
3001
0100
,  // measure 38
0010
0000
1000
0000
0010
0100
0001
0000
,  // measure 39
1000
0100
0010
0001
,  // measure 40
1000
0000
0010
0000
0100
0000
0001
1000
,  // measure 41
0100
0000
1000
0001
0100
0000
0010
0000
,  // measure 42
1000
0000
0001
0010
0100
0000
0010
0000
,  // measure 43
0001
0000
1000
0000
0000
0000
0000
0000
0010
0000
0100
0000
0002
0000
0000
0023
,  // measure 44
0000
0000
0230
0000
0000
0000
0000
0000
0000
0000
0300
0000
0000
1100
0000
0000
,  // measure 45
1001
0000
0000
2020
0000
0000
0000
0000
0000
0000
0000
0000
0000
0000
0000
0000
,  // measure 46
0000
0000
0000
0000
0000
0000
0000
0000
0000
3030
0000
0000
0000
0101
0000
0000
,  // measure 47
1001
0000
0000
0022
0000
0000
0000
0033
0000
0000
0000
0220
0000
0000
0000
0000
,  // measure 48
0000
0000
0330
2002
,  // measure 49
0000
0000
0000
0000
0000
0000
0000
3003
;

//---------------dance-single - ----------------
#NOTES:
     dance-single:
     :
     Medium:
     12:
     0.469509,0.487167,0.275795,0.379219,0.568828,286.000000,262.000000,24.000000,33.000000,0.000000,0.000000,0.469509,0.487167,0.275795,0.379219,0.568828,286.000000,262.000000,24.000000,33.000000,0.000000,0.000000:
// measure 0
0000
0000
0000
0000
,  // measure 1
0000
0000
0000
0000
,  // measure 2
0000
0000
0000
0000
,  // measure 3
0000
0001
0000
0000
1000
0000
0000
2100
0000
0000
0000
0000
3001
0000
0000
0102
,  // measure 4
0000
1003
0000
0000
0100
0000
2000
0000
0000
3001
0000
0001
0000
0001
0000
0000
,  // measure 5
0100
0000
0000
0000
0010
0000
0100
0000
0001
0000
0100
0000
0010
0000
1000
0001
,  // measure 6
0000
0000
0000
0010
0000
0000
0000
0000
0000
0000
0000
0000
0110
0000
0000
0000
0000
0000
0000
0000
1000
0000
0000
0000
0000
0000
0000
0000
0000
0000
0000
0000
0001
0000
0000
0000
0000
0000
0000
0000
0000
0000
0000
0000
0000
0101
0000
0000
,  // measure 7
0000
0100
0010
0001
0010
1000
0100
0000
,  // measure 8
0010
0000
0000
0001
0000
0000
0000
0000
0000
0100
0000
0000
0000
0000
0000
0000
0000
0000
0000
0000
0000
0110
0000
0000
0000
0000
0000
0000
0000
0000
0000
0000
0000
1010
0000
0000
0000
0000
0000
0000
0000
0000
0000
0000
0101
0000
0000
0000
,  // measure 9
0000
0000
0000
0011
0000
0000
2100
0000
0000
0000
0000
0000
0000
0000
3010
0000
,  // measure 10
0000
0000
0000
0000
0000
0000
0000
0000
0000
0000
0000
0000
0102
0000
0000
0000
0000
0000
0000
0000
0000
0000
0000
0000
0000
0000
0000
0000
0000
0000
0000
0000
0000
0000
0000
0000
0000
0000
0000
0000
0000
0000
0000
0000
0000
0000
0000
0000
0000
0000
0000
0000
0000
0000
0000
0000
0000
0000
0000
0000
0000
0000
0000
0000
0000
0000
0000
0000
0000
0000
0000
0000
0000
0000
0000
0000
0000
0000
0000
0000
0000
0000
0000
0000
0000
0000
0000
0000
0000
0000
0000
0000
0000
0000
0000
0000
0000
0000
0000
0000
0000
0000
0000
0000
0000
0000
0000
0000
0000
0000
0000
0000
0000
0000
0000
0013
0000
0000
0000
0000
0000
0000
0000
0000
0000
0000
0000
0000
0000
0000
0000
0000
0000
0000
0000
0000
0000
0000
0000
0000
0000
0000
0000
0000
0000
0000
0000
0000
0000
0000
0000
0000
2100
0000
0000
0000
0000
0000
0000
0000
0000
0000
0000
0000
0000
0000
0000
0000
0000
0000
0000
0000
0000
0000
0000
0000
0000
0000
0000
0000
0000
0000
0000
0000
0000
0000
0000
0000
0000
0000
0000
0000
,  // measure 11
0000
0010
0000
0000
0000
3001
0100
1010
,  // measure 12
0000
0000
1000
0001
0000
0100
0000
0000
0000
0001
0100
0000
0001
0000
1000
0000
,  // measure 13
0100
0000
0010
0000
0000
0100
0000
0000
1000
0000
0001
0000
0100
0000
0010
0000
,  // measure 14
0000
1000
0000
0001
0000
0010
0000
0100
0000
0000
1000
0000
0010
2000
0000
0000
,  // measure 15
0000
0100
0000
0001
0000
3010
0100
0001
,  // measure 16
0000
1000
0000
0100
0000
0010
0000
0001
0000
0100
0000
0010
0000
1000
0000
0000
,  // measure 17
0001
0000
0010
0000
0000
0100
0000
0000
0000
0000
1000
0000
0010
0000
0100
0000
,  // measure 18
0000
1000
0000
0100
0000
0001
0000
0010
0000
0000
0100
0000
1000
0200
0000
0000
,  // measure 19
0000
0001
0000
1000
0000
0310
0001
1000
,  // measure 20
0010
0000
0100
0000
0000
0001
0000
0010
0000
0100
0000
1000
0000
0000
0010
0000
,  // measure 21
0000
0100
0001
0020
0000
2030
0000
3020
,  // measure 22
0000
0000
0032
0000
0000
0000
0203
0000
0000
0000
0320
0000
0000
2030
0000
0000
,  // measure 23
0000
0000
0000
0000
0000
0000
0000
3100
0000
0010
0000
0100
0000
0000
2000
0000
,  // measure 24
0000
0000
3020
0000
0000
0000
0032
0000
0000
0000
0023
0000
0000
2030
0000
0000
,  // measure 25
0000
0000
3100
0000
0000
0000
0010
0000
0001
0000
1000
0000
0000
0020
0000
0000
,  // measure 26
0000
0000
0130
0000
0000
0000
1000
0000
0000
0000
0001
0000
0000
0200
0000
0000
,  // measure 27
0000
0000
1000
0000
0000
0000
0010
0000
0000
0000
0301
0000
0000
0000
0000
0010
,  // measure 28
0000
0000
1001
0000
0000
0000
0100
0000
0000
1001
0000
0000
0000
0000
1100
0000
,  // measure 29
0000
2000
0000
0000
0000
0000
3001
0000
0000
0100
0000
0001
0000
1000
0000
0000
,  // measure 30
0000
0000
0000
0100
0000
0010
0000
0100
0000
1000
0000
0000
0000
0000
0101
0000
,  // measure 31
0000
0002
0000
0000
0000
0000
0013
0000
0100
0000
0000
1000
0000
0000
0010
0000
,  // measure 32
0000
0100
0000
0000
0001
0000
1000
0000
0000
0000
1001
0000
0000
0000
1010
0000
,  // measure 33
0000
0010
0000
0000
0100
0000
1000
0000
0100
0000
0001
0000
0010
0000
0100
0000
,  // measure 34
0000
1000
0000
0001
0100
0000
0000
0010
0000
1000
0000
0001
0010
0000
0100
0000
,  // measure 35
0000
1001
0000
0000
0000
0000
0001
0100
0000
0000
0101
0000
0001
0000
1000
0000
,  // measure 36
0000
0000
0000
0100
0000
0010
0000
0001
0000
1000
0000
0000
0000
0000
0000
0010
0000
0000
0020
0000
0000
0000
0000
0000
,  // measure 37
0001
0000
0000
0000
1030
0000
0200
0000
0000
0000
0310
0000
0010
0000
0000
0001
,  // measure 38
0000
0200
0000
0310
1000
0100
0010
0100
,  // measure 39
1000
0000
0002
0000
0000
0000
0103
0000
0010
0000
0001
0000
0010
0000
0000
0100
,  // measure 40
0000
0000
0001
0000
1000
0000
0000
0100
0000
0000
0010
0000
0001
0000
0100
0000
,  // measure 41
0010
0000
1000
0000
0001
0000
0010
0000
0100
0000
0010
0000
0001
1000
0000
1000
,  // measure 42
0000
1000
0000
0000
0010
0000
0100
0000
0100
0000
0001
0000
0020
0000
0000
0000
,  // measure 43
0130
0000
1000
0000
0000
0000
0000
0000
0001
0000
0100
0000
0010
0000
0000
0001
,  // measure 44
0000
0000
0010
0000
1000
0000
0100
0000
0010
0000
0001
0000
0000
0100
0000
0000
,  // measure 45
0001
0000
0000
0012
0000
0000
0100
0000
0000
0100
0000
1003
0000
0001
0000
0100
,  // measure 46
0000
0000
0000
0010
0000
0000
1001
0000
0000
0000
1000
0000
0000
0100
0000
0000
,  // measure 47
0010
0000
0000
0012
0000
0000
0000
0000
0103
0000
0000
2010
0000
3001
0000
0000
,  // measure 48
1000
0000
0000
0100
0000
0000
0010
0000
0001
0000
0010
0000
0001
0000
0010
0000
0001
0000
2000
0000
0000
0000
0000
0000
,  // measure 49
0000
0000
0000
0000
0000
0000
0000
3000
;

//---------------dance-single - ----------------
#NOTES:
     dance-single:
     :
     Hard:
     13:
     0.564724,0.630451,0.333253,0.505625,0.821641,344.000000,315.000000,29.000000,44.000000,0.000000,0.000000,0.564724,0.630451,0.333253,0.505625,0.821641,344.000000,315.000000,29.000000,44.000000,0.000000,0.000000:
// measure 0
0000
0000
0000
0000
,  // measure 1
0000
0000
0000
0000
,  // measure 2
0000
0000
0000
0000
,  // measure 3
0000
0002
0000
0000
0203
0000
0000
0320
0000
1000
0030
0010
0100
0000
0000
1001
,  // measure 4
0000
0001
0000
0010
0100
0000
0010
0001
0000
1000
0000
1000
0000
2000
0000
3000
,  // measure 5
1001
0000
0001
0000
0010
0000
0001
0000
0100
0000
1000
0000
0100
0000
0001
1000
,  // measure 6
0000
0000
0000
0100
0000
0000
0000
0000
0000
0000
0000
0000
0010
0000
0000
0001
0000
0000
0000
0000
1000
0000
0000
0000
0000
0000
0000
0000
0000
0000
0000
0000
0001
0000
0000
0000
0000
0000
0000
0000
0000
0000
0000
0000
0000
0110
0000
0000
,  // measure 7
0000
0001
0010
0000
0001
0000
1000
0000
0100
0000
0001
0000
0100
0000
0000
0010
,  // measure 8
0000
0000
0000
0011
0000
0000
0000
0000
0000
1001
0000
0000
0000
0000
0000
0000
0000
0000
0000
0000
0000
1010
0000
0000
0000
0000
0000
0000
0000
0000
0000
0000
0000
0101
0000
0000
0000
0000
0000
0000
0000
0000
0000
0000
1100
0000
0000
0000
,  // measure 9
0000
0000
0000
1010
0000
0000
1002
0000
0103
0010
0000
0100
0000
0000
0110
0000
,  // measure 10
0000
0000
0000
0000
0000
0000
0000
0000
0000
0000
0000
0000
1001
0000
0000
0000
0000
0000
0000
0000
0000
0000
0000
0000
0000
0000
0000
0000
0000
0000
0000
0000
0000
0000
0000
0000
0000
0000
0000
0000
0000
0000
0000
0000
0000
0000
0000
0000
1000
0000
0000
0000
0000
0000
0000
0000
0000
0000
0000
0000
0000
0000
0000
0000
0000
0000
0000
0000
0000
0000
0000
0000
0200
0000
0000
0000
0000
0000
0000
0000
0000
0000
0000
0000
0310
0000
0000
0000
0000
0000
0000
0000
0000
0000
0000
0000
0000
0000
0000
0000
0000
0000
0000
0000
0000
0000
0000
0000
0000
0000
0000
0000
0000
0000
0000
0011
0000
0000
0000
0000
0000
0000
0000
0000
0000
0000
0000
0000
0000
0000
0000
0000
0000
0000
0000
0000
0000
0000
0000
0000
0000
0000
0000
0000
0000
0000
0000
0000
0000
0000
0000
0000
1001
0000
0000
0000
0000
0000
0000
0000
0000
0000
0000
0000
0000
0000
0000
0000
0000
0000
0000
0000
0000
0000
0000
0000
0000
0000
0000
0000
0000
0000
0000
0000
0000
0000
0000
0000
0000
0000
0000
0000
,  // measure 11
1000
0000
0000
0000
0000
0000
0010
0000
0000
0100
0000
0000
0000
0000
0000
0000
0001
0000
0000
0000
0000
0000
0000
0000
0010
0000
0000
0000
0000
0000
0100
0000
0000
0010
0000
0000
0000
0000
0000
0100
0000
0000
1000
0000
0000
0000
0000
0000
,  // measure 12
0001
0100
0000
0010
0000
0100
0001
1000
0000
0001
0010
0000
0100
0000
1000
0000
,  // measure 13
0001
0100
0001
0000
0000
1000
0000
0000
0000
0000
0000
0100
0010
0100
1000
0000
,  // measure 14
0001
0100
0000
0010
0100
0010
0000
1000
0000
0000
0001
0000
0100
0020
0000
0000
,  // measure 15
0000
0000
0000
0000
0030
0000
0000
0000
0000
0000
0000
1000
0001
0000
0010
0000
,  // measure 16
0100
1000
0000
0001
0000
0100
0000
0010
0000
1000
0000
0001
0000
0010
0000
0000
,  // measure 17
0100
1000
0100
0000
0000
1000
0000
0000
0000
0000
0000
0001
0100
0000
0010
0000
,  // measure 18
0100
0001
0000
1000
0100
1000
0000
0001
0000
0000
1000
0000
0010
0200
0000
0000
,  // measure 19
0000
0000
0000
0000
0000
0000
0000
0000
0300
0000
0000
0001
1000
0100
0000
0010
,  // measure 20
0001
0000
1000
0001
0000
0100
0000
0010
0000
1000
0000
0001
0000
0000
0010
0000
,  // measure 21
0000
0100
1000
0020
0000
0032
0000
0023
,  // measure 22
0000
0000
0230
0000
0000
0000
0302
0000
0000
0000
2003
0000
0000
3200
0000
0000
,  // measure 23
0000
0000
0010
0000
0000
0000
1300
0001
0000
0100
0000
0020
0000
0000
2030
0000
,  // measure 24
0000
0000
3200
0000
0000
0000
0302
0000
0000
0000
0203
0000
0000
2300
0000
0000
,  // measure 25
0000
0000
0010
0000
0000
0000
3001
0200
0000
0000
0310
0000
1000
0200
0000
0000
,  // measure 26
0000
0000
0010
0000
0000
0000
2300
0000
0000
0000
3020
0000
0000
0230
0000
0000
,  // measure 27
0000
0000
0001
0000
0000
0000
1000
0000
0000
0000
0301
0000
0000
0000
0000
0101
,  // measure 28
0000
0000
1010
0000
0000
0000
1100
0000
0000
0011
0000
0000
0000
0000
0101
0000
,  // measure 29
0000
0102
0000
0000
0000
0000
0013
0000
0000
0100
0000
1000
0000
0001
0000
0000
,  // measure 30
0000
0000
0000
0100
0010
0100
0000
0001
1000
0001
0000
0000
0000
0000
1001
0000
,  // measure 31
0000
1002
0000
0000
0000
0000
0013
0000
0100
0000
0000
1000
0000
0000
0100
0000
,  // measure 32
0000
0010
0000
0000
0002
0000
0000
0000
0000
0000
0103
0000
0000
0000
1010
0000
,  // measure 33
0000
2010
0000
0000
3100
0000
0010
0000
1000
0000
0010
0000
0001
0000
1000
0001
,  // measure 34
0000
0100
0000
0001
1000
0000
0000
0100
0010
0000
0000
0001
1000
0000
0101
0000
,  // measure 35
0000
0101
0000
0000
0000
0000
0001
1000
0000
0000
1100
0000
0100
0000
1000
0001
,  // measure 36
0000
0000
0000
0000
0000
0000
0100
0000
0000
0000
0010
0000
0000
0000
1000
0000
0000
0000
0001
0000
0000
0000
0000
0000
0000
0000
0000
0000
0000
0000
1000
0000
0000
0010
0000
0000
2000
0000
0000
0000
0000
0000
0000
0000
0000
0000
0000
0000
,  // measure 37
0100
0000
0000
0000
3001
0000
2000
0000
0000
0000
3100
0000
0200
0000
0000
0320
,  // measure 38
0000
0000
0032
0000
0000
0000
0103
0000
0001
1000
0001
0000
0100
0000
0010
0000
,  // measure 39
1000
0000
0001
0000
0000
0000
0010
0000
0001
0000
0100
0000
0010
0000
0000
1000
,  // measure 40
0001
0000
0010
0000
0001
1000
0000
0010
1000
0010
1000
0000
0100
0000
0010
0000
,  // measure 41
0001
0100
0000
0010
1000
0000
0001
0100
0001
0000
1000
0000
0100
0010
0000
0010
,  // measure 42
0000
0100
0000
1000
0020
0000
0130
0000
0002
0000
1003
0000
0100
0000
0000
0000
,  // measure 43
0010
0000
0100
0000
0000
0000
1000
0000
0001
0100
0010
0000
0001
0000
0000
0010
,  // measure 44
0000
0000
1000
0000
0100
0000
0010
0000
0001
0000
0100
0000
0000
1002
0000
0000
,  // measure 45
2003
0000
0000
3002
0000
0000
0103
0000
0010
1000
0000
0001
0010
0001
0000
1000
,  // measure 46
0100
1000
0000
0001
0000
0100
0010
0000
0000
0000
1000
0000
1000
0200
0000
0000
,  // measure 47
0320
0000
0000
0230
0000
1000
0300
0100
0010
0000
0000
1001
0000
0001
0000
0100
,  // measure 48
0010
0000
0000
0000
0000
0000
0100
0000
0000
0001
0000
0000
1000
0000
0000
0000
0010
0000
0000
0000
1000
0000
0000
0000
0010
0000
0000
0000
0100
0000
0000
0000
0001
0000
0000
0000
0200
0000
0000
0000
0000
0000
0000
0000
0000
0000
0000
0000
,  // measure 49
0000
0000
0000
0000
0000
0000
0000
0300
;

//---------------dance-double - ----------------
#NOTES:
     dance-double:
     :
     Beginner:
     2:
     0.113273,0.196073,0.149389,0.000000,0.057457,69.000000,56.000000,13.000000,0.000000,0.000000,0.000000,0.113273,0.196073,0.149389,0.000000,0.057457,69.000000,56.000000,13.000000,0.000000,0.000000,0.000000:
00000000
00000000
00000000
00000000
,
00000000
00000000
00000000
00000000
,
00000000
00000000
00000000
00000000
,
00000000
00000000
00000000
00000000
,
00000000
00000000
00000000
00000000
,
00011000
00000000
00000000
00000000
,
00010000
00000000
00000000
00000000
,
00001000
00000000
00000000
00000000
,
01000000
00000000
00000000
00000000
00000000
00000000
00000000
00000000
00000000
00000000
00000000
00000000
00000000
00000000
00000000
00010000
,
00000000
00000000
00000000
00000000
,
00000000
00000000
00000000
10000000
00000000
00000000
00000000
00000000
00000000
00000000
00000000
00000000
00000000
00000000
00000000
00000000
00000000
00000000
00000000
00000000
00000000
00000000
00000000
00000000
00000000
00000000
00000000
00000000
00000000
00000000
00000000
00000000
00000000
00000000
00000000
00000000
00000000
00000000
00010000
00000000
00000000
00000000
00000000
00000000
00000000
00000000
00000000
00000000
,
00000000
00000000
00000000
00000000
,
00000000
00000000
00000000
00000000
00000000
00000000
00000000
10000000
,
00000000
00000000
00000000
00000000
00000000
00000000
00000000
00010000
,
00000000
00000000
00000000
00000000
00000000
00000000
00000000
10000000
,
00000000
00000000
00000000
00000000
00000000
00000000
00000000
00010000
,
00000000
00000000
00000000
00000000
00000000
00000000
00000000
01000000
,
00000000
00000000
00000000
00000000
00000000
00000000
00000000
00001000
,
00000000
00000000
00000000
00000000
00000000
00000000
00000000
00010000
,
00000000
00000000
00000000
00000000
00000000
00000000
00000000
00000100
,
00000000
00000000
00000000
00000000
00000000
00000000
00000000
00000110
,
00000000
00000000
00000000
00000000
00000000
00000000
00000000
00000001
,
00000000
00000000
00000000
00000000
00000000
00000000
00001000
00000000
00000000
00000000
00000000
00000000
00000000
00000010
00000000
00000000
,
00000000
00000000
00000000
00000000
00000000
00000000
00000000
00000100
,
00000000
00000000
00000000
00000000
00000000
00000000
00000001
00000000
00000000
00000000
00000000
00000000
00000000
00001000
00000000
00000000
,
00000000
00000000
00000000
00000000
00000000
00000000
00000000
00000000
00000000
00000000
00000000
00000000
00000000
00000100
00000000
00000000
,
00000000
00000000
00000000
00000000
00000000
00000000
00000000
00000000
00000000
00000000
00000000
00000000
00000000
00010000
00000000
00000000
,
00000000
00000000
00000000
00000000
00000000
00000000
00000000
00000000
00000000
00000000
00000000
00000000
00000000
00000000
00000000
00011000
,
00000000
00000000
00000000
00011000
00000000
00000000
00000000
00011000
,
00000000
00000000
00000000
00001000
00000000
00000000
00000000
00000000
,
00000000
00000000
00000000
01000000
00000000
00000000
00000000
01100000
,
00000000
00000000
00000000
00000000
00000000
00000000
00000000
00100000
,
00000000
00000000
00000000
00000000
00000000
00000000
00000000
10010000
,
00000000
00000000
00000000
00000000
00000000
00000000
00000000
10000000
,
00000000
00000000
00000000
01000000
00000000
00000000
00000000
01100000
,
00000000
00000000
00000000
00000000
00000000
00000000
00000000
00010000
,
00000000
00000000
00000000
10000000
,
00000000
00100000
00000000
10000000
,
00000000
00100000
00000000
01000000
,
00000000
00010000
00000000
01000000
,
00000000
00001000
00000000
00011000
,
00000000
00010000
00000000
00000100
,
00000000
00010000
00000000
00000100
,
00000000
00001000
00000000
00000001
,
00000000
00001000
00000000
00000000
,
00000000
00000000
00000000
00001001
00000000
00000000
00000000
00000000
00000000
00000000
00000000
00000000
00000000
00000000
00000000
00000000
,
00000000
00000000
00000000
00000000
,
00000000
00000000
00000000
00000110
00000000
00000000
00000000
00000000
00000000
00000000
00000000
00000000
00001001
00000000
00000000
00000000
,
00000000
00000000
00000000
00011000
;

//---------------dance-double - ----------------
#NOTES:
     dance-double:
     :
     Easy:
     9:
     0.341461,0.458510,0.321761,0.298778,0.367727,208.000000,180.000000,28.000000,26.000000,0.000000,0.000000,0.341461,0.458510,0.321761,0.298778,0.367727,208.000000,180.000000,28.000000,26.000000,0.000000,0.000000:
00000000
00000000
00000000
00000000
,
00000000
00000000
00000000
00000000
,
00000000
00000000
00000000
00000000
,
00000000
00000000
00000000
00000000
,
00000000
00000000
00000000
00000000
,
00011000
00000000
00000000
00000000
00000000
00000000
00000000
00000000
00010000
00000000
00000000
00000000
00001000
00000000
00000000
01000000
,
00000000
00000000
00000000
00000000
00000000
00000000
00000000
00000000
00000000
00000000
00000000
00000000
00000000
00000000
00000000
00000000
00000000
00000000
00000000
00000000
00100000
00000000
00000000
00000000
00000000
00000000
00000000
00000000
00000000
00000000
00000000
00000000
10000000
00000000
00000000
00000000
00000000
00000000
00000000
00000000
00000000
00000000
00000000
00000000
00000000
00010000
00000000
00000000
,
00000000
00000000
00000000
00000000
00000000
00000000
10000000
00000000
01000000
00000000
00000000
00100000
00000000
00000000
00000000
00000000
,
00000000
00000000
00000000
00001000
00000000
00000000
00000000
00000000
00000000
00010000
00000000
00000000
00000000
00000000
00000000
00000000
00000000
00000000
00000000
00000000
00000000
00011000
00000000
00000000
00000000
00000000
00000000
00000000
00000000
00000000
00000000
00000000
00000000
00010100
00000000
00000000
00000000
00000000
00000000
00000000
00000000
00000000
00000000
00000000
00011000
00000000
00000000
00000000
,
00000000
00000000
00000000
01001000
00000000
00000000
00011000
00000000
00000000
00000000
00000000
00000000
00000000
00000000
00010010
00000000
,
00000000
00000000
00000000
00000000
00000000
00000000
00000000
00000000
00000000
00000000
00000000
00000000
00000110
00000000
00000000
00000000
00000000
00000000
00000000
00000000
00000000
00000000
00000000
00000000
00000000
00000000
00000000
00000000
00000000
00000000
00000000
00000000
00000000
00000000
00000000
00000000
00000000
00000000
00000000
00000000
00000000
00000000
00000000
00000000
00000000
00000000
00000000
00000000
00000000
00000000
00000000
00000000
00000000
00000000
00000000
00000000
00000000
00000000
00000000
00000000
00000000
00000000
00000000
00000000
00000000
00000000
00000000
00000000
00000000
00000000
00000000
00000000
00000000
00000000
00000000
00000000
00000000
00000000
00000000
00000000
00000000
00000000
00000000
00000000
00000000
00000000
00000000
00000000
00000000
00000000
00000000
00000000
00000000
00000000
00000000
00000000
00000000
00000000
00000000
00000000
00000000
00000000
00000000
00000000
00000000
00000000
00000000
00000000
00000000
00000000
00000000
00000000
00000000
00000000
00000000
00000001
00000000
00000000
00000000
00000000
00000000
00000000
00000000
00000000
00000000
00000000
00000000
00000000
00000000
00000000
00000000
00000000
00000000
00000000
00000000
00000000
00000000
00000000
00000000
00000000
00000000
00000000
00000000
00000000
00000000
00000000
00000000
00000000
00000000
00000000
00000000
00000000
00001000
00000000
00000000
00000000
00000000
00000000
00000000
00000000
00000000
00000000
00000000
00000000
00000000
00000000
00000000
00000000
00000000
00000000
00000000
00000000
00000000
00000000
00000000
00000000
00000000
00000000
00000000
00000000
00000000
00000000
00000000
00000000
00000000
00000000
00000000
00000000
00000000
00000000
00000000
00000000
,
00000000
00000000
00000000
00000000
00000000
00000000
00000000
00001001
,
00000000
00000000
00000000
00000001
00000000
00001000
00000000
00000100
,
00000000
00000000
00000010
00000000
00000000
00000001
00000000
00000000
00000000
00000000
00001000
00000000
00000000
00000000
00000010
00000000
,
00000000
00010000
00000000
00000000
00000000
00001000
00000000
00100000
00000000
00000000
00010000
00000000
00000000
20000000
00000000
00000000
,
00000000
00100000
00000000
00010000
00000000
01000000
00000000
30010000
,
00000000
01000000
00000000
00001000
00000000
00010000
00000000
00000000
00000000
00001000
00000000
00010000
00000000
00000010
00000000
00000000
,
00000100
00000000
00000001
00000000
00000000
00001000
00000000
00000000
00000000
00000000
00000000
00000000
00000100
00000000
00000010
00000000
,
00000000
00000001
00000000
00000000
00000000
00001000
00000000
00000100
00000000
00000000
00010000
00000000
00000000
00002000
00000000
00000000
,
00000000
01000000
00000000
00100000
00000000
01000000
00000000
00013000
,
00000000
00000000
00100000
00000000
00000000
01000000
00000000
01000000
00000000
00010000
00000000
00010000
00000000
00000000
10010000
00000000
,
00000000
10000000
01000000
00200000
00000000
20300000
00000000
30200000
,
00000000
00000000
00320000
00000000
00000000
00000000
02030000
00000000
00000000
00000000
03002000
00000000
00000000
00023000
00000000
00000000
,
00000000
00000000
00100000
00000000
00000000
00000000
00000000
00031000
00000000
00000010
00000000
00000100
00000000
00000000
00002000
00000000
,
00000000
00000000
00003002
00000000
00000000
00000000
00000203
00000000
00000000
00000000
00000320
00000000
00000000
00020030
00000000
00000000
,
00000000
00000000
00100000
00000000
00000000
00000000
00000000
00032000
00000000
00000000
00103000
00000000
00000000
02000000
00000000
00000000
,
00000000
00000000
10000000
00000000
00000000
00000000
03020000
00000000
00000000
00000000
02030000
00000000
00000000
03200000
00000000
00000000
,
00000000
00000000
10000000
00000000
00000000
00000000
00010000
00000000
00000000
00000000
01300000
00000000
00000000
00000000
00000000
01100000
,
00000000
00000000
00101000
00000000
00000000
00000000
00011000
00000000
00000000
00001010
00000000
00000000
00000000
00000000
00001001
00000000
,
00000000
00001001
00000000
00000000
00000000
00000000
00000001
00000000
00000000
00000000
00001001
00000000
00000000
00000000
00001000
00000000
,
00000000
00000010
00000000
00000000
00000000
00000000
00010000
00000000
00000000
00000000
00011000
00000000
00000000
00000000
00101000
00000000
,
00000000
00101000
00000000
00000000
00000000
00000000
00100000
00000000
00000000
00000000
01100000
00000000
00000000
00000000
01000000
00000000
,
00000000
10000000
00000000
00000000
00010000
00000000
00000000
00000000
00000000
00000000
01010000
00000000
00000000
00000000
10100000
00000000
,
00000000
10100000
00000000
00000000
00000000
00000000
10000000
00000000
00010000
00000000
00100000
00000000
00000000
00000000
01000000
00000000
,
00000000
00010000
00000000
00001000
00000000
00000000
00000000
00010000
00000000
00000000
00000000
00000010
00000000
00000000
00001001
00000000
,
00000000
00001001
00000000
00000000
00000000
00000000
00000000
00000001
00000000
00000000
00001000
00000000
00000000
00000000
00000000
00000100
,
00000000
00000110
00000000
00000001
00000000
00001000
00000020
00000000
,
00000001
00000000
00000000
00000000
00010030
00000000
00001000
00000000
00000000
00000000
00100000
00000000
00001000
00000000
00000000
01000000
,
00000000
00100000
00000000
10000000
00010000
00000000
01000000
00100000
,
10000000
00000000
00000000
00000000
00010000
00000000
00000000
00000000
10000000
00000000
00000000
00000000
01000000
00000000
00000000
00100000
,
00000000
00001000
00010000
00000000
00000010
00000000
00000100
00000001
,
00001000
00000000
00000100
00000000
00000010
00000000
00000001
00001000
,
00000010
00000000
00000100
00000000
00001000
00000000
00010000
01000000
,
00100000
00000000
00000000
00000000
00010000
00000000
00000000
00000000
10000000
00000000
00100000
00000000
01000000
00000000
00000000
00010000
,
00000000
00000000
20000000
00000000
00000000
00000000
00000000
00000000
00000000
00000000
00000000
00000000
00000000
31000000
00000000
00000000
,
00010000
00000000
00000000
00002000
00000000
00000000
00000000
00000000
00000000
00000000
00000000
00000000
00000000
00000000
00000000
00000000
,
00000000
00000000
00000000
00000000
00000000
00000000
00000000
00000000
00000000
00000000
00000000
00000000
00000000
00013000
00000000
00000000
,
00000010
00000000
00000000
00000002
00000000
00000000
00000000
00000000
00000000
00000000
00000000
00000023
00000000
00000000
00000000
00000000
,
00000000
00000130
00000010
00002002
,
00000000
00000000
00000000
00000000
00000000
00000000
00000000
00003003
;

//---------------dance-double - ----------------
#NOTES:
     dance-double:
     :
     Medium:
     12:
     0.444884,0.515824,0.310270,0.390710,0.517117,271.000000,244.000000,27.000000,34.000000,0.000000,0.000000,0.444884,0.515824,0.310270,0.390710,0.517117,271.000000,244.000000,27.000000,34.000000,0.000000,0.000000:
00000000
00000000
00000000
00000000
,
00000000
00000000
00000000
00000000
,
00000000
00000000
00000000
00000000
,
00000000
00010000
00000000
00000000
00001000
00000000
00000000
00000020
00000000
00000000
00000000
00000000
00000000
00000000
00000000
00000032
,
00000000
00000000
00000000
00000000
00000000
00000000
00000000
00000000
00000000
00000100
00000000
00000100
00000000
00000103
00000000
00000000
,
00001010
00000000
00000000
00000000
00001000
00000000
00000001
00000000
00000010
00000000
00001000
00000000
00010000
00000000
00001000
01000000
,
00000000
00000000
00000000
00000000
01100000
00000000
00000000
01010000
00000000
00000000
00000000
10010000
00000000
00000000
00000000
11000000
,
00000000
00000000
00000000
00000000
10000000
00000000
00100000
00000000
00010000
00000000
00001000
00010000
00000000
00001000
00000000
00000100
,
00000000
00000000
00000000
00000010
00000000
00000000
00000000
00000000
00000000
00000001
00000000
00000000
00000000
00000000
00000000
00000000
00000000
00000000
00000000
00000000
00000000
00000011
00000000
00000000
00000000
00000000
00000000
00000000
00000000
00000000
00000000
00000000
00000000
00001010
00000000
00000000
00000000
00000000
00000000
00000000
00000000
00000000
00000000
00000000
00011000
00000000
00000000
00000000
,
00000000
00000000
00000000
00101000
00000000
00000000
02200000
00000000
00000000
00000000
00000000
00000000
03300000
00000000
11000000
00000000
,
00000000
00000000
00000000
00000000
00000000
00000000
00000000
00000000
00000000
00000000
00000000
00000000
20020000
00000000
00000000
00000000
00000000
00000000
00000000
00000000
00000000
00000000
00000000
00000000
00000000
00000000
00000000
00000000
00000000
00000000
00000000
00000000
00000000
00000000
00000000
00000000
00000000
00000000
00000000
00000000
00000000
00000000
00000000
00000000
00000000
00000000
00000000
00000000
00000000
00000000
00000000
00000000
00000000
00000000
00000000
00000000
00000000
00000000
00000000
00000000
00000000
00000000
00000000
00000000
00000000
00000000
00000000
00000000
00000000
00000000
00000000
00000000
30030000
00000000
00000000
00000000
00000000
00000000
00000000
00000000
00000000
00000000
00000000
00000000
00000000
00000000
00000000
00000000
00000000
00000000
00000000
00000000
00000000
00000000
00000000
00000000
00000000
00000000
00000000
00000000
00000000
00000000
00000000
00000000
00000000
00000000
00000000
00000000
00000000
00000000
00000000
00000000
00000000
00000000
00000000
01010000
00000000
00000000
00000000
00000000
00000000
00000000
00000000
00000000
00000000
00000000
00000000
00000000
00000000
00000000
00000000
00000000
00000000
00000000
00000000
00000000
00000000
00000000
00000000
00000000
00000000
00000000
00000000
00000000
00000000
00000000
00000000
00000000
00000000
00000000
00000000
00000000
00021000
00000000
00000000
00000000
00000000
00000000
00000000
00000000
00000000
00000000
00000000
00000000
00000000
00000000
00000000
00000000
00000000
00000000
00000000
00000000
00000000
00000000
00000000
00000000
00000000
00000000
00000000
00000000
00000000
00000000
00000000
00000000
00000000
00000000
00000000
00000000
00000000
00000000
00000000
00000000
,
00000000
00001000
00000000
00000100
00000000
00000010
00000000
00030100
,
00000000
00000000
00010000
00000000
00000000
00000100
00000000
00000000
00000000
00000010
00000100
00000000
00000000
00000000
00001001
00000000
,
00000001
00000000
00000100
00000000
00000000
00000010
00000000
00000000
00001000
00000000
00000001
00000000
00000010
00000000
00000100
00000000
,
00001000
00000001
00000000
00000100
00000000
00000010
00000000
00001000
00000000
00000000
00000001
00000000
00000010
00000200
00000000
00000000
,
00000000
00000010
00000000
00010300
00000000
00001000
00000100
00010000
,
00001000
01000000
00000000
00100000
00000000
00010000
00000000
00100000
00000000
10000000
00000000
01000000
00000000
00100000
00010000
00000000
,
10000000
00000000
00100000
00000000
00000000
01000000
00000000
00000000
00010000
00000000
10000000
00000000
01000000
00000000
00100000
00000000
,
00000000
10000000
00000000
00100000
00000000
00010000
00000000
01000000
00000000
00000000
00001000
00000000
00010000
00000200
00000000
00000000
,
00000000
00000000
00000010
00000000
00000000
00000000
00001000
00000000
00000000
00000000
00000310
00000000
00000001
00001000
00000000
00000000
,
00000010
00000000
00000100
00000000
00000000
00000001
00000000
00001000
00000000
00000100
00000000
00000010
00000000
00000000
00000011
00000000
,
00000000
00000001
00000100
00000020
00000000
00000032
00000000
00000023
,
00000000
00000000
00020030
00000000
00000000
00000000
00032000
00000000
00000000
00000000
00203000
00000000
00000000
02300000
00000000
00000000
,
00000000
00000000
00100000
00000000
00000000
00000000
13000000
00010000
00000000
01000000
00000000
00200000
00000000
00000000
20300000
00000000
,
00000000
00000000
32000000
00000000
00000000
00000000
03020000
00000000
00000000
00000000
00032000
00000000
00000000
00003200
00000000
00000000
,
00000000
00000000
00000010
00000000
00000000
00000000
00001300
00000001
00000000
00000000
00000100
00000000
00000010
00020000
00000000
00000000
,
00000000
00000000
00001000
00000000
00000000
00000000
00230000
00000000
00000000
00000000
02300000
00000000
00000000
03020000
00000000
00000000
,
00000000
00000000
00100000
00000000
00000000
00000000
10000000
00000000
00000000
00000000
01000000
00000000
00000000
00000000
00000000
10030000
,
00000000
00000000
10100000
00000000
00000000
00000000
00010000
00000000
00000000
00110000
00000000
00000000
00000000
00000000
10010000
00000000
,
00000000
20100000
00000000
00000000
00000000
00000000
30010000
00000000
00000000
01000000
00000000
00001000
00000000
00010000
00000000
00000000
,
00000000
00000000
00000000
00001000
00000000
00000010
00000000
00000100
00000000
00001000
00000000
00000000
00000000
00000000
00001001
00000000
,
00000000
00000102
00000000
00000000
00000000
00000000
00000013
00000000
00000100
00000000
00000000
00001000
00000000
00000000
00000001
00000000
,
00000000
00000100
00000000
00000000
00001000
00000000
00020000
00000000
00000000
00000000
00031000
00000000
00000000
00000000
00101000
00000000
,
00000000
00110000
00000000
00000000
00010000
00000000
01000000
00000000
00100000
00000000
01000000
00000000
00010000
00000000
10000000
00000000
,
00000000
01000000
00000000
00100000
00000000
00000000
00000000
00010000
00000000
00000000
00000000
01000000
00010000
00000000
01010000
00000000
,
00000000
01010000
00000000
00000000
00000000
00000000
01000000
00000000
00001000
00000000
00010000
00000000
00000100
00000000
00000010
00000001
,
00000000
00000000
00000010
00000000
00000000
00000000
00000001
00001000
00000000
00000000
00000001
00000000
00002000
00000000
00000000
00000000
,
00000010
00000000
00000000
00000000
00003100
00000000
00020000
00000000
00000000
00000000
00031000
00000000
00001000
00000000
00000000
01000000
,
00000000
00100000
00000000
10000000
00010000
00100000
01000000
00100000
,
00010000
00000000
10000000
00000000
00000000
00000000
00100000
00000000
01000000
00000000
00010000
00000000
10000000
00000000
00000000
01000000
,
00000000
00100000
00001000
00000000
00010000
00000000
00000010
00000100
,
00000010
00000000
00000000
00000000
00001000
00000000
00000001
00000000
00000010
00000000
00000000
00000000
00000100
00000000
00000000
00000010
,
00000000
00000001
00000000
00001000
00000010
00000000
00000000
00000000
00000100
00000000
00000001
00000000
00001000
00000000
00000000
00000000
,
00000100
00000000
00000010
00000000
00000000
00000000
00000000
00000000
00000001
00000000
00000100
00000000
00001000
00000000
00000000
00010000
,
00000000
00000000
00100000
00000000
00000000
00000000
00000000
00000000
01000000
00000000
00000000
00000000
00000000
10000000
00000000
00000000
,
01000000
00000000
00000000
00002000
00000000
00000000
00000000
00000000
00000000
00000000
00000000
00000000
00000000
00000000
00000000
00000000
,
00000000
00000000
00000000
00000000
00000000
00000000
00010000
00000000
00000000
00000000
00013000
00000000
00010000
00001000
00000000
00000000
,
00000010
00000000
00000000
00000002
00000000
00000000
00000000
00000000
00001003
00000000
00000000
00001010
00000000
00000000
00000000
00000000
,
00000001
00000000
00000000
00001000
00000000
00001000
00000100
00000000
00000100
00020000
00000000
00000000
,
00000000
00000000
00000000
00000000
00000000
00000000
00000000
00030000
;

//---------------dance-double - ----------------
#NOTES:
     dance-double:
     :
     Hard:
     14:
     0.612332,0.687765,0.528608,0.287287,0.827386,373.000000,327.000000,46.000000,25.000000,0.000000,0.000000,0.612332,0.687765,0.528608,0.287287,0.827386,373.000000,327.000000,46.000000,25.000000,0.000000,0.000000:
00000000
00000000
00000000
00000000
,
00000000
00000000
00000000
00000000
,
00000000
00000000
00000000
00000000
,
00000000
00011000
00000000
00000000
00101000
00000000
00000000
02010000
00000000
00000000
00000000
00000000
03100000
00000000
10000000
00020000
,
00000000
00100000
00000000
00000000
10000000
00000000
00000000
00000000
01030000
00001000
00000000
00001000
00000000
00001000
00000000
00000000
,
00011000
00000000
00000000
00000000
00010000
00000000
00001000
00000010
00000100
00000000
00001000
00000001
00000100
00000000
00000010
00001000
,
00000000
00000000
00000000
00000001
00000000
00000000
00000000
00000000
00000000
00000000
00000000
00000000
00000010
00000000
00000000
00000100
00000000
00000000
00000000
00000000
00000010
00000000
00000000
00000000
00000000
00000000
00000000
00000000
00000000
00000000
00000000
00000000
00001100
00000000
00000000
00000000
00000000
00000000
00000000
00000000
00000000
00000000
00000000
00000000
00000000
00011000
00000000
00000000
,
00000000
00000000
00010000
00000000
00001000
00000000
00010000
00100000
01000000
00000000
00010000
10000000
00000000
01000000
00000000
01100000
,
00000000
00000000
00000000
00010000
00000000
00000000
00000000
00000000
00000000
10010000
00000000
00000000
00000000
00000000
00000000
00000000
00000000
00000000
00000000
00000000
00000000
10100000
00000000
00000000
00000000
00000000
00000000
00000000
00000000
00000000
00000000
00000000
00000000
00110000
00000000
00000000
00000000
00000000
00000000
00000000
00000000
00000000
00000000
00000000
00011000
00000000
00000000
00000000
,
00000000
00000000
00000000
00001010
00000000
00000000
00002002
00000000
00000000
00000000
00000000
00000000
00003003
00000000
00000011
00000000
,
00000000
00000000
00000000
00000000
00000000
00000000
00000000
00000000
00000000
00000000
00000000
00000000
00002200
00000000
00000000
00000000
00000000
00000000
00000000
00000000
00000000
00000000
00000000
00000000
00000000
00000000
00000000
00000000
00000000
00000000
00000000
00000000
00000000
00000000
00000000
00000000
00000000
00000000
00000000
00000000
00000000
00000000
00000000
00000000
00000000
00000000
00000000
00000000
00000000
00000000
00000000
00000000
00000000
00000000
00000000
00000000
00000000
00000000
00000000
00000000
00000000
00000000
00000000
00000000
00000000
00000000
00000000
00000000
00000000
00000000
00000000
00000000
00003300
00000000
00000000
00000000
00000000
00000000
00000000
00000000
00000000
00000000
00000000
00000000
00000000
00000000
00000000
00000000
00000000
00000000
00000000
00000000
00000000
00000000
00000000
00000000
00000000
00000000
00000000
00000000
00000000
00000000
00000000
00000000
00000000
00000000
00000000
00000000
00000000
00000000
00000000
00000000
00000000
00000000
00000000
00110000
00000000
00000000
00000000
00000000
00000000
00000000
00000000
00000000
00000000
00000000
00000000
00000000
00000000
00000000
00000000
00000000
00000000
00000000
00000000
00000000
00000000
00000000
00000000
00000000
00000000
00000000
00000000
00000000
00000000
00000000
00000000
00000000
00000000
00000000
00000000
00000000
21000000
00000000
00000000
00000000
00000000
00000000
00000000
00000000
00000000
00000000
00000000
00000000
00000000
00000000
00000000
00000000
00000000
00000000
00000000
00000000
00000000
00000000
00000000
00000000
00000000
00000000
00000000
00000000
00000000
00000000
00000000
00000000
00000000
00000000
00000000
00000000
00000000
00000000
00000000
00000000
,
00000000
00010000
00000000
01000000
00000000
30010000
00000000
01010000
,
01000000
00000000
00100000
00000000
00010000
00001000
00000000
00000000
00000000
00010000
00000100
00000000
00000010
00000000
00000011
00000000
,
00000001
00000000
00001000
00000010
00000000
00000100
00000000
00000000
00000001
00000000
00001001
00000000
00001000
00000000
00000100
00000000
,
00000010
00000001
00000000
00001000
00000010
00010000
00000000
00002000
00000000
00000000
00103000
00000000
01000000
20000000
00000000
00000000
,
00000000
00000000
00010000
00000000
00000000
00000000
01000000
00000000
00000000
00000000
30010000
00000000
01000000
00001000
00010000
00000000
,
00001000
00010000
00000000
00100000
00000000
00010000
00000000
00001000
00000000
00000010
00000000
00000100
00000000
00001000
00000001
00000000
,
00000100
00000000
00000010
00001000
00000000
00000001
00000000
00000000
00000010
00000000
00000110
00000000
00000100
00001000
00000001
00000000
,
00000100
00000010
00000000
00000100
00001000
00010000
00000000
00002000
00000000
00000000
00103000
00000000
01000000
20000000
00000000
00000000
,
00000000
00000000
01000000
00000000
00000000
00000000
00010000
00000000
00000000
00000000
31000000
00100000
00010000
10000000
00000000
00100000
,
10000000
00000000
00010000
00000000
01000000
00001000
00000000
00010000
00000000
00000100
00000000
00000010
00000000
00000000
00000011
00000000
,
00000000
00000000
00001000
00000000
00000010
00000000
00000100
00000000
00000000
00000100
00000001
00000000
00000000
00000001
00000010
00000000
,
00000000
00000010
00000100
00000000
00000000
00000100
00010000
00000000
00000000
00010000
00001000
00000000
00000000
00012000
00000000
00000000
,
00000000
00000000
00100000
00000000
00000000
00000000
00013000
00001000
00000000
00010000
00000000
00200000
00000000
00000000
01300000
00000000
,
00000000
01000000
10000000
00000000
00000000
10000000
01000000
00000000
00000000
01000000
00010000
00000000
00000000
01002000
00000000
00000000
,
00000000
00000000
00010000
00000000
00000000
00000000
00013000
00001000
00000000
00000000
00000010
00000000
00000100
00002000
00000000
00000000
,
00000000
00000000
00000100
00000000
00000000
00000000
00003001
00000000
00000000
00000001
00000100
00000000
00000000
00000210
00000000
00000000
,
00000000
00000000
00001000
00000000
00000000
00000000
00000001
00000000
00000000
00000000
00000010
00000000
00000300
00000000
00000000
00000101
,
00000000
00000000
00001010
00000000
00000000
00000000
01010000
00000000
00000000
10100000
00000000
00000000
00000000
00000000
10010000
00000000
,
00000000
10020000
00000000
00000000
00000000
00000000
10030000
00000000
00000000
01000000
00000000
00010000
00000000
00001000
00000000
00000000
,
00000000
00000000
00000000
00010000
00000010
00010000
00000000
00000010
00001000
00000010
00000000
00000000
00000000
00000000
00001001
00000000
,
00000000
00001002
00000000
00000000
00000000
00000000
00000013
00000000
00001000
00000000
00000000
00010000
00000000
00000000
00100000
00000000
,
00000000
10000000
00000000
00000000
01000000
00000000
00100000
00000000
00000000
00000000
00110000
00000000
00000000
00000000
10010000
00000000
,
00000000
20010000
00000000
00000000
30100000
01000000
00001000
00000000
00010000
00000000
00000100
00000010
00000001
00000000
00001000
00000010
,
00000000
00000100
00000000
00001000
00010000
00000000
00000000
00100000
01000000
10000000
00000000
00100000
01000000
00000000
01010000
00000000
,
00000000
01010000
00000000
00000000
00000000
00000000
00010000
10000000
01000000
00000000
00110000
00000000
00010000
10000000
00010000
10000000
,
00000000
00000000
00000000
00000000
00000000
00000000
00100000
00000000
00000000
00000000
00010000
00000000
00000000
00000000
00001000
00000000
00000000
00000000
00000100
00000000
00000000
00001000
00000000
00000000
00000000
00000000
00000000
00000000
00000000
00000000
00000001
00000000
00000000
00001000
00000000
00000000
00000002
00000000
00000000
00000000
00000000
00000000
00000000
00000000
00000000
00000000
00000000
00000000
,
00000100
00000000
00000000
00000000
00001003
00000000
00000010
00000000
00000000
00000000
00000001
00000000
00000010
00000000
00000000
00000100
,
00000000
00000000
00000000
00000001
00000000
00000000
00001000
00000000
00000100
00000010
00000100
00000000
00000010
00000000
00001000
00000000
,
00010000
00000000
00100000
00000000
00000000
00000000
01000000
00000000
00010000
00000000
10000000
00000000
01000000
00000000
00000000
00010000
,
00000000
00000000
00001000
00000000
00000100
00000001
00000000
00001000
00000001
00000000
00001000
00000000
00000100
00000010
00000001
00000000
,
00001000
00000010
00000000
00000100
00000001
00000000
00001000
00000100
00000010
00000000
00000001
00000000
00000100
00000010
00000000
00000010
,
00000000
00001000
00000000
00000100
00000010
00000000
00000100
00000000
00000100
00000000
00000001
00000000
00000200
00000000
00000000
00000000
,
00010300
00000000
00002000
00000000
00000000
00000000
00103000
00000000
00010000
10000000
00100000
00000000
01000000
00010000
00000000
10000000
,
00010000
00000000
10000000
01000000
00000000
00100000
00010000
00000000
10000000
00100000
01000000
00000000
00000000
01010000
00000000
00000000
,
11000000
00000000
00000000
02100000
00000000
00000000
10000000
00000000
00000000
00100000
00000000
00000000
13000000
00010000
00000000
01000000
,
00001000
00000000
00000000
00000000
00010000
00000000
00000100
00000000
00000010
00000000
00000001
00001000
00000010
00000100
00000000
00000000
,
00000101
00000000
00000000
00001200
00000000
00010300
00001000
00000000
01001000
00000000
00000000
01100000
00000000
00100000
00000000
10000000
,
00010000
00000000
00000000
00000000
00000000
00000000
00100000
00000000
00000000
01000000
00000000
00000000
10000000
00000000
00000000
00000000
00100000
00000000
00000000
00000000
01000000
00000000
00000000
00000000
00010000
00000000
00000000
00000000
10000000
00000000
00000000
00000000
01000000
00000000
00000000
00000000
00200000
00000000
00000000
00000000
00000000
00000000
00000000
00000000
00000000
00000000
00000000
00000000
,
00000000
00000000
00000000
00000000
00000000
00000000
00000000
00300000
;

//---------------dance-double - ----------------
#NOTES:
     dance-double:
     :
     Challenge:
     16:
     0.783062,0.831049,0.448168,0.287287,1.246825,477.000000,438.000000,39.000000,25.000000,0.000000,0.000000,0.783062,0.831049,0.448168,0.287287,1.246825,477.000000,438.000000,39.000000,25.000000,0.000000,0.000000:
00000000
00000000
00000000
00000000
,
00000000
00000000
00000000
00000000
,
00000000
00000000
00000000
00000000
,
00000000
00011000
00000000
00000000
01100000
00000000
00000000
10010000
00000000
10000000
00000000
00100000
01000000
00000000
00000000
00011000
,
00000000
00001000
00000000
00000010
00000100
00000000
00001000
00000001
00000100
00000010
00000000
00000010
00000000
00000010
00010000
00000000
,
00011000
00000000
00001000
00000000
00100000
01000000
00100000
00010000
01000000
00100000
10000000
00010000
00100000
01000000
10000000
00010000
,
00000000
00000000
00000000
01010000
00000000
00000000
00000000
00000000
00000000
00000000
00000000
00000000
01000000
00000000
00000000
00001000
00000000
00000000
00000000
00000000
00011000
00000000
00000000
00000000
00000000
00000000
00000000
00010000
00000000
00000000
00000000
00000000
00000110
00000000
00000000
00000000
00000000
00000000
00000000
00000000
00000000
00000000
00000000
00000000
00000000
00001001
00000000
00000000
,
00000000
00000000
00000000
00000000
00001000
00000010
00000100
00001000
00010000
00100000
01000000
00010000
00000000
00100000
00000000
11000000
,
00000000
00000000
00000000
10100000
00000000
00000000
00000000
00000000
00000000
00110000
00000000
00000000
00000000
00000000
00000000
00010000
00000000
00000000
01000000
00000000
00000000
00001000
00000000
00000000
00000000
00000000
00000000
00000000
00000000
00000000
00000000
00000000
00000000
00011000
00000000
00000000
00000000
00000000
00000000
00000000
00000000
00000000
00000000
00000000
00000110
00000000
00000000
00000000
,
00000000
00000000
00000000
00011000
00000000
00000000
01100000
00000000
10000000
00100000
01000000
00010000
00000000
00010000
00100000
00000000
,
00000000
00000000
00000000
00000000
00000000
00000000
00000000
00000000
00000000
00000000
00000000
00000000
11000000
00000000
00000000
00000000
00000000
00000000
00000000
00000000
00000000
00000000
00000000
00000000
00000000
00000000
00000000
00000000
00000000
00000000
00000000
00000000
00000000
00000000
00000000
00000000
00000000
00000000
00000000
00000000
00000000
00000000
00000000
00000000
00000000
00000000
00000000
00000000
10000000
00000000
00000000
00000000
00000000
00000000
00000000
00000000
00000000
00000000
00000000
00000000
00000000
00000000
00000000
00000000
00000000
00000000
00000000
00000000
00000000
00000000
00000000
00000000
00010000
00000000
00000000
00000000
00000000
00000000
00000000
00000000
00000000
00000000
00000000
00000000
00100000
00000000
00000000
00000000
00000000
00000000
00000000
00000000
00000000
00000000
00000000
00000000
00000000
00000000
00000000
00000000
00000000
00000000
00000000
00000000
00000000
00000000
00000000
00000000
00000000
00000000
00000000
00000000
00000000
00000000
00000000
00011000
00000000
00000000
00000000
00000000
00000000
00000000
00000000
00000000
00000000
00000000
00000000
00000000
00000000
00000000
00000000
00000000
00000000
00000000
00000000
00000000
00000000
00000000
00000000
00000000
00000000
00000000
00000000
00000000
00000000
00000000
00000000
00000000
00000000
00000000
00000000
00000000
00000110
00000000
00000000
00000000
00000000
00000000
00000000
00000000
00000000
00000000
00000000
00000000
00000000
00000000
00000000
00000000
00000000
00000000
00000000
00000000
00000000
00000000
00000000
00000000
00000000
00000000
00000000
00000000
00000000
00000000
00000000
00000000
00000000
00000000
00000000
00000000
00000000
00000000
00000000
00000000
,
00000001
00000000
00001001
00000000
00001000
00000000
00000010
00000100
00000001
00001000
00000100
00000010
00000000
00000001
00001001
00000000
,
00001000
00000010
00010000
00001000
00100000
00000000
01000000
00100000
00000000
00100000
00010000
10000000
00100000
01000000
01010000
00000000
,
00010000
00100000
01000000
10000000
00000000
00010000
00000000
01000000
00000000
00001000
00000000
00010000
00001000
00000010
00000100
00000000
,
00001000
00000010
00000000
00000100
00000001
00000010
00000000
00000100
00001000
00000000
00000001
00000000
00001000
00000020
00000000
00000000
,
00000000
00000000
00000001
00000000
00000000
00000000
00010030
00001000
00000000
00000000
00010000
00001000
00010000
00100000
01000000
00000000
,
00010000
10000000
00000000
01000000
00000000
00010000
00000000
00001000
00000000
00000100
00000000
00000001
00000000
00001000
00000001
00000000
,
00000100
00000010
00010000
00001000
00000000
00100000
00000000
01000000
00000000
00100000
00000000
01000000
00010000
00001000
00010000
00000000
,
00100000
01000000
00000000
00010000
10000000
01000000
00000000
00100000
00000000
00000000
10000000
00000000
00100000
00010000
00000000
00000000
,
00000000
00000000
01000000
00000000
00000000
00000000
10000000
00000000
00000000
00000000
00100000
01000000
10000000
00010000
00000000
01000000
,
00100000
00000000
01000000
00010000
00100000
01000000
00000000
00010000
00000000
00001000
00000000
00000100
00000000
00000000
00000101
00000000
,
00000000
00000000
00000001
00000000
00000010
00000100
00002000
00000000
00003010
00000100
00000002
00000000
00001003
00000100
00000020
00000000
,
00001030
00010000
00002000
00000000
00013000
00100000
02000000
00000000
03010000
10000000
01000000
00100000
00000000
00010000
20000000
00000000
,
30100000
01000000
00010000
00000000
00100000
01000000
10000000
00100000
00000000
01000000
00000000
20000000
00000000
31000000
00020000
00000000
,
00130000
01000000
00020000
00000000
00031000
00000010
00000200
00000000
00001300
00000001
00000100
00000010
00000000
00001000
00000000
00000001
,
00000010
00000000
00000110
00000000
00000100
00001000
00000000
00000001
00000100
00000000
00000110
00000000
00000010
00001000
00000200
00000000
,
00000001
00000000
00000310
00000001
00000000
00001000
00000010
00000000
00000100
00000001
00000010
00001000
00000000
00020000
00000000
00000000
,
00000000
00000000
00100000
00000000
00000000
00001000
00000000
00100000
00000000
00000000
00031000
00000000
00000000
00000000
00000000
11000000
,
00000000
00000000
00110000
00000000
00000000
00000000
00001100
00000000
00000000
00000011
00000000
00000000
00000000
00000000
00000101
00000000
,
00001000
00000020
00000000
00000000
00000000
00000000
00000130
00000001
00000000
00000010
00000000
00000100
00000000
00010000
00001000
00000000
,
00000000
00001000
00000000
00010000
00100000
01000000
00000000
00010000
00100000
01000000
10000000
00000000
00000000
00000000
10100000
00000000
,
00010000
02000000
00000000
00000000
00000000
03100000
10000000
00000000
02000000
00000000
00000000
03020000
00000000
00000000
00032000
00000000
,
00000000
00003200
00000000
00000000
00000302
00000000
00000000
00000000
00000000
00000000
00001003
00000000
00000000
00000000
00001100
00000000
,
00000001
00000010
00000000
00000001
00000100
00000010
00000100
00001000
00010000
00001000
00100000
01000000
00100000
00010000
10000000
00100000
,
00000000
01000000
00000000
00010000
00100000
00000000
00000000
01000000
10000000
00100000
00000000
01000000
00010000
00000000
01010000
00000000
,
01000000
00001000
00000000
00000000
00010000
00001000
00000100
00000010
00001000
00000000
00001001
00000000
00000001
00000010
00000100
00000010
,
00001000
00000000
00000000
00000000
00000000
00000000
00010000
00000000
00000000
00000000
00100000
00000000
00000000
00000000
01000000
00000000
00000000
00000000
10000000
00000000
00000000
01000000
00000000
00000000
00000000
00000000
00000000
00000000
00000000
00000000
00100000
00000000
00000000
10000000
00000000
00000000
00020000
00000000
00000000
00000000
00000000
00000000
00000000
00000000
00000000
00000000
00000000
00000000
,
00001000
00000000
00000000
00000000
10030000
00100000
02000000
00000000
10000000
00000000
03100000
00000000
10000000
00000000
00010000
00100000
,
00000000
00100000
00001000
00000000
00010000
00000010
00000000
00000000
00001000
00000001
00000100
00000010
00001000
00000001
00000010
00000000
,
00000110
00000000
00000100
00000000
00001000
00000001
00000100
00000000
00000010
00000000
00001000
00000000
00000100
00000000
00010000
00001000
,
00000000
00001000
01000000
00000000
00100000
10000000
00000000
10000000
00010000
00100000
01000000
10000000
00100000
01000000
00010000
10000000
,
01000000
00100000
00000000
00010000
10000000
00000000
00100000
01000000
00100000
10000000
01000000
00100000
00001000
00010000
00000000
00010000
,
00000000
00000100
00000000
00000010
00000002
00000000
00000103
00000000
00000100
00000000
00000010
00000000
00020000
00000000
00000000
00000000
,
00130000
00000000
01000000
00000000
00010000
00000000
10000000
00000000
01000000
00100000
00010000
00000000
10000000
00100000
00000000
00100000
,
01000000
00000000
01000000
00010000
00000000
00010000
10000000
00000000
01000000
00100000
00010000
00000000
10000000
00100000
00000000
00000000
,
00110000
00000000
00000000
00011000
00000000
00000000
00010000
00000000
00010000
00000010
00000000
00000010
00001000
00000001
00000000
00000001
,
00000010
00000100
00000000
00001000
00000000
00000001
00000100
00000000
00000010
00001000
00000100
00000001
00000100
00001000
00000000
00000000
,
00011000
00000000
00000000
01010000
00000000
01000000
00010000
00100000
01000000
00000000
01000000
10000000
00000000
00100000
00010000
00100000
,
10000000
00000000
00000000
00000000
00000000
00000000
01000000
00000000
00000000
00010000
00000000
00000000
00001000
00000000
00000000
00000000
00000100
00000000
00000000
00000000
00000001
00000000
00000000
00000000
00000010
00000000
00000000
00000000
00001000
00000000
00000000
00000000
00010000
00000000
00000000
00000000
02000000
00000000
00000000
00000000
00000000
00000000
00000000
00000000
00000000
00000000
00000000
00000000
,
00000000
00000000
00000000
00000000
00000000
00000000
00000000
03000000
;
