#VERSION:0.83;
#TITLE:Amor De Verão;
#SUBTITLE:;
#ARTIST:かめりあ feat. ななひら;
#TITLETRANSLIT:;
#SUBTITLETRANSLIT:;
#ARTISTTRANSLIT:Camellia feat. Nanahira;
#GENRE:熱帯 THE BASS;
#ORIGIN:beatmania IIDX 25 CANNON BALLERS;
#TAGS:;
#CREDIT:;
#BANNER:Amor De Verao.png;
#BACKGROUND:Amor De Verao-bg.png;
#PREVIEWVID:;
#JACKET:Amor De Verao-jacket.png;
#CDTITLE:../_YSD cdtitles/ysd cdtitle.png;
#DISCIMAGE:;
#LYRICSPATH:;
#MUSIC:Amor De Verao.ogg;
#OFFSET:0.659000;
#SAMPLESTART:60.210999;
#SAMPLELENGTH:27.826000;
#SELECTABLE:YES;
#BPMS:0.000000=138.000000
;
#STOPS:;
#DELAYS:;
#WARPS:;
#TIMESIGNATURES:0.000000=4=4
;
#TICKCOUNTS:0.000000=4
;
#COMBOS:0.000000=1
;
#SPEEDS:0.000000=1.000000=0.000000=0
;
#SCROLLS:0.000000=1.000000
;
#FAKES:;
#LABELS:0.000000=Song Start
;
#BGCHANGES:2.000=Amor De Verao.avi=1.000=0=0=0=StretchNoLoop====,
99999=-nosongbg-=1.000=0=0=0 // don't automatically add -songbackground-
;
#KEYSOUNDS:;
#ATTACKS:
;

//---------------dance-single - ----------------
#NOTEDATA:;
#CHARTNAME:;
#CHARTHASH:2099565936;
#STEPSTYPE:dance-single;
#BANNER:;
#DESCRIPTION:;
#CHARTSTYLE:;
#DIFFICULTY:Beginner;
#METER:3;
#METERF:0.000000;
#LASTSECONDHINT:117.601875;
#RADARVALUES:0.118754,0.271763,0.095916,0.015986,0.000000,104.000000,92.000000,12.000000,2.000000,0.000000,0.000000,0.000000,0.000000,0.000000,0.118754,0.271763,0.095916,0.015986,0.000000,104.000000,92.000000,12.000000,2.000000,0.000000,0.000000,0.000000,0.000000,0.000000;
#CREDIT:YOSEFU;
#NOTES:
// measure 0
0000
0000
0000
0000
,  // measure 1
0000
0000
0000
0000
,  // measure 2
0000
0000
0000
0000
,  // measure 3
0000
0000
0000
0000
,  // measure 4
0000
0000
0000
0000
,  // measure 5
1000
0000
0000
0000
,  // measure 6
0010
0000
0000
0000
,  // measure 7
0100
0000
0000
0000
,  // measure 8
0001
0000
0000
0000
,  // measure 9
1000
0000
0000
0000
,  // measure 10
0100
0000
0100
0000
,  // measure 11
0010
0000
0000
0000
,  // measure 12
0001
0000
0001
0000
,  // measure 13
0100
0000
0000
0000
,  // measure 14
0010
0000
0010
0000
,  // measure 15
1000
0000
0000
0000
,  // measure 16
1001
0000
0000
0000
,  // measure 17
0110
0000
0000
0000
,  // measure 18
0001
0000
0000
0000
,  // measure 19
1000
0000
1000
0000
,  // measure 20
1000
0000
0000
0000
,  // measure 21
0100
0000
0100
0000
,  // measure 22
0100
0000
0000
0000
,  // measure 23
0010
0000
0010
0000
,  // measure 24
0010
0000
0000
0000
,  // measure 25
1001
0000
0000
0000
,  // measure 26
0001
0000
0000
0000
,  // measure 27
0100
0000
0000
0000
,  // measure 28
0010
0000
0000
0000
,  // measure 29
1000
0000
0000
0000
,  // measure 30
0100
0000
0000
0000
,  // measure 31
0010
0000
0000
0000
,  // measure 32
0001
0000
0000
0000
,  // measure 33
0100
0000
0000
0000
,  // measure 34
0010
0010
0010
0000
,  // measure 35
1001
0000
1000
0000
,  // measure 36
1000
0000
0000
0000
,  // measure 37
0001
0000
0001
0000
,  // measure 38
0001
0000
0000
0000
,  // measure 39
0100
0000
0100
0000
,  // measure 40
0100
0000
0100
0000
,  // measure 41
0000
0000
0001
0000
,  // measure 42
0000
0000
0000
0000
,  // measure 43
1000
0000
0001
0000
,  // measure 44
1000
0000
0000
0000
,  // measure 45
0001
0000
1000
0000
,  // measure 46
0001
0000
0000
0000
,  // measure 47
0100
0000
0010
0000
,  // measure 48
0100
0000
0000
0000
,  // measure 49
0000
0000
0010
0000
,  // measure 50
0200
0000
0300
0000
,  // measure 51
1001
0000
0000
0000
,  // measure 52
0001
0000
0000
0000
,  // measure 53
0010
0000
0000
0000
,  // measure 54
0100
0000
0000
0000
,  // measure 55
1000
1000
1000
0000
,  // measure 56
0001
0001
0001
0000
,  // measure 57
0100
0100
0100
0000
,  // measure 58
0010
0010
0010
0000
,  // measure 59
1000
0001
1000
0000
,  // measure 60
0001
1000
0001
0000
,  // measure 61
1001
0000
0110
0000
,  // measure 62
1001
0000
0110
0000
,  // measure 63
1001
0000
0000
0000
,  // measure 64
0110
0000
0000
0000
,  // measure 65
1001
0000
0000
0000
,  // measure 66
0100
0100
0200
0000
,  // measure 67
0000
0000
0000
0000
,  // measure 68
0300
0000
0000
0000
;

//---------------dance-single - ----------------
#NOTEDATA:;
#CHARTNAME:;
#CHARTHASH:1547044982;
#STEPSTYPE:dance-single;
#BANNER:;
#DESCRIPTION:;
#CHARTSTYLE:;
#DIFFICULTY:Easy;
#METER:6;
#METERF:0.000000;
#LASTSECONDHINT:117.601875;
#RADARVALUES:0.246642,0.326116,0.231798,0.111902,0.023979,216.000000,187.000000,29.000000,14.000000,0.000000,0.000000,0.000000,0.000000,0.000000,0.246642,0.326116,0.231798,0.111902,0.023979,216.000000,187.000000,29.000000,14.000000,0.000000,0.000000,0.000000,0.000000,0.000000;
#CREDIT:YOSEFU;
#NOTES:
0000
0000
0000
0000
,
0000
0000
0000
0000
,
0000
0000
0000
0000
,
0000
0000
0000
0000
,
0000
0000
0000
0000
,
1000
0000
0010
0000
,
0100
0000
0001
0000
,
1000
0100
0010
0001
,
2000
0000
3000
0000
,
1001
0001
0100
0010
,
1000
0001
0010
0100
,
1000
0001
0100
0010
,
1000
0001
0010
0100
,
1001
1000
0010
0100
,
0001
1000
0100
0010
,
0011
0000
1001
0000
,
1010
0000
1001
0000
,
0110
0000
0001
0000
,
1000
0000
0100
0000
,
0011
0001
1000
0010
,
0100
0001
0001
1000
,
1100
0001
0100
0010
,
1000
0001
0010
0100
,
1100
0000
0101
0000
,
1010
0000
0011
0000
,
0201
0000
0000
0000
,
0320
0000
0000
0000
,
2030
0000
0000
0000
,
3200
0000
0000
0000
,
0320
0000
0000
0000
,
0032
0000
0000
0000
,
0103
0000
0010
0000
,
1000
0000
0100
0000
,
0010
0001
0010
0100
,
1100
0000
0000
0000
1100
0000
0000
0000
0022
0000
0000
0033
0000
0000
0000
0000
,
0101
0100
0010
1000
,
0100
0010
0001
1000
,
0010
0100
0001
1000
,
0100
0010
0001
0100
,
1010
0001
0010
0100
,
0010
0000
0001
0000
1001
0000
0000
0110
,
0000
0000
0001
0000
1000
0000
0100
0100
,
0000
1000
0000
0000
0001
0000
0100
0000
,
0101
0100
0010
1000
,
0100
0010
1000
0010
,
0001
0100
0010
1000
,
0001
0010
1000
0010
,
0001
0100
0010
1000
,
0100
0000
0010
0000
0011
0000
0000
1100
,
0000
0001
0100
0010
,
1000
1000
0001
0000
,
0010
0000
0100
0000
,
1000
0000
0010
0000
,
0100
0001
0100
0010
,
1000
0100
0010
0000
,
0001
0100
1000
0100
,
0001
0010
1000
0010
,
0001
0100
1000
0100
,
0001
1000
0100
0010
,
0001
0100
1000
0100
,
0001
0010
1000
0010
,
0011
0000
1001
0000
,
1010
0000
1001
0000
,
0220
0000
0000
0330
0000
0000
0000
0000
0000
0000
0000
0000
0000
0000
0001
0000
,
0002
0000
0000
0003
0000
0000
0000
0000
0000
0000
0000
0000
0000
0000
1000
0000
,
2000
0000
0000
3000
0000
0000
0000
0000
0000
0000
0000
0000
0000
0000
0000
0000
,
0100
0000
0100
0000
0010
0000
0020
0000
0000
0000
0000
0000
,
0000
0000
0000
0000
,
0030
0000
0000
0000
;

//---------------dance-single - ----------------
#NOTEDATA:;
#CHARTNAME:;
#CHARTHASH:2303295586;
#STEPSTYPE:dance-single;
#BANNER:;
#DESCRIPTION:;
#CHARTSTYLE:;
#DIFFICULTY:Medium;
#METER:12;
#METERF:0.000000;
#LASTSECONDHINT:117.601875;
#RADARVALUES:0.409928,0.489173,0.215812,0.223805,0.375672,359.000000,332.000000,27.000000,28.000000,0.000000,0.000000,0.000000,0.000000,0.000000,0.409928,0.489173,0.215812,0.223805,0.375672,359.000000,332.000000,27.000000,28.000000,0.000000,0.000000,0.000000,0.000000,0.000000;
#CREDIT:YOSEFU;
#NOTES:
0000
0000
0000
0000
,
0000
0000
0000
0000
,
0000
0000
0000
0000
,
0000
0000
0000
0000
,
0000
0000
0000
0000
,
1000
0010
0100
0001
,
1000
0100
0010
0001
,
1000
0010
1000
0000
0001
0010
0001
0000
,
1000
0000
1000
0010
0000
0010
0200
0000
0000
0300
0000
0000
,
0210
0000
0000
0000
0301
0000
0000
1000
0000
1000
0000
1000
0001
0000
0000
0000
,
0010
0100
0000
0100
0000
0100
0000
0100
,
1000
0000
0000
0000
0001
0000
0000
0100
0000
0100
0000
0100
0010
0000
0000
0000
,
1000
0001
0000
0001
0000
0001
0010
0000
,
0120
0000
0000
0000
0031
0000
0000
1000
0000
1000
0000
1000
0010
0000
0000
0000
,
0100
0001
0000
0001
0000
0001
0000
0001
,
1000
0000
0000
0100
0000
0000
0020
0000
0031
0000
0000
0100
0010
0000
1000
0000
,
0001
0000
0000
0010
0000
0000
0100
0000
1000
0000
0000
0000
0010
0000
0000
0000
,
1010
1000
0001
0010
,
0100
0000
0010
0000
0001
0000
1000
0010
,
1010
0000
0000
0000
1000
0000
0000
0100
0000
0100
0000
0100
0010
0000
0001
0000
,
1000
0000
0000
0010
0000
0010
0100
0000
0100
0002
0000
0000
,
0013
0000
0000
0000
0100
0000
0000
1000
0000
1000
0000
1000
0001
0000
0100
0000
,
0010
0000
0000
0000
1000
0000
0000
0100
0000
0100
0000
0100
0010
0000
0001
0000
,
1000
0000
0000
0010
0000
0000
0100
0000
0001
0000
0000
1000
0000
0000
0100
0000
,
0010
0000
0000
0001
0000
0000
1000
0000
0010
0000
0000
0100
0000
0100
0000
0001
,
2000
0000
0000
0000
,
3200
0000
0000
0000
,
0320
0000
0000
0000
,
0032
0000
0000
0000
,
0203
0000
0000
0000
,
0320
0000
0000
0000
,
1030
0000
0000
0001
0000
0000
0000
0000
0100
0000
0000
0010
0000
0000
0000
0000
,
1000
0000
0000
0001
0000
0000
0000
0000
0010
0000
0000
0100
0000
0000
1000
0000
,
0001
0000
0000
0100
0000
0000
0010
0000
0000
0000
0100
0000
0001
1000
0000
0000
,
1001
0000
0000
0000
1001
0000
0000
0000
0110
0000
0000
1001
0000
0000
0000
0000
,
1000
0000
0001
0000
0100
0000
0000
0001
0000
0000
0010
0000
0100
0000
0000
1000
,
0000
0000
0001
0000
0000
1000
0000
0010
0100
0000
0000
0001
0000
0000
0100
0000
,
0010
0000
1000
0000
0001
0000
0000
0010
0000
0000
0100
0000
1000
0000
0000
0010
,
0000
0000
0100
0000
0000
0001
0000
0100
0000
0000
0010
0000
0010
0000
0000
0000
,
1000
0000
0100
0000
0010
0000
0000
0001
0000
0000
0100
0000
0010
0000
0000
0100
,
0000
0000
0001
0000
0000
0100
0000
0000
0101
0000
0000
1001
0000
0000
2200
0000
,
3300
0000
1000
0000
0001
0000
0000
0100
0000
0000
0010
0000
1000
0000
2001
0000
,
0000
0000
0100
0000
0000
0100
0000
0000
0001
0000
0000
3001
0000
0000
1000
0000
,
0010
0000
0100
0000
0001
0000
0000
1000
0000
0000
0100
0000
0010
0000
0000
0001
,
0000
0000
0100
0000
0000
0010
0000
0000
1000
0001
0000
0010
0000
0000
0100
0000
,
1000
0000
0001
0000
0100
0000
0000
0010
0000
0000
1000
0000
0100
0000
0002
0000
,
0203
0000
0000
2300
0000
0000
3002
0000
0203
0000
0000
0000
0000
0000
0320
0000
,
1030
0000
0100
0000
0010
0000
0000
0001
0000
0000
0100
0000
0010
0000
0000
0100
,
0000
0000
0001
0000
0000
0010
0000
0100
1000
0000
0000
1001
0000
0000
2020
0000
,
3030
0000
1000
0000
0010
0000
0000
0100
0000
0000
0001
0000
0010
0000
0100
0000
,
1000
0000
1000
0010
0000
0010
0200
0000
0000
0300
0000
0000
,
0101
0000
1001
0000
,
1100
0000
1001
0000
,
0101
1001
1100
0110
,
0010
0000
0010
0001
1000
0001
2000
0000
0000
3010
0000
0000
,
0100
0000
0000
0001
0010
0000
1000
0000
0010
0000
0001
0000
1000
0000
0000
0000
,
0001
0000
0000
1000
0010
0000
0001
0000
0010
0000
1000
0000
0001
0000
0000
0000
,
1001
0000
0000
1000
0100
0000
0001
0000
0100
0000
1000
0000
0001
0000
0000
0000
,
1000
0000
0000
0001
0100
0000
1000
0000
0100
0000
0001
0000
1000
0000
0000
0000
,
0110
0000
0000
0001
0010
0000
1000
0000
0010
0000
0001
0000
0100
0000
0000
0000
,
0010
0000
0000
0000
0000
0000
0000
0000
0000
1000
0000
0000
0100
0000
0000
0000
0000
0000
0001
0000
0000
0000
0000
0000
0100
0000
0000
0000
0000
0000
1000
0000
0000
0000
0000
0000
0010
0000
0000
0000
1000
0000
0000
0000
0010
0000
0000
0000
,
1000
0000
0000
0100
0000
0000
0010
0000
0001
0000
0000
0100
0000
0000
0010
0000
,
1000
0000
0000
0100
0000
0010
0001
0000
1000
0000
0010
0000
0100
0000
0000
0000
,
2010
0000
0000
0000
3100
0000
0000
0010
0000
0001
0000
0000
0100
0000
0010
0000
,
2010
0000
0000
0000
3100
0000
0000
0001
0000
0100
0000
0000
0010
0000
0001
0000
,
1002
0000
0000
0000
0103
0000
0000
1000
0000
0100
0000
0000
0001
0000
0010
0000
,
0100
1000
0100
1000
0100
1000
0002
0000
0000
0000
0000
0000
,
0000
0000
0000
0000
,
0003
0000
0000
0000
;

//---------------dance-single - ----------------
#NOTEDATA:;
#CHARTNAME:Romântica;
#CHARTHASH:579203377;
#STEPSTYPE:dance-single;
#BANNER:;
#DESCRIPTION:;
#CHARTSTYLE:;
#DIFFICULTY:Hard;
#METER:14;
#METERF:0.000000;
#LASTSECONDHINT:117.601875;
#RADARVALUES:0.584633,0.760936,0.279756,0.279756,0.819286,512.000000,477.000000,35.000000,35.000000,0.000000,0.000000,0.000000,0.000000,0.000000,0.584633,0.760936,0.279756,0.279756,0.819286,512.000000,477.000000,35.000000,35.000000,0.000000,0.000000,0.000000,0.000000,0.000000;
#CREDIT:YOSEFU;
#NOTES:
0000
0000
0000
0000
,
0000
0000
0000
0000
,
0000
0000
0000
0000
,
0000
0000
0000
0000
,
0000
0000
0000
0000
,
0001
0010
0100
1000
,
0001
0000
0000
0000
0100
0000
0000
0000
0010
0000
0000
1000
0000
0000
0001
0000
,
1000
0000
0010
0000
0100
0000
0001
0000
1000
0000
0100
0000
0010
0001
1000
0010
,
0100
0001
1000
0100
0010
0001
0200
0000
0000
0300
0000
0000
,
2001
0000
0000
3001
0010
0100
0000
1000
0000
1000
0000
0010
0100
0000
0001
0000
,
1000
0000
0000
0100
0010
0001
0000
0100
0000
0001
0100
0001
0100
0000
0010
0000
,
2000
0000
3000
0010
1000
0100
0000
0010
0000
0010
0000
0001
1000
0000
0010
0000
,
0100
0000
0000
0100
0001
0000
0000
0001
1000
0000
0000
1000
0100
0000
0000
0000
,
2100
0000
3000
0100
1000
0010
0000
0100
0000
0100
0000
0001
1000
0000
0100
0000
,
0010
0000
0000
0001
0100
0010
0000
1000
0000
0001
0010
0001
0010
0000
0100
0000
,
1100
0000
0000
1000
0000
0000
0100
0000
0011
0000
0000
0001
0100
0001
1000
0000
,
0001
1000
0000
0100
0000
1000
0001
0000
0200
0000
0000
0000
0300
0000
0000
0000
,
1010
1000
0001
1000
,
0100
0000
0000
0000
0010
0001
0000
1000
0000
1000
0000
0001
0010
0000
0200
0000
,
1300
0000
0000
0000
0001
0100
0000
0010
0000
0010
0000
0100
0001
0000
1000
0000
,
0100
0000
0000
0000
0000
0000
0010
0000
0000
0001
0000
0000
0100
0000
0000
0000
0010
0000
0000
0000
0001
0000
0000
0000
0010
0000
0000
0000
0100
0000
0000
0000
0001
0000
0000
0000
2000
0000
0000
0000
0000
0000
0000
0000
0000
0000
0000
0000
,
3100
0000
0000
0010
0001
1000
0000
0010
0000
0010
0000
0100
0001
0000
1000
0000
,
0100
0000
0010
0001
1000
0010
0000
0100
0000
0100
0000
0001
0010
0000
0100
1000
,
0010
0000
0000
0110
0000
0000
0100
0000
0101
0000
0000
0010
0000
0000
0100
0000
,
1001
0000
0000
1000
0000
0000
0100
0000
0010
0001
0000
1000
0000
0010
0100
0001
,
2000
0000
0000
0000
,
3200
0000
0000
0000
,
0320
0000
0000
0000
,
0032
0000
0000
0000
,
0203
0000
0000
0000
,
0320
0000
2030
0000
,
3001
0000
0000
0000
1000
0000
0000
0000
0100
0000
0000
0010
0000
0000
0001
0000
,
1000
0000
0000
0010
0000
0000
0100
0000
0001
0000
0000
0010
0000
0000
0100
0000
,
1000
0001
0000
1000
0000
0001
0100
0000
0010
0000
1000
0000
0001
0010
0100
1000
,
0001
0000
0000
0000
1001
0000
0000
0000
0101
0000
0000
1010
0000
0000
0000
0000
,
1001
0000
1000
0000
0100
0010
0000
0001
0000
1000
0010
0000
0001
0010
0000
0100
,
0001
0000
1000
0000
0100
0010
0000
0001
0100
0010
0000
1000
0000
0001
0010
0000
,
0100
0000
0001
0000
0100
1000
0000
0010
0000
0100
0010
0000
0001
0010
0000
0100
,
0000
0001
1000
0000
0100
0010
0000
0001
0100
0000
0010
0000
1010
0000
0000
0000
,
1001
0000
0001
0000
0010
0100
0000
1000
0000
0001
0100
0000
1000
0100
0000
0010
,
1000
0000
0001
0000
0010
0100
0000
1000
0010
0000
0000
0101
0000
0000
0022
0000
,
0033
0000
0001
0000
0100
0010
0000
0001
0000
0010
0100
0000
0001
1000
0200
0000
,
0000
0000
0010
0000
0000
0010
0000
0000
1300
0000
0001
0000
0100
0010
0000
1000
,
0100
0000
0010
0000
0001
1000
0000
0010
0000
0000
0100
0000
1000
0100
0000
0001
,
0000
0000
0010
0000
0100
1000
0000
0001
0100
0010
0000
0110
0000
0000
0101
0000
,
1010
0000
1000
0000
0100
0010
0000
0001
0000
0000
0100
0000
1000
0100
0020
0000
,
2030
0000
0000
3002
0000
0000
0023
0000
2030
0000
0000
3010
0000
0000
0001
0000
,
0100
0000
0010
0000
1000
0100
0000
0010
0000
0000
0100
0000
0001
0100
0000
1000
,
0000
0000
0010
0000
0100
0001
0000
1000
0001
0000
0000
1100
0000
0000
0022
0000
,
0033
0000
0001
0000
1000
0010
0000
0100
0000
0000
0010
0000
0001
0010
0000
0100
,
0001
1000
0100
0010
0001
0100
0020
0000
0000
0030
0000
0000
,
1010
0100
0011
1000
,
0101
0000
0000
0000
0010
0000
0000
0000
1100
0000
0000
1000
0001
0000
0100
0000
,
0010
0000
0100
0000
0001
0000
0010
0000
0100
0000
1000
0000
0001
0100
0001
0100
,
0001
0000
0100
0000
1000
0000
0001
0000
0010
0000
1000
0000
0002
0000
0000
0000
0000
0000
0013
0000
0000
0100
0000
0000
,
1002
0000
0000
1003
0100
0001
0100
1000
0100
0001
0100
1000
0010
0000
0100
0000
,
0001
0000
0000
1000
0100
0001
0100
1000
0100
0001
0100
1000
0010
0000
0100
0000
,
0201
0000
0000
0301
0100
1000
0100
0001
0100
1000
0100
0001
1000
0000
0010
0000
,
0100
0000
0000
0001
0100
0000
0010
1000
0100
0000
0000
0010
0001
0000
1000
0000
,
2010
0000
0000
3001
0010
1000
0010
0001
0010
1000
0010
0001
1000
0000
0100
0010
,
0001
0000
0000
0000
0000
0000
0000
0000
0000
1000
0000
0000
0010
0000
0000
0001
0000
0000
0010
0000
0000
1000
0000
0000
0010
0000
0000
0001
0000
0000
0010
0000
0000
1000
0000
0000
0001
0000
0000
0000
0100
0000
0000
0000
0001
0000
0000
0000
,
2000
0000
0000
3100
0000
0000
0010
0000
0012
0000
0000
0013
1000
0010
0001
0000
,
0100
0001
0000
0010
0000
0100
1000
0000
0010
0000
0100
0000
0001
0000
0000
0000
,
0102
0000
0003
0100
0001
0010
0000
1000
0000
0010
0000
0001
1000
0000
1100
0000
,
0012
0000
0003
0010
0001
0100
0000
1000
0000
0100
0000
0001
0010
0000
0101
0000
,
2100
0000
3000
0100
1000
0010
0000
0001
0000
0010
0000
1000
0001
0000
0110
0000
,
1000
0100
0001
1000
0010
0001
0200
0000
0000
0000
0000
0000
,
0000
0000
0000
0000
,
0300
0000
0000
0000
;

//---------------dance-double - ----------------
#NOTEDATA:;
#CHARTNAME:;
#CHARTHASH:3706368840;
#STEPSTYPE:dance-double;
#BANNER:;
#DESCRIPTION:;
#CHARTSTYLE:;
#DIFFICULTY:Beginner;
#METER:3;
#METERF:0.000000;
#LASTSECONDHINT:117.601875;
#RADARVALUES:0.111902,0.217410,0.071937,0.015986,0.000000,98.000000,89.000000,9.000000,2.000000,0.000000,0.000000,0.000000,0.000000,0.000000,0.111902,0.217410,0.071937,0.015986,0.000000,98.000000,89.000000,9.000000,2.000000,0.000000,0.000000,0.000000,0.000000,0.000000;
#CREDIT:YOSEFU;
#NOTES:
00000000
00000000
00000000
00000000
,
00000000
00000000
00000000
00000000
,
00000000
00000000
00000000
00000000
,
00000000
00000000
00000000
00000000
,
00000000
00000000
00000000
00000000
,
00010000
00000000
00000000
00000000
,
00001000
00000000
00000000
00000000
,
01000000
00000000
00000000
00000000
,
00010000
00000000
00000000
00000000
,
10000000
00000000
00000000
00000000
,
01000000
00000000
01000000
00000000
,
00100000
00000000
00000000
00000000
,
00001000
00000000
00001000
00000000
,
00010000
00000000
00000000
00000000
,
00000010
00000000
00000010
00000000
,
00001000
00000000
00000000
00000000
,
00001001
00000000
00000000
00000000
,
00001001
00000000
00000000
00000000
,
00000001
00000000
00000000
00000000
,
00001000
00000000
00001000
00000000
,
00001000
00000000
00000000
00000000
,
00000100
00000000
00000100
00000000
,
00000100
00000000
00000000
00000000
,
00010000
00000000
00010000
00000000
,
00010000
00000000
00000000
00000000
,
00011000
00000000
00000000
00000000
,
00001000
00000000
00000000
00000000
,
01000000
00000000
00000000
00000000
,
00010000
00000000
00000000
00000000
,
10000000
00000000
00000000
00000000
,
01000000
00000000
00000000
00000000
,
00100000
00000000
00000000
00000000
,
00010000
00000000
00000000
00000000
,
01000000
00000000
00000000
00000000
,
00001000
00001000
00001000
00000000
,
00011000
00000000
00010000
00000000
,
00010000
00000000
00000000
00000000
,
00000100
00000000
00000100
00000000
,
00000100
00000000
00000000
00000000
,
00001000
00000000
00001000
00000000
,
00001000
00000000
00000000
00000000
,
00000000
00000000
00000001
00000000
,
00000000
00000000
00000000
00000000
,
00001000
00000000
00000001
00000000
,
00001000
00000000
00000000
00000000
,
00000100
00000000
00010000
00000000
,
00000100
00000000
00000000
00000000
,
00010000
00000000
00001000
00000000
,
00010000
00000000
00000000
00000000
,
00000000
00000000
00001000
00000000
,
02000000
00000000
03000000
00000000
,
01100000
00000000
00000000
00000000
,
10000000
00000000
00000000
00000000
,
00010000
00000000
00000000
00000000
,
01000000
00000000
00000000
00000000
,
00001000
00001000
00001000
00000000
,
00010000
00010000
00010000
00000000
,
00000100
00000100
00000100
00000000
,
00001000
00001000
00001000
00000000
,
00000001
00000100
00000010
00000000
,
00001000
00000001
00000010
00000000
,
00000110
00000000
00000000
00000000
,
00010000
00000000
00000000
00000000
,
00011000
00000000
00000000
00000000
,
01100000
00000000
00000000
00000000
,
10010000
00000000
00000000
00000000
,
00100000
00100000
00200000
00000000
,
00000000
00000000
00000000
00000000
,
00300000
00000000
00000000
00000000
;

//---------------dance-double - ----------------
#NOTEDATA:;
#CHARTNAME:;
#CHARTHASH:1975922501;
#STEPSTYPE:dance-double;
#BANNER:;
#DESCRIPTION:;
#CHARTSTYLE:;
#DIFFICULTY:Easy;
#METER:7;
#METERF:0.000000;
#LASTSECONDHINT:117.601875;
#RADARVALUES:0.245500,0.326116,0.199826,0.071937,0.011990,215.000000,190.000000,25.000000,9.000000,0.000000,0.000000,0.000000,0.000000,0.000000,0.245500,0.326116,0.199826,0.071937,0.011990,215.000000,190.000000,25.000000,9.000000,0.000000,0.000000,0.000000,0.000000,0.000000;
#CREDIT:YOSEFU;
#NOTES:
00000000
00000000
00000000
00000000
,
00000000
00000000
00000000
00000000
,
00000000
00000000
00000000
00000000
,
00000000
00000000
00000000
00000000
,
00000000
00000000
00000000
00000000
,
00010000
00000000
00001000
00000000
,
01000000
00000000
00100000
00000000
,
10000000
01000000
00100000
00001000
,
00010000
00010000
00000010
00000000
,
00000101
00000100
00000010
00001000
,
00000100
00010000
00001000
01000000
,
00100000
10000000
01000000
00100000
,
00001000
00010000
00000010
00000100
,
00000101
00000001
00000010
00000100
,
00001000
00000001
00000100
00000010
,
00010000
00000000
00011000
00000000
,
01001000
00000000
10010000
00000000
,
11000000
00000000
00010000
00000000
,
00100000
00000000
00001000
00000000
,
00010000
00000010
00000100
00001000
,
00010000
00100000
00100000
01000000
,
00010000
10000000
01000000
00100000
,
01000000
00010000
00001000
00000010
,
00000100
00000000
00001100
00000000
,
00001001
00000000
00000101
00000000
,
00002010
00000000
00000000
00000000
,
00003002
00000000
00000000
00000000
,
00000203
00000000
00000000
00000000
,
00002300
00000000
00000000
00000000
,
00023000
00000000
00000000
00000000
,
00230000
00000000
00000000
00000000
,
01300000
00000000
00010000
00000000
,
10000000
00000000
01000000
00000000
,
00010000
00001000
00000100
00000001
,
00000101
00000000
00000000
00000000
00000101
00000000
00000000
00000000
00002020
00000000
00000000
00003030
00000000
00000000
00000000
00000000
,
00001001
00000001
00000100
00000010
,
00010000
00001000
00000010
00000001
,
00000100
00001000
00010000
00100000
,
01000000
00010000
10000000
01000000
,
00100000
00010000
01000000
00100000
,
00010000
00000000
00001000
00000000
00100000
00000000
00000000
01100000
,
00000000
00000000
01000000
00000000
00010000
00000000
00001000
00001000
,
00000000
00010000
00000000
00000000
00010000
00000000
00000010
00000000
,
00010010
00000010
00000100
00000001
,
00000010
00001000
00010000
00100000
,
10000000
01000000
00100000
01000000
,
00010000
00001000
00000010
00000100
,
00001000
00000001
00000100
00000010
,
00000001
00000000
00000010
00000000
00001000
00000000
00000000
00001001
,
00000000
00000001
00000010
00001000
,
00010000
00100000
01000000
00000000
,
00010000
00000000
00100000
00000000
,
01000000
00000000
00010000
00000000
,
00001000
00000010
00000100
00001000
,
00000001
00000100
00000110
00000000
,
00001001
00000001
00000100
00001000
,
00010000
00100000
10000000
01000000
,
00010000
00001000
00000010
00000001
,
00000100
00001000
00010000
00100000
,
01010000
01000000
00100000
00010000
,
00001000
00000010
00000001
00000100
,
00001010
00000000
00011000
00000000
,
01010000
00000000
10100000
00000000
,
00110000
00000000
00000000
00000000
00000000
00000000
00000000
00100000
,
00100000
00000000
00000000
00000000
00000000
00000000
00000000
00000010
,
00000010
00000000
00000000
00000000
00000000
00000000
00000000
00001000
,
00001000
00000000
00001000
00000000
00000010
00000000
00000020
00000000
00000000
00000000
00000000
00000000
,
00000000
00000000
00000000
00000000
,
00000030
00000000
00000000
00000000
;

//---------------dance-double - ----------------
#NOTEDATA:;
#CHARTNAME:;
#CHARTHASH:3726233399;
#STEPSTYPE:dance-double;
#BANNER:;
#DESCRIPTION:;
#CHARTSTYLE:;
#DIFFICULTY:Medium;
#METER:12;
#METERF:0.000000;
#LASTSECONDHINT:117.601875;
#RADARVALUES:0.403077,0.461997,0.167854,0.231798,0.367679,353.000000,332.000000,21.000000,29.000000,0.000000,0.000000,0.000000,0.000000,0.000000,0.403077,0.461997,0.167854,0.231798,0.367679,353.000000,332.000000,21.000000,29.000000,0.000000,0.000000,0.000000,0.000000,0.000000;
#CREDIT:YOSEFU;
#NOTES:
00000000
00000000
00000000
00000000
,
00000000
00000000
00000000
00000000
,
00000000
00000000
00000000
00000000
,
00000000
00000000
00000000
00000000
,
00000000
00000000
00000000
00000000
,
00010000
00000100
00001000
00000010
,
00000100
00000001
00000010
00000100
,
00010000
00001000
00010000
00000000
00001000
01000000
00001000
00000000
,
10000000
00000000
01000000
00000000
00100000
00000000
00010000
00000000
00000000
00000000
00000000
00000000
,
00120000
00000000
00000000
00000000
01030000
00000000
00000000
00001000
00000000
00001000
00000000
00001000
00010000
00000000
00000000
00000000
,
00000100
00000010
00000000
00000010
00000000
00000010
00000000
00000010
,
00000002
00000000
00000000
00000000
00000103
00000000
00000000
00000010
00000000
00000010
00000000
00000010
00001000
00000000
00000000
00000000
,
00000100
00010000
00000000
00010000
00000000
00010000
00001000
00000000
,
02002000
00000000
03003000
00000000
01000000
00000000
00000000
00010000
00000000
00010000
00000000
00010000
00100000
00000000
00000000
00000000
,
01000000
00010000
00000000
00010000
00000000
00010000
00000000
00010000
,
00001000
00000000
00000000
00010000
00000000
00000000
00000020
00000000
00000130
00000000
00000000
00000001
00000010
00000000
00000100
00000000
,
00010000
00000000
00000000
00001000
00000000
00000000
01000000
00000000
00100000
00000000
00000000
00000000
00010000
00000000
00000000
00000000
,
00001000
00010000
00100000
01000000
,
00010000
00000000
10000000
00000000
01000000
00000000
00010000
00002000
,
00103000
00000000
00000000
00000000
00001000
00000000
00000000
00010000
00000000
00010000
00000000
00010000
00000010
00000000
00000100
00000000
,
00000001
00000000
00000000
00001000
00000000
00000100
00000000
00000010
00000000
00000002
00000000
00000000
,
00000103
00000000
00000000
00000000
00000010
00000000
00000000
00000100
00000000
00000100
00000000
00000100
00001000
00000000
00010000
00000000
,
00001000
00000000
00000000
00000000
00100000
00000000
00000000
01000000
00000000
01000000
00000000
01000000
10000000
00000000
00010000
00000000
,
01000000
00000000
00000000
00100000
00000000
00000000
00010000
00000000
00001000
00000000
00000000
00000010
00000000
00000000
00000001
00000000
,
00000100
00000000
00000000
00001000
00000000
00000000
00010000
00000000
01000000
00000000
00000000
10000000
00000000
10000000
00000000
00010000
,
02000000
00000000
00000000
00000000
,
03020000
00000000
00000000
00000000
,
00230000
00000000
00000000
00000000
,
00302000
00000000
00000000
00000000
,
00023000
00000000
00000000
00000000
,
00030020
00000000
00000000
00000000
,
00000130
00000000
00000000
00000001
00000000
00000000
00000000
00000000
00010000
00000000
00000000
00001000
00000000
00000000
00000000
00000000
,
00100000
00000000
00000000
01000000
00000000
00000000
00000000
00000000
00010000
00000000
00000000
00001000
00000000
00000000
00000010
00000000
,
00000001
00000000
00000000
00001000
00000000
00000000
00000010
00000000
00000000
00000000
00000100
00000000
00000001
00001000
00000000
00000000
,
00001001
00000000
00000000
00000000
00001001
00000000
00000000
00000000
00000110
00000000
00000000
00001001
00000000
00000000
00000000
00000000
,
00000001
00000000
00000100
00000000
00001000
00000000
00000000
00010000
00000000
00000000
00001000
00000000
00100000
00000000
00000000
01000000
,
00000000
00000000
10000000
00000000
00000000
00100000
00000000
01000000
00010000
00000000
00000000
10000000
00000000
00000000
01000000
00000000
,
00100000
00000000
00010000
00000000
10000000
00000000
00000000
00100000
00000000
00000000
00010000
00000000
00001000
00000000
00000000
00000010
,
00000000
00000000
00000001
00000000
00000000
00000100
00000000
00000010
00000000
00000000
00001000
00000000
00001000
00000000
00000000
00000000
,
00000100
00000000
00000010
00000000
00000001
00000000
00000000
00000100
00000000
00000000
00000010
00000000
00000100
00000000
00000000
00001000
,
00000000
00000000
00010000
00000000
00000000
00100000
00000000
01000000
00010000
00000000
00000000
01010000
00000000
00000000
20020000
00000000
,
30030000
00000000
10000000
00000000
01000000
00000000
00000000
00010000
00000000
00000000
00001000
00000000
00000010
00000000
00000200
00000000
,
00000000
00000000
00001000
00000000
00000000
00001000
00000000
00000000
00000010
00000000
00000000
00000010
00000300
00000000
00000100
00000000
,
00001000
00000000
00000001
00000000
00000100
00000000
00000000
00000010
00000000
00000000
00000100
00000000
00001000
00000000
00000000
00010000
,
00000000
00000000
00100000
00000000
00000000
01000000
00000000
00000000
00010000
00100000
00000000
01000000
00000000
00000000
10000000
00000000
,
00100000
00000000
01000000
00000000
10000000
00000000
00000000
01000000
00000000
00000000
00010000
00000000
00100000
00000000
02000000
00000000
,
03020000
00000000
00000000
00032000
00000000
00000000
00003020
00000000
00000230
00000000
00000000
00000000
00000000
00000000
00002300
00000000
,
00003001
00000000
00000100
00000000
00001000
00000000
00000000
00010000
00000000
00000000
01000000
00000000
10000000
00000000
00000000
00100000
,
00000000
00000000
01000000
00000000
00000000
00001000
00000000
00010000
00000100
00000000
00000000
00001100
00000000
00000000
00000022
00000000
,
00000033
00000000
00000001
00000000
00000100
00000000
00000000
00001000
00000000
00000000
00010000
00000000
00000100
00000000
00000010
00000000
,
00000100
00000000
00010000
00000000
00001000
00000000
02000000
00000000
00000000
03000000
00000000
00000000
,
01010000
00000000
10010000
00000000
,
00110000
00000000
00101000
00000000
,
00011000
00010010
00001010
00000101
,
00000001
00000000
00000000
00000000
00000100
00000000
00000000
00000000
00001000
00000000
00010000
00000000
00001000
00000000
00000000
00000000
00000000
00000000
00100000
00000000
00000000
01000000
00000000
00000000
,
10000000
00000000
00000000
01000000
00010000
00000000
00001000
00000000
00000010
00000000
00000001
00000000
00000100
00000000
00000001
00000000
,
00001000
00000000
00000000
00000001
00000100
00000000
00001000
00000000
00010000
00000000
00100000
00000000
01000000
00000000
00010000
00000000
,
10000000
00000000
00000000
01000000
00010000
00000000
00001000
00000000
00000010
00000000
00000001
00000000
00001000
00000000
00000010
00000000
,
00000100
00000010
00010000
00000010
00001000
00000010
00000100
00000000
,
00000001
00000000
00000000
00000010
00001000
00000000
00010000
00000000
00100000
00000000
10000000
00000000
01000000
00000000
00010000
00000000
,
00001000
00000000
00000000
00000000
00000000
00000000
00000000
00000000
00000000
00000010
00000000
00000000
00000001
00000000
00000000
00000000
00000000
00000000
00000100
00000000
00000000
00000000
00000000
00000000
00001000
00000000
00000000
00000000
00000000
00000000
00010000
00000000
00000000
00000000
00000000
00000000
01000000
00000000
00000000
00000000
00000000
00000000
00000000
00000000
01000000
00000000
00000000
00000000
,
10000000
00000000
00000000
00100000
00000000
00000000
00010000
00000000
00001000
00000000
00000000
00000010
00000001
00000000
00001000
00000000
,
00000010
00000000
00000000
00000100
00000000
00000001
00001000
00000000
00000100
00000000
00000010
00000000
00000001
00000000
00000000
00000000
,
00000201
00000000
00000000
00000000
00000310
00000000
00000000
00000100
00000000
00001000
00000000
00000000
00010000
00000000
00001000
00000000
,
00201000
00000000
00000000
00000000
01300000
00000000
00000000
00010000
00000000
00001000
00000000
00000000
00000100
00000000
00000001
00000000
,
00000012
00000000
00000000
00000000
00000103
00000000
00000000
00001000
00000000
00010000
00000000
00000000
00100000
00000000
01000000
00000000
,
00010000
00000000
00100000
00000000
01000000
10000000
00020000
00000000
00000000
00000000
00000000
00000000
,
00000000
00000000
00000000
00000000
,
00030000
00000000
00000000
00000000
;

//---------------dance-double - ----------------
#NOTEDATA:;
#CHARTNAME:Muito romântica;
#CHARTHASH:4152677474;
#STEPSTYPE:dance-double;
#BANNER:;
#DESCRIPTION:;
#CHARTSTYLE:;
#DIFFICULTY:Hard;
#METER:14;
#METERF:0.000000;
#LASTSECONDHINT:117.601875;
#RADARVALUES:0.527540,0.733760,0.199826,0.303735,0.659425,462.000000,437.000000,25.000000,38.000000,0.000000,0.000000,0.000000,0.000000,0.000000,0.527540,0.733760,0.199826,0.303735,0.659425,462.000000,437.000000,25.000000,38.000000,0.000000,0.000000,0.000000,0.000000,0.000000;
#CREDIT:YOSEFU;
#NOTES:
00000000
00000000
00000000
00000000
,
00000000
00000000
00000000
00000000
,
00000000
00000000
00000000
00000000
,
00000000
00000000
00000000
00000000
,
00000000
00000000
00000000
00000000
,
00010000
00001000
00100000
01000000
,
10000000
00000000
00000000
00000000
00100000
00000000
00000000
00000000
01000000
00000000
00000000
00001000
00000000
00000000
00010000
00000000
,
00000100
00000000
00001000
00000000
00000100
00000000
00001000
00000000
00000001
00000000
00000100
00000000
00000001
00000100
00000001
00000100
,
00000010
00001000
00000010
00000100
00001000
00010000
00002000
00000000
00000000
01003000
00000000
00000000
,
00200000
00000000
00300000
10000000
00010000
00100000
00000000
01000000
00000000
01000000
00000000
00100000
00010000
00000000
00000000
00000000
,
10000000
00100000
00010000
00001000
00000010
00000001
00001000
00000010
,
00000200
00000000
00000300
00000001
00000010
00000100
00000000
00001000
00000000
00001000
00000000
00000100
00000010
00000000
00000000
00000000
,
00000001
00000100
00001000
00010000
01000000
10000000
00100000
00000000
,
01010000
00000000
00000000
01000000
00010000
00100000
00000000
01000000
00000000
01000000
00000000
00100000
00001000
00000000
00000000
00000000
,
00010000
00100000
00010000
00001000
00000010
00000001
00000100
00000010
,
00001010
00000000
00000000
00000001
00000000
00000000
00000010
00000000
00001100
00000000
00000000
00010000
00000100
00010000
00001000
00000000
,
00100000
00001000
00000000
01000000
00000000
00010000
10000000
00000000
02000000
00000000
00000000
00000000
03000000
00000000
00000000
00000000
,
00110000
00001000
00010000
00000010
,
00000100
00000000
00000001
00000000
00001000
00000000
00000100
00000010
,
00000001
00000000
00000000
00000000
00000100
00000010
00000000
00000010
00000000
00001000
00000000
00001000
00000100
00000000
00010000
00000000
,
00001000
00000000
00000000
00000000
00000000
00000000
00000000
00000000
00000000
00100000
00000000
00000000
01000000
00000000
00000000
00000000
10000000
00000000
00000000
00000000
00010000
00000000
00000000
00000000
01000000
00000000
00000000
00000000
00001000
00000000
00000000
00000000
00010000
00000000
00000000
00000000
00000200
00000000
00000000
00000000
00000000
00000000
00000000
00000000
00000000
00000000
00000000
00000000
,
00001300
00000000
00000000
00000010
00000100
00000001
00000000
00000001
00000000
00000010
00000000
00000010
00000100
00000000
00001000
00000000
,
00000001
00000000
00000000
00000100
00000010
00001000
00000000
00001000
00000000
00000100
00000000
00000100
00000010
00000000
00001000
00000000
,
00010000
00000000
00000000
00100000
00000000
00000000
10000000
00000000
10010000
00000000
00000000
00010000
00000000
00000000
00100000
00000000
,
01100000
00000000
00000000
10000000
00000000
00000000
00010000
00000000
01000000
00100000
00000000
00010000
00000000
00001000
00000000
00000010
,
00000002
00000000
00000000
00000000
,
00000203
00000000
00000000
00000000
,
00002300
00000000
00000000
00000000
,
00023000
00000000
00000000
00000000
,
00230000
00000000
02300000
00000000
,
03020000
00000000
20030000
00000000
,
31000000
00100000
00001000
00010000
,
00100000
01000000
00001000
00010000
,
00000100
00000010
00000100
00000010
00000001
00001000
00000001
00001000
,
00001010
00000000
00000000
00000000
00001010
00000000
00000000
00000000
00000101
00000000
00000000
00001010
00000000
00000000
00000000
00000000
,
00001001
00000000
00000001
00000000
00000010
00000100
00000000
00001000
00000000
00000000
00000010
00000000
00000100
00001000
00000000
00000100
,
00000000
00000000
00000001
00000000
00000000
00000100
00000000
00001000
00010000
00001000
00000000
00100000
00000000
01000000
00100000
00000000
,
00010000
00000000
00100000
00000000
01000000
00010000
00000000
01000000
00000000
00000000
00100000
00000000
00001000
00010000
00000000
00000010
,
00000000
00000000
00000100
00000000
00000000
00001000
00000000
00010000
00001000
00000000
00100000
00000000
01000000
00000000
00000000
00000000
,
11000000
00000000
10000000
00000000
00100000
01000000
00000000
00010000
00000000
00000000
00100000
00000000
01000000
00010000
00000000
00001000
,
00000000
00000000
00010000
00000000
00000000
00000010
00000000
00000100
00000001
00000000
00000000
00000101
00000000
00000000
00002020
00000000
,
00003030
00000000
00001000
00000000
00000100
00000010
00000000
00001000
00000000
00000000
00000010
00000000
00000100
00000000
00020000
00000000
,
00000000
00000000
00001000
00000000
00000000
00100000
00000000
00000000
00031000
00000000
00000000
00100000
00000000
00000000
01000000
00000000
,
10000000
00000000
00100000
00000000
01000000
00010000
00000000
10000000
00000000
00000000
01000000
00000000
00010000
00001000
00000000
00100000
,
00000000
00000000
00001000
00000000
00000000
00010000
00000000
00000010
00000100
00000001
00000000
00001000
00000000
00000000
00000100
00000000
,
00000010
00000000
00000001
00000000
00000100
00000010
00000000
00001000
00000000
00000000
00000001
00000000
00000010
00000100
00020000
00000000
,
00032000
00000000
00000000
00003200
00000000
00000000
00002300
00000000
00023000
00000000
00000000
00230000
00000000
00000000
20300000
00000000
,
31000000
00000000
00100000
00000000
00010000
10000000
00000000
01000000
00000000
00000000
00100000
00000000
10000000
00100000
00000000
00010000
,
00000000
00000000
00100000
00000000
00000000
00001000
00000000
00010000
00000010
00000000
00000000
00001010
00000000
00000000
00000202
00000000
,
00000303
00000000
00000001
00000000
00000010
00000100
00000000
00001000
00000000
00000000
00000100
00000000
00000001
00000100
00000000
00001000
,
00000100
00000010
00001000
00010000
00100000
10000000
00020000
00000000
00000000
00030000
00000000
00000000
,
10100000
01000000
00110000
00001000
,
00010100
00000001
00000110
00001000
,
00000001
00000000
00000100
00000000
00000001
00000000
00000100
00000000
00000010
00000000
00001000
00000000
00000010
00010000
00000010
00010000
,
00001000
00000000
00010000
00000000
00100000
00000000
01000000
00000000
00100000
00000000
00010000
00000000
00002000
00000000
00000000
00000000
00000000
00000000
00013000
00000000
00000000
00001000
00000000
00000000
,
00000020
00000000
00000030
00001000
00010000
00001000
00000010
00001000
00010000
00001000
00000010
00001000
00010000
00000000
00001000
00000000
,
00010000
00000000
00000000
00001000
00010000
00100000
00010000
00001000
00010000
00100000
00010000
00001000
00010000
00000000
00001000
00000000
,
00200000
00000000
00300000
00001000
00010000
00001000
00000010
00001000
00010000
00001000
00000010
00001000
00010000
00000000
00000010
00000000
,
00000100
00000000
00000000
00000001
00000010
00000000
00001000
00000000
00010000
00000000
00100000
00000000
10000000
00000000
01000000
00000000
,
02100000
00000000
03000000
00010000
00001000
00010000
01000000
00010000
00001000
00010000
01000000
00010000
00001000
00000000
00100000
00000000
,
00001000
00000000
00000000
00000000
00000000
00000000
00000000
00000000
00000000
00010000
00000000
00000000
00001000
00000000
00000000
00000100
00000000
00000000
00001000
00000000
00000000
00010000
00000000
00000000
00001000
00000000
00000000
00000100
00000000
00000000
00001000
00000000
00000000
00010000
00000000
00000000
00001000
00000000
00000000
00000000
00000100
00000000
00000000
00000000
00000001
00000000
00000000
00000000
,
00000020
00000000
00000030
00001000
00000000
00000000
00010000
00000000
00011000
00000000
00000000
00001000
00010000
00100000
01000000
00000000
,
00010000
10000000
00000000
01000000
00000000
00100000
00010000
00000000
01000000
00000000
00100000
00000000
10000000
00000000
00000000
00000000
,
20020000
00000000
30030000
00000000
10000000
01000000
00000000
00100000
00000000
00001000
00000000
00010000
00000010
00000000
00000100
00000000
,
00000202
00000000
00000303
00000000
00000001
00000010
00000000
00001000
00000000
00010000
00000000
00100000
01000000
00000000
00010000
00000000
,
20020000
00000000
30030000
00000000
10000000
01000000
00000000
00010000
00000000
00001000
00000000
00000010
00000001
00000000
00001000
00000000
,
00000001
00000100
00001000
00010000
01000000
10000000
00200000
00000000
00000000
00000000
00000000
00000000
,
00000000
00000000
00000000
00000000
,
00300000
00000000
00000000
00000000
;
