#VERSION:0.83;
#TITLE:ABOVE BELOW;
#SUBTITLE:;
#ARTIST:hololive English -Justice- (prod\: Nhato);
#TITLETRANSLIT:;
#SUBTITLETRANSLIT:;
#ARTISTTRANSLIT:;
#GENRE:VTUBER;
#ORIGIN:hololive English -Justice- Debut Song;
#TAGS:;
#CREDIT:;
#BANNER:ABOVE BELOW.png;
#BACKGROUND:ABOVE BELOW-bg.png;
#PREVIEWVID:;
#JACKET:ABOVE BELOW-jacket.png;
#CDIMAGE:;
#DISCIMAGE:;
#LYRICSPATH:;
#CDTITLE:../_YSD cdtitles/ysd sc2024 cdtitle.png;
#MUSIC:Above Below.ogg;
#OFFSET:0.000000;
#SAMPLESTART:62.570999;
#SAMPLELENGTH:13.714285;
#SELECTABLE:YES;
#BPMS:0.000000=140.000000
;
#STOPS:;
#DELAYS:;
#WARPS:;
#TIMESIGNATURES:0.000000=4=4
;
#TICKCOUNTS:0.000000=4
;
#COMBOS:0.000000=1
;
#SPEEDS:0.000000=1.000000=0.000000=0
;
#SCROLLS:0.000000=1.000000
;
#FAKES:;
#LABELS:0.000000=Song Start
;
#BGCHANGES:0.000=ABOVE BELOW.avi=1.000=0=0=0=StretchNoLoop====,
99999=-nosongbg-=1.000=0=0=0 // don't automatically add -songbackground-
;
#KEYSOUNDS:;
#ATTACKS:
;

//---------------dance-single - ----------------
#NOTEDATA:;
#CHARTNAME:;
#CHARTHASH:2636697575;
#STEPSTYPE:dance-single;
#BANNER:;
#DESCRIPTION:;
#CHARTSTYLE:;
#DIFFICULTY:Beginner;
#METER:3;
#METERF:0.000000;
#LASTSECONDHINT:145.714294;
#RADARVALUES:0.127907,0.201793,0.101745,0.000000,0.000000,132.000000,117.000000,15.000000,0.000000,0.000000,0.000000,0.000000,0.000000,0.000000,0.127907,0.201793,0.101745,0.000000,0.000000,132.000000,117.000000,15.000000,0.000000,0.000000,0.000000,0.000000,0.000000,0.000000;
#CREDIT:YOSEFU;
#NOTES:
0000
0000
0000
0000
,
0000
0000
0000
0000
,
0000
0000
0000
0000
,
0000
0000
0000
0000
,
0000
0000
0000
0000
,
1000
0000
0000
0000
,
0001
0000
0000
0000
,
0100
0000
0000
0000
,
0010
0000
0000
0000
,
0110
0000
0000
0000
,
0100
0000
0000
0000
,
0001
0000
0001
0000
,
1000
0000
0000
0000
,
1001
0000
0000
0000
,
0001
0000
0000
0000
,
0100
0000
0100
0000
,
0010
0000
0000
0000
,
1000
0000
0000
0000
,
0100
0000
0000
0000
,
0010
0000
0010
0000
,
0001
0000
0001
0000
,
1001
0000
0000
0000
,
1000
0000
0000
0000
,
0010
0000
0010
0000
,
0100
0000
0000
0000
,
1001
0000
0000
0000
,
0001
0000
0000
0000
,
0010
0000
0000
0000
,
0100
0000
0000
0000
,
1000
0000
0000
0000
,
0100
0000
0000
0000
,
0010
0000
0000
0000
,
0100
0000
0000
0000
,
1000
0000
0000
0000
,
0001
0000
0000
0000
,
0010
0000
0000
0000
,
0100
0000
0000
0000
,
1001
0000
0001
0000
,
1000
0000
0010
0000
,
1000
0000
0001
0000
,
1000
0000
0001
0000
,
0100
0000
0001
0000
,
1000
0000
0100
0000
,
1000
0000
0010
0000
,
0100
0000
0000
0000
,
1001
0000
0001
0000
,
1000
0000
0001
0000
,
0100
0000
0010
0000
,
0100
0000
0001
0000
,
1001
0000
0100
0000
,
0010
0000
1000
0000
,
1001
0000
0001
0000
,
0010
0000
0100
0000
,
1001
0000
0001
0000
,
0100
0000
0010
0000
,
1001
0000
1000
0000
,
0100
0000
0000
0000
,
0010
0000
0000
0000
,
0001
0000
0000
0000
,
1000
0000
0000
0000
,
0010
0000
0000
0000
,
0100
0000
0000
0000
,
0001
0000
0000
0000
,
1000
0000
0000
0000
,
0100
0000
0000
0000
,
0110
0000
0010
0000
,
0001
0000
1000
0000
,
0001
0000
0100
0000
,
0010
0000
1000
0000
,
1001
0000
0001
0000
,
1000
0000
0100
0000
,
0010
0000
0001
0000
,
1000
0000
0000
0000
,
1001
0000
0001
0000
,
0100
0000
0010
0000
,
1000
0000
0001
0000
,
1000
0000
0100
0000
,
0110
0000
0010
0000
,
0001
0000
1000
0000
,
0010
0000
0000
0000
,
0110
0000
0000
0000
,
0100
0000
0000
0000
,
0001
0000
0000
0000
,
0100
0000
0000
0000
,
0010
0000
0000
0000
,
1000
0000
0000
0000
;

//---------------dance-single - ----------------
#NOTEDATA:;
#CHARTNAME:;
#CHARTHASH:2860938464;
#STEPSTYPE:dance-single;
#BANNER:;
#DESCRIPTION:;
#CHARTSTYLE:;
#DIFFICULTY:Easy;
#METER:6;
#METERF:0.000000;
#LASTSECONDHINT:144.000000;
#RADARVALUES:0.221900,0.398839,0.094962,0.000000,0.000000,229.000000,215.000000,14.000000,0.000000,0.000000,0.000000,0.000000,0.000000,0.000000,0.221900,0.398839,0.094962,0.000000,0.000000,229.000000,215.000000,14.000000,0.000000,0.000000,0.000000,0.000000,0.000000,0.000000;
#CREDIT:YOSEFU;
#NOTES:
0000
0000
0000
0000
,
0000
0000
0000
0000
,
0000
0000
0000
0000
,
0000
0000
0000
0000
,
0000
0000
0000
0000
,
1000
0000
0000
0000
,
0001
0000
0000
0000
,
0100
0000
0000
0000
,
0010
0000
0010
0000
,
1000
0000
0001
0000
,
1000
0100
1000
0000
,
0001
0100
0001
0100
,
0010
0000
1000
0000
,
1001
0000
0001
0100
,
0010
0000
1000
0100
,
0010
0010
0001
0001
,
1001
0000
1000
0001
,
0100
0000
0010
1000
,
0001
0000
0010
0100
,
1000
1000
0001
0001
,
0100
0100
0010
1000
,
0001
0001
0010
0100
,
1000
0000
0001
0100
,
0010
0001
0010
1000
,
0001
0000
1000
0100
,
0010
0000
0001
0000
,
0010
0000
0100
0000
,
1000
0000
0001
0000
,
0100
0010
0100
0000
,
0001
0000
1000
0000
,
0001
0000
0000
0000
,
0100
0000
0010
0000
,
1000
0000
0000
0000
,
0100
0000
0010
0000
,
0001
0000
0000
0000
,
0100
0000
0010
0000
,
1000
0000
0001
0000
,
1000
1000
1000
0100
,
0010
0010
0001
0001
,
0100
0000
0010
1000
,
0100
0010
0001
0100
,
0010
0010
1000
1000
,
0001
0010
0100
0010
,
0001
0000
1000
0000
,
0010
0000
0100
0000
,
0101
0101
0101
0000
,
1100
1100
1100
0000
,
1010
1010
1010
0000
,
0011
0011
0011
0000
,
0001
0100
1000
0100
,
0001
0010
1000
0010
,
0000
0001
0100
1000
,
0100
0001
1000
0000
,
0001
1000
0100
0001
,
0100
1000
0001
0100
,
0000
0001
0010
1000
,
0010
0000
0000
0001
,
1000
0000
0010
0000
,
0100
0000
0000
0000
,
0001
0000
0010
0000
,
0100
0000
0000
0000
,
1000
0000
0010
0000
,
0100
0000
0000
0000
,
0001
0000
1000
0000
,
0100
0000
0010
0000
,
0001
0001
0100
0100
,
0010
1000
0001
0010
,
0100
0000
1000
0001
,
0100
0000
0010
1000
,
0010
0010
0100
0100
,
1000
0100
0001
0010
,
0100
0000
1000
0000
,
0001
0000
0100
0000
,
0010
0010
1000
1000
,
0100
0010
0001
0100
,
0010
0010
0100
0100
,
1000
0100
0001
0010
,
0100
0100
1000
1000
,
0001
0100
0010
1000
,
0001
0000
0010
0000
,
0100
0000
0000
0000
,
1000
0000
0000
0000
,
0001
0000
0000
0000
,
0100
0000
0000
0000
,
0010
0000
0000
0000
;

//---------------dance-single - ----------------
#NOTEDATA:;
#CHARTNAME:;
#CHARTHASH:3362725112;
#STEPSTYPE:dance-single;
#BANNER:;
#DESCRIPTION:;
#CHARTSTYLE:;
#DIFFICULTY:Medium;
#METER:9;
#METERF:0.000000;
#LASTSECONDHINT:144.000000;
#RADARVALUES:0.291668,0.427327,0.135659,0.000000,0.010174,301.000000,281.000000,20.000000,0.000000,0.000000,0.000000,0.000000,0.000000,0.000000,0.291668,0.427327,0.135659,0.000000,0.010174,301.000000,281.000000,20.000000,0.000000,0.000000,0.000000,0.000000,0.000000,0.000000;
#CREDIT:Karl with a K;
#NOTES:
0000
0000
0000
0000
,
0000
0000
0000
0000
,
0000
0000
0000
0000
,
0000
0000
0000
0000
,
0000
0000
0000
0000
,
0001
0000
0000
0000
,
1000
0000
0000
0000
,
0100
0000
0010
0000
,
0100
0010
0100
1000
,
0001
0100
0010
0000
,
1000
0001
0010
0000
,
0001
0001
0100
0100
,
1001
0000
0000
0000
,
0001
0010
0100
0010
,
0001
1000
0010
0100
,
0001
1000
0100
0010
,
0001
1000
0010
0010
,
1000
1001
0001
0010
,
0100
0110
1000
1000
,
0001
0001
0100
0100
,
0001
0001
0010
0100
,
1000
0001
0100
0001
,
1000
0001
0010
0100
,
1000
0100
0010
0001
,
1000
0001
0100
1000
,
0100
0010
1000
0001
,
0010
0000
0001
0010
,
0100
0001
0100
0010
,
0001
1000
1000
0000
,
0001
0000
0010
0000
,
0100
0000
0100
0000
,
1000
0000
0010
0000
,
0100
0000
0100
0000
,
0001
0000
1000
0000
,
0100
0010
0100
0000
,
1000
0000
0001
0000
,
0100
0010
0100
0000
,
0001
0000
1000
0000
0001
0100
0001
0000
,
0010
0100
0010
0100
,
1000
0000
0000
0001
1000
0000
0010
0000
,
0100
0000
0010
0010
,
1000
0000
0001
0000
1000
0100
1000
0000
,
0010
0100
0010
0001
,
0010
0000
0000
0100
0001
0000
0010
0000
,
1000
0000
0010
0100
,
1000
0000
0000
0000
1000
0000
0000
0000
0001
0000
0000
0010
0000
0000
0000
0000
,
0001
0000
0000
0000
0001
0000
0000
0000
1000
0000
0000
0010
0000
0000
0000
0000
,
0100
0000
0000
0000
0100
0000
0000
0000
0001
0000
0000
0010
0000
0000
0001
0000
,
1000
0000
1000
0000
0100
0010
0100
1000
,
0001
0100
0010
1000
,
0001
0000
0001
0000
1000
0001
1000
0000
,
0000
0010
1000
0001
,
0001
0011
0110
0000
,
0000
0001
0100
0010
,
1000
0000
1000
0000
0010
1000
0100
0000
,
0000
1001
0110
1001
,
0110
0000
0000
0000
,
1000
0000
1000
0000
,
0001
0001
1000
0000
,
0001
0000
0001
0000
,
1000
1000
0001
0000
,
0010
0001
0010
0001
,
1000
0100
0001
0100
,
1000
0010
0001
1000
,
0100
0001
0010
0000
,
0110
0000
0100
0000
1000
0100
0010
0000
,
0001
0000
0100
0000
0010
1000
0010
0000
,
1000
0000
0000
0001
0001
0000
0010
0100
,
0000
1000
0010
0010
,
0110
0000
0100
0000
0001
0100
0010
0000
,
1000
0000
0100
0000
0010
0001
0010
0000
,
0001
0000
0000
1000
1000
0000
0010
0100
,
0000
0000
0001
0010
0000
0000
0110
0000
,
1001
0000
1001
0000
1000
0100
1000
0000
,
0001
0010
0100
0000
1000
0001
0100
0000
,
0110
0000
0110
0000
0110
0000
0010
1000
,
0000
0000
0001
0010
0000
0100
0010
0000
,
1001
0000
1001
0000
0001
0100
0001
0000
,
1000
0010
0100
0000
0001
0010
0100
0000
,
0110
0000
0000
0010
1000
0000
0010
0100
,
0000
1000
0001
0100
,
0010
0000
0000
0000
,
0100
0000
0000
0000
,
0001
0000
0000
0000
,
1000
0000
0000
0000
;

//---------------dance-single - ----------------
#NOTEDATA:;
#CHARTNAME:FLAT IS (half of) JUSTICE;
#CHARTHASH:2037799912;
#STEPSTYPE:dance-single;
#BANNER:;
#DESCRIPTION:;
#CHARTSTYLE:;
#DIFFICULTY:Hard;
#METER:11;
#METERF:0.000000;
#LASTSECONDHINT:144.857147;
#RADARVALUES:0.426358,0.487187,0.332366,0.000000,0.067830,440.000000,391.000000,49.000000,0.000000,0.000000,0.000000,0.000000,0.000000,0.000000,0.426358,0.487187,0.332366,0.000000,0.067830,440.000000,391.000000,49.000000,0.000000,0.000000,0.000000,0.000000,0.000000,0.000000;
#CREDIT:Karl with a K vs ヨセフ;
#NOTES:
0000
0000
0000
0000
,
0000
0000
0000
0000
,
0000
0000
0000
0000
,
0000
0000
0000
0000
,
0000
0000
0000
0000
,
1000
0010
0100
0100
,
0001
0001
0010
0000
,
0100
0000
1000
0010
,
0100
0100
0100
0001
,
1001
0000
1000
0001
1000
0000
0010
0000
,
0100
0001
0100
0000
0010
0000
1000
0000
,
0100
0010
0100
0010
0001
1000
0001
1000
,
1001
1000
0001
1000
,
0001
0000
1000
0000
0001
0100
0010
0000
,
0110
0000
0100
0000
0001
0010
0100
0000
,
1000
1100
0100
1000
,
1010
0000
0000
0000
0010
0000
0000
0000
0100
0001
0000
0000
1000
0100
0000
0000
,
0010
0000
0000
0000
0011
0000
0000
0000
0001
0100
0000
0000
0001
1000
0000
0000
,
0100
0000
0000
0000
0110
0000
0000
0000
0001
0010
0000
0000
0001
0010
0000
0000
,
0100
1000
0010
0000
0001
0010
0100
0000
,
0001
0010
0100
0010
0001
0000
1000
0000
,
0010
0000
0000
0000
0010
0000
0000
0000
0100
0000
0000
0001
0000
0000
1000
0000
,
0100
0000
0000
0000
0010
0000
0000
0000
1000
0000
0000
0010
0000
0000
0001
0000
,
0100
0000
0000
0000
0010
0000
0000
0000
0001
0000
0000
0010
0000
0000
1000
0000
,
0100
0000
0000
0000
0110
0000
0000
0000
0011
0000
0000
0001
0000
0000
0100
0000
,
0010
0000
0000
0000
0010
0000
0000
0000
1000
0000
0000
0100
0000
0000
0010
0000
,
0001
0000
0000
0000
0001
0000
0000
0000
0100
0000
0000
0010
0000
0000
1000
0000
,
0100
0010
0001
0100
,
0010
1000
0010
1000
0010
0000
0000
0000
,
0100
0000
0001
0000
,
1000
0100
1000
0000
,
0001
0000
0100
0000
,
0010
1000
0010
0000
,
0100
0001
0100
0001
,
0010
0100
0010
0100
,
1000
0010
1000
0000
0001
0010
0001
0010
,
0100
0000
1000
0000
,
1001
0000
1001
0000
1000
0100
1000
0100
,
0010
0010
0001
0000
0100
0001
1000
0000
,
1001
0000
0001
0000
1000
0100
0010
0100
,
1000
0000
0001
0000
0100
0010
1000
0100
,
0010
0000
1001
0000
0001
0100
0001
0100
,
0010
0010
1000
0000
0100
0100
0001
0000
,
0100
0000
1000
0000
0001
0100
0010
0100
,
0001
0000
0010
0100
0010
0100
0010
0100
,
1000
0000
0001
0000
0100
0000
0000
0000
0001
1000
0000
0100
0000
0000
0001
0000
,
0100
0000
0010
0000
0001
0000
0000
0000
1000
0001
0000
0100
0000
0000
1000
0000
,
0100
0000
0001
0000
0010
0000
0100
0000
1000
0001
0000
0010
0000
0000
1000
0000
,
0010
0000
0001
0000
0100
1000
0100
0001
,
1000
1100
0011
1001
,
0101
0000
1010
0000
1000
0001
0110
0000
,
0001
1010
0101
1001
,
0011
1100
1001
0000
,
1000
0011
1100
0110
,
1001
0000
1010
0000
0010
1000
0101
0000
,
1000
1001
0011
1001
,
0101
0000
0000
0000
0000
0001
0010
0000
,
0100
0000
1000
0000
,
0001
0100
0001
0000
,
1000
0000
0100
0000
,
0010
0001
0010
0100
,
1000
1000
0001
0001
,
0100
1000
0000
0100
0010
0000
0010
0000
,
1000
0100
0001
0100
0010
0001
0010
1000
,
0010
0100
1000
0001
1000
0000
0000
0000
,
1001
0000
0101
0000
0001
0100
0010
0100
,
0001
0001
0010
0000
0100
0100
0010
0000
,
0001
0000
0100
0010
0100
0001
0010
0100
,
1000
0000
0001
0000
0100
0010
0100
0001
,
1010
0000
1100
0000
0100
0010
0100
1000
,
0001
0001
0100
0000
0010
0010
0001
0000
,
0010
0000
0000
0110
0000
0000
1010
0000
0000
1001
0000
0000
0001
0000
0010
0000
,
0100
0000
1000
0000
0001
0100
0010
0000
,
1010
0000
0101
0000
0001
0010
1000
0010
,
0001
0001
0100
0000
0010
0010
0100
0000
,
0101
0000
0011
0000
1100
0000
1000
0010
,
0001
0000
0010
1000
0001
0010
0100
1000
,
0011
0000
0101
0000
1000
0100
0001
0100
,
1000
1000
0010
0000
0100
0100
1000
0100
,
0001
0000
0010
0100
1000
0000
0001
0100
,
0010
0010
0010
0010
,
1000
0000
0001
0000
,
0010
0000
0100
0000
,
1000
0000
0001
0000
,
0100
0000
0010
0000
;

//---------------dance-double - ----------------
#NOTEDATA:;
#CHARTNAME:;
#CHARTHASH:1445853803;
#STEPSTYPE:dance-double;
#BANNER:;
#DESCRIPTION:;
#CHARTSTYLE:;
#DIFFICULTY:Beginner;
#METER:3;
#METERF:0.000000;
#LASTSECONDHINT:144.000000;
#RADARVALUES:0.100776,0.170931,0.054264,0.020349,0.000000,104.000000,96.000000,8.000000,3.000000,0.000000,0.000000,0.000000,0.000000,0.000000,0.100776,0.170931,0.054264,0.020349,0.000000,104.000000,96.000000,8.000000,3.000000,0.000000,0.000000,0.000000,0.000000,0.000000;
#CREDIT:YOSEFU;
#NOTES:
// measure 0
00000000
00000000
00000000
00000000
,  // measure 1
00000000
00000000
00000000
00000000
,  // measure 2
00000000
00000000
00000000
00000000
,  // measure 3
00000000
00000000
00000000
00000000
,  // measure 4
00000000
00000000
00000000
00000000
,  // measure 5
00010000
00000000
00000000
00000000
,  // measure 6
00001000
00000000
00000000
00000000
,  // measure 7
01000000
00000000
00000000
00000000
,  // measure 8
00010000
00000000
00000000
00000000
,  // measure 9
10010000
00000000
00000000
00000000
,  // measure 10
10000000
00000000
00000000
00000000
,  // measure 11
01000000
00000000
00000000
00000000
,  // measure 12
00100000
00000000
00000000
00000000
,  // measure 13
00001000
00000000
00000000
00000000
,  // measure 14
00010000
00000000
00000000
00000000
,  // measure 15
00000010
00000000
00000000
00000000
,  // measure 16
00001000
00000000
00000000
00000000
,  // measure 17
00000001
00000000
00000000
00000000
,  // measure 18
00000010
00000000
00000000
00000000
,  // measure 19
00000100
00000000
00000000
00000000
,  // measure 20
00001000
00000000
00000000
00000000
,  // measure 21
00001001
00000000
00000000
00000000
,  // measure 22
00000001
00000000
00000000
00000000
,  // measure 23
00000100
00000000
00000000
00000000
,  // measure 24
00000010
00000000
00000000
00000000
,  // measure 25
00010000
00000000
00000000
00000000
,  // measure 26
00001000
00000000
00000000
00000000
,  // measure 27
00100000
00000000
00000000
00000000
,  // measure 28
00010000
00000000
00000000
00000000
,  // measure 29
10010000
00000000
00000000
00000000
,  // measure 30
10000000
00000000
00000000
00000000
,  // measure 31
00100000
00000000
00000000
00000000
,  // measure 32
01000000
00000000
00000000
00000000
,  // measure 33
00001000
00000000
00000000
00000000
,  // measure 34
00010000
00000000
00000000
00000000
,  // measure 35
00000100
00000000
00000000
00000000
,  // measure 36
00001000
00000000
00000000
00000000
,  // measure 37
00001001
00000000
00000000
00000000
,  // measure 38
00000001
00000000
00000100
00000000
,  // measure 39
00000001
00000000
00000000
00000000
,  // measure 40
00001000
00000000
00000010
00000000
,  // measure 41
00001000
00000000
00000000
00000000
,  // measure 42
00000001
00000000
00001000
00000000
,  // measure 43
00000001
00000000
00000000
00000000
,  // measure 44
00001000
00000000
00000000
00000000
,  // measure 45
00000100
00000000
00010000
00000000
,  // measure 46
00001000
00000000
01000000
00000000
,  // measure 47
00010000
00000000
10000000
00000000
,  // measure 48
00200000
00000000
00300000
00000000
,  // measure 49
01000000
00000000
00000000
00000000
,  // measure 50
00010000
00000000
00000000
00000000
,  // measure 51
01000000
00000000
00000000
00000000
,  // measure 52
00001000
00000000
00000000
00000000
,  // measure 53
00011000
00000000
00000000
00000000
,  // measure 54
00010000
00000000
00000000
00000000
,  // measure 55
00000100
00000000
00000000
00000000
,  // measure 56
00000010
00000000
00000000
00000000
,  // measure 57
00000110
00000000
00000000
00000000
,  // measure 58
00001000
00000000
00000000
00000000
,  // measure 59
00000001
00000000
00000000
00000000
,  // measure 60
00000100
00000000
00000000
00000000
,  // measure 61
00000010
00000000
00000000
00000000
,  // measure 62
00010000
00000000
00000000
00000000
,  // measure 63
00001000
00000000
00000000
00000000
,  // measure 64
00100000
00000000
00000000
00000000
,  // measure 65
01100000
00000000
00000000
00000000
,  // measure 66
01000000
00000000
10000000
00000000
,  // measure 67
00010000
00000000
00000000
00000000
,  // measure 68
01000000
00000000
00001000
00000000
,  // measure 69
00010000
00000000
00000000
00000000
,  // measure 70
00000100
00000000
00001000
00000000
,  // measure 71
00000001
00000000
00000000
00000000
,  // measure 72
00000200
00000000
00000000
00000300
00000000
00000000
00000000
00000000
,  // measure 73
00000110
00000000
00000010
00000000
,  // measure 74
00001000
00000000
00000001
00000000
,  // measure 75
00000010
00000000
00000100
00000000
,  // measure 76
00000010
00000000
00000001
00000000
,  // measure 77
00001000
00000000
00000010
00000000
,  // measure 78
00010000
00000000
00001000
00000000
,  // measure 79
00100000
00000000
01000000
00000000
,  // measure 80
20000000
00000000
30000000
00000000
,  // measure 81
00010000
00000000
00000000
00000000
,  // measure 82
01000000
00000000
00000000
00000000
,  // measure 83
00001000
00000000
00000000
00000000
,  // measure 84
00010000
00000000
00000000
00000000
;

//---------------dance-double - ----------------
#NOTEDATA:;
#CHARTNAME:;
#CHARTHASH:1308233045;
#STEPSTYPE:dance-double;
#BANNER:;
#DESCRIPTION:;
#CHARTSTYLE:;
#DIFFICULTY:Easy;
#METER:5;
#METERF:0.000000;
#LASTSECONDHINT:144.000000;
#RADARVALUES:0.180233,0.256396,0.006783,0.000000,0.000000,186.000000,185.000000,1.000000,0.000000,0.000000,0.000000,0.000000,0.000000,0.000000,0.180233,0.256396,0.006783,0.000000,0.000000,186.000000,185.000000,1.000000,0.000000,0.000000,0.000000,0.000000,0.000000,0.000000;
#CREDIT:YOSEFU;
#NOTES:
// measure 0
00000000
00000000
00000000
00000000
,  // measure 1
00000000
00000000
00000000
00000000
,  // measure 2
00000000
00000000
00000000
00000000
,  // measure 3
00000000
00000000
00000000
00000000
,  // measure 4
00000000
00000000
00000000
00000000
,  // measure 5
00010000
00000000
00000000
00000000
,  // measure 6
00001000
00000000
00000000
00000000
,  // measure 7
01000000
00000000
00000000
00000000
,  // measure 8
00010000
00000000
00000000
00000000
,  // measure 9
10000000
00000000
01000000
00000000
,  // measure 10
00100000
00000000
01000000
00000000
,  // measure 11
10000000
00000000
00010000
00000000
,  // measure 12
01000000
00000000
00001000
00000000
,  // measure 13
00010000
00000000
00000100
00000010
,  // measure 14
00000001
00000000
00001000
00000010
,  // measure 15
00000100
00000000
00000001
00001000
,  // measure 16
00000100
00000000
00000010
00000010
,  // measure 17
00000100
00000000
00010000
00010000
,  // measure 18
00001000
00000000
01000000
01000000
,  // measure 19
00010000
00000000
10000000
00000000
,  // measure 20
01000000
01000000
00100000
00000000
,  // measure 21
00010000
00000000
10000000
00000000
,  // measure 22
00100000
00000000
01000000
00001000
,  // measure 23
00010000
00000000
00000100
00000010
,  // measure 24
00000001
00000000
00001000
00000010
,  // measure 25
00000100
00000000
00000001
00000000
,  // measure 26
00001000
00000000
00000100
00000000
,  // measure 27
00010000
00000000
00001000
00000000
,  // measure 28
01000000
00000000
00000000
00000000
,  // measure 29
01010000
00000000
00010000
00000000
,  // measure 30
10000000
00000000
00000000
00000000
,  // measure 31
01000000
00000000
00100000
00000000
,  // measure 32
00001000
00000000
00000000
00000000
,  // measure 33
00010000
00000000
00000010
00000000
,  // measure 34
00001000
00000000
00000000
00000000
,  // measure 35
00000001
00000000
00000010
00000000
,  // measure 36
00000100
00000000
00000000
00000000
,  // measure 37
00010000
00000000
00001000
00000000
,  // measure 38
01000000
00010000
10000000
00000000
,  // measure 39
00100000
00000000
01000000
00000000
,  // measure 40
00010000
10000000
01000000
00000000
,  // measure 41
00100000
00000000
00010000
00000000
,  // measure 42
01000000
00001000
00010000
00000000
,  // measure 43
00000100
00000000
00001000
00000000
,  // measure 44
00000001
00000000
00000000
00000000
,  // measure 45
00000100
00000010
00001000
00000000
,  // measure 46
00000010
00010000
00001000
00000000
,  // measure 47
00010000
00001000
00100000
00000000
,  // measure 48
01000000
10000000
00100000
00000000
,  // measure 49
00000000
01000000
00010000
01000000
,  // measure 50
00010000
10000000
00010000
10000000
,  // measure 51
00000000
01000000
00100000
01000000
,  // measure 52
10000000
00010000
01000000
00000000
,  // measure 53
00000000
00001000
00010000
00000100
,  // measure 54
00010000
00001000
00010000
00000010
,  // measure 55
00000000
00001000
00000010
00000100
,  // measure 56
00000001
00000000
00000000
00000000
,  // measure 57
00001000
00000000
00000100
00000000
,  // measure 58
00000010
00000000
00000000
00000000
,  // measure 59
00000001
00000000
00000100
00000000
,  // measure 60
00000010
00000000
00000000
00000000
,  // measure 61
00010000
00000000
00001000
00000000
,  // measure 62
00100000
00000000
00000000
00000000
,  // measure 63
00010000
00000000
10000000
00000000
,  // measure 64
00100000
00000000
01000000
00000000
,  // measure 65
00010000
10000000
00100000
00000000
,  // measure 66
01000000
00010000
10000000
00000000
,  // measure 67
01000000
00100000
00001000
00000000
,  // measure 68
00010000
00000010
00001000
00000000
,  // measure 69
00000010
00000100
00000001
00000000
,  // measure 70
00001000
00000100
00000010
00000000
,  // measure 71
00000001
00000000
00001000
00000000
,  // measure 72
00000010
00000000
00000100
00000000
,  // measure 73
00000001
00001000
00000100
00000010
,  // measure 74
00000100
00001000
00000001
00000100
,  // measure 75
00000010
00001000
00000010
00010000
,  // measure 76
00001000
00100000
00010000
00100000
,  // measure 77
00010000
10000000
00100000
01000000
,  // measure 78
00001000
00010000
00000100
00001000
,  // measure 79
00000010
00000000
00000100
00000000
,  // measure 80
00000001
00000000
00000000
00000000
,  // measure 81
00001000
00000000
00000000
00000000
,  // measure 82
00000100
00000000
00000000
00000000
,  // measure 83
00010000
00000000
00000000
00000000
,  // measure 84
00001000
00000000
00000000
00000000
;

//---------------dance-double - ----------------
#NOTEDATA:;
#CHARTNAME:;
#CHARTHASH:3043488799;
#STEPSTYPE:dance-double;
#BANNER:;
#DESCRIPTION:;
#CHARTSTYLE:;
#DIFFICULTY:Medium;
#METER:8;
#METERF:0.000000;
#LASTSECONDHINT:144.000000;
#RADARVALUES:0.284885,0.370350,0.067830,0.000000,0.016957,294.000000,284.000000,10.000000,0.000000,0.000000,0.000000,0.000000,0.000000,0.000000,0.284885,0.370350,0.067830,0.000000,0.016957,294.000000,284.000000,10.000000,0.000000,0.000000,0.000000,0.000000,0.000000,0.000000;
#CREDIT:YOSEFU;
#NOTES:
// measure 0
00000000
00000000
00000000
00000000
,  // measure 1
00000000
00000000
00000000
00000000
,  // measure 2
00000000
00000000
00000000
00000000
,  // measure 3
00000000
00000000
00000000
00000000
,  // measure 4
00000000
00000000
00000000
00000000
,  // measure 5
00010000
00000000
00001000
00000000
,  // measure 6
01000000
00000000
00000000
00000000
,  // measure 7
00010000
00000000
10000000
00000000
,  // measure 8
01000000
00000000
00100000
00001000
,  // measure 9
00011000
00000000
00010000
00000000
00000010
00001000
00000000
00001000
,  // measure 10
00000100
00000010
00000011
00001001
,  // measure 11
00001000
00000010
00000100
00000001
,  // measure 12
00001001
00000000
00000000
00000000
,  // measure 13
00001000
00000001
00000100
00000010
,  // measure 14
00010000
00001000
00100000
00010000
,  // measure 15
10000000
00100000
01000000
00010000
,  // measure 16
10000000
00000000
01000000
00000000
00100000
00000000
00010000
10000000
,  // measure 17
00010000
01000000
00001000
00010000
,  // measure 18
00000100
00000010
00000100
00001000
,  // measure 19
00000001
00000100
00000010
00001000
,  // measure 20
00000010
00010000
00001000
00100000
,  // measure 21
00110000
00010000
10000000
00100000
,  // measure 22
01000000
00001000
00010000
00000100
,  // measure 23
00001000
00000010
00000100
00001000
,  // measure 24
00000100
00000001
00000010
00001000
,  // measure 25
00010000
00001000
01000000
00010000
,  // measure 26
10000000
00100000
01000000
00010000
,  // measure 27
00100000
10000000
00100000
00010000
,  // measure 28
10000000
00000000
00010000
00000000
,  // measure 29
01010000
00000000
01000000
00000000
,  // measure 30
00001000
00010000
00000100
00000000
,  // measure 31
00000010
00000000
00000001
00000000
,  // measure 32
00001000
00000010
00000100
00000000
,  // measure 33
00000001
00000001
00001000
00001000
,  // measure 34
00000010
00000010
00010000
00010000
,  // measure 35
00001000
00001000
00100000
00100000
,  // measure 36
01000000
00000000
10000000
00000000
,  // measure 37
00010000
00000000
00010000
00000000
01000000
00010000
01000000
00000000
,  // measure 38
00010000
00010000
10000000
10000000
,  // measure 39
01000000
00000000
00000000
00100000
00010000
00000000
00100000
00000000
,  // measure 40
00001000
00010000
00000010
00000100
,  // measure 41
00000001
00000000
00000001
00000000
00001000
00000010
00001000
00000000
,  // measure 42
00000001
00000010
00000100
00010000
,  // measure 43
00001000
00000000
00000000
00100000
00010000
00000000
10000000
00000000
,  // measure 44
00100000
00000000
01000000
00000000
,  // measure 45
00010000
00000000
00000000
00000000
01000000
00000000
00000000
00000000
00001000
00000000
00000000
00010000
00000000
00000000
00000100
00000000
,  // measure 46
00000010
00000000
00000000
00000000
00001000
00000000
00000000
00000000
00000010
00000000
00000000
00000001
00000000
00000000
00001000
00000000
,  // measure 47
00000010
00000000
00000000
00000000
00010000
00000000
00000000
00000000
00001000
00000000
00000000
00000010
00000000
00000000
00001000
00000000
,  // measure 48
00010000
00000000
00100000
00000000
01000000
00000000
00010000
10000000
,  // measure 49
01000000
00100000
10000000
00100000
,  // measure 50
00010000
00000000
10000000
00000000
00100000
01000000
00001000
00000000
,  // measure 51
00010000
00001000
00000010
00000100
,  // measure 52
00001000
00000010
00000100
00000000
,  // measure 53
00000101
00000001
00001000
00000100
,  // measure 54
00000010
00000000
00001000
00000000
00010000
00001000
00100000
00000000
,  // measure 55
00010000
10000000
00100000
01000000
,  // measure 56
01010000
00000000
00000000
00000000
,  // measure 57
00010000
00000000
10000000
00000000
,  // measure 58
00100000
01000000
00001000
00000000
,  // measure 59
00010000
00000000
00000100
00000000
,  // measure 60
00000010
00000001
00001000
00000000
,  // measure 61
00000010
00000010
00000100
00000100
,  // measure 62
00000001
00000001
00001000
00001000
,  // measure 63
00000100
00000100
00010000
00010000
,  // measure 64
00001000
00000000
00010000
00000000
,  // measure 65
00011000
00000000
00001000
00000000
01000000
00010000
01000000
00000000
,  // measure 66
00010000
10000000
01000000
00100000
,  // measure 67
00010000
00000000
00000000
10000000
00100000
00000000
01000000
00000000
,  // measure 68
00001000
00010000
00000100
00000010
,  // measure 69
00000001
00000000
00001000
00000000
00000001
00000100
00000001
00000000
,  // measure 70
00001000
00000100
00000010
00000001
,  // measure 71
00000100
00000000
00000000
00000100
00000000
00000000
00000010
00000000
00000000
00000010
00000000
00000000
00001000
00000000
00000000
00000000
,  // measure 72
00000001
00000000
00000000
00000110
,  // measure 73
00001000
00000000
00001000
00000000
00000001
00000100
00000001
00000000
,  // measure 74
00001000
00000100
00010000
00001000
,  // measure 75
01000000
00000000
01000000
00000000
00010000
00000000
10000000
01000000
,  // measure 76
00000000
00000000
00100000
00010000
00000000
00000000
10000000
00100000
,  // measure 77
01000000
00000000
01000000
00000000
00010000
10000000
00010000
00000000
,  // measure 78
01000000
00001000
00010000
00000100
,  // measure 79
00000010
00000000
00000000
00000001
00001000
00000000
00000010
00000100
,  // measure 80
00000000
00000000
00000000
00000000
,  // measure 81
00000001
00000000
00000000
00000000
,  // measure 82
00001000
00000000
00000000
00000000
,  // measure 83
00000100
00000000
00000000
00000000
,  // measure 84
00010000
00000000
00000000
00000000
;

//---------------dance-double - ----------------
#NOTEDATA:;
#CHARTNAME:higer note count... still flat...;
#CHARTHASH:1126840542;
#STEPSTYPE:dance-double;
#BANNER:;
#DESCRIPTION:;
#CHARTSTYLE:;
#DIFFICULTY:Hard;
#METER:12;
#METERF:0.000000;
#LASTSECONDHINT:145.714294;
#RADARVALUES:0.468994,0.547725,0.176357,0.250970,0.135659,484.000000,458.000000,26.000000,37.000000,0.000000,0.000000,0.000000,0.000000,0.000000,0.468994,0.547725,0.176357,0.250970,0.135659,484.000000,458.000000,26.000000,37.000000,0.000000,0.000000,0.000000,0.000000,0.000000;
#CREDIT:YOSEFU;
#NOTES:
// measure 0
00000000
00000000
00000000
00000000
,  // measure 1
00000000
00000000
00000000
00000000
,  // measure 2
00000000
00000000
00000000
00000000
,  // measure 3
00000000
00000000
00000000
00000000
,  // measure 4
00000000
00000000
00000000
00000000
,  // measure 5
00010000
00000000
00010000
00000000
00001000
00001000
00010000
00001000
,  // measure 6
00010000
00010000
00001000
00000000
00010000
00010000
00001000
00000000
,  // measure 7
00010000
00000000
00000000
00001000
00001000
00001000
00010000
00001000
,  // measure 8
00001000
00001000
00001000
00001000
00001000
00000010
00000100
00000000
,  // measure 9
00001000
00000001
00000100
00000010
00001000
00000001
00000000
00000010
,  // measure 10
00000100
00000010
00000001
00000000
00001001
00000000
00001000
00000010
,  // measure 11
00000100
00000001
00000100
00000001
00001000
00000100
00001000
00000100
,  // measure 12
00000010
00000000
00000100
00001000
00000100
00001000
00000100
00010000
,  // measure 13
00002000
00000000
00103000
00000000
00001000
00100000
00010000
00100000
,  // measure 14
00002000
00000000
01003000
00000000
00010000
01000000
00100000
01000000
,  // measure 15
00020000
00230000
02300000
23000000
,  // measure 16
30010000
00000000
00000000
00000000
01010000
00000000
00000000
00000000
00001000
00010000
00000000
00000000
00000100
00010000
00000000
00000000
,  // measure 17
00000100
00000000
00000000
00000000
00000110
00000000
00000000
00000000
00000010
00000001
00000000
00000000
00001000
00000010
00000000
00000000
,  // measure 18
00000100
00000000
00000000
00000000
00000101
00000000
00000000
00000000
00000001
00001000
00000000
00000000
00000100
00001000
00000000
00000000
,  // measure 19
00000100
00000010
00000100
00001000
00000100
00000010
00000100
00010000
,  // measure 20
00001000
01000000
00010000
10000000
01000000
00000000
00200000
00000000
,  // measure 21
00310000
00000000
00000000
00010000
01000000
00000000
00000000
01000000
00100000
00000000
00000000
00100000
10000000
00000000
00010000
00000000
,  // measure 22
00200000
00000000
00000000
00000000
01000000
00000000
00000000
00000000
00310000
00000000
00000000
01000000
00000000
00000000
10000000
00000000
,  // measure 23
02000000
00000000
00000000
00000000
03200000
00000000
00000000
00000000
00310000
00000000
00000000
00100000
00000000
00000000
10000000
00000000
,  // measure 24
02000000
00000000
00000000
00000000
00100000
00000000
00000000
00000000
13000000
00000000
00000000
01000000
00000000
00000000
00010000
00000000
,  // measure 25
00001000
00000000
00000000
00000000
00010000
00000000
00000000
00000000
00000010
00000000
00000000
00001000
00000000
00000000
00000001
00000000
,  // measure 26
00000100
00000000
00000000
00000000
00000000
00000000
00000000
00000000
00000010
00000000
00000000
00001000
00000000
00000000
00000001
00000000
,  // measure 27
00000010
00000100
00000010
00000001
,  // measure 28
00001000
00000010
00000100
00000010
00002000
00000000
00000000
00000000
,  // measure 29
00003010
00000000
00000000
00010000
00001000
00000000
00010000
00001000
,  // measure 30
00010000
00000000
00001000
01000000
00010000
00000000
10000000
01000000
,  // measure 31
10000000
00000000
00000000
01000000
00100000
00000000
00010000
01000000
,  // measure 32
00010000
00000000
01000000
00000000
00001000
00000000
00010000
00000100
,  // measure 33
00000010
00000000
00000000
00000001
00000100
00000010
00001000
00000001
,  // measure 34
00000000
00000000
00000000
00000010
00000100
00000010
00000001
00002000
,  // measure 35
00000010
00000100
00000001
00000100
,  // measure 36
00003020
00000000
00000000
00000000
00000031
00000010
00001000
00000010
,  // measure 37
00010000
00000000
00000000
00010000
00001000
00000000
00000000
00001000
01000000
00000000
00010000
00000000
01000000
00000000
00100000
00000000
,  // measure 38
10000000
10000000
01000000
00000000
00100000
00100000
00010000
00000000
,  // measure 39
01000000
00000000
00100000
10000000
00100000
00010000
00001000
00010000
,  // measure 40
00000200
00000000
00001000
00000000
00000310
00001000
00000010
00000001
,  // measure 41
00000100
00000000
00000000
00000100
00000010
00000000
00000000
00000010
00010000
00000000
00001000
00000000
00010000
00000000
00001000
00000000
,  // measure 42
00100000
00100000
00010000
00000000
01000000
01000000
00100000
00000000
,  // measure 43
10000000
00000000
00000000
01000000
00100000
00001000
00010000
00000010
,  // measure 44
00000200
00000000
00000301
00001000
00000001
00001000
00000001
00001000
,  // measure 45
00000100
00000000
00000010
00000000
00001000
00000000
00010000
00000000
00100000
01000000
00000000
00010000
00000000
00000000
20000000
00000000
,  // measure 46
31000000
00000000
00010000
00000000
00001000
00000000
00000100
00000000
00000001
00001000
00000000
00000100
00000000
00000000
00000020
00000000
,  // measure 47
00000031
00000000
00000100
00000000
00001000
00000000
00010000
00000000
01000000
10000000
00000000
00100000
00000000
00000000
00020000
00000000
,  // measure 48
00130000
01000000
00001000
00010000
00000100
00000010
00000001
00001000
,  // measure 49
00000010
00000000
00000101
00000000
00001010
00001000
00000101
00000000
,  // measure 50
00001100
00000000
00011000
00001000
01000000
00010000
10000000
00000000
,  // measure 51
11000000
00000000
10010000
00000000
10100000
10000000
10010000
00000000
,  // measure 52
00110000
00000000
00011000
00010000
00020020
00000000
00000000
00000000
,  // measure 53
00030030
00001010
00000011
00001100
,  // measure 54
00000101
00000000
00001010
00000000
00010000
00001000
01000000
00000000
,  // measure 55
01010000
10100000
00110000
11000000
,  // measure 56
10010000
00000000
00010000
00010000
01000000
00010000
00010000
10000000
,  // measure 57
01000000
00000000
00000000
00100000
00010000
00000000
10000000
00100000
,  // measure 58
10000000
00000000
00000000
00010000
01000000
00000000
00001000
00010000
,  // measure 59
00001000
00000000
00000000
00010000
00000100
00000000
00000010
00000001
,  // measure 60
00000010
00000100
00001000
00000001
,  // measure 61
00000200
00000001
00000010
00001000
,  // measure 62
00010000
00001000
00000010
00000001
,  // measure 63
00000320
00001000
00000100
00000001
,  // measure 64
00000230
00000000
00000000
00000000
00001300
00010000
00100000
10000000
,  // measure 65
01000000
00000000
00000000
01000000
00100000
00000000
00000000
00100000
00010000
00000000
10000000
00000000
00100000
00000000
01000000
00000000
,  // measure 66
00001000
00001000
00010000
00000000
00000100
00000100
00001000
00000000
,  // measure 67
00000001
00000000
00000100
00001000
00000100
00000001
00000100
00001000
,  // measure 68
00020000
00000000
00001000
00000000
00130000
01000000
00010000
10000000
,  // measure 69
01000000
00000000
00000000
01000000
00100000
00000000
00000000
00100000
00010000
00000000
10000000
00000000
00100000
00000000
01000000
00000000
,  // measure 70
00001000
00001000
00010000
00000000
00100000
00100000
01000000
00000000
,  // measure 71
00010000
00000000
00010000
10000000
00000000
10000000
01000000
00000000
01000000
00100000
00000000
00100000
00001000
00000000
00020000
00000000
,  // measure 72
00000000
00000000
00000000
00030020
00000000
00000032
00000000
00000013
,  // measure 73
00001000
00000000
00000000
00001000
00000100
00000000
00000000
00000100
00000001
00000000
00000100
00000000
00001000
00000000
00000010
00000000
,  // measure 74
00000100
00001000
00010000
00000000
00100000
01000000
00010000
10000000
,  // measure 75
01000000
00000000
00000000
01000000
00010000
00000000
00000000
00010000
00001000
00000000
00000000
00001000
00000100
00000000
00000001
00000000
,  // measure 76
00000010
00000000
00001000
00000000
00000010
00000000
00000001
00000000
00000100
00000000
00000000
00001000
00010000
00000000
01000000
00000000
,  // measure 77
10000000
00000000
00000000
10000000
00100000
00000000
00000000
00100000
00010000
00000000
00001000
00000000
00000010
00000000
00000001
00000000
,  // measure 78
00000100
00000100
00001000
00000000
00010000
00010000
01000000
10000000
,  // measure 79
00100000
00000000
00000000
00010000
00100000
00000000
10000000
01000000
,  // measure 80
00200000
00000000
00000000
00300000
,  // measure 81
00002000
00000000
00023000
00000000
,  // measure 82
00030020
00000000
00002030
00000000
,  // measure 83
00003002
00000000
00000023
00000000
,  // measure 84
00000230
00000000
00020300
00000000
,  // measure 85
00030000
00000000
00000000
00000000
;
